osu file format v14

[General]
AudioFilename: audio.mp3
AudioLeadIn: 0
PreviewTime: 90861
Countdown: 0
SampleSet: Soft
StackLeniency: 0.3
Mode: 0
LetterboxInBreaks: 0
EpilepsyWarning: 1
WidescreenStoryboard: 1

[Editor]
Bookmarks: 12685,23979,35273,46567,57861,69155,80449,91743,103038,114332,125626,136920,148214,159508,160214,160479,170802,182096,193390,204685,215979,227273,238567,252685,266802,283743
DistanceSpacing: 0.4
BeatDivisor: 4
GridSize: 32
TimelineZoom: 2.799999

[Metadata]
Title:true DJ MAG top ranker's song Zenpen (katagiri Remix)
TitleUnicode:true DJ MAG top ranker's song 前編 (かたぎり Remix)
Artist:sabi
ArtistUnicode:sabi
Creator:Nathan
Version:Senseabel's Extra
Source:
Tags:toybot vikala sukinathan sing senseabel tommy phelps tommy_phelps im_a_fancy_lad fancy lad captin1 acylica scubdomino [keqing] yorushika ヨルシカ n-buna だから僕は音楽を辞めた that's thats why I gave up on music Dakara Boku wa Ongaku wo Yameta electronic japanese instrumental 飯島ゆん KEMOMIMI EDM SQUAD new game virtual riot alien pray for riddim chrono trigger wind must die! die onii-chan aire dodge fuski
BeatmapID:2849253
BeatmapSetID:1357624

[Difficulty]
HPDrainRate:5
CircleSize:4
OverallDifficulty:8
ApproachRate:9.3
SliderMultiplier:1.8
SliderTickRate:1

[Events]
//Background and Video events
0,0,"7f6d8060-19ad-4374-8335-b0e80496c274.jpg",0,0
//Break Periods
//Storyboard Layer 0 (Background)
Sprite,Background,Centre,"sb\square.png",0,0 F,0,136832,169390,1 M,0,136920,,320,240 S,0,136920,,1.971636
Sprite,Background,Centre,"sb\Animation_1\Ellipse27.png",0,0 C,0,92449,,79,101,191 M,22,92449,93413,116,173 F,0,92449,93413,1,0 S,22,92449,93413,0.1,0.3 R,22,92449,93413,0,1
Sprite,Background,Centre,"sb\Animation_1\Ellipse27.png",0,0 C,0,92802,,79,101,191 M,22,92802,93766,199,333 F,0,92802,93766,1,0 S,22,92802,93766,0.1,0.3 R,22,92802,93766,0,1
Sprite,Background,Centre,"sb\Animation_1\Ellipse27.png",0,0 C,0,93155,,79,101,191 M,22,93155,93855,305,279 F,0,93155,93855,1,0 S,22,93155,93855,0.1,0.3 R,22,93155,93855,0,1
Sprite,Background,Centre,"sb\Animation_1\Ellipse27.png",0,0 C,0,93244,,79,101,191 M,22,93244,93944,296,251 F,0,93244,93944,1,0 S,22,93244,93944,0.1,0.3 R,22,93244,93944,0,1
Sprite,Background,Centre,"sb\Animation_1\Ellipse27.png",0,0 C,0,93332,,79,101,191 M,22,93332,94032,298,221 F,0,93332,94032,1,0 S,22,93332,94032,0.1,0.3 R,22,93332,94032,0,1
Sprite,Background,Centre,"sb\Animation_1\Ellipse27.png",0,0 C,0,93420,,79,101,191 M,22,93420,94120,306,193 F,0,93420,94120,1,0 S,22,93420,94120,0.1,0.3 R,22,93420,94120,0,1
Sprite,Background,Centre,"sb\Animation_1\Ellipse27.png",0,0 C,0,93508,,79,101,191 M,22,93508,94472,319,174 F,0,93508,94472,1,0 S,22,93508,94472,0.1,0.3 R,22,93508,94472,0,1
Sprite,Background,Centre,"sb\Animation_1\Ellipse27.png",0,0 C,0,93861,,79,101,191 M,22,93861,94649,395,254 F,0,93861,94649,1,0 S,22,93861,94649,0.1,0.3 R,22,93861,94649,0,1
Sprite,Background,Centre,"sb\Animation_1\Ellipse27.png",0,0 C,0,94038,,79,101,191 M,22,94038,94826,540,169 F,0,94038,94826,1,0 S,22,94038,94826,0.1,0.3 R,22,94038,94826,0,1
Sprite,Background,Centre,"sb\Animation_1\Ellipse27.png",0,0 C,0,94214,,79,101,191 M,22,94214,95002,460,252 F,0,94214,95002,1,0 S,22,94214,95002,0.1,0.3 R,22,94214,95002,0,1
Sprite,Background,Centre,"sb\Animation_1\Ellipse27.png",0,0 C,0,94390,,79,101,191 M,22,94390,95090,247,229 F,0,94390,95090,1,0 S,22,94390,95090,0.1,0.3 R,22,94390,95090,0,1
Sprite,Background,Centre,"sb\Animation_1\Ellipse27.png",0,0 C,0,94479,,79,101,191 M,22,94479,95179,231,216 F,0,94479,95179,1,0 S,22,94479,95179,0.1,0.3 R,22,94479,95179,0,1
Sprite,Background,Centre,"sb\circle.png",0,0 C,0,80449,,255,255,255 M,21,80449,81425,508,145,320,240 F,0,80449,81425,0.2,0 S,21,80449,81425,0.4,0 R,0,80449,81425,0
Sprite,Background,Centre,"sb\circle.png",0,0 C,0,80714,,255,255,255 M,21,80714,81514,486,305,320,240 F,0,80714,81514,0.2,0 S,21,80714,81514,0.4,0 R,0,80714,81514,0
Sprite,Background,Centre,"sb\circle.png",0,0 C,0,80802,,255,255,255 M,21,80802,81866,497,293,320,240 F,0,80802,81866,0.2,0 S,21,80802,81866,0.4,0 R,0,80802,81866,0
Sprite,Background,Centre,"sb\circle.png",0,0 C,0,81155,,255,255,255 M,21,81155,81955,383,336,320,240 F,0,81155,81955,0.2,0 S,21,81155,81955,0.4,0 R,0,81155,81955,0
Sprite,Background,Centre,"sb\circle.png",0,0 C,0,81243,,255,255,255 M,21,81243,82043,366,333,320,240 F,0,81243,82043,0.2,0 S,21,81243,82043,0.4,0 R,0,81243,82043,0,-1
Sprite,Background,Centre,"sb\circle.png",0,0 C,0,81332,,255,255,255 M,21,81332,82132,349,330,320,240 F,0,81332,82132,0.2,0 S,21,81332,82132,0.4,0 R,0,81332,82132,0
Sprite,Background,Centre,"sb\circle.png",0,0 C,0,81420,,255,255,255 M,21,81420,82220,332,326,320,240 F,0,81420,82220,0.2,0 S,21,81420,82220,0.4,0 R,0,81420,82220,0
Sprite,Background,Centre,"sb\circle.png",0,0 C,0,81508,,255,255,255 M,21,81508,82484,298,355,320,240 F,0,81508,82484,0.2,0 S,21,81508,82484,0.4,0 R,0,81508,82484,0,-1
Sprite,Background,Centre,"sb\circle.png",0,0 C,0,81773,,255,255,255 M,21,81773,82573,221,214,320,240 F,0,81773,82573,0.2,0 S,21,81773,82573,0.4,0 R,0,81773,82573,0
Sprite,Background,Centre,"sb\circle.png",0,0 C,0,81861,,255,255,255 M,21,81861,82837,209,224,320,240 F,0,81861,82837,0.2,0 S,21,81861,82837,0.4,0 R,0,81861,82837,0,-1
Sprite,Background,Centre,"sb\circle.png",0,0 C,0,82126,,255,255,255 M,21,82126,82926,103,317,320,240 F,0,82126,82926,0.2,0 S,21,82126,82926,0.4,0 R,0,82126,82926,0,-1
Sprite,Background,Centre,"sb\circle.png",0,0 C,0,82214,,255,255,255 M,21,82214,83278,96,332,320,240 F,0,82214,83278,0.2,0 S,21,82214,83278,0.4,0 R,0,82214,83278,0,-1
Sprite,Background,Centre,"sb\circle.png",0,0 C,0,82567,,255,255,255 M,21,82567,83455,278,241,320,240 F,0,82567,83455,0.2,0 S,21,82567,83455,0.4,0 R,0,82567,83455,0
Sprite,Background,Centre,"sb\circle.png",0,0 C,0,82743,,255,255,255 M,21,82743,83631,323,99,320,240 F,0,82743,83631,0.2,0 S,21,82743,83631,0.4,0 R,0,82743,83631,0,-1
Sprite,Background,Centre,"sb\circle.png",0,0 C,0,82920,,255,255,255 M,21,82920,83720,350,206,320,240 F,0,82920,83720,0.2,0 S,21,82920,83720,0.4,0 R,0,82920,83720,0
Sprite,Background,Centre,"sb\circle.png",0,0 C,0,83008,,255,255,255 M,21,83008,83808,372,172,320,240 F,0,83008,83808,0.2,0 S,21,83008,83808,0.4,0 R,0,83008,83808,0,-1
Sprite,Background,Centre,"sb\circle.png",0,0 C,0,83096,,255,255,255 M,21,83096,83896,411,155,320,240 F,0,83096,83896,0.2,0 S,21,83096,83896,0.4,0 R,0,83096,83896,0
Sprite,Background,Centre,"sb\circle.png",0,0 C,0,83185,,255,255,255 M,21,83185,83985,454,153,320,240 F,0,83185,83985,0.2,0 S,21,83185,83985,0.4,0 R,0,83185,83985,0
Sprite,Background,Centre,"sb\circle.png",0,0 C,0,83273,,255,255,255 M,21,83273,84249,494,162,320,240 F,0,83273,84249,0.2,0 S,21,83273,84249,0.4,0 R,0,83273,84249,0
Sprite,Background,Centre,"sb\circle.png",0,0 C,0,83538,,255,255,255 M,21,83538,84338,576,282,320,240 F,0,83538,84338,0.2,0 S,21,83538,84338,0.4,0 R,0,83538,84338,0,-1
Sprite,Background,Centre,"sb\circle.png",0,0 C,0,83626,,255,255,255 M,21,83626,84690,560,299,320,240 F,0,83626,84690,0.2,0 S,21,83626,84690,0.4,0 R,0,83626,84690,0
Sprite,Background,Centre,"sb\circle.png",0,0 C,0,83979,,255,255,255 M,21,83979,84779,290,126,320,240 F,0,83979,84779,0.2,0 S,21,83979,84779,0.4,0 R,0,83979,84779,0
Sprite,Background,Centre,"sb\circle.png",0,0 C,0,84067,,255,255,255 M,21,84067,84867,302,166,320,240 F,0,84067,84867,0.2,0 S,21,84067,84867,0.4,0 R,0,84067,84867,0
Sprite,Background,Centre,"sb\circle.png",0,0 C,0,84155,,255,255,255 M,21,84155,84955,262,179,320,240 F,0,84155,84955,0.2,0 S,21,84155,84955,0.4,0 R,0,84155,84955,0,-1
Sprite,Background,Centre,"sb\circle.png",0,0 C,0,84243,,255,255,255 M,21,84243,85043,247,140,320,240 F,0,84243,85043,0.2,0 S,21,84243,85043,0.4,0 R,0,84243,85043,0
Sprite,Background,Centre,"sb\circle.png",0,0 C,0,84332,,255,255,255 M,21,84332,85220,247,140,320,240 F,0,84332,85220,0.2,0 S,21,84332,85220,0.4,0 R,0,84332,85220,0
Sprite,Background,Centre,"sb\circle.png",0,0 C,0,84508,,255,255,255 M,21,84508,85396,392,166,320,240 F,0,84508,85396,0.2,0 S,21,84508,85396,0.4,0 R,0,84508,85396,0
Sprite,Background,Centre,"sb\circle.png",0,0 C,0,84685,,255,255,255 M,21,84685,85661,311,330,320,240 F,0,84685,85661,0.2,0 S,21,84685,85661,0.4,0 R,0,84685,85661,0
Sprite,Background,Centre,"sb\circle.png",0,0 C,0,84949,,255,255,255 M,21,84949,85749,269,396,320,240 F,0,84949,85749,0.2,0 S,21,84949,85749,0.4,0 R,0,84949,85749,0
Sprite,Background,Centre,"sb\circle.png",0,0 C,0,85038,,255,255,255 M,21,85038,86102,311,330,320,240 F,0,85038,86102,0.2,0 S,21,85038,86102,0.4,0 R,0,85038,86102,0,-1
Sprite,Background,Centre,"sb\circle.png",0,0 C,0,85390,,255,255,255 M,21,85390,86454,392,165,320,240 F,0,85390,86454,0.2,0 S,21,85390,86454,0.4,0 R,0,85390,86454,0,-1
Sprite,Background,Centre,"sb\circle.png",0,0 C,0,85743,,255,255,255 M,21,85743,86631,337,253,320,240 F,0,85743,86631,0.2,0 S,21,85743,86631,0.4,0 R,0,85743,86631,0,-1
Sprite,Background,Centre,"sb\circle.png",0,0 C,0,85920,,255,255,255 M,21,85920,86808,422,432,320,240 F,0,85920,86808,0.2,0 S,21,85920,86808,0.4,0 R,0,85920,86808,0,-1
Sprite,Background,Centre,"sb\circle.png",0,0 C,0,86096,,255,255,255 M,21,86096,86896,257,339,320,240 F,0,86096,86896,0.2,0 S,21,86096,86896,0.4,0 R,0,86096,86896,0
Sprite,Background,Centre,"sb\circle.png",0,0 C,0,86273,,255,255,255 M,21,86273,87073,515,314,320,240 F,0,86273,87073,0.2,0 S,21,86273,87073,0.4,0 R,0,86273,87073,0
Sprite,Background,Centre,"sb\circle.png",0,0 C,0,86449,,255,255,255 M,21,86449,87249,257,339,320,240 F,0,86449,87249,0.2,0 S,21,86449,87249,0.4,0 R,0,86449,87249,0
Sprite,Background,Centre,"sb\circle.png",0,0 C,0,86626,,255,255,255 M,21,86626,87426,326,277,320,240 F,0,86626,87426,0.2,0 S,21,86626,87426,0.4,0 R,0,86626,87426,0,-1
Sprite,Background,Centre,"sb\circle.png",0,0 C,0,86714,,255,255,255 M,21,86714,87514,337,253,320,240 F,0,86714,87514,0.2,0 S,21,86714,87514,0.4,0 R,0,86714,87514,0,-1
Sprite,Background,Centre,"sb\circle.png",0,0 C,0,86802,,255,255,255 M,21,86802,87602,325,229,320,240 F,0,86802,87602,0.2,0 S,21,86802,87602,0.4,0 R,0,86802,87602,0,-1
Sprite,Background,Centre,"sb\circle.png",0,0 C,0,86979,,255,255,255 M,21,86979,87779,67,204,320,240 F,0,86979,87779,0.2,0 S,21,86979,87779,0.4,0 R,0,86979,87779,0
Sprite,Background,Centre,"sb\circle.png",0,0 C,0,87156,,255,255,255 M,21,87156,87956,325,229,320,240 F,0,87156,87956,0.2,0 S,21,87156,87956,0.4,0 R,0,87156,87956,0
Sprite,Background,Centre,"sb\circle.png",0,0 C,0,87332,,255,255,255 M,21,87332,88132,268,171,320,240 F,0,87332,88132,0.2,0 S,21,87332,88132,0.4,0 R,0,87332,88132,0
Sprite,Background,Centre,"sb\circle.png",0,0 C,0,87420,,255,255,255 M,21,87420,88220,257,147,320,240 F,0,87420,88220,0.2,0 S,21,87420,88220,0.4,0 R,0,87420,88220,0,-1
Sprite,Background,Centre,"sb\circle.png",0,0 C,0,87508,,255,255,255 M,21,87508,88308,269,123,320,240 F,0,87508,88308,0.2,0 S,21,87508,88308,0.4,0 R,0,87508,88308,0,-1
Sprite,Background,Centre,"sb\circle.png",0,0 C,0,87685,,255,255,255 M,21,87685,88485,527,98,320,240 F,0,87685,88485,0.2,0 S,21,87685,88485,0.4,0 R,0,87685,88485,0
Sprite,Background,Centre,"sb\circle.png",0,0 C,0,87862,,255,255,255 M,21,87862,88662,269,123,320,240 F,0,87862,88662,0.2,0 S,21,87862,88662,0.4,0 R,0,87862,88662,0
Sprite,Background,Centre,"sb\circle.png",0,0 C,0,88038,,255,255,255 M,21,88038,88838,366,116,320,240 F,0,88038,88838,0.2,0 S,21,88038,88838,0.4,0 R,0,88038,88838,0,-1
Sprite,Background,Centre,"sb\circle.png",0,0 C,0,88126,,255,255,255 M,21,88126,88926,377,140,320,240 F,0,88126,88926,0.2,0 S,21,88126,88926,0.4,0 R,0,88126,88926,0,-1
Sprite,Background,Centre,"sb\circle.png",0,0 C,0,88214,,255,255,255 M,21,88214,89014,365,164,320,240 F,0,88214,89014,0.2,0 S,21,88214,89014,0.4,0 R,0,88214,89014,0,-1
Sprite,Background,Centre,"sb\circle.png",0,0 C,0,88390,,255,255,255 M,21,88390,89190,113,98,320,240 F,0,88390,89190,0.2,0 S,21,88390,89190,0.4,0 R,0,88390,89190,0,-1
Sprite,Background,Centre,"sb\circle.png",0,0 C,0,88567,,255,255,255 M,21,88567,89367,311,63,320,240 F,0,88567,89367,0.2,0 S,21,88567,89367,0.4,0 R,0,88567,89367,0,-1
Sprite,Background,Centre,"sb\circle.png",0,0 C,0,88655,,255,255,255 M,21,88655,89455,278,88,320,240 F,0,88655,89455,0.2,0 S,21,88655,89455,0.4,0 R,0,88655,89455,0
Sprite,Background,Centre,"sb\circle.png",0,0 C,0,88743,,255,255,255 M,21,88743,89543,269,123,320,240 F,0,88743,89543,0.2,0 S,21,88743,89543,0.4,0 R,0,88743,89543,0
Sprite,Background,Centre,"sb\circle.png",0,0 C,0,88832,,255,255,255 M,21,88832,89632,283,163,320,240 F,0,88832,89632,0.2,0 S,21,88832,89632,0.4,0 R,0,88832,89632,0,-1
Sprite,Background,Centre,"sb\circle.png",0,0 C,0,88920,,255,255,255 M,21,88920,89720,319,185,320,240 F,0,88920,89720,0.2,0 S,21,88920,89720,0.4,0 R,0,88920,89720,0,-1
Sprite,Background,Centre,"sb\circle.png",0,0 C,0,89008,,255,255,255 M,21,89008,89808,352,210,320,240 F,0,89008,89808,0.2,0 S,21,89008,89808,0.4,0 R,0,89008,89808,0
Sprite,Background,Centre,"sb\circle.png",0,0 C,0,89096,,255,255,255 M,21,89096,89896,361,245,320,240 F,0,89096,89896,0.2,0 S,21,89096,89896,0.4,0 R,0,89096,89896,0
Sprite,Background,Centre,"sb\circle.png",0,0 C,0,89185,,255,255,255 M,21,89185,89985,347,285,320,240 F,0,89185,89985,0.2,0 S,21,89185,89985,0.4,0 R,0,89185,89985,0
Sprite,Background,Centre,"sb\circle.png",0,0 C,0,89273,,255,255,255 M,21,89273,90073,311,308,320,240 F,0,89273,90073,0.2,0 S,21,89273,90073,0.4,0 R,0,89273,90073,0
Sprite,Background,Centre,"sb\circle.png",0,0 C,0,89361,,255,255,255 M,21,89361,90161,284,340,320,240 F,0,89361,90161,0.2,0 S,21,89361,90161,0.4,0 R,0,89361,90161,0
Sprite,Background,Centre,"sb\circle.png",0,0 C,0,89449,,255,255,255 M,21,89449,90249,279,382,320,240 F,0,89449,90249,0.2,0 S,21,89449,90249,0.4,0 R,0,89449,90249,0
Sprite,Background,Centre,"sb\circle.png",0,0 C,0,89538,,255,255,255 M,21,89538,90338,302,417,320,240 F,0,89538,90338,0.2,0 S,21,89538,90338,0.4,0 R,0,89538,90338,0,-1
Sprite,Background,Centre,"sb\circle.png",0,0 C,0,89626,,255,255,255 M,21,89626,90426,343,409,320,240 F,0,89626,90426,0.2,0 S,21,89626,90426,0.4,0 R,0,89626,90426,0
Sprite,Background,Centre,"sb\circle.png",0,0 C,0,89714,,255,255,255 M,21,89714,90514,308,397,320,240 F,0,89714,90514,0.2,0 S,21,89714,90514,0.4,0 R,0,89714,90514,0
Sprite,Background,Centre,"sb\circle.png",0,0 C,0,89802,,255,255,255 M,21,89802,90602,336,428,320,240 F,0,89802,90602,0.2,0 S,21,89802,90602,0.4,0 R,0,89802,90602,0,-1
Sprite,Background,Centre,"sb\circle.png",0,0 C,0,89890,,255,255,255 M,21,89890,90690,329,393,320,240 F,0,89890,90690,0.2,0 S,21,89890,90690,0.4,0 R,0,89890,90690,0
Sprite,Background,Centre,"sb\circle.png",0,0 C,0,89978,,255,255,255 M,21,89978,90778,315,432,320,240 F,0,89978,90778,0.2,0 S,21,89978,90778,0.4,0 R,0,89978,90778,0,-1
Sprite,Background,Centre,"sb\circle.png",0,0 C,0,90067,,255,255,255 M,21,90067,90867,343,409,320,240 F,0,90067,90867,0.2,0 S,21,90067,90867,0.4,0 R,0,90067,90867,0
Sprite,Background,Centre,"sb\circle.png",0,0 C,0,90155,,255,255,255 M,21,90155,90955,302,416,320,240 F,0,90155,90955,0.2,0 S,21,90155,90955,0.4,0 R,0,90155,90955,0
Sprite,Background,Centre,"sb\circle.png",0,0 C,0,90243,,255,255,255 M,21,90243,91043,336,428,320,240 F,0,90243,91043,0.2,0 S,21,90243,91043,0.4,0 R,0,90243,91043,0,-1
Sprite,Background,Centre,"sb\Animation_1\Ellipse27.png",0,0 C,0,95273,,79,101,191 M,22,95273,96237,110,378 F,0,95273,96237,1,0 S,22,95273,96237,0.1,0.3 R,22,95273,96237,0,1
Sprite,Background,Centre,"sb\Animation_1\Ellipse27.png",0,0 C,0,95626,,79,101,191 M,22,95626,96326,185,276 F,0,95626,96326,1,0 S,22,95626,96326,0.1,0.3 R,22,95626,96326,0,1
Sprite,Background,Centre,"sb\Animation_1\Ellipse27.png",0,0 C,0,95714,,79,101,191 M,22,95714,96414,211,266 F,0,95714,96414,1,0 S,22,95714,96414,0.1,0.3 R,22,95714,96414,0,1
Sprite,Background,Centre,"sb\Animation_1\Ellipse27.png",0,0 C,0,95802,,79,101,191 M,22,95802,96502,238,260 F,0,95802,96502,1,0 S,22,95802,96502,0.1,0.3 R,22,95802,96502,0,1
Sprite,Background,Centre,"sb\Animation_1\Ellipse27.png",0,0 C,0,95890,,79,101,191 M,22,95890,96590,266,260 F,0,95890,96590,1,0 S,22,95890,96590,0.1,0.3 R,22,95890,96590,0,1
Sprite,Background,Centre,"sb\Animation_1\Ellipse27.png",0,0 C,0,95979,,79,101,191 M,22,95979,96943,288,267 F,0,95979,96943,1,0 S,22,95979,96943,0.1,0.3 R,22,95979,96943,0,1
Sprite,Background,Centre,"sb\Animation_1\Ellipse27.png",0,0 C,0,96332,,79,101,191 M,22,96332,97296,322,392 F,0,96332,97296,1,0 S,22,96332,97296,0.1,0.3 R,22,96332,97296,0,1
Sprite,Background,Centre,"sb\Animation_1\Ellipse27.png",0,0 C,0,96685,,79,101,191 M,22,96685,97429,462,296 F,0,96685,97429,1,0 S,22,96685,97429,0.1,0.3 R,22,96685,97429,0,1
Sprite,Background,Centre,"sb\Animation_1\Ellipse27.png",0,0 C,0,96773,,79,101,191 M,22,96773,97517,436,296 F,0,96773,97517,1,0 S,22,96773,97517,0.1,0.3 R,22,96773,97517,0,1
Sprite,Background,Centre,"sb\Animation_1\Ellipse27.png",0,0 C,0,96861,,79,101,191 M,22,96861,97605,428,325 F,0,96861,97605,1,0 S,22,96861,97605,0.1,0.3 R,22,96861,97605,0,1
Sprite,Background,Centre,"sb\Animation_1\Ellipse27.png",0,0 C,0,96949,,79,101,191 M,22,96949,97693,454,342 F,0,96949,97693,1,0 S,22,96949,97693,0.1,0.3 R,22,96949,97693,0,1
Sprite,Background,Centre,"sb\Animation_1\Ellipse27.png",0,0 C,0,97038,,79,101,191 M,22,97038,97914,472,322 F,0,97038,97914,1,0 S,22,97038,97914,0.1,0.3 R,22,97038,97914,0,1
Sprite,Background,Centre,"sb\Animation_1\Ellipse27.png",0,0 C,0,98096,,79,101,191 M,22,98096,99060,144,88 F,0,98096,99060,1,0 S,22,98096,99060,0.1,0.3 R,22,98096,99060,0,1
Sprite,Background,Centre,"sb\Animation_1\Ellipse27.png",0,0 C,0,98449,,79,101,191 M,22,98449,99413,261,113 F,0,98449,99413,1,0 S,22,98449,99413,0.1,0.3 R,22,98449,99413,0,1
Sprite,Background,Centre,"sb\Animation_1\Ellipse27.png",0,0 C,0,98802,,79,101,191 M,22,98802,99502,64,186 F,0,98802,99502,1,0 S,22,98802,99502,0.1,0.3 R,22,98802,99502,0,1
Sprite,Background,Centre,"sb\Animation_1\Ellipse27.png",0,0 C,0,98890,,79,101,191 M,22,98890,99590,90,197 F,0,98890,99590,1,0 S,22,98890,99590,0.1,0.3 R,22,98890,99590,0,1
Sprite,Background,Centre,"sb\Animation_1\Ellipse27.png",0,0 C,0,98979,,79,101,191 M,22,98979,99679,114,215 F,0,98979,99679,1,0 S,22,98979,99679,0.1,0.3 R,22,98979,99679,0,1
Sprite,Background,Centre,"sb\Animation_1\Ellipse27.png",0,0 C,0,99067,,79,101,191 M,22,99067,99767,135,234 F,0,99067,99767,1,0 S,22,99067,99767,0.1,0.3 R,22,99067,99767,0,1
Sprite,Background,Centre,"sb\Animation_1\Ellipse27.png",0,0 C,0,99155,,79,101,191 M,22,99155,100119,140,255 F,0,99155,100119,1,0 S,22,99155,100119,0.1,0.3 R,22,99155,100119,0,1
Sprite,Background,Centre,"sb\Animation_1\Ellipse27.png",0,0 C,0,99508,,79,101,191 M,22,99508,100296,245,356 F,0,99508,100296,1,0 S,22,99508,100296,0.1,0.3 R,22,99508,100296,0,1
Sprite,Background,Centre,"sb\Animation_1\Ellipse27.png",0,0 C,0,99685,,79,101,191 M,22,99685,100473,421,405 F,0,99685,100473,1,0 S,22,99685,100473,0.1,0.3 R,22,99685,100473,0,1
Sprite,Background,Centre,"sb\Animation_1\Ellipse27.png",0,0 C,0,99861,,79,101,191 M,22,99861,100649,275,223 F,0,99861,100649,1,0 S,22,99861,100649,0.1,0.3 R,22,99861,100649,0,1
Sprite,Background,Centre,"sb\Animation_1\Ellipse27.png",0,0 C,0,100038,,79,101,191 M,22,100038,100826,416,389 F,0,100038,100826,1,0 S,22,100038,100826,0.1,0.3 R,22,100038,100826,0,1
Sprite,Background,Centre,"sb\Animation_1\Ellipse27.png",0,0 C,0,100920,,79,101,191 M,22,100920,101884,268,365 F,0,100920,101884,1,0 S,22,100920,101884,0.1,0.3 R,22,100920,101884,0,1
Sprite,Background,Centre,"sb\Animation_1\Ellipse27.png",0,0 C,0,101273,,79,101,191 M,22,101273,102237,103,383 F,0,101273,102237,1,0 S,22,101273,102237,0.1,0.3 R,22,101273,102237,0,1
Sprite,Background,Centre,"sb\Animation_1\Ellipse27.png",0,0 C,0,101626,,79,101,191 M,22,101626,102326,100,248 F,0,101626,102326,1,0 S,22,101626,102326,0.1,0.3 R,22,101626,102326,0,1
Sprite,Background,Centre,"sb\Animation_1\Ellipse27.png",0,0 C,0,101714,,79,101,191 M,22,101714,102414,106,274 F,0,101714,102414,1,0 S,22,101714,102414,0.1,0.3 R,22,101714,102414,0,1
Sprite,Background,Centre,"sb\Animation_1\Ellipse27.png",0,0 C,0,101802,,79,101,191 M,22,101802,102502,90,264 F,0,101802,102502,1,0 S,22,101802,102502,0.1,0.3 R,22,101802,102502,0,1
Sprite,Background,Centre,"sb\Animation_1\Ellipse27.png",0,0 C,0,101890,,79,101,191 M,22,101890,102590,116,258 F,0,101890,102590,1,0 S,22,101890,102590,0.1,0.3 R,22,101890,102590,0,1
Sprite,Background,Centre,"sb\Animation_1\Ellipse27.png",0,0 C,0,101979,,79,101,191 M,22,101979,102679,140,264 F,0,101979,102679,1,0 S,22,101979,102679,0.1,0.3 R,22,101979,102679,0,1
Sprite,Background,Centre,"sb\Animation_1\Ellipse27.png",0,0 C,0,102067,,79,101,191 M,22,102067,102767,159,267 F,0,102067,102767,1,0 S,22,102067,102767,0.1,0.3 R,22,102067,102767,0,1
Sprite,Background,Centre,"sb\Animation_1\Ellipse27.png",0,0 C,0,102155,,79,101,191 M,22,102155,102855,190,254 F,0,102155,102855,1,0 S,22,102155,102855,0.1,0.3 R,22,102155,102855,0,1
Sprite,Background,Centre,"sb\Animation_1\Ellipse27.png",0,0 C,0,102243,,79,101,191 M,22,102243,102943,209,257 F,0,102243,102943,1,0 S,22,102243,102943,0.1,0.3 R,22,102243,102943,0,1
Sprite,Background,Centre,"sb\Animation_1\Ellipse27.png",0,0 C,0,102332,,79,101,191 M,22,102332,103032,236,280 F,0,102332,103032,1,0 S,22,102332,103032,0.1,0.3 R,22,102332,103032,0,1
Sprite,Background,Centre,"sb\Animation_1\Ellipse27.png",0,0 C,0,102420,,79,101,191 M,22,102420,103120,267,291 F,0,102420,103120,1,0 S,22,102420,103120,0.1,0.3 R,22,102420,103120,0,1
Sprite,Background,Centre,"sb\Animation_1\Ellipse27.png",0,0 C,0,102508,,79,101,191 M,22,102508,103208,300,288 F,0,102508,103208,1,0 S,22,102508,103208,0.1,0.3 R,22,102508,103208,0,1
Sprite,Background,Centre,"sb\Animation_1\Ellipse27.png",0,0 C,0,102596,,79,101,191 M,22,102596,103296,334,266 F,0,102596,103296,1,0 S,22,102596,103296,0.1,0.3 R,22,102596,103296,0,1
Sprite,Background,Centre,"sb\Animation_1\Ellipse27.png",0,0 C,0,102685,,79,101,191 M,22,102685,103385,344,219 F,0,102685,103385,1,0 S,22,102685,103385,0.1,0.3 R,22,102685,103385,0,1
Sprite,Background,Centre,"sb\Animation_1\Ellipse27.png",0,0 C,0,102773,,79,101,191 M,22,102773,103473,309,197 F,0,102773,103473,1,0 S,22,102773,103473,0.1,0.3 R,22,102773,103473,0,1
Sprite,Background,Centre,"sb\Animation_1\Ellipse27.png",0,0 C,0,102861,,79,101,191 M,22,102861,103605,342,174 F,0,102861,103605,1,0 S,22,102861,103605,0.1,0.3 R,22,102861,103605,0,1
Sprite,Background,Centre,"sb\Animation_1\Ellipse27.png",0,0 C,0,102949,,79,101,191 M,22,102949,103693,319,159 F,0,102949,103693,1,0 S,22,102949,103693,0.1,0.3 R,22,102949,103693,0,1
Sprite,Background,Centre,"sb\vectorsquare.png",0,0 C,0,103743,,79,101,191 M,22,103743,104707,567,298 F,0,103743,104707,1,0 S,22,103743,104707,0.15,0.35 R,22,103743,104707,0,1
Sprite,Background,Centre,"sb\vectorsquare.png",0,0 C,0,104096,,79,101,191 M,22,104096,104884,422,162 F,0,104096,104884,1,0 S,22,104096,104884,0.15,0.35 R,22,104096,104884,0,1
Sprite,Background,Centre,"sb\vectorsquare.png",0,0 C,0,104272,,79,101,191 M,22,104272,105060,332,66 F,0,104272,105060,1,0 S,22,104272,105060,0.15,0.35 R,22,104272,105060,0,1
Sprite,Background,Centre,"sb\vectorsquare.png",0,0 C,0,104449,,79,101,191 M,22,104449,105149,275,239 F,0,104449,105149,1,0 S,22,104449,105149,0.15,0.35 R,22,104449,105149,0,1
Sprite,Background,Centre,"sb\vectorsquare.png",0,0 C,0,104538,,79,101,191 M,22,104538,105238,254,241 F,0,104538,105238,1,0 S,22,104538,105238,0.15,0.35 R,22,104538,105238,0,1
Sprite,Background,Centre,"sb\vectorsquare.png",0,0 C,0,104626,,79,101,191 M,22,104626,105326,233,242 F,0,104626,105326,1,0 S,22,104626,105326,0.15,0.35 R,22,104626,105326,0,1
Sprite,Background,Centre,"sb\vectorsquare.png",0,0 C,0,104714,,79,101,191 M,22,104714,105414,212,243 F,0,104714,105414,1,0 S,22,104714,105414,0.15,0.35 R,22,104714,105414,0,1
Sprite,Background,Centre,"sb\vectorsquare.png",0,0 C,0,104802,,79,101,191 M,22,104802,105502,178,263 F,0,104802,105502,1,0 S,22,104802,105502,0.15,0.35 R,22,104802,105502,0,1
Sprite,Background,Centre,"sb\vectorsquare.png",0,0 C,0,104891,,79,101,191 M,22,104891,105591,157,261 F,0,104891,105591,1,0 S,22,104891,105591,0.15,0.35 R,22,104891,105591,0,1
Sprite,Background,Centre,"sb\vectorsquare.png",0,0 C,0,104979,,79,101,191 M,22,104979,105679,136,260 F,0,104979,105679,1,0 S,22,104979,105679,0.15,0.35 R,22,104979,105679,0,1
Sprite,Background,Centre,"sb\vectorsquare.png",0,0 C,0,105067,,79,101,191 M,22,105067,105767,115,259 F,0,105067,105767,1,0 S,22,105067,105767,0.15,0.35 R,22,105067,105767,0,1
Sprite,Background,Centre,"sb\vectorsquare.png",0,0 C,0,105155,,79,101,191 M,22,105155,105943,99,245 F,0,105155,105943,1,0 S,22,105155,105943,0.15,0.35 R,22,105155,105943,0,1
Sprite,Background,Centre,"sb\vectorsquare.png",0,0 C,0,105332,,79,101,191 M,22,105332,106120,193,169 F,0,105332,106120,1,0 S,22,105332,106120,0.15,0.35 R,22,105332,106120,0,1
Sprite,Background,Centre,"sb\vectorsquare.png",0,0 C,0,105508,,79,101,191 M,22,105508,106296,262,296 F,0,105508,106296,1,0 S,22,105508,106296,0.15,0.35 R,22,105508,106296,0,1
Sprite,Background,Centre,"sb\vectorsquare.png",0,0 C,0,105685,,79,101,191 M,22,105685,106473,356,372 F,0,105685,106473,1,0 S,22,105685,106473,0.15,0.35 R,22,105685,106473,0,1
Sprite,Background,Centre,"sb\vectorsquare.png",0,0 C,0,106567,,79,101,191 M,22,106567,107267,263,355 F,0,106567,107267,1,0 S,22,106567,107267,0.15,0.35 R,22,106567,107267,0,1
Sprite,Background,Centre,"sb\vectorsquare.png",0,0 C,0,106655,,79,101,191 M,22,106655,107355,239,338 F,0,106655,107355,1,0 S,22,106655,107355,0.15,0.35 R,22,106655,107355,0,1
Sprite,Background,Centre,"sb\vectorsquare.png",0,0 C,0,106743,,79,101,191 M,22,106743,107443,211,328 F,0,106743,107443,1,0 S,22,106743,107443,0.15,0.35 R,22,106743,107443,0,1
Sprite,Background,Centre,"sb\vectorsquare.png",0,0 C,0,106832,,79,101,191 M,22,106832,107532,181,327 F,0,106832,107532,1,0 S,22,106832,107532,0.15,0.35 R,22,106832,107532,0,1
Sprite,Background,Centre,"sb\vectorsquare.png",0,0 C,0,106920,,79,101,191 M,22,106920,107708,155,336 F,0,106920,107708,1,0 S,22,106920,107708,0.15,0.35 R,22,106920,107708,0,1
Sprite,Background,Centre,"sb\vectorsquare.png",0,0 C,0,107096,,79,101,191 M,22,107096,107884,187,213 F,0,107096,107884,1,0 S,22,107096,107884,0.15,0.35 R,22,107096,107884,0,1
Sprite,Background,Centre,"sb\vectorsquare.png",0,0 C,0,107273,,79,101,191 M,22,107273,107973,327,241 F,0,107273,107973,1,0 S,22,107273,107973,0.15,0.35 R,22,107273,107973,0,1
Sprite,Background,Centre,"sb\vectorsquare.png",0,0 C,0,107361,,79,101,191 M,22,107361,108061,301,227 F,0,107361,108061,1,0 S,22,107361,108061,0.15,0.35 R,22,107361,108061,0,1
Sprite,Background,Centre,"sb\vectorsquare.png",0,0 C,0,107449,,79,101,191 M,22,107449,108149,283,203 F,0,107449,108149,1,0 S,22,107449,108149,0.15,0.35 R,22,107449,108149,0,1
Sprite,Background,Centre,"sb\vectorsquare.png",0,0 C,0,107538,,79,101,191 M,22,107538,108238,276,175 F,0,107538,108238,1,0 S,22,107538,108238,0.15,0.35 R,22,107538,108238,0,1
Sprite,Background,Centre,"sb\vectorsquare.png",0,0 C,0,107626,,79,101,191 M,22,107626,108414,279,150 F,0,107626,108414,1,0 S,22,107626,108414,0.15,0.35 R,22,107626,108414,0,1
Sprite,Background,Centre,"sb\vectorsquare.png",0,0 C,0,107802,,79,101,191 M,22,107802,108590,259,301 F,0,107802,108590,1,0 S,22,107802,108590,0.15,0.35 R,22,107802,108590,0,1
Sprite,Background,Centre,"sb\vectorsquare.png",0,0 C,0,107979,,79,101,191 M,22,107979,108723,404,261 F,0,107979,108723,1,0 S,22,107979,108723,0.15,0.35 R,22,107979,108723,0,1
Sprite,Background,Centre,"sb\vectorsquare.png",0,0 C,0,108067,,79,101,191 M,22,108067,108811,422,235 F,0,108067,108811,1,0 S,22,108067,108811,0.15,0.35 R,22,108067,108811,0,1
Sprite,Background,Centre,"sb\vectorsquare.png",0,0 C,0,108155,,79,101,191 M,22,108155,108899,403,209 F,0,108155,108899,1,0 S,22,108155,108899,0.15,0.35 R,22,108155,108899,0,1
Sprite,Background,Centre,"sb\vectorsquare.png",0,0 C,0,108243,,79,101,191 M,22,108243,108987,373,218 F,0,108243,108987,1,0 S,22,108243,108987,0.15,0.35 R,22,108243,108987,0,1
Sprite,Background,Centre,"sb\vectorsquare.png",0,0 C,0,108332,,79,101,191 M,22,108332,109032,373,249 F,0,108332,109032,1,0 S,22,108332,109032,0.15,0.35 R,22,108332,109032,0,1
Sprite,Background,Centre,"sb\vectorsquare.png",0,0 C,0,108420,,79,101,191 M,22,108420,109120,407,228 F,0,108420,109120,1,0 S,22,108420,109120,0.15,0.35 R,22,108420,109120,0,1
Sprite,Background,Centre,"sb\vectorsquare.png",0,0 C,0,108508,,79,101,191 M,22,108508,109208,446,218 F,0,108508,109208,1,0 S,22,108508,109208,0.15,0.35 R,22,108508,109208,0,1
Sprite,Background,Centre,"sb\vectorsquare.png",0,0 C,0,108596,,79,101,191 M,22,108596,109296,486,221 F,0,108596,109296,1,0 S,22,108596,109296,0.15,0.35 R,22,108596,109296,0,1
Sprite,Background,Centre,"sb\vectorsquare.png",0,0 C,0,109390,,79,101,191 M,22,109390,110090,289,141 F,0,109390,110090,1,0 S,22,109390,110090,0.15,0.35 R,22,109390,110090,0,1
Sprite,Background,Centre,"sb\vectorsquare.png",0,0 C,0,109479,,79,101,191 M,22,109479,110179,266,125 F,0,109479,110179,1,0 S,22,109479,110179,0.15,0.35 R,22,109479,110179,0,1
Sprite,Background,Centre,"sb\vectorsquare.png",0,0 C,0,109567,,79,101,191 M,22,109567,110267,240,116 F,0,109567,110267,1,0 S,22,109567,110267,0.15,0.35 R,22,109567,110267,0,1
Sprite,Background,Centre,"sb\vectorsquare.png",0,0 C,0,109655,,79,101,191 M,22,109655,110355,213,117 F,0,109655,110355,1,0 S,22,109655,110355,0.15,0.35 R,22,109655,110355,0,1
Sprite,Background,Centre,"sb\vectorsquare.png",0,0 C,0,109743,,79,101,191 M,22,109743,110443,187,126 F,0,109743,110443,1,0 S,22,109743,110443,0.15,0.35 R,22,109743,110443,0,1
Sprite,Background,Centre,"sb\vectorsquare.png",0,0 C,0,109832,,79,101,191 M,22,109832,110532,159,145 F,0,109832,110532,1,0 S,22,109832,110532,0.15,0.35 R,22,109832,110532,0,1
Sprite,Background,Centre,"sb\vectorsquare.png",0,0 C,0,109920,,79,101,191 M,22,109920,110620,144,175 F,0,109920,110620,1,0 S,22,109920,110620,0.15,0.35 R,22,109920,110620,0,1
Sprite,Background,Centre,"sb\vectorsquare.png",0,0 C,0,110008,,79,101,191 M,22,110008,110708,141,208 F,0,110008,110708,1,0 S,22,110008,110708,0.15,0.35 R,22,110008,110708,0,1
Sprite,Background,Centre,"sb\vectorsquare.png",0,0 C,0,110096,,79,101,191 M,22,110096,110884,158,237 F,0,110096,110884,1,0 S,22,110096,110884,0.15,0.35 R,22,110096,110884,0,1
Sprite,Background,Centre,"sb\vectorsquare.png",0,0 C,0,110273,,79,101,191 M,22,110273,111061,305,309 F,0,110273,111061,1,0 S,22,110273,111061,0.15,0.35 R,22,110273,111061,0,1
Sprite,Background,Centre,"sb\vectorsquare.png",0,0 C,0,110449,,79,101,191 M,22,110449,111237,367,241 F,0,110449,111237,1,0 S,22,110449,111237,0.15,0.35 R,22,110449,111237,0,1
Sprite,Background,Centre,"sb\vectorsquare.png",0,0 C,0,110626,,79,101,191 M,22,110626,111414,514,169 F,0,110626,111414,1,0 S,22,110626,111414,0.15,0.35 R,22,110626,111414,0,1
Sprite,Background,Centre,"sb\vectorsquare.png",0,0 C,0,110802,,79,101,191 M,22,110802,111502,375,104 F,0,110802,111502,1,0 S,22,110802,111502,0.15,0.35 R,22,110802,111502,0,1
Sprite,Background,Centre,"sb\vectorsquare.png",0,0 C,0,110890,,79,101,191 M,22,110890,111590,365,136 F,0,110890,111590,1,0 S,22,110890,111590,0.15,0.35 R,22,110890,111590,0,1
Sprite,Background,Centre,"sb\vectorsquare.png",0,0 C,0,110979,,79,101,191 M,22,110979,111679,331,130 F,0,110979,111679,1,0 S,22,110979,111679,0.15,0.35 R,22,110979,111679,0,1
Sprite,Background,Centre,"sb\vectorsquare.png",0,0 C,0,111067,,79,101,191 M,22,111067,111767,340,97 F,0,111067,111767,1,0 S,22,111067,111767,0.15,0.35 R,22,111067,111767,0,1
Sprite,Background,Centre,"sb\vectorsquare.png",0,0 C,0,111155,,79,101,191 M,22,111155,111855,377,123 F,0,111155,111855,1,0 S,22,111155,111855,0.15,0.35 R,22,111155,111855,0,1
Sprite,Background,Centre,"sb\vectorsquare.png",0,0 C,0,111243,,79,101,191 M,22,111243,111943,347,139 F,0,111243,111943,1,0 S,22,111243,111943,0.15,0.35 R,22,111243,111943,0,1
Sprite,Background,Centre,"sb\vectorsquare.png",0,0 C,0,111332,,79,101,191 M,22,111332,112032,328,110 F,0,111332,112032,1,0 S,22,111332,112032,0.15,0.35 R,22,111332,112032,0,1
Sprite,Background,Centre,"sb\vectorsquare.png",0,0 C,0,111420,,79,101,191 M,22,111420,112120,357,93 F,0,111420,112120,1,0 S,22,111420,112120,0.15,0.35 R,22,111420,112120,0,1
Sprite,Background,Centre,"sb\vectorsquare.png",0,0 C,0,112214,,79,101,191 M,22,112214,113178,115,325 F,0,112214,113178,1,0 S,22,112214,113178,0.15,0.35 R,22,112214,113178,0,1
Sprite,Background,Centre,"sb\vectorsquare.png",0,0 C,0,112567,,79,101,191 M,22,112567,113355,197,411 F,0,112567,113355,1,0 S,22,112567,113355,0.15,0.35 R,22,112567,113355,0,1
Sprite,Background,Centre,"sb\vectorsquare.png",0,0 C,0,112743,,79,101,191 M,22,112743,113531,328,279 F,0,112743,113531,1,0 S,22,112743,113531,0.15,0.35 R,22,112743,113531,0,1
Sprite,Background,Centre,"sb\vectorsquare.png",0,0 C,0,112920,,79,101,191 M,22,112920,113620,520,410 F,0,112920,113620,1,0 S,22,112920,113620,0.15,0.35 R,22,112920,113620,0,1
Sprite,Background,Centre,"sb\vectorsquare.png",0,0 C,0,113008,,79,101,191 M,22,113008,113708,522,383 F,0,113008,113708,1,0 S,22,113008,113708,0.15,0.35 R,22,113008,113708,0,1
Sprite,Background,Centre,"sb\vectorsquare.png",0,0 C,0,113096,,79,101,191 M,22,113096,113796,523,356 F,0,113096,113796,1,0 S,22,113096,113796,0.15,0.35 R,22,113096,113796,0,1
Sprite,Background,Centre,"sb\vectorsquare.png",0,0 C,0,113184,,79,101,191 M,22,113184,113884,525,329 F,0,113184,113884,1,0 S,22,113184,113884,0.15,0.35 R,22,113184,113884,0,1
Sprite,Background,Centre,"sb\vectorsquare.png",0,0 C,0,113273,,79,101,191 M,22,113273,114061,525,295 F,0,113273,114061,1,0 S,22,113273,114061,0.15,0.35 R,22,113273,114061,0,1
Sprite,Background,Centre,"sb\vectorsquare.png",0,0 C,0,113449,,79,101,191 M,22,113449,114237,330,176 F,0,113449,114237,1,0 S,22,113449,114237,0.15,0.35 R,22,113449,114237,0,1
Sprite,Background,Centre,"sb\vectorsquare.png",0,0 C,0,113626,,79,101,191 M,22,113626,114370,544,86 F,0,113626,114370,1,0 S,22,113626,114370,0.15,0.35 R,22,113626,114370,0,1
Sprite,Background,Centre,"sb\vectorsquare.png",0,0 C,0,113714,,79,101,191 M,22,113714,114458,576,130 F,0,113714,114458,1,0 S,22,113714,114458,0.15,0.35 R,22,113714,114458,0,1
Sprite,Background,Centre,"sb\vectorsquare.png",0,0 C,0,113802,,79,101,191 M,22,113802,114546,531,163 F,0,113802,114546,1,0 S,22,113802,114546,0.15,0.35 R,22,113802,114546,0,1
Sprite,Background,Centre,"sb\vectorsquare.png",0,0 C,0,113890,,79,101,191 M,22,113890,114634,500,117 F,0,113890,114634,1,0 S,22,113890,114634,0.15,0.35 R,22,113890,114634,0,1
Sprite,Background,Centre,"sb\vectorsquare.png",0,0 C,0,113979,,79,101,191 M,22,113979,114723,538,124 F,0,113979,114723,1,0 S,22,113979,114723,0.15,0.35 R,22,113979,114723,0,1
Sprite,Background,Centre,"sb\vectorsquare.png",0,0 C,0,114067,,79,101,191 M,22,114067,114811,538,123 F,0,114067,114811,1,0 S,22,114067,114811,0.15,0.35 R,22,114067,114811,0,1
Sprite,Background,Centre,"sb\vectorsquare.png",0,0 C,0,114155,,79,101,191 M,22,114155,114899,538,123 F,0,114155,114899,1,0 S,22,114155,114899,0.15,0.35 R,22,114155,114899,0,1
Sprite,Background,Centre,"sb\vectorsquare.png",0,0 C,0,114243,,79,101,191 M,22,114243,114987,537,124 F,0,114243,114987,1,0 S,22,114243,114987,0.15,0.35 R,22,114243,114987,0,1
Sprite,Background,Centre,"sb\a.png",0,0 C,0,148214,,255,189,189 M,22,148214,149390,544,260 F,0,148214,149390,0.5,0 S,22,148214,149390,0.8,1 R,22,148214,149390,0.09049731
Sprite,Background,Centre,"sb\a.png",0,0 C,0,148567,,255,189,189 M,22,148567,149567,271,314 F,0,148567,149567,0.5,0 S,22,148567,149567,0.8,1 R,22,148567,149567,0.1269301
Sprite,Background,Centre,"sb\a.png",0,0 C,0,148743,,255,189,189 M,22,148743,149743,494,385 F,0,148743,149743,0.5,0 S,22,148743,149743,0.8,1 R,22,148743,149743,0.1072091
Sprite,Background,Centre,"sb\a.png",0,0 C,0,148832,,255,189,189 M,22,148832,149832,508,363 F,0,148832,149832,0.5,0 S,22,148832,149832,0.8,1 R,22,148832,149832,0.02326448
Sprite,Background,Centre,"sb\a.png",0,0 C,0,148920,,255,189,189 M,22,148920,150096,533,348 F,0,148920,150096,0.5,0 S,22,148920,150096,0.8,1 R,22,148920,150096,-0.1175867
Sprite,Background,Centre,"sb\a.png",0,0 C,0,149185,,255,189,189 M,22,149185,150185,349,261 F,0,149185,150185,0.5,0 S,22,149185,150185,0.8,1 R,22,149185,150185,0.02355392
Sprite,Background,Centre,"sb\a.png",0,0 C,0,149273,,255,189,189 M,22,149273,150361,331,267 F,0,149273,150361,0.5,0 S,22,149273,150361,0.8,1 R,22,149273,150361,0.1624108
Sprite,Background,Centre,"sb\a.png",0,0 C,0,149449,,255,189,189 M,22,149449,150537,186,253 F,0,149449,150537,0.5,0 S,22,149449,150537,0.8,1 R,22,149449,150537,-0.02312885
Sprite,Background,Centre,"sb\a.png",0,0 C,0,149626,,255,189,189 M,22,149626,150802,242,435 F,0,149626,150802,0.5,0 S,22,149626,150802,0.8,1 R,22,149626,150802,0.1910199
Sprite,Background,Centre,"sb\a.png",0,0 C,0,149979,,255,189,189 M,22,149979,150979,434,249 F,0,149979,150979,0.5,0 S,22,149979,150979,0.8,1 R,22,149979,150979,-0.09051821
Sprite,Background,Centre,"sb\a.png",0,0 C,0,150156,,255,189,189 M,22,150156,151156,493,412 F,0,150156,151156,0.5,0 S,22,150156,151156,0.8,1 R,22,150156,151156,-0.08323748
Sprite,Background,Centre,"sb\a.png",0,0 C,0,150332,,255,189,189 M,22,150332,151332,434,249 F,0,150332,151332,0.5,0 S,22,150332,151332,0.8,1 R,22,150332,151332,-0.01307412
Sprite,Background,Centre,"sb\a.png",0,0 C,0,150508,,255,189,189 M,22,150508,151508,517,276 F,0,150508,151508,0.5,0 S,22,150508,151508,0.8,1 R,22,150508,151508,0.05306363
Sprite,Background,Centre,"sb\a.png",0,0 C,0,150596,,255,189,189 M,22,150596,151596,539,265 F,0,150596,151596,0.5,0 S,22,150596,151596,0.8,1 R,22,150596,151596,-0.01219525
Sprite,Background,Centre,"sb\a.png",0,0 C,0,150685,,255,189,189 M,22,150685,151685,557,248 F,0,150685,151685,0.5,0 S,22,150685,151685,0.8,1 R,22,150685,151685,0.1928605
Sprite,Background,Centre,"sb\a.png",0,0 C,0,150773,,255,189,189 M,22,150773,151773,566,224 F,0,150773,151773,0.5,0 S,22,150773,151773,0.8,1 R,22,150773,151773,-0.1878532
Sprite,Background,Centre,"sb\a.png",0,0 C,0,150861,,255,189,189 M,22,150861,151861,568,199 F,0,150861,151861,0.5,0 S,22,150861,151861,0.8,1 R,22,150861,151861,0.1449481
Sprite,Background,Centre,"sb\a.png",0,0 C,0,150949,,255,189,189 M,22,150949,151949,562,174 F,0,150949,151949,0.5,0 S,22,150949,151949,0.8,1 R,22,150949,151949,0.1981388
Sprite,Background,Centre,"sb\a.png",0,0 C,0,151038,,255,189,189 M,22,151038,152214,548,153 F,0,151038,152214,0.5,0 S,22,151038,152214,0.8,1 R,22,151038,152214,0.07087246
Sprite,Background,Centre,"sb\a.png",0,0 C,0,151390,,255,189,189 M,22,151390,152390,256,220 F,0,151390,152390,0.5,0 S,22,151390,152390,0.8,1 R,22,151390,152390,-0.07416328
Sprite,Background,Centre,"sb\a.png",0,0 C,0,151567,,255,189,189 M,22,151567,152567,352,122 F,0,151567,152567,0.5,0 S,22,151567,152567,0.8,1 R,22,151567,152567,0.1267632
Sprite,Background,Centre,"sb\a.png",0,0 C,0,151655,,255,189,189 M,22,151655,152655,338,103 F,0,151655,152655,0.5,0 S,22,151655,152655,0.8,1 R,22,151655,152655,0.1392207
Sprite,Background,Centre,"sb\a.png",0,0 C,0,151743,,255,189,189 M,22,151743,152743,335,79 F,0,151743,152743,0.5,0 S,22,151743,152743,0.8,1 R,22,151743,152743,0.1967609
Sprite,Background,Centre,"sb\a.png",0,0 C,0,151920,,255,189,189 M,22,151920,153008,390,191 F,0,151920,153008,0.5,0 S,22,151920,153008,0.8,1 R,22,151920,153008,-0.1869499
Sprite,Background,Centre,"sb\a.png",0,0 C,0,152096,,255,189,189 M,22,152096,153096,447,336 F,0,152096,153096,0.5,0 S,22,152096,153096,0.8,1 R,22,152096,153096,0.0799768
Sprite,Background,Centre,"sb\a.png",0,0 C,0,152185,,255,189,189 M,22,152185,153185,431,319 F,0,152185,153185,0.5,0 S,22,152185,153185,0.8,1 R,22,152185,153185,0.01051366
Sprite,Background,Centre,"sb\a.png",0,0 C,0,152273,,255,189,189 M,22,152273,153273,407,310 F,0,152273,153273,0.5,0 S,22,152273,153273,0.8,1 R,22,152273,153273,0.1736075
Sprite,Background,Centre,"sb\a.png",0,0 C,0,152361,,255,189,189 M,22,152361,153361,382,306 F,0,152361,153361,0.5,0 S,22,152361,153361,0.8,1 R,22,152361,153361,0.07504811
Sprite,Background,Centre,"sb\a.png",0,0 C,0,152449,,255,189,189 M,22,152449,153449,356,307 F,0,152449,153449,0.5,0 S,22,152449,153449,0.8,1 R,22,152449,153449,0.01872617
Sprite,Background,Centre,"sb\a.png",0,0 C,0,152538,,255,189,189 M,22,152538,153626,321,323 F,0,152538,153626,0.5,0 S,22,152538,153626,0.8,1 R,22,152538,153626,-0.167556
Sprite,Background,Centre,"sb\a.png",0,0 C,0,152714,,255,189,189 M,22,152714,153714,71,353 F,0,152714,153714,0.5,0 S,22,152714,153714,0.8,1 R,22,152714,153714,-0.1251502
Sprite,Background,Centre,"sb\a.png",0,0 C,0,152803,,255,189,189 M,22,152803,153891,75,390 F,0,152803,153891,0.5,0 S,22,152803,153891,0.8,1 R,22,152803,153891,-0.01866913
Sprite,Background,Centre,"sb\a.png",0,0 C,0,152979,,255,189,189 M,22,152979,153979,209,295 F,0,152979,153979,0.5,0 S,22,152979,153979,0.8,1 R,22,152979,153979,-0.08113126
Sprite,Background,Centre,"sb\a.png",0,0 C,0,153067,,255,189,189 M,22,153067,154155,190,327 F,0,153067,154155,0.5,0 S,22,153067,154155,0.8,1 R,22,153067,154155,0.1954175
Sprite,Background,Centre,"sb\a.png",0,0 C,0,153332,,255,189,189 M,22,153332,154332,115,260 F,0,153332,154332,0.5,0 S,22,153332,154332,0.8,1 R,22,153332,154332,0.05707899
Sprite,Background,Centre,"sb\a.png",0,0 C,0,153420,,255,189,189 M,22,153420,154420,96,234 F,0,153420,154420,0.5,0 S,22,153420,154420,0.8,1 R,22,153420,154420,0.1051854
Sprite,Background,Centre,"sb\a.png",0,0 C,0,153508,,255,189,189 M,22,153508,154508,101,202 F,0,153508,154508,0.5,0 S,22,153508,154508,0.8,1 R,22,153508,154508,-0.1878423
Sprite,Background,Centre,"sb\a.png",0,0 C,0,153596,,255,189,189 M,22,153596,154596,114,189 F,0,153596,154596,0.5,0 S,22,153596,154596,0.8,1 R,22,153596,154596,-0.0475982
Sprite,Background,Centre,"sb\a.png",0,0 C,0,153685,,255,189,189 M,22,153685,154685,125,173 F,0,153685,154685,0.5,0 S,22,153685,154685,0.8,1 R,22,153685,154685,-0.06274326
Sprite,Background,Centre,"sb\a.png",0,0 C,0,153773,,255,189,189 M,22,153773,154773,125,147 F,0,153773,154773,0.5,0 S,22,153773,154773,0.8,1 R,22,153773,154773,0.1829821
Sprite,Background,Centre,"sb\a.png",0,0 C,0,153861,,255,189,189 M,22,153861,155037,108,120 F,0,153861,155037,0.5,0 S,22,153861,155037,0.8,1 R,22,153861,155037,0.002051685
Sprite,Background,Centre,"sb\a.png",0,0 C,0,154214,,255,189,189 M,22,154214,155390,355,65 F,0,154214,155390,0.5,0 S,22,154214,155390,0.8,1 R,22,154214,155390,0.08638901
Sprite,Background,Centre,"sb\a.png",0,0 C,0,154567,,255,189,189 M,22,154567,155567,311,209 F,0,154567,155567,0.5,0 S,22,154567,155567,0.8,1 R,22,154567,155567,-0.1524169
Sprite,Background,Centre,"sb\a.png",0,0 C,0,154743,,255,189,189 M,22,154743,155743,456,164 F,0,154743,155743,0.5,0 S,22,154743,155743,0.8,1 R,22,154743,155743,-0.09061941
Sprite,Background,Centre,"sb\a.png",0,0 C,0,154832,,255,189,189 M,22,154832,155832,470,151 F,0,154832,155832,0.5,0 S,22,154832,155832,0.8,1 R,22,154832,155832,0.1628392
Sprite,Background,Centre,"sb\a.png",0,0 C,0,154920,,255,189,189 M,22,154920,155920,477,133 F,0,154920,155920,0.5,0 S,22,154920,155920,0.8,1 R,22,154920,155920,0.1179062
Sprite,Background,Centre,"sb\a.png",0,0 C,0,155096,,255,189,189 M,22,155096,156096,540,244 F,0,155096,156096,0.5,0 S,22,155096,156096,0.8,1 R,22,155096,156096,-0.06513587
Sprite,Background,Centre,"sb\a.png",0,0 C,0,155185,,255,189,189 M,22,155185,156185,513,234 F,0,155185,156185,0.5,0 S,22,155185,156185,0.8,1 R,22,155185,156185,-0.01711649
Sprite,Background,Centre,"sb\a.png",0,0 C,0,155273,,255,189,189 M,22,155273,156537,483,241 F,0,155273,156537,0.5,0 S,22,155273,156537,0.8,1 R,22,155273,156537,-0.14127
Sprite,Background,Centre,"sb\a.png",0,0 C,0,155626,,255,189,189 M,22,155626,156626,290,224 F,0,155626,156626,0.5,0 S,22,155626,156626,0.8,1 R,22,155626,156626,-0.1114741
Sprite,Background,Centre,"sb\a.png",0,0 C,0,155802,,255,189,189 M,22,155802,156802,211,379 F,0,155802,156802,0.5,0 S,22,155802,156802,0.8,1 R,22,155802,156802,-0.03597069
Sprite,Background,Centre,"sb\a.png",0,0 C,0,155979,,255,189,189 M,22,155979,157155,79,264 F,0,155979,157155,0.5,0 S,22,155979,157155,0.8,1 R,22,155979,157155,0.08749073
Sprite,Background,Centre,"sb\a.png",0,0 C,0,156243,,255,189,189 M,22,156243,157243,217,209 F,0,156243,157243,0.5,0 S,22,156243,157243,0.8,1 R,22,156243,157243,0.04793211
Sprite,Background,Centre,"sb\a.png",0,0 C,0,156332,,255,189,189 M,22,156332,157420,202,188 F,0,156332,157420,0.5,0 S,22,156332,157420,0.8,1 R,22,156332,157420,-0.004812779
Sprite,Background,Centre,"sb\a.png",0,0 C,0,156508,,255,189,189 M,22,156508,157596,115,352 F,0,156508,157596,0.5,0 S,22,156508,157596,0.8,1 R,22,156508,157596,-0.1220346
Sprite,Background,Centre,"sb\a.png",0,0 C,0,156685,,255,189,189 M,22,156685,157685,166,440 F,0,156685,157685,0.5,0 S,22,156685,157685,0.8,1 R,22,156685,157685,0.1512766
Sprite,Background,Centre,"sb\a.png",0,0 C,0,156861,,255,189,189 M,22,156861,157861,330,415 F,0,156861,157861,0.5,0 S,22,156861,157861,0.8,1 R,22,156861,157861,0.1301693
Sprite,Background,Centre,"sb\a.png",0,0 C,0,157038,,255,189,189 M,22,157038,158038,302,242 F,0,157038,158038,0.5,0 S,22,157038,158038,0.8,1 R,22,157038,158038,0.094159
Sprite,Background,Centre,"sb\a.png",0,0 C,0,157214,,255,189,189 M,22,157214,158214,242,373 F,0,157214,158214,0.5,0 S,22,157214,158214,0.8,1 R,22,157214,158214,0.1432877
Sprite,Background,Centre,"sb\a.png",0,0 C,0,157302,,255,189,189 M,22,157302,158302,266,353 F,0,157302,158302,0.5,0 S,22,157302,158302,0.8,1 R,22,157302,158302,0.07189961
Sprite,Background,Centre,"sb\a.png",0,0 C,0,157390,,255,189,189 M,22,157390,158390,296,346 F,0,157390,158390,0.5,0 S,22,157390,158390,0.8,1 R,22,157390,158390,0.04994645
Sprite,Background,Centre,"sb\a.png",0,0 C,0,157567,,255,189,189 M,22,157567,158655,472,364 F,0,157567,158655,0.5,0 S,22,157567,158655,0.8,1 R,22,157567,158655,-0.1126373
Sprite,Background,Centre,"sb\a.png",0,0 C,0,157743,,255,189,189 M,22,157743,158831,417,302 F,0,157743,158831,0.5,0 S,22,157743,158831,0.8,1 R,22,157743,158831,0.158145
Sprite,Background,Centre,"sb\a.png",0,0 C,0,157920,,255,189,189 M,22,157920,158920,503,155 F,0,157920,158920,0.5,0 S,22,157920,158920,0.8,1 R,22,157920,158920,0.1585759
Sprite,Background,Centre,"sb\a.png",0,0 C,0,158008,,255,189,189 M,22,158008,159008,490,141 F,0,158008,159008,0.5,0 S,22,158008,159008,0.8,1 R,22,158008,159008,-0.1653681
Sprite,Background,Centre,"sb\Animation_1\Ellipse27.png",0,0 C,0,182802,,79,101,191 M,22,182802,183766,142,134 F,0,182802,183766,1,0 S,22,182802,183766,0.1,0.3 R,22,182802,183766,0,1
Sprite,Background,Centre,"sb\Animation_1\Ellipse27.png",0,0 C,0,183155,,79,101,191 M,22,183155,184119,300,156 F,0,183155,184119,1,0 S,22,183155,184119,0.1,0.3 R,22,183155,184119,0,1
Sprite,Background,Centre,"sb\Animation_1\Ellipse27.png",0,0 C,0,183508,,79,101,191 M,22,183508,184208,474,105 F,0,183508,184208,1,0 S,22,183508,184208,0.1,0.3 R,22,183508,184208,0,1
Sprite,Background,Centre,"sb\Animation_1\Ellipse27.png",0,0 C,0,183597,,79,101,191 M,22,183597,184297,454,83 F,0,183597,184297,1,0 S,22,183597,184297,0.1,0.3 R,22,183597,184297,0,1
Sprite,Background,Centre,"sb\Animation_1\Ellipse27.png",0,0 C,0,183685,,79,101,191 M,22,183685,184385,427,71 F,0,183685,184385,1,0 S,22,183685,184385,0.1,0.3 R,22,183685,184385,0,1
Sprite,Background,Centre,"sb\Animation_1\Ellipse27.png",0,0 C,0,183773,,79,101,191 M,22,183773,184473,398,65 F,0,183773,184473,1,0 S,22,183773,184473,0.1,0.3 R,22,183773,184473,0,1
Sprite,Background,Centre,"sb\Animation_1\Ellipse27.png",0,0 C,0,183861,,79,101,191 M,22,183861,184825,371,68 F,0,183861,184825,1,0 S,22,183861,184825,0.1,0.3 R,22,183861,184825,0,1
Sprite,Background,Centre,"sb\Animation_1\Ellipse27.png",0,0 C,0,184214,,79,101,191 M,22,184214,185002,397,255 F,0,184214,185002,1,0 S,22,184214,185002,0.1,0.3 R,22,184214,185002,0,1
Sprite,Background,Centre,"sb\Animation_1\Ellipse27.png",0,0 C,0,184390,,79,101,191 M,22,184390,185178,524,165 F,0,184390,185178,1,0 S,22,184390,185178,0.1,0.3 R,22,184390,185178,0,1
Sprite,Background,Centre,"sb\Animation_1\Ellipse27.png",0,0 C,0,184567,,79,101,191 M,22,184567,185355,514,88 F,0,184567,185355,1,0 S,22,184567,185355,0.1,0.3 R,22,184567,185355,0,1
Sprite,Background,Centre,"sb\Animation_1\Ellipse27.png",0,0 C,0,184743,,79,101,191 M,22,184743,185531,474,245 F,0,184743,185531,1,0 S,22,184743,185531,0.1,0.3 R,22,184743,185531,0,1
Sprite,Background,Centre,"sb\Animation_1\Ellipse27.png",0,0 C,0,185626,,79,101,191 M,22,185626,186590,194,406 F,0,185626,186590,1,0 S,22,185626,186590,0.1,0.3 R,22,185626,186590,0,1
Sprite,Background,Centre,"sb\Animation_1\Ellipse27.png",0,0 C,0,185979,,79,101,191 M,22,185979,186767,281,279 F,0,185979,186767,1,0 S,22,185979,186767,0.1,0.3 R,22,185979,186767,0,1
Sprite,Background,Centre,"sb\Animation_1\Ellipse27.png",0,0 C,0,186155,,79,101,191 M,22,186155,186943,138,222 F,0,186155,186943,1,0 S,22,186155,186943,0.1,0.3 R,22,186155,186943,0,1
Sprite,Background,Centre,"sb\Animation_1\Ellipse27.png",0,0 C,0,186332,,79,101,191 M,22,186332,187032,180,309 F,0,186332,187032,1,0 S,22,186332,187032,0.1,0.3 R,22,186332,187032,0,1
Sprite,Background,Centre,"sb\Animation_1\Ellipse27.png",0,0 C,0,186420,,79,101,191 M,22,186420,187120,153,310 F,0,186420,187120,1,0 S,22,186420,187120,0.1,0.3 R,22,186420,187120,0,1
Sprite,Background,Centre,"sb\Animation_1\Ellipse27.png",0,0 C,0,186508,,79,101,191 M,22,186508,187208,130,321 F,0,186508,187208,1,0 S,22,186508,187208,0.1,0.3 R,22,186508,187208,0,1
Sprite,Background,Centre,"sb\Animation_1\Ellipse27.png",0,0 C,0,186596,,79,101,191 M,22,186596,187296,105,329 F,0,186596,187296,1,0 S,22,186596,187296,0.1,0.3 R,22,186596,187296,0,1
Sprite,Background,Centre,"sb\Animation_1\Ellipse27.png",0,0 C,0,186685,,79,101,191 M,22,186685,187473,96,355 F,0,186685,187473,1,0 S,22,186685,187473,0.1,0.3 R,22,186685,187473,0,1
Sprite,Background,Centre,"sb\Animation_1\Ellipse27.png",0,0 C,0,186861,,79,101,191 M,22,186861,187561,297,391 F,0,186861,187561,1,0 S,22,186861,187561,0.1,0.3 R,22,186861,187561,0,1
Sprite,Background,Centre,"sb\Animation_1\Ellipse27.png",0,0 C,0,186949,,79,101,191 M,22,186949,187649,287,365 F,0,186949,187649,1,0 S,22,186949,187649,0.1,0.3 R,22,186949,187649,0,1
Sprite,Background,Centre,"sb\Animation_1\Ellipse27.png",0,0 C,0,187038,,79,101,191 M,22,187038,187914,294,343 F,0,187038,187914,1,0 S,22,187038,187914,0.1,0.3 R,22,187038,187914,0,1
Sprite,Background,Centre,"sb\Animation_1\Ellipse27.png",0,0 C,0,187302,,79,101,191 M,22,187302,188002,372,396 F,0,187302,188002,1,0 S,22,187302,188002,0.1,0.3 R,22,187302,188002,0,1
Sprite,Background,Centre,"sb\Animation_1\Ellipse27.png",0,0 C,0,187390,,79,101,191 M,22,187390,188266,355,390 F,0,187390,188266,1,0 S,22,187390,188266,0.1,0.3 R,22,187390,188266,0,1
Sprite,Background,Centre,"sb\Animation_1\Ellipse27.png",0,0 C,0,187655,,79,101,191 M,22,187655,188355,366,197 F,0,187655,188355,1,0 S,22,187655,188355,0.1,0.3 R,22,187655,188355,0,1
Sprite,Background,Centre,"sb\Animation_1\Ellipse27.png",0,0 C,0,188449,,79,101,191 M,22,188449,189413,93,282 F,0,188449,189413,1,0 S,22,188449,189413,0.1,0.3 R,22,188449,189413,0,1
Sprite,Background,Centre,"sb\Animation_1\Ellipse27.png",0,0 C,0,188802,,79,101,191 M,22,188802,189766,235,234 F,0,188802,189766,1,0 S,22,188802,189766,0.1,0.3 R,22,188802,189766,0,1
Sprite,Background,Centre,"sb\Animation_1\Ellipse27.png",0,0 C,0,189155,,79,101,191 M,22,189155,189855,159,412 F,0,189155,189855,1,0 S,22,189155,189855,0.1,0.3 R,22,189155,189855,0,1
Sprite,Background,Centre,"sb\Animation_1\Ellipse27.png",0,0 C,0,189243,,79,101,191 M,22,189243,189943,176,389 F,0,189243,189943,1,0 S,22,189243,189943,0.1,0.3 R,22,189243,189943,0,1
Sprite,Background,Centre,"sb\Animation_1\Ellipse27.png",0,0 C,0,189332,,79,101,191 M,22,189332,190032,199,371 F,0,189332,190032,1,0 S,22,189332,190032,0.1,0.3 R,22,189332,190032,0,1
Sprite,Background,Centre,"sb\Animation_1\Ellipse27.png",0,0 C,0,189420,,79,101,191 M,22,189420,190120,223,360 F,0,189420,190120,1,0 S,22,189420,190120,0.1,0.3 R,22,189420,190120,0,1
Sprite,Background,Centre,"sb\Animation_1\Ellipse27.png",0,0 C,0,189508,,79,101,191 M,22,189508,190472,245,356 F,0,189508,190472,1,0 S,22,189508,190472,0.1,0.3 R,22,189508,190472,0,1
Sprite,Background,Centre,"sb\Animation_1\Ellipse27.png",0,0 C,0,189861,,79,101,191 M,22,189861,190649,225,233 F,0,189861,190649,1,0 S,22,189861,190649,0.1,0.3 R,22,189861,190649,0,1
Sprite,Background,Centre,"sb\Animation_1\Ellipse27.png",0,0 C,0,190038,,79,101,191 M,22,190038,190826,331,81 F,0,190038,190826,1,0 S,22,190038,190826,0.1,0.3 R,22,190038,190826,0,1
Sprite,Background,Centre,"sb\Animation_1\Ellipse27.png",0,0 C,0,190214,,79,101,191 M,22,190214,191002,394,67 F,0,190214,191002,1,0 S,22,190214,191002,0.1,0.3 R,22,190214,191002,0,1
Sprite,Background,Centre,"sb\Animation_1\Ellipse27.png",0,0 C,0,190390,,79,101,191 M,22,190390,191178,245,170 F,0,190390,191178,1,0 S,22,190390,191178,0.1,0.3 R,22,190390,191178,0,1
Sprite,Background,Centre,"sb\Animation_1\Ellipse27.png",0,0 C,0,191273,,79,101,191 M,22,191273,192237,332,91 F,0,191273,192237,1,0 S,22,191273,192237,0.1,0.3 R,22,191273,192237,0,1
Sprite,Background,Centre,"sb\Animation_1\Ellipse27.png",0,0 C,0,191626,,79,101,191 M,22,191626,192590,452,139 F,0,191626,192590,1,0 S,22,191626,192590,0.1,0.3 R,22,191626,192590,0,1
Sprite,Background,Centre,"sb\Animation_1\Ellipse27.png",0,0 C,0,191979,,79,101,191 M,22,191979,192679,376,257 F,0,191979,192679,1,0 S,22,191979,192679,0.1,0.3 R,22,191979,192679,0,1
Sprite,Background,Centre,"sb\Animation_1\Ellipse27.png",0,0 C,0,192067,,79,101,191 M,22,192067,192855,360,269 F,0,192067,192855,1,0 S,22,192067,192855,0.1,0.3 R,22,192067,192855,0,1
Sprite,Background,Centre,"sb\Animation_1\Ellipse27.png",0,0 C,0,192243,,79,101,191 M,22,192243,192943,287,381 F,0,192243,192943,1,0 S,22,192243,192943,0.1,0.3 R,22,192243,192943,0,1
Sprite,Background,Centre,"sb\Animation_1\Ellipse27.png",0,0 C,0,192331,,79,101,191 M,22,192331,193119,303,394 F,0,192331,193119,1,0 S,22,192331,193119,0.1,0.3 R,22,192331,193119,0,1
Sprite,Background,Centre,"sb\Animation_1\Ellipse27.png",0,0 C,0,192508,,79,101,191 M,22,192508,193296,222,227 F,0,192508,193296,1,0 S,22,192508,193296,0.1,0.3 R,22,192508,193296,0,1
Sprite,Background,Centre,"sb\Animation_1\Ellipse27.png",0,0 C,0,192685,,79,101,191 M,22,192685,193429,366,148 F,0,192685,193429,1,0 S,22,192685,193429,0.1,0.3 R,22,192685,193429,0,1
Sprite,Background,Centre,"sb\Animation_1\Ellipse27.png",0,0 C,0,192773,,79,101,191 M,22,192773,193517,353,156 F,0,192773,193517,1,0 S,22,192773,193517,0.1,0.3 R,22,192773,193517,0,1
Sprite,Background,Centre,"sb\Animation_1\Ellipse27.png",0,0 C,0,192861,,79,101,191 M,22,192861,193605,362,169 F,0,192861,193605,1,0 S,22,192861,193605,0.1,0.3 R,22,192861,193605,0,1
Sprite,Background,Centre,"sb\Animation_1\Ellipse27.png",0,0 C,0,192949,,79,101,191 M,22,192949,193693,375,161 F,0,192949,193693,1,0 S,22,192949,193693,0.1,0.3 R,22,192949,193693,0,1
Sprite,Background,Centre,"sb\Animation_1\Ellipse27.png",0,0 C,0,193038,,79,101,191 M,22,193038,193738,395,133 F,0,193038,193738,1,0 S,22,193038,193738,0.1,0.3 R,22,193038,193738,0,1
Sprite,Background,Centre,"sb\Animation_1\Ellipse27.png",0,0 C,0,193126,,79,101,191 M,22,193126,193826,438,115 F,0,193126,193826,1,0 S,22,193126,193826,0.1,0.3 R,22,193126,193826,0,1
Sprite,Background,Centre,"sb\Animation_1\Ellipse27.png",0,0 C,0,193214,,79,101,191 M,22,193214,193914,487,122 F,0,193214,193914,1,0 S,22,193214,193914,0.1,0.3 R,22,193214,193914,0,1
Sprite,Background,Centre,"sb\Animation_1\Ellipse27.png",0,0 C,0,193302,,79,101,191 M,22,193302,194002,523,152 F,0,193302,194002,1,0 S,22,193302,194002,0.1,0.3 R,22,193302,194002,0,1
Sprite,Background,Centre,"sb\vectorsquare.png",0,0 C,0,194096,,79,101,191 M,22,194096,195060,206,188 F,0,194096,195060,1,0 S,22,194096,195060,0.15,0.35 R,22,194096,195060,0,1
Sprite,Background,Centre,"sb\vectorsquare.png",0,0 C,0,194449,,79,101,191 M,22,194449,195149,125,309 F,0,194449,195149,1,0 S,22,194449,195149,0.15,0.35 R,22,194449,195149,0,1
Sprite,Background,Centre,"sb\vectorsquare.png",0,0 C,0,194538,,79,101,191 M,22,194538,195238,105,304 F,0,194538,195238,1,0 S,22,194538,195238,0.15,0.35 R,22,194538,195238,0,1
Sprite,Background,Centre,"sb\vectorsquare.png",0,0 C,0,194626,,79,101,191 M,22,194626,195414,86,311 F,0,194626,195414,1,0 S,22,194626,195414,0.15,0.35 R,22,194626,195414,0,1
Sprite,Background,Centre,"sb\vectorsquare.png",0,0 C,0,194802,,79,101,191 M,22,194802,195766,197,435 F,0,194802,195766,1,0 S,22,194802,195766,0.15,0.35 R,22,194802,195766,0,1
Sprite,Background,Centre,"sb\vectorsquare.png",0,0 C,0,195155,,79,101,191 M,22,195155,195855,308,349 F,0,195155,195855,1,0 S,22,195155,195855,0.15,0.35 R,22,195155,195855,0,1
Sprite,Background,Centre,"sb\vectorsquare.png",0,0 C,0,195244,,79,101,191 M,22,195244,195944,338,333 F,0,195244,195944,1,0 S,22,195244,195944,0.15,0.35 R,22,195244,195944,0,1
Sprite,Background,Centre,"sb\vectorsquare.png",0,0 C,0,195332,,79,101,191 M,22,195332,196032,360,307 F,0,195332,196032,1,0 S,22,195332,196032,0.15,0.35 R,22,195332,196032,0,1
Sprite,Background,Centre,"sb\vectorsquare.png",0,0 C,0,195420,,79,101,191 M,22,195420,196120,369,274 F,0,195420,196120,1,0 S,22,195420,196120,0.15,0.35 R,22,195420,196120,0,1
Sprite,Background,Centre,"sb\vectorsquare.png",0,0 C,0,195508,,79,101,191 M,22,195508,196296,358,242 F,0,195508,196296,1,0 S,22,195508,196296,0.15,0.35 R,22,195508,196296,0,1
Sprite,Background,Centre,"sb\vectorsquare.png",0,0 C,0,195685,,79,101,191 M,22,195685,196473,281,82 F,0,195685,196473,1,0 S,22,195685,196473,0.15,0.35 R,22,195685,196473,0,1
Sprite,Background,Centre,"sb\vectorsquare.png",0,0 C,0,195861,,79,101,191 M,22,195861,196649,440,211 F,0,195861,196649,1,0 S,22,195861,196649,0.15,0.35 R,22,195861,196649,0,1
Sprite,Background,Centre,"sb\vectorsquare.png",0,0 C,0,196038,,79,101,191 M,22,196038,196826,517,214 F,0,196038,196826,1,0 S,22,196038,196826,0.15,0.35 R,22,196038,196826,0,1
Sprite,Background,Centre,"sb\vectorsquare.png",0,0 C,0,199743,,79,101,191 M,22,199743,200531,309,393 F,0,199743,200531,1,0 S,22,199743,200531,0.15,0.35 R,22,199743,200531,0,1
Sprite,Background,Centre,"sb\vectorsquare.png",0,0 C,0,199920,,79,101,191 M,22,199920,200708,155,378 F,0,199920,200708,1,0 S,22,199920,200708,0.15,0.35 R,22,199920,200708,0,1
Sprite,Background,Centre,"sb\vectorsquare.png",0,0 C,0,200096,,79,101,191 M,22,200096,200796,118,246 F,0,200096,200796,1,0 S,22,200096,200796,0.15,0.35 R,22,200096,200796,0,1
Sprite,Background,Centre,"sb\vectorsquare.png",0,0 C,0,200185,,79,101,191 M,22,200185,200885,144,239 F,0,200185,200885,1,0 S,22,200185,200885,0.15,0.35 R,22,200185,200885,0,1
Sprite,Background,Centre,"sb\vectorsquare.png",0,0 C,0,200273,,79,101,191 M,22,200273,200973,170,233 F,0,200273,200973,1,0 S,22,200273,200973,0.15,0.35 R,22,200273,200973,0,1
Sprite,Background,Centre,"sb\vectorsquare.png",0,0 C,0,200361,,79,101,191 M,22,200361,201061,196,228 F,0,200361,201061,1,0 S,22,200361,201061,0.15,0.35 R,22,200361,201061,0,1
Sprite,Background,Centre,"sb\vectorsquare.png",0,0 C,0,200449,,79,101,191 M,22,200449,201325,226,253 F,0,200449,201325,1,0 S,22,200449,201325,0.15,0.35 R,22,200449,201325,0,1
Sprite,Background,Centre,"sb\vectorsquare.png",0,0 C,0,200714,,79,101,191 M,22,200714,201414,399,192 F,0,200714,201414,1,0 S,22,200714,201414,0.15,0.35 R,22,200714,201414,0,1
Sprite,Background,Centre,"sb\vectorsquare.png",0,0 C,0,200802,,79,101,191 M,22,200802,201590,412,176 F,0,200802,201590,1,0 S,22,200802,201590,0.15,0.35 R,22,200802,201590,0,1
Sprite,Background,Centre,"sb\vectorsquare.png",0,0 C,0,200979,,79,101,191 M,22,200979,201767,399,90 F,0,200979,201767,1,0 S,22,200979,201767,0.15,0.35 R,22,200979,201767,0,1
Sprite,Background,Centre,"sb\vectorsquare.png",0,0 C,0,201155,,79,101,191 M,22,201155,201943,456,289 F,0,201155,201943,1,0 S,22,201155,201943,0.15,0.35 R,22,201155,201943,0,1
Sprite,Background,Centre,"sb\vectorsquare.png",0,0 C,0,201332,,79,101,191 M,22,201332,202120,403,418 F,0,201332,202120,1,0 S,22,201332,202120,0.15,0.35 R,22,201332,202120,0,1
Sprite,Background,Centre,"sb\vectorsquare.png",0,0 C,0,201508,,79,101,191 M,22,201508,202296,401,430 F,0,201508,202296,1,0 S,22,201508,202296,0.15,0.35 R,22,201508,202296,0,1
Sprite,Background,Centre,"sb\vectorsquare.png",0,0 C,0,201685,,79,101,191 M,22,201685,202473,450,300 F,0,201685,202473,1,0 S,22,201685,202473,0.15,0.35 R,22,201685,202473,0,1
Sprite,Background,Centre,"sb\vectorsquare.png",0,0 C,0,202567,,79,101,191 M,22,202567,203531,81,259 F,0,202567,203531,1,0 S,22,202567,203531,0.15,0.35 R,22,202567,203531,0,1
Sprite,Background,Centre,"sb\vectorsquare.png",0,0 C,0,202920,,79,101,191 M,22,202920,203708,77,162 F,0,202920,203708,1,0 S,22,202920,203708,0.15,0.35 R,22,202920,203708,0,1
Sprite,Background,Centre,"sb\vectorsquare.png",0,0 C,0,203096,,79,101,191 M,22,203096,203796,309,219 F,0,203096,203796,1,0 S,22,203096,203796,0.15,0.35 R,22,203096,203796,0,1
Sprite,Background,Centre,"sb\vectorsquare.png",0,0 C,0,203185,,79,101,191 M,22,203185,203885,328,226 F,0,203185,203885,1,0 S,22,203185,203885,0.15,0.35 R,22,203185,203885,0,1
Sprite,Background,Centre,"sb\vectorsquare.png",0,0 C,0,203273,,79,101,191 M,22,203273,204208,347,220 F,0,203273,204208,1,0 S,22,203273,204208,0.15,0.35 R,22,203273,204208,0,1
Sprite,Background,Centre,"sb\vectorsquare.png",0,0 C,0,203626,,79,101,191 M,22,203626,204326,450,411 F,0,203626,204326,1,0 S,22,203626,204326,0.15,0.35 R,22,203626,204326,0,1
Sprite,Background,Centre,"sb\vectorsquare.png",0,0 C,0,203743,,79,101,191 M,22,203743,204443,411,372 F,0,203743,204443,1,0 S,22,203743,204443,0.15,0.35 R,22,203743,204443,0,1
Sprite,Background,Centre,"sb\vectorsquare.png",0,0 C,0,203861,,79,101,191 M,22,203861,204561,357,374 F,0,203861,204561,1,0 S,22,203861,204561,0.15,0.35 R,22,203861,204561,0,1
Sprite,Background,Centre,"sb\vectorsquare.png",0,0 C,0,203979,,79,101,191 M,22,203979,204737,290,416 F,0,203979,204737,1,0 S,22,203979,204737,0.15,0.35 R,22,203979,204737,0,1
Sprite,Background,Centre,"sb\vectorsquare.png",0,0 C,0,204097,,79,101,191 M,22,204097,204855,224,377 F,0,204097,204855,1,0 S,22,204097,204855,0.15,0.35 R,22,204097,204855,0,1
Sprite,Background,Centre,"sb\vectorsquare.png",0,0 C,0,204214,,79,101,191 M,22,204214,204972,286,339 F,0,204214,204972,1,0 S,22,204214,204972,0.15,0.35 R,22,204214,204972,0,1
Sprite,Background,Centre,"sb\vectorsquare.png",0,0 C,0,196920,,79,101,191 M,22,196920,197708,202,399 F,0,196920,197708,1,0 S,22,196920,197708,0.15,0.35 R,22,196920,197708,0,1
Sprite,Background,Centre,"sb\vectorsquare.png",0,0 C,0,197096,,79,101,191 M,22,197096,197884,339,321 F,0,197096,197884,1,0 S,22,197096,197884,0.15,0.35 R,22,197096,197884,0,1
Sprite,Background,Centre,"sb\vectorsquare.png",0,0 C,0,197273,,79,101,191 M,22,197273,198061,316,233 F,0,197273,198061,1,0 S,22,197273,198061,0.15,0.35 R,22,197273,198061,0,1
Sprite,Background,Centre,"sb\vectorsquare.png",0,0 C,0,197449,,79,101,191 M,22,197449,198193,285,94 F,0,197449,198193,1,0 S,22,197449,198193,0.15,0.35 R,22,197449,198193,0,1
Sprite,Background,Centre,"sb\vectorsquare.png",0,0 C,0,197538,,79,101,191 M,22,197538,198282,271,89 F,0,197538,198282,1,0 S,22,197538,198282,0.15,0.35 R,22,197538,198282,0,1
Sprite,Background,Centre,"sb\vectorsquare.png",0,0 C,0,197626,,79,101,191 M,22,197626,198414,273,96 F,0,197626,198414,1,0 S,22,197626,198414,0.15,0.35 R,22,197626,198414,0,1
Sprite,Background,Centre,"sb\vectorsquare.png",0,0 C,0,197802,,79,101,191 M,22,197802,198590,161,169 F,0,197802,198590,1,0 S,22,197802,198590,0.15,0.35 R,22,197802,198590,0,1
Sprite,Background,Centre,"sb\vectorsquare.png",0,0 C,0,197979,,79,101,191 M,22,197979,198767,367,96 F,0,197979,198767,1,0 S,22,197979,198767,0.15,0.35 R,22,197979,198767,0,1
Sprite,Background,Centre,"sb\vectorsquare.png",0,0 C,0,198155,,79,101,191 M,22,198155,198943,479,169 F,0,198155,198943,1,0 S,22,198155,198943,0.15,0.35 R,22,198155,198943,0,1
Sprite,Background,Centre,"sb\vectorsquare.png",0,0 C,0,198332,,79,101,191 M,22,198332,199076,345,268 F,0,198332,199076,1,0 S,22,198332,199076,0.15,0.35 R,22,198332,199076,0,1
Sprite,Background,Centre,"sb\vectorsquare.png",0,0 C,0,198420,,79,101,191 M,22,198420,199164,307,252 F,0,198420,199164,1,0 S,22,198420,199164,0.15,0.35 R,22,198420,199164,0,1
Sprite,Background,Centre,"sb\vectorsquare.png",0,0 C,0,198508,,79,101,191 M,22,198508,199252,291,289 F,0,198508,199252,1,0 S,22,198508,199252,0.15,0.35 R,22,198508,199252,0,1
Sprite,Background,Centre,"sb\vectorsquare.png",0,0 C,0,198596,,79,101,191 M,22,198596,199340,329,305 F,0,198596,199340,1,0 S,22,198596,199340,0.15,0.35 R,22,198596,199340,0,1
Sprite,Background,Centre,"sb\vectorsquare.png",0,0 C,0,198685,,79,101,191 M,22,198685,199385,335,288 F,0,198685,199385,1,0 S,22,198685,199385,0.15,0.35 R,22,198685,199385,0,1
Sprite,Background,Centre,"sb\vectorsquare.png",0,0 C,0,198773,,79,101,191 M,22,198773,199473,325,260 F,0,198773,199473,1,0 S,22,198773,199473,0.15,0.35 R,22,198773,199473,0,1
Sprite,Background,Centre,"sb\vectorsquare.png",0,0 C,0,198861,,79,101,191 M,22,198861,199561,299,269 F,0,198861,199561,1,0 S,22,198861,199561,0.15,0.35 R,22,198861,199561,0,1
Sprite,Background,Centre,"sb\vectorsquare.png",0,0 C,0,198949,,79,101,191 M,22,198949,199649,306,294 F,0,198949,199649,1,0 S,22,198949,199649,0.15,0.35 R,22,198949,199649,0,1
//Storyboard Layer 1 (Fail)
//Storyboard Layer 2 (Pass)
//Storyboard Layer 3 (Foreground)
//Storyboard Layer 4 (Overlay)
//Storyboard Sound Samples

[TimingPoints]
1391,352.941176470588,4,2,1,100,1,0
2096,-83.3333333333333,4,2,1,100,0,0
2361,-100,4,2,1,100,0,0
3861,-76.9230769230769,4,2,1,100,0,0
4126,-100,4,2,1,100,0,0
4920,-66.6666666666667,4,2,1,100,0,0
5185,-100,4,2,1,100,0,0
6861,-76.9230769230769,4,2,1,100,0,0
7038,-100,4,2,1,100,0,0
7743,-66.6666666666667,4,2,1,100,0,0
8008,-100,4,2,1,100,0,0
9685,-71.4285714285714,4,2,1,100,0,0
9861,-100,4,2,1,100,0,0
10390,-66.6666666666667,4,2,1,100,0,0
11273,-71.4285714285714,4,2,1,100,0,0
11802,-100,4,2,1,100,0,0
12685,-76.9230769230769,4,2,1,100,0,0
23273,-62.5,4,2,1,100,0,0
23979,-66.6666666666667,4,2,1,100,0,0
24685,-66.6666666666667,4,2,1,100,0,0
25390,-66.6666666666667,4,2,1,100,0,0
26096,-66.6666666666667,4,2,1,100,0,0
26449,-100,4,2,1,100,0,0
26802,-66.6666666666667,4,2,1,100,0,0
27508,-66.6666666666667,4,2,1,100,0,0
27861,-100,4,2,1,100,0,0
28214,-66.6666666666667,4,2,1,100,0,0
35273,-100,4,2,1,100,0,0
40567,-74.0740740740741,4,2,1,100,0,0
40920,-100,4,2,1,100,0,0
45155,-80,4,2,1,100,0,0
46214,-17.179028206121,4,2,1,100,0,0
46567,-80,4,2,1,100,0,0
51861,-66.6666666666667,4,2,1,100,0,0
52214,-66.6666666666667,4,2,1,100,0,0
52920,-79.9999999999999,4,2,1,100,0,0
53626,-62.5,4,2,1,100,0,0
55038,-33.3333333333333,4,2,1,100,0,0
56449,-83.3333333333333,4,2,1,100,0,0
57861,-52.6315789473684,4,2,1,100,0,0
69420,-47.6190476190476,4,2,1,100,0,0
69773,-52.6315789473684,4,2,1,100,0,0
73038,-71.4285714285714,4,2,1,100,0,0
73390,-52.6315789473684,4,2,1,100,0,0
80096,-52.6315789473684,4,2,1,100,0,0
80273,-83.3333333333333,4,2,1,100,0,0
80449,-52.6315789473684,4,2,1,100,0,0
82567,-83.3333333333333,4,2,1,100,0,0
82920,-52.6315789473684,4,2,1,100,0,0
85390,-66.6666666666667,4,2,1,100,0,0
85743,-52.6315789473684,4,2,1,100,0,0
90332,-71.4285714285714,4,2,1,100,0,0
91038,-66.6666666666667,4,2,1,100,0,0
91743,-52.6315789473684,4,2,1,100,0,0
92096,-66.6666666666667,4,2,1,100,0,0
94567,-52.6315789473684,4,2,1,100,0,0
94920,-66.6666666666667,4,2,1,100,0,0
97390,-52.6315789473684,4,2,1,100,0,0
97743,-66.6666666666667,4,2,1,100,0,0
100214,-52.6315789473684,4,2,1,100,0,0
100567,-66.6666666666667,4,2,1,100,0,0
103038,-52.6315789473684,4,2,1,100,0,0
103390,-66.6666666666667,4,2,1,100,0,0
105861,-52.6315789473684,4,2,1,100,0,0
106214,-66.6666666666667,4,2,1,100,0,0
106390,-66.6666666666667,4,2,1,100,0,0
108685,-52.6315789473684,4,2,1,100,0,0
109038,-66.6666666666667,4,2,1,100,0,0
111508,-52.6315789473684,4,2,1,100,0,0
111861,-66.6666666666667,4,2,1,100,0,0
113626,-52.6315789473684,4,2,1,100,0,0
114332,-45.4545454545455,4,2,2,100,0,0
115038,-52.6315789473684,4,2,2,100,0,0
115390,-66.6666666666667,4,2,2,100,0,0
116096,-47.6190476190476,4,2,2,100,0,0
116538,-66.6666666666667,4,2,2,100,0,0
116802,-47.6190476190476,4,2,2,100,0,0
117155,-45.4545454545455,4,2,2,100,0,0
117861,-45.4545454545455,4,2,2,100,0,0
118126,-66.6666666666667,4,2,2,100,0,0
118567,-52.6315789473684,4,2,2,100,0,0
118920,-47.6190476190476,4,2,2,100,0,0
119626,-58.8235294117647,4,2,2,100,0,0
119979,-45.4545454545455,4,2,2,100,0,0
120685,-52.6315789473684,4,2,2,100,0,0
121037,-66.6666666666667,4,2,2,100,0,0
121743,-47.6190476190476,4,2,2,100,0,0
122185,-66.6666666666667,4,2,2,100,0,0
122449,-47.6190476190476,4,2,2,100,0,0
122802,-45.4545454545455,4,2,2,100,0,0
123508,-45.4545454545455,4,2,2,100,0,0
123773,-66.6666666666667,4,2,2,100,0,0
124214,-52.6315789473684,4,2,2,100,0,0
124567,-47.6190476190476,4,2,2,100,0,0
125273,-58.8235294117647,4,2,2,100,0,0
125626,-47.6190476190476,4,2,2,100,0,0
127038,-58.8235294117647,4,2,2,100,0,0
127390,-47.6190476190476,4,2,2,100,0,0
127743,-58.8235294117647,4,2,2,100,0,0
128096,-47.6190476190476,4,2,2,100,0,0
128449,-52.6315789473684,4,2,2,100,0,0
129155,-47.6190476190476,4,2,2,100,0,0
130214,-66.6666666666667,4,2,2,100,0,0
130920,-58.8235294117647,4,2,2,100,0,0
131273,-47.6190476190476,4,2,2,100,0,0
132685,-58.8235294117647,4,2,2,100,0,0
133038,-47.6190476190476,4,2,2,100,0,0
133390,-58.8235294117647,4,2,2,100,0,0
133743,-47.6190476190476,4,2,2,100,0,0
134096,-52.6315789473684,4,2,2,100,0,0
134449,-47.6190476190476,4,2,2,100,0,0
135155,-62.5,4,2,1,100,0,0
135508,-47.6190476190476,4,2,1,100,0,0
136567,-133.333333333333,4,2,1,100,0,0
136920,-83.3333333333333,4,2,1,100,0,0
137979,-100,4,2,1,100,0,0
140449,-83.3333333333333,4,2,1,100,0,0
140802,-133.333333333333,4,2,1,100,0,0
141155,-100,4,2,1,100,0,0
142567,-100,4,2,1,100,0,0
143626,-100,4,2,1,100,0,0
146096,-83.3333333333333,4,2,1,100,0,0
147685,-71.4285714285714,4,2,1,100,0,0
147861,-62.5,4,2,1,100,0,0
148038,-55.5555555555556,4,2,1,100,0,0
148214,-71.4285714285714,4,2,1,100,0,0
159508,-55.5555555555556,4,2,1,100,0,0
164273,-83.3333333333333,4,2,1,100,0,0
165155,-55.5555555555556,4,2,1,100,0,0
169390,-76.9230769230769,4,2,1,100,0,0
170802,-125,4,2,1,100,0,0
180685,-83.3333333333333,4,2,1,100,0,0
182096,-52.6315789473684,4,2,1,100,0,0
182449,-66.6666666666667,4,2,1,100,0,0
184920,-52.6315789473684,4,2,1,100,0,0
185185,-66.6666666666667,4,2,1,100,0,0
187038,-52.6315789473684,4,2,1,100,0,0
188096,-66.6666666666667,4,2,1,100,0,0
190567,-52.6315789473684,4,2,1,100,0,0
190920,-66.6666666666667,4,2,1,100,0,0
193390,-52.6315789473684,4,2,1,100,0,0
193743,-66.6666666666667,4,2,1,100,0,0
196214,-52.6315789473684,4,2,1,100,0,0
196479,-66.6666666666667,4,2,1,100,0,0
199038,-52.6315789473684,4,2,1,100,0,0
199302,-66.6666666666667,4,2,1,100,0,0
201861,-52.6315789473684,4,2,1,100,0,0
202214,-66.6666666666667,4,2,1,100,0,0
204685,-58.8235294117647,4,2,2,100,0,0
205038,-66.6666666666667,4,2,2,100,0,0
205743,-58.8235294117647,4,2,2,100,0,0
206449,-66.6666666666667,4,2,2,100,0,0
206802,-58.8235294117647,4,2,2,100,0,0
207508,-58.8235294117647,4,2,2,100,0,0
208567,-66.6666666666667,4,2,2,100,0,0
208920,-58.8235294117647,4,2,2,100,0,0
209273,-66.6666666666667,4,2,2,100,0,0
209626,-58.8235294117647,4,2,2,100,0,0
210332,-52.6315789473684,4,2,2,100,0,0
211390,-66.6666666666667,4,2,2,100,0,0
212096,-52.6315789473684,4,2,2,100,0,0
212802,-66.6666666666667,4,2,2,100,0,0
213155,-58.8235294117647,4,2,2,100,0,0
213508,-52.6315789473684,4,2,2,100,0,0
214214,-66.6666666666667,4,2,2,100,0,0
215155,-100,4,2,2,100,0,0
215979,-58.8235294117647,4,2,2,100,0,0
218449,-71.4285714285714,4,2,2,100,0,0
218802,-58.8235294117647,4,2,2,100,0,0
221273,-66.6666666666667,4,2,2,100,0,0
221626,-52.6315789473684,4,2,2,100,0,0
224096,-71.4285714285714,4,2,2,100,0,0
224449,-58.8235294117647,4,2,2,100,0,0
224802,-71.4285714285714,4,2,2,100,0,0
225155,-62.5,4,2,2,100,0,0
225861,-100,4,2,2,100,0,0
226567,-133.333333333333,4,2,2,100,0,0
227273,-66.6666666666667,4,2,1,100,0,0
227626,-80,4,2,1,100,0,0
228685,-66.6666666666667,4,2,1,100,0,0
229038,-80,4,2,1,100,0,0
230096,-66.6666666666667,4,2,1,100,0,0
230449,-80,4,2,1,100,0,0
231508,-66.6666666666667,4,2,1,100,0,0
231773,-80,4,2,1,100,0,0
232214,-95.2380952380952,4,2,1,100,0,0
232920,-66.6666666666667,4,2,1,100,0,0
233273,-100,4,2,1,100,0,0
233626,-62.5,4,2,1,100,0,0
233979,-100,4,2,1,100,0,0
234332,-58.8235294117647,4,2,1,100,0,0
234685,-100,4,2,1,100,0,0
235038,-55.5555555555556,4,2,1,100,0,0
237861,-83.3333333333333,4,2,1,100,0,0
238567,-45.4545454545455,4,2,1,100,0,1
239273,-55.5555555555556,4,2,2,100,0,0
240861,-100,4,2,2,100,0,0
241038,-71.4285714285714,4,2,2,100,0,0
241214,-166.666666666667,4,2,2,100,0,0
241390,-45.4545454545455,4,2,2,100,0,1
242096,-45.4545454545455,4,2,2,100,0,0
242449,-55.5555555555556,4,2,2,100,0,0
244214,-13.3668445800067,4,2,2,100,0,1
244743,-45.4545454545455,4,2,2,100,0,0
245273,-55.5555555555556,4,2,2,100,0,0
246508,-100,4,2,2,100,0,0
246685,-71.4285714285714,4,2,2,100,0,0
246861,-166.666666666667,4,2,2,100,0,0
247038,-10.1185039720368,4,2,2,100,0,1
247390,-10.1185039720368,4,2,2,100,0,0
247743,-55.5555555555556,4,2,2,100,0,0
249861,-10.1947457202467,4,2,2,100,0,1
250390,-45.4545454545455,4,2,2,100,0,0
250743,-55.5555555555556,4,2,2,100,0,0
251626,-83.3333333333333,4,2,2,100,0,0
251979,-55.5555555555556,4,2,2,100,0,0
252155,-100,4,2,2,100,0,0
252332,-71.4285714285714,4,2,2,100,0,0
252508,-166.666666666667,4,2,2,100,0,0
252685,-45.4545454545455,4,2,2,100,0,1
253126,-45.4545454545455,4,2,2,100,0,0
253390,-55.5555555555556,4,2,2,100,0,0
255508,-45.4545454545455,4,2,2,100,0,1
256214,-55.5555555555556,4,2,2,100,0,0
257802,-100,4,2,2,100,0,0
257979,-71.4285714285714,4,2,2,100,0,0
258155,-166.666666666667,4,2,2,100,0,0
258332,-16.8659318296399,4,2,2,100,0,1
258685,-45.4545454545455,4,2,2,100,0,0
260008,-55.5555555555556,4,2,2,100,0,0
261155,-58.8235294117647,4,2,2,100,0,0
261420,-66.6666666666667,4,2,1,100,0,0
264685,-58.8235294117647,4,2,1,100,0,0
266273,-66.6666666666667,4,2,1,100,0,0
266802,-13.1711780436952,4,2,1,100,0,1
267508,-66.6666666666667,4,2,1,100,0,0
269538,-58.8235294117647,4,2,1,100,0,0
269890,-66.6666666666667,4,2,1,100,0,0
270332,-58.8235294117647,4,2,1,100,0,0
270596,-66.6666666666667,4,2,1,100,0,0
271390,-58.8235294117647,4,2,1,100,0,0
271743,-50,4,2,1,100,0,0
272096,-45.4545454545455,4,2,1,100,0,0
272449,-52.6315789473684,4,2,1,100,0,1
272802,-83.3333333333333,4,2,1,100,0,0
275273,-66.6666666666667,4,2,1,100,0,0
276155,-83.3333333333333,4,2,1,100,0,0
277567,-71.4285714285714,4,2,1,100,0,0
277920,-58.8235294117647,4,2,1,100,0,1
278449,-83.3333333333333,4,2,1,100,0,0
280920,-66.6666666666667,4,2,1,100,0,0
282332,-66.6666666666667,4,2,1,100,0,0

[Colours]
Combo1 : 255,94,55
Combo2 : 173,255,95
Combo3 : 17,254,176
Combo4 : 255,88,100

[HitObjects]
60,360,1391,5,6,3:2:0:0:
148,254,1567,2,0,P|119:268|107:289,2,45,2|0|8,0:0|0:0|0:0,0:0:0:0:
196,340,1920,5,2,0:0:0:0:
211,348,2008,1,0,0:0:0:0:
228,346,2096,2,0,B|304:328|304:328|303:306|326:277,1,107.999996704102,2|0,3:2|0:0,0:0:0:0:
385,333,2361,6,0,B|461:344,2,45,2|8|2,0:0|0:0|0:0,0:0:0:0:
299,225,2714,1,2,0:0:0:0:
295,202,2802,5,6,3:2:0:0:
344,144,2979,1,2,0:0:0:0:
451,213,3155,1,8,0:0:0:0:
512,167,3332,5,0,0:0:0:0:
512,167,3508,2,0,P|511:114|477:55,1,90,2|0,3:2|0:0,0:0:0:0:
408,46,3773,2,0,P|382:47|353:62,1,45,2|8,0:0|0:0,0:0:0:0:
415,145,3949,5,2,0:0:0:0:
411,128,4038,2,0,P|395:162|423:130,1,116.999994644165,6|6,0:0|3:2,0:0:0:0:
477,315,4390,6,0,P|464:268|396:239,1,90,2|8,0:0|0:0,0:0:0:0:
374,374,4743,1,0,0:0:0:0:
386,355,4832,1,0,0:0:0:0:
383,332,4920,2,0,B|351:292|293:303|293:303|307:325|307:358,1,135.000005149842,2|0,3:2|0:0,0:0:0:0:
231,357,5185,2,0,L|181:374,2,45,2|8|2,0:0|0:0|0:0,0:0:0:0:
257,237,5538,1,2,0:0:0:0:
246,215,5626,5,6,3:2:0:0:
178,175,5803,1,2,0:0:0:0:
79,163,5979,1,8,0:0:0:0:
4,251,6156,1,2,1:2:0:0:
4,251,6332,6,0,B|21:208|-29:221|13:137,1,90,2|0,3:2|1:0,0:0:0:0:
10,147,6596,2,0,L|5:98,1,45,2|8,0:0|0:0,0:0:0:0:
119,288,6773,1,0,0:0:0:0:
132,301,6861,2,0,P|186:260|249:263,1,116.999994644165,6|6,0:0|3:2,0:0:0:0:
180,375,7214,6,0,P|225:367|262:339,1,90,2|8,0:0|0:0,0:0:0:0:
363,366,7567,1,2,1:2:0:0:
388,347,7655,1,0,0:0:0:0:
395,321,7743,2,0,B|356:288|368:251|368:251|412:245|444:180,1,135.000005149842,2|0,3:2|0:0,0:0:0:0:
354,154,8008,2,0,P|355:173|341:161,2,45,2|8|2,0:0|0:0|0:0,0:0:0:0:
472,126,8361,1,2,0:0:0:0:
477,99,8449,5,6,3:2:0:0:
419,45,8626,1,2,0:0:0:0:
326,29,8802,1,8,0:0:0:0:
220,90,8979,1,2,0:0:0:0:
140,106,9155,6,0,P|121:72|126:12,1,90,2|0,3:2|1:0,0:0:0:0:
222,106,9420,2,0,B|233:155,1,45,2|8,0:0|0:0,0:0:0:0:
106,176,9596,5,2,0:0:0:0:
93,167,9685,2,0,B|56:171|54:157|32:188|32:188|61:171|103:178,1,125.999996154785,6|6,0:0|3:2,0:0:0:0:
0,327,10038,6,0,B|61:313|61:313|91:341,1,90,2|8,0:0|0:0,0:0:0:0:
149,297,10390,2,0,B|164:313|164:313|252:299|252:299|261:273,1,135.000005149842,2|2,1:2|3:2,0:0:0:0:
328,310,10655,1,0,0:0:0:0:
345,320,10743,1,2,1:2:0:0:
471,265,10920,1,10,0:0:0:0:
371,216,11096,1,0,0:0:0:0:
432,367,11273,6,0,B|388:279|517:306|448:178,1,188.999994232178,6|0,3:2|0:0,0:0:0:0:
456,195,11626,1,8,0:0:0:0:
348,119,11802,6,0,L|354:70,1,45,2|0,0:0|0:0,0:0:0:0:
289,35,11979,1,6,3:2:0:0:
217,160,12155,2,0,L|223:209,1,45,2|0,1:2|0:0,0:0:0:0:
158,244,12332,1,0,0:0:0:0:
37,142,12508,2,0,L|43:93,1,45,0|2,0:0|0:0,0:0:0:0:
0,295,12685,6,0,P|59:251|185:255,1,175.499991966248,6|2,3:2|0:0,0:0:0:0:
229,148,13038,2,0,B|259:182|223:206|223:206|231:184|208:144,1,116.999994644165,8|2,0:0|0:0,0:0:0:0:
401,104,13390,6,0,P|345:89|271:81,1,116.999994644165,2|0,3:2|0:0,0:0:0:0:
218,41,13655,1,2,0:0:0:0:
201,45,13743,1,8,0:0:0:0:
187,56,13832,2,0,P|181:28|173:0,1,58.4999973220826,2|0,0:0|0:0,0:0:0:0:
70,104,14008,5,2,0:0:0:0:
50,87,14096,2,0,P|43:58|35:30,1,58.4999973220826,6|0,3:2|0:0,0:0:0:0:
18,214,14273,6,0,B|-4:244|-4:263|-4:263|14:232|33:252|40:173,1,116.999994644165,2|10,0:0|0:0,0:0:0:0:
119,123,14626,1,2,0:0:0:0:
18,214,14802,6,0,B|65:179|121:227|126:225|126:225|95:249|91:297,1,175.499991966248,2|2,3:2|0:0,0:0:0:0:
188,296,15155,5,0,3:0:0:0:
222,289,15243,1,2,3:2:0:0:
257,283,15332,1,0,3:0:0:0:
291,279,15420,1,2,3:2:0:0:
335,311,15508,5,6,3:2:0:0:
427,194,15685,1,2,0:0:0:0:
417,179,15773,1,2,0:0:0:0:
417,161,15861,1,8,0:0:0:0:
497,159,16038,1,2,0:0:0:0:
341,194,16214,6,0,P|286:204|175:215,1,116.999994644165,2|0,3:2|0:0,0:0:0:0:
130,171,16479,1,2,0:0:0:0:
114,162,16567,2,0,P|104:127|98:78,2,58.4999973220826,8|2|0,0:0|0:0|0:0,0:0:0:0:
44,221,16832,1,2,0:0:0:0:
20,205,16920,2,0,P|10:170|4:121,2,58.4999973220826,6|0|2,3:2|0:0|0:0,0:0:0:0:
19,329,17273,6,0,B|88:342|70:335|127:342|141:351|141:351|142:325|162:304,1,175.499991966248,10|0,0:0|0:0,0:0:0:0:
232,356,17626,2,0,B|248:338|248:338|317:324|317:324|353:345,1,116.999994644165,2|0,3:2|0:0,0:0:0:0:
410,283,17890,5,2,0:0:0:0:
410,283,17979,2,0,P|399:245|379:207,1,58.4999973220826,2|0,3:2|0:0,0:0:0:0:
496,253,18155,2,0,P|484:225|477:197,1,58.4999973220826,2|0,3:2|0:0,0:0:0:0:
351,83,18332,6,0,B|386:90|407:118|407:118|460:43|362:-7,1,175.499991966248,6|2,3:2|0:0,0:0:0:0:
321,171,18685,2,0,P|239:185|144:211,1,175.499991966248,8|0,0:0|1:2,0:0:0:0:
37,240,19037,2,0,B|33:272|73:284|73:284|43:257|45:206,1,116.999994644165,2|0,3:2|0:0,0:0:0:0:
160,202,19302,5,2,0:0:0:0:
177,206,19390,1,8,0:0:0:0:
191,217,19479,2,0,P|197:189|205:161,1,58.4999973220826,2|0,0:0|1:0,0:0:0:0:
293,252,19655,5,2,0:0:0:0:
317,267,19743,2,0,P|323:295|331:323,1,58.4999973220826,6|0,3:2|0:0,0:0:0:0:
484,314,19920,6,0,P|432:313|400:249,1,116.999994644165,2|10,0:0|0:0,0:0:0:0:
512,159,20273,1,2,0:0:0:0:
484,314,20449,6,0,B|520:250|466:222|471:244|416:197|440:119,1,175.499991966248,2|2,3:2|0:0,0:0:0:0:
340,22,20802,5,0,3:0:0:0:
323,67,20890,1,2,3:2:0:0:
277,90,20979,1,0,3:0:0:0:
230,87,21067,1,2,3:2:0:0:
192,42,21155,5,6,3:2:0:0:
296,169,21332,1,0,0:0:0:0:
311,159,21420,1,2,0:0:0:0:
329,159,21508,1,8,0:0:0:0:
334,234,21685,1,2,0:0:0:0:
254,235,21861,6,0,P|188:253|143:279,1,116.999994644165,2|0,3:2|0:0,0:0:0:0:
196,357,22126,1,2,0:0:0:0:
201,342,22214,2,0,P|226:329|255:322,2,58.4999973220826,8|2|0,0:0|0:0|0:0,0:0:0:0:
337,332,22479,1,2,0:0:0:0:
350,307,22567,2,0,P|375:293|403:286,2,58.4999973220826,6|0|0,3:2|0:0|0:0,0:0:0:0:
400,93,22920,6,0,B|372:126|397:134|393:160|393:160|406:116|470:112,1,116.999994644165,10|2,0:0|0:0,0:0:0:0:
484,187,23185,5,0,0:0:0:0:
460,201,23273,2,0,P|379:177|305:194,1,144,2|8,1:2|0:0,0:0:0:0:
256,233,23538,1,8,0:0:0:0:
296,303,23626,6,0,B|266:324|281:371|312:374|331:365|326:374|326:374|350:345|354:345|354:345|363:292|272:283,1,216,6|0,3:2|0:0,0:0:0:0:
445,285,23979,6,0,B|438:301|455:342|455:342|412:379|412:379|317:348|243:332|243:332|223:281|223:281|243:265|264:214,1,405.000015449525,6|2,3:2|1:2,0:0:0:0:
255,232,24685,6,0,B|232:193|232:193|254:263,1,67.5000025749208,14|0,0:0|0:0,0:0:0:0:
66,294,25038,5,2,1:2:0:0:
0,339,25214,5,2,1:2:0:0:
10,348,25302,1,2,1:2:0:0:
19,362,25390,2,0,B|83:331|168:316|168:316|195:263|195:263|168:225|167:191,1,270.000010299683,6|10,3:2|0:0,0:0:0:0:
222,379,25920,1,2,3:2:0:0:
170,214,26096,6,0,B|181:230|176:250|176:250|175:233|156:211,1,67.5000025749208,14|0,0:0|0:0,0:0:0:0:
52,37,26449,6,0,P|41:61|34:88,2,45,2|2|2,1:2|0:0|1:2,0:0:0:0:
170,214,26802,6,0,B|102:173|112:105|112:105|130:66|130:66|197:34|253:44|253:44|280:69|280:69|232:90|223:133|237:149,1,405.000015449525,6|0,3:2|3:0,0:0:0:0:
233,114,27508,6,0,B|282:123|282:123|258:110,1,67.5000025749208,14|0,0:0|0:0,0:0:0:0:
319,335,27861,5,2,1:2:0:0:
396,327,28038,1,2,1:2:0:0:
470,315,28214,6,0,B|492:301|492:301|477:234|477:234|456:223|447:205,1,135.000005149842,6|0,3:2|0:0,0:0:0:0:
506,160,28479,2,0,B|498:144|476:132|476:132|462:65|462:65|484:52,1,135.000005149842,2|0,3:2|0:0,0:0:0:0:
437,200,28743,2,0,L|370:213,1,67.5000025749208,2|0,3:2|0:0,0:0:0:0:
118,251,28920,6,0,B|103:253|84:263|84:263|95:242|131:232,1,67.5000025749208,14|0,0:0|0:0,0:0:0:0:
190,294,29273,5,0,0:0:0:0:
202,215,29449,1,6,0:0:0:0:
107,332,29626,6,0,B|120:302|120:302|108:244|48:234|48:234|-15:196|8:150|8:150|36:130|36:130|115:120|115:120|142:202,1,405.000015449525,6|0,3:2|1:0,0:0:0:0:
129,165,30332,6,0,B|121:157|121:157|196:142,1,67.5000025749208,14|0,0:0|0:0,0:0:0:0:
203,22,30685,5,0,0:0:0:0:
314,150,30861,1,0,0:0:0:0:
327,134,30949,1,0,3:0:0:0:
344,124,31038,2,0,B|412:97|470:158|470:158|483:194|483:194|409:179|368:253,1,270.000010299683,2|0,3:2|0:0,0:0:0:0:
290,375,31567,1,2,3:2:0:0:
397,215,31743,2,0,B|408:199|429:197|429:197|413:204|398:229,1,67.5000025749208,14|0,0:0|0:0,0:0:0:0:
421,374,32096,5,0,1:0:0:0:
359,327,32273,1,6,0:0:0:0:
220,276,32449,2,0,B|236:199|163:241|179:143,1,135.000005149842,6|0,3:2|0:0,0:0:0:0:
37,336,32802,2,0,P|83:281|181:285,1,135.000005149842,0|0,3:2|0:0,0:0:0:0:
162,139,33067,5,0,0:0:0:0:
186,152,33155,2,0,B|179:228|251:206|228:274,1,135.000005149842,14|0,0:0|0:0,0:0:0:0:
275,330,33420,6,0,B|289:347|289:347|452:327,1,135.000005149842,2|0,3:2|0:0,0:0:0:0:
476,287,33685,6,0,B|494:275|494:275|500:219,1,67.5000025749208,2|2,3:2|1:2,0:0:0:0:
410,324,33861,2,0,B|396:307|396:307|233:327,1,135.000005149842,6|0,3:2|0:0,0:0:0:0:
362,228,34126,6,0,B|407:212|407:212|370:91,1,135.000005149842,2|0,3:2|0:0,0:0:0:0:
310,139,34390,6,0,B|283:148|283:148|305:221,1,67.5000025749208
467,125,34567,1,14,0:0:0:0:
287,51,34743,5,0,0:0:0:0:
385,115,34920,2,0,L|369:48,1,67.5000025749208,14|0,0:0|0:0,0:0:0:0:
448,22,35096,2,0,L|456:69,2,33.7500012874604,2|0|0,3:2|0:0|0:0,0:0:0:0:
231,110,35273,6,0,L|174:122,3,45,6|0|0|0,3:2|0:0|0:0|0:0,0:0:0:0:
145,201,35626,6,0,L|88:189,1,45,10|0,0:0|0:0,0:0:0:0:
58,95,35802,2,0,L|1:107,1,45
11,258,35979,5,0,1:0:0:0:
32,263,36067,1,0,1:0:0:0:
53,267,36155,1,0,1:0:0:0:
74,272,36243,1,0,1:0:0:0:
95,278,36332,6,0,L|87:329,3,45,8|0|2|0,1:2|0:0|1:2|0:0,0:0:0:0:
196,360,36685,2,0,L|202:315,3,45,6|0|2|0,3:2|0:0|0:0|0:0,0:0:0:0:
318,264,37038,6,0,L|310:315,1,45,10|0,0:0|0:0,0:0:0:0:
419,346,37214,2,0,L|425:301,1,45
253,193,37390,6,0,B|280:122|195:157|234:42,1,135,2|0,3:2|0:0,0:0:0:0:
296,30,37743,5,2,3:2:0:0:
311,67,37832,1,0,3:0:0:0:
342,92,37920,1,2,3:2:0:0:
382,95,38008,1,0,3:0:0:0:
420,81,38096,6,0,P|447:77|478:72,3,45,6|0|0|0,3:2|0:0|0:0|0:0,0:0:0:0:
508,162,38449,2,0,P|461:168|397:179,1,90,10|2,0:0|1:2,0:0:0:0:
442,249,38714,1,0,0:0:0:0:
455,261,38802,2,0,P|482:257|513:252,3,45,2|0|0|0,3:2|0:0|0:0|0:0,0:0:0:0:
340,187,39155,5,8,0:0:0:0:
179,205,39332,1,2,1:2:0:0:
169,190,39420,1,2,1:2:0:0:
170,172,39508,2,0,L|163:104,3,45,6|0|0|0,3:2|0:0|0:0|0:0,0:0:0:0:
341,80,39861,6,0,L|348:12,1,45,10|0,0:0|0:0,0:0:0:0:
170,47,40038,2,0,L|163:-21,1,45,2|0,1:2|0:0,0:0:0:0:
260,158,40214,6,0,B|261:212|261:212|263:215|263:215|266:280,1,90,2|0,3:2|0:0,0:0:0:0:
348,308,40479,1,0,0:0:0:0:
348,308,40567,2,0,P|375:269|393:263,1,60.7500002317429,2|0,3:2|0:0,0:0:0:0:
435,184,40743,2,0,P|390:168|372:174,1,60.7500002317429,2|0,3:2|0:0,0:0:0:0:
408,351,40920,6,0,B|339:378|357:308|254:344,1,135,6|0,3:2|0:0,0:0:0:0:
206,302,41273,2,0,P|174:311|142:311,1,45,10|0,0:0|0:0,0:0:0:0:
60,332,41449,2,0,P|28:341|-4:341,1,45,2|0,0:0|0:0,0:0:0:0:
41,195,41626,5,2,3:2:0:0:
62,200,41714,1,0,1:0:0:0:
83,205,41802,1,0,1:0:0:0:
104,210,41890,1,0,1:0:0:0:
125,215,41979,6,0,P|156:206|201:196,3,45,10|0|2|0,0:0|0:0|1:2|0:0,0:0:0:0:
89,100,42332,2,0,P|110:94|132:87,3,45,6|0|0|0,3:2|1:0|1:0|0:0,0:0:0:0:
262,15,42685,6,0,P|293:24|338:34,1,45,10|0,0:0|0:0,0:0:0:0:
226,130,42861,2,0,P|247:135|269:142,1,45
355,91,43038,6,0,P|407:54|497:52,1,135,2|0,3:2|0:0,0:0:0:0:
512,114,43390,1,2,3:2:0:0:
481,141,43479,1,0,3:0:0:0:
444,157,43567,1,2,3:2:0:0:
403,157,43655,1,0,3:0:0:0:
370,132,43743,2,0,P|357:104|354:67,3,45,6|0|2|0,3:2|0:0|1:2|0:0,0:0:0:0:
178,27,44096,6,0,P|200:5|234:-8,1,45,10|0,0:0|0:0,0:0:0:0:
254,113,44273,2,0,P|259:82|279:51,1,45,0|2,0:0|0:0,0:0:0:0:
204,190,44449,5,2,3:2:0:0:
184,178,44538,1,0,0:0:0:0:
162,171,44626,1,2,1:2:0:0:
140,166,44714,1,0,0:0:0:0:
117,168,44802,6,0,P|105:187|99:209,1,45,10|0,0:0|0:0,0:0:0:0:
11,193,44979,2,0,P|13:215|21:236,1,45,2|0,1:2|1:0,0:0:0:0:
63,361,45155,6,0,P|109:330|188:324,1,112.5,6|0,3:2|0:0,0:0:0:0:
230,279,45420,1,0,0:0:0:0:
235,257,45508,1,10,0:0:0:0:
279,342,45685,1,2,1:2:0:0:
461,329,45861,1,8,0:0:0:0:
461,329,46038,5,10,0:0:0:0:
481,282,46126,1,10,0:0:0:0:
467,233,46214,2,0,B|466:233|465:234|465:234|466:236|466:236|464:232|464:232|464:234|464:234|464:236|464:236|462:232|462:232|463:234|463:234|462:235|462:235|462:237|462:237|460:233|460:233|461:235|461:235|460:235|460:235|460:237|460:237|459:234|459:234|459:235|459:235|458:236|458:236|458:238|458:238|457:234|457:234|457:236|457:236|456:236|456:236|456:238|456:238|455:234|455:234|455:236|455:236|454:237|454:237|454:239|454:239|453:235|453:235|453:237|453:237|452:237|452:237|452:239|452:239|451:235|451:235|451:237|451:237|450:237|450:237|450:240|450:240|449:235|449:235|449:238|449:238|448:238|448:238|448:240|448:240|447:236|447:236|447:238|447:238|446:238|446:238|446:240|446:240|445:237|445:237|445:238|445:238|444:238|444:238|444:241|444:241|443:236|443:236|443:239|443:239|442:239|442:239|442:241|442:241|441:237|441:237|441:239|441:239|440:239|440:239|440:241|440:241|440:237|440:237|439:239|439:239|438:239|438:239|438:241|438:241|438:237|438:237|437:239|437:239|436:239|436:239|436:241|436:241|436:237|436:237|435:239|435:239|434:239|434:239|434:241|434:241|434:237|434:237|433:239|433:239|432:239|432:239|432:241|432:241|432:237|432:237|431:239|431:239|430:239|430:239|429:241|429:241|430:237|430:237|429:239|429:239|428:239|428:239|427:240|427:240|428:237|428:237|427:238|427:238|426:238|426:238|425:240|425:240|426:236|426:236|425:238|425:238|424:238|424:238|423:240|423:240|424:236|424:236|423:238|423:238|422:238|422:238|421:239|421:239|422:235|422:235|421:237|421:237|420:237|420:237|419:239|419:239|420:235|420:235|419:237|419:237|418:236|418:236|417:238|417:238|419:234|419:234|418:236|418:236|417:236|416:236|416:236|415:237|415:237|417:234|417:234|416:235|416:235|415:235|415:235|413:237|413:237|415:233|415:233|414:235|414:235|413:234|413:234|412:236|412:236|413:232|413:232|412:234|412:234|411:233|411:233|410:235|410:235|412:231|412:231|410:233|410:233|410:232|409:232|409:232|408:234|408:234|410:230|410:230|408:232|408:232|408:231|408:231|406:233|406:233|408:229|408:229|407:231|407:231|406:230|406:230|404:231|404:231|407:228|407:228|405:230|405:230|405:229|404:229|404:229|403:230|403:230|405:227|405:227|404:228|404:228|403:228|403:228|401:229|401:229|404:226|404:226|402:227|402:227|401:227|401:227|399:228|399:228|402:225|402:225|400:226|400:226|400:225|400:225|398:226|398:226|400:224|400:224|399:225|399:225|398:224|398:224|396:225|396:225|399:222|399:222|397:223|397:223|395:224|395:224|398:221|398:221|396:222|396:222|395:222|395:221|395:221|393:223|393:223|396:219|396:219|394:221|394:221|394:220|394:220|392:221|392:221|394:218|394:218|393:219|393:219|392:219|392:219|390:220|390:220|393:217|393:217|391:218|391:218|391:217|391:217|389:218|389:218|391:216|391:216|390:217|390:217|389:216|389:216|387:217|387:217|390:214|390:214|388:215|388:215|386:216|386:216|388:213|388:213|387:214|387:214|386:214|386:213|386:213|384:215|384:215|387:212|387:212|385:213|385:213|385:212|384:212|384:212|383:213|383:213|385:210|385:210|384:212|384:212|383:211|383:211|381:212|381:212|384:209|384:209|382:210|382:210|381:210|381:210|380:211|380:211|382:208|382:208|381:209|381:209|380:209|380:208|380:208|378:210|378:210|380:207|380:207|379:208|379:208|378:208|378:207|378:207|377:209|377:209|379:206|379:206|377:207|377:207|377:206|376:206|376:206|375:208|375:208|377:204|377:204|376:206|376:206|375:205|375:205|373:207|373:207|375:203|375:203|374:205|374:205|373:204|373:204|372:206|372:206|373:202|373:202|372:204|372:204|371:203|371:203|370:205|370:205|372:201|372:201|370:203|370:203|369:203|369:203|368:204|368:204|370:200|370:200|368:202|368:202|366:203|366:203|368:200|368:200|367:201|367:201|366:201|366:201|365:203|365:203|366:199|366:199|365:201|365:201|364:200|364:200|363:202|363:202|364:198|364:198|363:200|363:200|362:200|362:200|361:201|361:201|362:198|362:198|361:199|361:199|360:199|360:199|359:201|359:201|360:197|360:197|359:199|359:199|358:199|358:199|357:201|357:201|358:197|358:197|357:199|357:199|356:198|356:198|355:200|355:200|356:196|356:196|355:198|355:198|354:198|354:198|353:200|353:200|354:196|354:196|353:198|353:198|352:198|352:198|351:200|351:200|352:196|352:196|351:198|351:198|350:198|350:198|349:200|349:200|350:195|350:195|349:197|349:197|348:197|348:197|347:199|347:199|348:195|348:195|347:197|347:197|346:197|346:197|346:199|346:199|346:195|346:195|345:197|345:197|344:197|344:197|344:199|344:199|344:195|344:195|343:197|343:197|342:197|342:197|342:199|342:199|342:195|342:195|341:197|341:197|340:197|340:197|340:199|340:199|339:196|339:196|339:197|339:197|338:197|338:197|338:199|338:199|337:196|337:196|337:197|337:197|336:197|336:198|336:198|336:199|336:199|335:196|335:196|335:198|335:198|334:198|334:198|334:200|334:200|333:196|333:196|333:198|333:198|332:198|332:198|332:200|332:200|331:196|331:196|331:198|331:198|330:198|330:198|330:200|330:200|329:196|329:196|329:198|329:198|328:198|328:198|328:201|328:201|327:197|327:197|327:199|327:199|326:199|326:199|326:201|326:201|325:197|325:197|325:199|325:199|324:199|324:199|324:201|324:201|323:198|323:198|323:199|323:199|322:199|322:199|322:202|322:202|321:197|321:197|321:200|321:200|320:200|320:200|320:202|320:202|319:198|319:198|319:200|319:200|318:200|318:200|318:202|318:202|317:199|317:199|317:200|317:200|316:201|316:201|316:203|316:203|315:199|315:199|315:201|315:201|314:201|314:201|314:203|314:203|314:200|314:200|314:201|314:201|312:202|312:202|312:204|312:204|311:200|311:200|311:202,1,785.84189035733,6|0,3:2|0:0,0:0:0:0:
155,316,46567,6,0,B|122:347|122:347|17:333,1,112.5,6|0,3:2|0:0,0:0:0:0:
129,239,46832,1,8,0:0:0:0:
148,222,46920,2,0,B|109:197|109:197|9:233,1,112.5,6|2,3:2|1:2,0:0:0:0:
274,265,47273,6,0,L|210:270,1,56.25,6|0,3:2|0:0,0:0:0:0:
378,310,47449,1,0,1:0:0:0:
375,332,47538,1,0,1:0:0:0:
320,377,47626,2,0,L|256:372,1,56.25,6|0,3:2|0:0,0:0:0:0:
411,234,47802,2,0,L|347:229,1,56.25
505,117,47979,6,0,P|449:122|392:121,1,112.5,6|2,3:2|1:2,0:0:0:0:
333,72,48243,1,0,1:0:0:0:
318,54,48332,2,0,P|318:34|332:-1,1,56.25,6|0,3:2|0:0,0:0:0:0:
224,48,48508,2,0,P|224:68|238:103,1,56.25,2|0,1:2|0:0,0:0:0:0:
125,64,48685,6,0,P|125:44|139:9,1,56.25,6|0,3:2|0:0,0:0:0:0:
31,58,48861,2,0,P|31:78|45:113,1,56.25,0|0,1:2|0:0,0:0:0:0:
24,251,49038,5,0,3:0:0:0:
32,229,49126,1,2,3:2:0:0:
77,206,49214,1,0,3:0:0:0:
138,204,49302,1,2,3:2:0:0:
192,239,49390,6,0,B|214:227|220:205|220:205|256:184|300:203,1,112.5,6|0,3:2|0:0,0:0:0:0:
211,317,49655,1,0,1:0:0:0:
232,335,49743,2,0,B|256:328|275:340|275:340|316:332|336:288,1,112.5,6|2,3:2|1:2,0:0:0:0:
468,129,50096,6,0,L|475:74,1,56.25,6|0,3:2|0:0,0:0:0:0:
399,87,50273,1,2,1:2:0:0:
397,105,50361,1,2,1:2:0:0:
321,111,50449,2,0,L|327:55,1,56.25,6|0,3:2|0:0,0:0:0:0:
196,95,50626,6,0,L|204:164,1,56.25
115,107,50802,2,0,L|123:176,1,56.25,6|0,3:2|0:0,0:0:0:0:
78,226,50979,1,2,1:2:0:0:
76,244,51067,1,0,1:0:0:0:
0,250,51155,2,0,L|8:181,1,56.25,6|0,3:2|0:0,0:0:0:0:
146,273,51332,2,0,L|158:344,1,56.25,2|0,1:2|0:0,0:0:0:0:
316,373,51508,6,0,B|362:354|362:354|378:287,1,112.5,6|0,3:2|0:0,0:0:0:0:
296,288,51773,5,0,0:0:0:0:
280,274,51861,2,0,L|266:186,1,67.5000025749208,6|0,3:2|0:0,0:0:0:0:
232,11,52038,2,0,L|246:99,1,67.5000025749208,6|0,1:2|0:0,0:0:0:0:
376,163,52214,6,0,B|384:143|384:143|430:135|467:160|467:160|520:133|512:82,1,202.500007724762,6|0,3:2|1:0,0:0:0:0:
417,53,52567,5,2,1:2:0:0:
403,52,52655,1,0,1:0:0:0:
389,54,52743,1,0,1:0:0:0:
376,59,52832,1,0,1:0:0:0:
364,65,52920,2,0,B|313:98|311:147|311:147|361:145|394:177,1,168.75,6|0,3:2|1:0,0:0:0:0:
287,313,53273,5,2,1:2:0:0:
266,315,53361,1,0,1:0:0:0:
245,312,53449,1,0,1:0:0:0:
226,304,53538,1,0,1:0:0:0:
206,294,53626,2,0,B|198:226|137:235|137:235|89:217|93:176|93:176|113:161|132:133,1,216,6|0,3:2|0:0,0:0:0:0:
42,22,53979,5,2,1:2:0:0:
61,42,54067,1,0,1:0:0:0:
85,56,54155,1,0,1:0:0:0:
113,60,54243,1,0,1:0:0:0:
141,52,54332,2,0,B|133:83|133:83|212:56|212:56|214:54|214:54|281:32|281:32|266:76,1,216,6|0,3:2|0:0,0:0:0:0:
305,237,54685,5,2,1:2:0:0:
266,204,54773,1,0,1:0:0:0:
217,190,54861,1,0,1:0:0:0:
168,202,54949,1,0,1:0:0:0:
134,238,55038,6,0,B|107:215|107:215|119:176,1,67.5000025749208,6|0,3:2|0:0,0:0:0:0:
134,238,55126,2,0,B|143:207|143:207|116:184,1,67.5000025749208,0|0,1:0|0:0,0:0:0:0:
134,238,55214,2,0,B|107:215|107:215|119:176,1,67.5000025749208,0|0,1:0|0:0,0:0:0:0:
134,238,55302,2,0,B|143:207|143:207|116:184,1,67.5000025749208,0|0,1:0|0:0,0:0:0:0:
134,238,55390,6,0,B|167:226|167:226|194:256,1,67.5000025749208,2|0,3:2|0:0,0:0:0:0:
134,238,55478,2,0,B|155:261|155:261|189:250,1,67.5000025749208,0|0,1:0|0:0,0:0:0:0:
134,238,55566,2,0,B|167:226|167:226|194:256,1,67.5000025749208,0|0,1:0|0:0,0:0:0:0:
134,238,55654,2,0,B|155:261|155:261|189:250,1,67.5000025749208,0|0,1:0|0:0,0:0:0:0:
134,238,55743,6,0,B|127:272|127:272|87:281,1,67.5000025749208,2|0,3:2|0:0,0:0:0:0:
134,238,55831,2,0,B|102:245|102:245|96:279,1,67.5000025749208,0|0,1:0|0:0,0:0:0:0:
134,238,55919,2,0,B|127:272|127:272|87:281,1,67.5000025749208,0|0,1:0|0:0,0:0:0:0:
134,238,56007,2,0,B|102:245|102:245|96:279,1,67.5000025749208,0|0,1:0|0:0,0:0:0:0:
134,238,56096,6,0,B|116:242|116:242|156:212,1,67.5000025749208,6|0,3:2|0:0,0:0:0:0:
134,238,56185,2,0,B|139:220|139:220|144:270,1,67.5000025749208,0|0,1:0|0:0,0:0:0:0:
134,238,56273,2,0,B|146:251|146:251|101:231,1,67.5000025749208,0|0,1:2|0:0,0:0:0:0:
130,231,56361,1,0,1:0:0:0:
135,232,56449,5,6,3:2:0:0:
248,215,56626,1,0,0:0:0:0:
269,248,56714,1,0,0:0:0:0:
261,292,56802,1,6,3:2:0:0:
381,285,56979,1,0,0:0:0:0:
251,383,57155,5,6,3:2:0:0:
261,292,57332,1,0,1:0:0:0:
240,259,57420,1,0,1:0:0:0:
248,215,57508,1,6,3:2:0:0:
261,110,57685,1,0,1:0:0:0:
27,245,57861,6,0,B|52:265|55:294|55:294|115:256|67:183,1,170.999995433807,6|0,3:2|0:0,0:0:0:0:
1,172,58126,1,0,1:0:0:0:
27,245,58214,2,0,B|119:184|209:254|209:254|185:276|183:327,1,256.499993150711,14|0,0:0|0:0,0:0:0:0:
311,340,58567,5,6,3:2:0:0:
287,349,58655,1,0,1:0:0:0:
303,356,58743,5,0,1:0:0:0:
294,332,58831,1,0,1:0:0:0:
293,356,58920,5,8,0:0:0:0:
304,332,59008,1,0,1:0:0:0:
287,349,59096,5,0,1:0:0:0:
311,339,59184,1,0,1:0:0:0:
297,340,59273,6,0,P|286:246|339:159,1,170.999995433807,6|0,3:2|1:0,0:0:0:0:
395,329,59538,1,6,1:2:0:0:
413,318,59626,2,0,P|430:279|423:237,1,85.4999977169037,8|0,0:0|1:0,0:0:0:0:
236,146,59802,1,6,1:2:0:0:
382,69,59979,6,0,B|375:48|375:48|358:32,1,42.7499988584519,2|0,3:2|0:0,0:0:0:0:
355,49,60067,6,0,B|343:31|343:31|322:20,1,42.7499988584519,0|0,1:0|0:0,0:0:0:0:
319,38,60155,6,0,B|302:24|302:24|280:19,1,42.7499988584519,0|0,1:0|0:0,0:0:0:0:
282,38,60243,6,0,B|262:29|262:29|239:30,1,42.7499988584519,0|0,1:0|0:0,0:0:0:0:
256,54,60332,5,8,3:2:0:0:
216,71,60420,1,0,3:0:0:0:
173,75,60508,1,0,3:0:0:0:
131,63,60596,1,0,3:0:0:0:
99,33,60685,6,0,B|145:62|117:117|117:117|72:81|6:113,1,170.999995433807,6|0,3:2|0:0,0:0:0:0:
140,192,60949,5,0,1:0:0:0:
60,178,61038,2,0,P|161:125|326:74,1,256.499993150711,14|0,0:0|0:0,0:0:0:0:
354,173,61390,5,6,3:2:0:0:
364,148,61479,1,0,1:0:0:0:
385,203,61567,5,0,1:0:0:0:
377,228,61656,1,0,1:0:0:0:
425,207,61743,6,0,P|469:226|491:257,1,85.4999977169037,8|0,0:0|1:0,0:0:0:0:
379,384,61920,2,0,P|377:341|354:306,1,85.4999977169037,0|0,1:0|1:0,0:0:0:0:
206,319,62096,6,0,P|167:361|147:280,1,170.999995433807,6|0,3:2|1:0,0:0:0:0:
253,253,62361,5,6,1:2:0:0:
206,319,62449,2,0,B|232:263|191:229|191:229|138:223|130:159|130:159|157:143|181:90,1,256.499993150711,0|0,1:0|0:0,0:0:0:0:
43,62,62802,6,0,B|56:35|56:35|62:46,1,42.7499988584519,6|0,3:2|0:0,0:0:0:0:
62,46,62890,2,0,B|89:59|89:59|77:65,1,42.7499988584519
77,65,62979,2,0,B|64:92|64:92|57:80,1,42.7499988584519,0|0,1:0|0:0,0:0:0:0:
58,81,63067,2,0,B|31:68|31:68|42:61,1,42.7499988584519,0|0,1:0|0:0,0:0:0:0:
51,59,63155,6,0,B|132:82|96:0|222:37,1,170.999995433807,14|6,0:0|3:2,0:0:0:0:
22,150,63508,5,6,3:2:0:0:
8,164,63596,2,0,P|4:205|32:261,1,85.4999977169037
36,260,63773,1,0,1:0:0:0:
102,219,63861,2,0,B|141:195|141:195|139:202|275:221|282:238|282:238|264:220|246:209|246:183,1,256.499993150711,8|0,0:0|0:0,0:0:0:0:
399,159,64214,5,6,3:2:0:0:
383,154,64302,1,0,1:0:0:0:
367,149,64390,1,0,1:0:0:0:
351,144,64479,1,0,1:0:0:0:
326,166,64567,5,8,0:0:0:0:
360,157,64655,1,0,1:0:0:0:
393,147,64743,1,0,1:0:0:0:
426,136,64832,1,0,1:0:0:0:
485,86,64920,6,0,B|430:114|430:114|488:276,1,170.999995433807,6|0,3:2|1:0,0:0:0:0:
331,337,65185,5,6,1:2:0:0:
398,374,65273,2,0,B|399:343|432:324|432:324|426:288|397:254|397:254|414:245|346:241|316:249|311:142,1,256.499993150711,8|0,0:0|0:0,0:0:0:0:
329,49,65626,6,0,B|344:64|344:64|366:72,1,42.7499988584519,6|0,3:2|0:0,0:0:0:0:
361,55,65714,6,0,B|379:66|379:66|403:66,1,42.7499988584519,0|0,1:0|0:0,0:0:0:0:
398,49,65802,6,0,B|419:54|419:54|441:49,1,42.7499988584519,0|0,1:0|0:0,0:0:0:0:
432,33,65890,6,0,B|453:32|453:32|473:21,1,42.7499988584519,0|0,1:0|0:0,0:0:0:0:
481,32,65979,5,10,3:2:0:0:
509,74,66067,1,0,3:2:0:0:
505,125,66155,1,0,3:0:0:0:
466,158,66243,1,0,3:0:0:0:
414,155,66332,6,0,P|313:146|239:197,1,170.999995433807,6|0,3:2|0:0,0:0:0:0:
396,246,66596,5,0,1:0:0:0:
396,246,66685,2,0,P|358:264|316:258,1,85.4999977169037,14|0,0:0|0:0,0:0:0:0:
209,118,66861,2,0,P|211:75|238:43,1,85.4999977169037,2|0,1:0|0:0,0:0:0:0:
176,235,67038,5,0,3:0:0:0:
159,239,67126,1,2,1:2:0:0:
108,247,67214,1,0,0:0:0:0:
91,249,67302,1,0,0:0:0:0:
39,258,67390,1,12,0:0:0:0:
226,366,67567,1,0,0:0:0:0:
350,167,67743,5,6,3:2:0:0:
366,171,67832,2,0,B|386:150|386:150|358:74,1,85.4999977169037
173,112,68008,5,0,1:0:0:0:
157,116,68097,2,0,B|137:95|137:95|165:19,1,85.4999977169037,2|0,3:2|0:0,0:0:0:0:
259,49,68273,5,0,1:2:0:0:
275,44,68361,1,0,0:0:0:0:
264,31,68449,2,0,B|216:132|322:100|247:224,1,170.999995433807,0|8,3:0|0:0,0:0:0:0:
233,266,68714,5,8,0:0:0:0:
277,280,68802,1,6,3:2:0:0:
237,306,68890,5,0,0:0:0:0:
280,328,68979,1,0,1:0:0:0:
239,353,69067,5,0,0:0:0:0:
272,381,69155,2,0,B|266:284|334:339|342:234,1,170.999995433807,6|0,3:2|0:0,0:0:0:0:
451,347,69420,5,0,1:0:0:0:
439,367,69508,2,0,B|357:268|490:285|399:157,1,188.999994232178,14|2,0:0|1:0,0:0:0:0:
474,38,69773,5,0,0:0:0:0:
474,38,69861,2,0,P|450:70|459:29,1,85.4999977169037,6|0,3:2|1:0,0:0:0:0:
327,75,70038,2,0,P|329:111|361:93,1,85.4999977169037,0|0,1:0|1:0,0:0:0:0:
220,24,70214,5,8,0:0:0:0:
208,56,70302,1,0,1:0:0:0:
174,63,70390,1,0,1:0:0:0:
140,56,70479,1,0,1:0:0:0:
113,34,70567,6,0,B|50:52|63:129|63:129|76:105|120:91,1,170.999995433807,6|0,3:2|1:0,0:0:0:0:
120,220,70832,5,6,1:2:0:0:
133,209,70920,2,0,B|144:226|144:246|144:246|99:177|11:166|11:166|44:183|54:225,1,256.499993150711,8|0,1:2|0:0,0:0:0:0:
37,323,71273,6,0,B|44:303|44:303|62:287,1,42.7499988584519,6|0,3:2|0:0,0:0:0:0:
64,304,71361,6,0,B|76:286|76:286|98:277,1,42.7499988584519,0|0,1:0|0:0,0:0:0:0:
100,296,71449,6,0,B|117:283|117:283|139:279,1,42.7499988584519,0|0,1:0|0:0,0:0:0:0:
138,297,71537,6,0,B|157:289|157:289|180:292,1,42.7499988584519,0|0,1:0|0:0,0:0:0:0:
170,320,71626,5,0,3:0:0:0:
204,347,71714,1,0,3:0:0:0:
245,360,71802,1,0,3:0:0:0:
288,360,71890,1,0,3:0:0:0:
328,346,71979,6,0,B|320:317|333:292|337:290|337:290|353:263|382:258|382:258|384:250|420:254|444:279,1,170.999995433807,6|0,3:2|0:0,0:0:0:0:
448,282,72243,5,0,1:0:0:0:
404,350,72332,2,0,L|377:61,1,256.499993150711,14|0,0:0|0:0,0:0:0:0:
458,23,72685,5,6,3:2:0:0:
464,47,72773,1,0,1:0:0:0:
458,71,72861,1,0,1:0:0:0:
296,134,73038,2,0,B|305:160|305:160|296:209,1,62.9999980773926,8|0,1:2|1:0,0:0:0:0:
215,121,73214,6,0,B|206:95|206:95|215:46,1,62.9999980773926,0|0,1:0|1:0,0:0:0:0:
54,71,73390,1,6,3:2:0:0:
37,91,73479,2,0,B|11:64|11:64|22:1,1,85.4999977169037,0|0,1:0|1:0,0:0:0:0:
112,129,73655,5,6,1:2:0:0:
44,172,73743,2,0,B|70:210|70:210|236:230|236:230|246:210|281:190,1,256.499993150711,0|0,1:0|0:0,0:0:0:0:
323,277,74096,5,6,3:2:0:0:
346,288,74185,1,0,0:0:0:0:
369,297,74273,1,0,1:0:0:0:
393,290,74361,1,0,1:0:0:0:
415,277,74449,6,0,B|409:234|409:234|428:177,1,85.4999977169037,14|0,0:0|0:0,0:0:0:0:
458,82,74626,2,0,B|471:42|471:42|465:0,1,85.4999977169037,6|0,3:2|0:0,0:0:0:0:
219,36,74802,6,0,P|252:114|265:199,1,170.999995433807,6|0,3:2|0:0,0:0:0:0:
69,155,75067,1,0,1:0:0:0:
86,155,75155,2,0,B|123:169|138:225|138:225|136:205|204:207|183:109|139:85,1,256.499993150711,8|0,0:0|0:0,0:0:0:0:
70,336,75508,6,0,B|57:357|57:357|0:373,3,85.4999977169037,4|0|0|0,3:2|1:0|1:0|1:0,0:0:0:0:
63,237,75861,1,8,1:2:0:0:
87,242,75949,1,0,1:0:0:0:
112,248,76038,1,0,1:0:0:0:
136,253,76126,1,0,1:0:0:0:
169,273,76214,6,0,B|145:282|140:319|140:319|189:273|241:269,1,170.999995433807,6|0,3:2|1:0,0:0:0:0:
131,123,76479,1,6,1:2:0:0:
147,142,76567,2,0,B|200:160|226:109|226:109|231:52|284:56|280:50|280:50|381:82,1,256.499993150711,0|0,1:0|0:0,0:0:0:0:
445,70,76920,6,0,B|430:85|430:85|422:107,1,42.7499988584519,6|0,3:2|0:0,0:0:0:0:
439,102,77008,6,0,B|428:120|428:120|428:144,1,42.7499988584519,0|0,1:0|0:0,0:0:0:0:
445,139,77096,6,0,B|440:160|440:160|445:182,1,42.7499988584519,0|0,1:0|0:0,0:0:0:0:
461,173,77184,6,0,B|462:194|462:194|473:214,1,42.7499988584519,0|0,1:0|0:0,0:0:0:0:
487,190,77273,5,2,3:2:0:0:
510,225,77361,1,0,3:0:0:0:
511,267,77449,1,0,3:0:0:0:
492,304,77537,1,0,3:0:0:0:
454,332,77626,6,0,B|332:355|332:355|368:303,1,170.999995433807,6|0,3:2|0:0,0:0:0:0:
416,262,77890,1,0,1:0:0:0:
454,332,77979,2,0,B|334:354|334:354|329:348|329:348|195:374,1,256.499993150711,8|0,0:0|0:0,0:0:0:0:
21,260,78332,5,6,3:2:0:0:
35,219,78420,1,0,1:0:0:0:
69,192,78508,1,0,1:0:0:0:
111,185,78596,1,0,1:0:0:0:
151,199,78685,1,12,1:2:0:0:
118,362,78861,1,0,1:2:0:0:
230,212,79038,6,0,B|250:161|202:126|207:144|166:96|209:37,1,170.999995433807,6|0,3:2|0:0,0:0:0:0:
136,218,79302,1,0,0:0:0:0:
151,199,79390,2,0,P|256:161|434:161,1,256.499993150711,14|0,0:0|1:0,0:0:0:0:
262,384,79743,6,0,P|270:361|265:331,1,42.7499988584519,6|0,3:2|0:0,0:0:0:0:
251,355,79832,6,0,P|259:332|254:302,1,42.7499988584519
241,327,79920,6,0,P|233:304|238:274,1,42.7499988584519,0|0,1:0|0:0,0:0:0:0:
252,298,80009,6,0,P|244:275|249:245,1,42.7499988584519,0|0,1:0|0:0,0:0:0:0:
264,238,80096,6,0,B|287:216|287:216|275:144,1,85.4999977169037,6|0,3:2|0:0,0:0:0:0:
252,71,80273,6,0,B|239:59|239:59|246:21,1,53.9999983520508,6|0,1:2|0:0,0:0:0:0:
444,89,80449,6,0,B|464:51|526:43|567:153|475:147,1,170.999995433807,6|0,3:2|0:0,0:0:0:0:
422,249,80714,1,0,0:0:0:0:
433,237,80802,2,0,B|453:261|483:284|510:310|582:187|457:92|342:203,1,256.499993150711,8|0,0:0|0:0,0:0:0:0:
319,280,81155,5,2,3:2:0:0:
302,277,81243,1,0,0:0:0:0:
285,274,81332,1,2,1:2:0:0:
268,270,81420,1,0,1:0:0:0:
234,299,81508,6,0,B|267:338|227:376|227:376|172:372|168:318,1,170.999995433807,10|0,0:0|0:0,0:0:0:0:
157,158,81773,5,2,0:0:0:0:
145,168,81861,2,0,B|121:206|163:242|163:242|218:235|214:183,1,170.999995433807,6|0,3:2|0:0,0:0:0:0:
39,261,82126,5,0,0:0:0:0:
32,276,82214,2,0,B|9:319|20:346|20:346|64:268|209:225,1,256.499993150711,10|0,1:2|1:0,0:0:0:0:
214,185,82567,6,0,P|194:119|172:104,1,53.9999983520508,2|0,3:2|0:0,0:0:0:0:
259,43,82743,2,0,P|243:21|221:6,1,53.9999983520508,2|0,1:2|0:0,0:0:0:0:
286,150,82920,5,2,3:2:0:0:
308,116,83008,1,0,3:0:0:0:
347,99,83096,1,0,3:0:0:0:
390,97,83185,1,0,3:0:0:0:
430,106,83273,6,0,B|481:215|355:170|419:286|419:285,1,170.999995433807,6|0,3:2|0:0,0:0:0:0:
512,226,83538,5,0,0:0:0:0:
496,243,83626,2,0,P|402:236|365:66,1,256.499993150711,10|0,0:0|0:0,0:0:0:0:
226,70,83979,5,2,3:2:0:0:
238,110,84067,1,0,0:0:0:0:
198,123,84155,1,2,1:2:0:0:
183,84,84243,1,0,1:2:0:0:
183,84,84332,6,0,L|164:-20,1,85.4999977169037,10|0,0:0|0:0,0:0:0:0:
328,110,84508,2,0,L|347:6,1,85.4999977169037,0|0,0:0|1:0,0:0:0:0:
247,274,84685,6,0,B|297:281|312:315|312:315|312:335|312:335|286:296|251:288,1,170.999995433807,6|0,3:2|0:0,0:0:0:0:
205,340,84949,1,0,0:0:0:0:
247,274,85038,2,0,B|179:259|179:259|153:222|153:222|186:67,1,256.499993150711,10|0,1:2|1:0,0:0:0:0:
328,109,85390,2,0,B|295:101|295:101|265:116,3,67.5000025749208,2|0|2|0,3:2|1:0|1:2|0:0,0:0:0:0:
273,197,85743,6,0,B|317:207|317:207|381:169,1,85.4999977169037,14|0,0:0|0:0,0:0:0:0:
358,376,85920,2,0,B|314:386|314:386|250:348,1,85.4999977169037,6|0,3:2|0:0,0:0:0:0:
193,283,86096,5,6,3:2:0:0:
451,258,86273,1,2,3:2:0:0:
193,283,86449,1,2,3:2:0:0:
262,221,86626,5,0,0:0:0:0:
273,197,86714,1,0,1:0:0:0:
261,173,86802,1,6,3:2:0:0:
3,148,86979,1,2,3:2:0:0:
261,173,87156,1,2,3:2:0:0:
204,115,87332,5,0,0:0:0:0:
193,91,87420,1,0,1:0:0:0:
205,67,87508,1,6,3:2:0:0:
463,42,87685,1,2,3:2:0:0:
205,67,87862,1,2,3:2:0:0:
302,60,88038,5,0,0:0:0:0:
313,84,88126,1,0,0:0:0:0:
301,108,88214,1,6,3:2:0:0:
49,42,88390,1,2,3:2:0:0:
247,7,88567,5,6,3:2:0:0:
214,32,88655,1,0,3:0:0:0:
205,67,88743,1,0,3:0:0:0:
219,107,88832,1,0,3:0:0:0:
255,129,88920,5,2,3:2:0:0:
288,154,89008,1,0,3:0:0:0:
297,189,89096,1,2,3:2:0:0:
283,229,89185,1,0,3:0:0:0:
247,252,89273,5,2,3:2:0:0:
220,284,89361,1,0,3:0:0:0:
215,326,89449,1,0,3:0:0:0:
238,361,89538,1,0,3:0:0:0:
279,353,89626,5,2,3:2:0:0:
244,341,89714,1,0,3:0:0:0:
272,372,89802,5,2,3:2:0:0:
265,337,89890,1,0,3:0:0:0:
251,376,89978,5,2,3:2:0:0:
279,353,90067,1,0,3:0:0:0:
238,360,90155,5,2,3:2:0:0:
272,372,90243,1,0,3:0:0:0:
257,358,90332,6,0,B|244:230|244:230|246:225|246:225|236:139,1,188.999994232178,6|0,3:2|0:0,0:0:0:0:
236,6,90685,6,0,B|213:40|216:61|216:61|228:75|237:98|237:98|242:74|255:60|255:60|260:33|242:13,1,188.999994232178,2|0,0:0|0:0,0:0:0:0:
167,120,91038,6,0,B|162:137|162:137|235:120|235:120|238:117|238:117|320:99|320:99|302:127,1,202.500007724762,2|0,0:0|0:0,0:0:0:0:
374,171,91390,6,0,L|387:257,1,67.5000025749208,6|0,3:2|0:0,0:0:0:0:
135,284,91567,6,0,L|122:198,1,67.5000025749208,14|0,0:0|0:0,0:0:0:0:
270,384,91743,6,0,B|289:370|303:339|306:342|306:342|297:303|296:269|296:269|292:272|243:233|243:238|243:238|241:206|230:151,1,256.499993150711,6|0,3:2|0:0,0:0:0:0:
157,136,92096,5,8,0:0:0:0:
129,144,92185,1,0,1:0:0:0:
99,142,92273,1,6,1:2:0:0:
71,134,92361,1,0,1:2:0:0:
52,117,92449,6,0,L|63:40,3,67.5000025749208,6|0|0|0,3:2|1:0|1:0|1:0,0:0:0:0:
135,277,92802,2,0,L|146:354,3,67.5000025749208,10|0|0|0,0:0|1:0|1:0|1:0,0:0:0:0:
241,223,93155,5,2,3:2:0:0:
232,195,93244,1,0,1:0:0:0:
234,165,93332,1,0,1:0:0:0:
242,137,93420,1,0,1:0:0:0:
255,118,93508,6,0,P|266:79|260:35,3,67.5000025749208,10|0|0|0,0:0|1:0|1:0|1:2,0:0:0:0:
331,198,93861,6,0,P|371:196|406:168,1,67.5000025749208,6|0,3:2|0:0,0:0:0:0:
476,113,94038,2,0,P|494:77|487:33,1,67.5000025749208,2|0,1:2|1:0,0:0:0:0:
396,196,94214,6,0,P|366:211|333:211,1,67.5000025749208,10|0,1:2|1:0,0:0:0:0:
183,173,94390,1,0,1:0:0:0:
167,160,94479,1,0,1:0:0:0:
158,141,94567,2,0,B|150:45|74:105|76:-22,1,170.999995433807,6|0,3:2|1:0,0:0:0:0:
0,199,94832,5,0,1:0:0:0:
9,181,94920,2,0,P|44:162|86:157,3,67.5000025749208,10|0|6|0,1:2|0:0|1:2|0:0,0:0:0:0:
46,322,95273,2,0,P|81:341|123:346,3,67.5000025749208,6|0|0|0,3:2|1:0|1:0|1:0,0:0:0:0:
121,220,95626,5,10,0:2:0:0:
147,210,95714,1,0,1:0:0:0:
174,204,95802,1,0,1:0:0:0:
202,204,95890,1,0,1:0:0:0:
224,211,95979,2,0,P|259:192|301:187,3,67.5000025749208,2|0|0|0,3:2|1:0|1:0|1:0,0:0:0:0:
258,336,96332,2,0,P|293:355|335:360,3,67.5000025749208,10|0|0|0,0:0|1:0|1:0|1:2,0:0:0:0:
398,240,96685,6,0,P|381:229|350:233,1,33.7500012874604,6|0,3:2|0:0,0:0:0:0:
372,240,96773,2,0,P|357:252|351:283,1,33.7500012874604,2|0,1:2|0:0,0:0:0:0:
364,269,96861,2,0,P|372:287|399:302,1,33.7500012874604,2|0,1:2|0:0,0:0:0:0:
390,286,96949,2,0,P|411:284|433:263,1,33.7500012874604,0|0,1:0|0:0,0:0:0:0:
408,266,97038,2,0,P|388:212|401:114,1,135.000005149842,14|6,0:0|1:2,0:0:0:0:
490,305,97390,6,0,P|502:163|457:29,1,256.499993150711,6|0,3:2|0:0,0:0:0:0:
309,41,97743,1,8,1:2:0:0:
294,54,97832,1,0,1:0:0:0:
287,73,97920,2,0,P|293:125|308:146,1,67.5000025749208,6|0,1:2|0:0,0:0:0:0:
80,32,98096,2,0,P|104:9|136:0,3,67.5000025749208,6|0|0|0,3:2|1:0|1:0|1:0,0:0:0:0:
197,57,98449,2,0,P|177:83|170:116,3,67.5000025749208,10|0|0|0,0:0|1:0|1:0|1:0,0:0:0:0:
0,130,98802,5,2,3:2:0:0:
26,141,98890,1,0,1:0:0:0:
50,159,98979,1,0,1:0:0:0:
71,178,99067,1,0,1:0:0:0:
76,199,99155,2,0,P|76:232|90:262,3,67.5000025749208,10|0|0|0,0:0|1:0|1:0|1:0,0:0:0:0:
181,300,99508,6,0,P|200:326|230:343,1,67.5000025749208,6|0,3:2|0:0,0:0:0:0:
357,349,99685,2,0,P|390:345|418:327,1,67.5000025749208,2|0,1:2|1:0,0:0:0:0:
211,167,99861,6,0,P|211:199|225:230,1,67.5000025749208,10|0,1:2|1:0,0:0:0:0:
352,333,100038,2,0,P|385:329|413:311,1,67.5000025749208,0|0,1:0|1:0,0:0:0:0:
469,154,100214,6,0,B|482:134|513:125|513:125|465:109|422:93|422:93|373:135|402:190,1,256.499993150711,6|0,3:2|1:0,0:0:0:0:
505,282,100567,6,0,P|472:274|447:253,1,67.5000025749208,10|0,1:2|0:0,0:0:0:0:
341,264,100743,2,0,P|319:238|311:206,1,67.5000025749208,6|0,1:2|0:0,0:0:0:0:
204,309,100920,6,0,P|171:316|145:338,3,67.5000025749208,6|0|0|0,3:2|1:0|1:0|1:0,0:0:0:0:
39,327,101273,2,0,P|17:352|9:384,3,67.5000025749208,10|0|0|0,0:0|1:0|1:0|1:0,0:0:0:0:
36,192,101626,5,6,3:2:0:0:
42,218,101714,1,2,1:2:0:0:
26,208,101802,1,2,1:2:0:0:
52,202,101890,1,2,1:2:0:0:
76,208,101979,5,14,0:0:0:0:
95,211,102067,1,0,1:0:0:0:
126,198,102155,5,2,1:2:0:0:
145,201,102243,1,2,1:2:0:0:
172,224,102332,5,6,3:2:0:0:
203,235,102420,1,0,0:0:0:0:
236,232,102508,1,2,1:2:0:0:
270,210,102596,1,0,0:0:0:0:
280,163,102685,5,8,1:2:0:0:
245,141,102773,1,0,1:0:0:0:
278,118,102861,6,0,L|279:157,1,33.7500012874604,0|0,1:0|0:0,0:0:0:0:
255,103,102949,2,0,L|254:142,1,33.7500012874604,0|0,1:0|0:0,0:0:0:0:
269,78,103038,6,0,P|264:232|266:373,1,256.499993150711,6|0,3:2|0:0,0:0:0:0:
376,281,103390,5,8,1:2:0:0:
394,272,103479,1,0,1:0:0:0:
414,270,103567,2,0,P|413:236|414:202,1,67.5000025749208,6|0,1:2|0:0,0:0:0:0:
503,242,103743,2,0,P|502:208|503:174,3,67.5000025749208,6|0|0|0,3:2|1:0|1:0|1:0,0:0:0:0:
358,106,104096,6,0,P|358:72|357:38,1,67.5000025749208,10|0,1:2|1:0,0:0:0:0:
268,10,104272,2,0,P|269:44|269:78,1,67.5000025749208,0|0,1:0|1:0,0:0:0:0:
211,183,104449,5,2,3:2:0:0:
190,185,104538,1,0,1:0:0:0:
169,186,104626,1,0,1:0:0:0:
148,187,104714,1,0,1:0:0:0:
114,207,104802,5,10,1:2:0:0:
93,205,104891,1,0,1:0:0:0:
72,204,104979,1,0,1:0:0:0:
51,203,105067,1,0,1:0:0:0:
35,189,105155,6,0,P|35:155|34:121,1,67.5000025749208,6|2,3:2|1:2,0:0:0:0:
129,113,105332,2,0,P|129:80|128:46,1,67.5000025749208,2|0,1:2|0:0,0:0:0:0:
198,240,105508,6,0,P|197:274|196:308,1,67.5000025749208,14|0,0:0|1:0,0:0:0:0:
292,316,105685,2,0,P|292:349|291:383,1,67.5000025749208,0|0,1:0|1:0,0:0:0:0:
403,190,105861,6,0,B|431:160|476:167|476:167|474:162|529:129|493:62,1,170.999995433807,6|0,3:2|0:0,0:0:0:0:
462,267,106126,1,0,0:0:0:0:
449,289,106214,2,0,P|411:270|379:267,1,67.5000025749208,8|0,0:0|1:0,0:0:0:0:
327,144,106390,2,0,P|289:163|257:166,1,67.5000025749208,6|0,1:2|0:0,0:0:0:0:
199,299,106567,5,6,3:2:0:0:
175,282,106655,1,0,1:0:0:0:
147,272,106743,1,0,1:0:0:0:
117,271,106832,1,0,1:0:0:0:
91,280,106920,6,0,P|53:299|21:302,1,67.5000025749208,10|0,1:2|1:0,0:0:0:0:
123,157,107096,2,0,P|85:138|53:135,1,67.5000025749208,0|0,1:0|1:0,0:0:0:0:
263,185,107273,5,2,3:2:0:0:
237,171,107361,1,0,1:0:0:0:
219,147,107449,1,0,1:0:0:0:
212,119,107538,1,0,1:0:0:0:
215,94,107626,2,0,P|224:65|223:21,1,67.5000025749208,10|0,1:2|1:0,0:0:0:0:
195,245,107802,2,0,P|186:274|187:318,1,67.5000025749208,0|0,1:0|1:0,0:0:0:0:
340,205,107979,6,0,B|352:199|352:199|359:177,1,33.7500012874604,6|0,3:2|0:0,0:0:0:0:
358,179,108067,2,0,B|356:165|356:165|337:152,1,33.7500012874604,2|0,1:2|0:0,0:0:0:0:
339,153,108155,2,0,B|325:150|325:150|307:164,1,33.7500012874604,2|0,1:2|0:0,0:0:0:0:
309,162,108243,2,0,B|302:173|302:173|310:195,1,33.7500012874604,2|0,1:2|0:0,0:0:0:0:
309,193,108332,5,6,3:2:0:0:
343,172,108420,1,0,0:0:0:0:
382,162,108508,1,6,1:2:0:0:
422,165,108596,1,0,0:0:0:0:
460,184,108685,6,0,P|469:245|469:185,1,170.999995433807,6|0,3:2|0:0,0:0:0:0:
450,53,108949,5,0,0:0:0:0:
442,64,109038,2,0,P|459:83|445:61,1,67.5000025749208,8|0,0:0|1:0,0:0:0:0:
315,35,109214,6,0,P|339:40|315:30,1,67.5000025749208,6|0,1:2|0:0,0:0:0:0:
225,85,109390,5,6,3:2:0:0:
202,69,109479,1,0,1:0:0:0:
176,60,109567,1,0,1:0:0:0:
149,61,109655,1,0,1:0:0:0:
123,70,109743,5,10,1:2:0:0:
95,89,109832,1,0,1:0:0:0:
80,119,109920,1,0,1:0:0:0:
77,152,110008,1,0,1:0:0:0:
94,181,110096,6,0,P|137:158|179:165,1,67.5000025749208,2|0,3:2|1:0,0:0:0:0:
241,253,110273,2,0,P|255:273|232:262,1,67.5000025749208,0|0,1:0|1:0,0:0:0:0:
303,185,110449,6,0,P|346:208|388:201,1,67.5000025749208,10|0,1:2|1:0,0:0:0:0:
450,113,110626,2,0,P|464:92|441:103,1,67.5000025749208,0|0,1:0|1:0,0:0:0:0:
311,48,110802,5,6,3:2:0:0:
301,80,110890,1,2,1:2:0:0:
267,74,110979,1,2,1:2:0:0:
276,41,111067,1,0,0:0:0:0:
313,67,111155,5,14,0:0:0:0:
283,83,111243,1,0,1:0:0:0:
264,54,111332,1,0,1:0:0:0:
293,37,111420,1,0,1:0:0:0:
282,62,111508,6,0,B|206:123|160:64|173:62|123:-4|42:59,1,256.499993150711,6|0,3:2|0:0,0:0:0:0:
176,215,111861,6,0,B|129:215|122:173|129:176|123:129|66:129,1,135.000005149842,8|6,0:0|1:2,0:0:0:0:
66,283,112126,5,0,0:0:0:0:
51,269,112214,2,0,B|25:236|58:234|28:189,3,67.5000025749208,6|0|0|0,3:2|1:0|1:0|1:0,0:0:0:0:
133,355,112567,6,0,P|168:332|201:330,1,67.5000025749208,10|0,0:0|1:0,0:0:0:0:
264,223,112743,2,0,P|305:224|333:242,1,67.5000025749208,0|0,1:0|1:0,0:0:0:0:
456,354,112920,5,6,3:2:0:0:
458,327,113008,1,2,1:2:0:0:
459,300,113096,1,2,1:2:0:0:
461,273,113184,1,2,1:2:0:0:
461,239,113273,6,0,P|426:216|393:214,1,67.5000025749208,6|0,3:2|1:0,0:0:0:0:
266,120,113449,2,0,P|296:105|330:107,1,67.5000025749208,6|0,1:2|0:0,0:0:0:0:
480,30,113626,6,0,B|486:48|486:48|470:74,1,42.7499988584519,6|0,3:2|0:0,0:0:0:0:
512,74,113714,2,0,B|495:80|495:80|469:64,1,42.7499988584519,0|0,1:0|0:0,0:0:0:0:
467,107,113802,2,0,B|463:89|463:89|479:62,1,42.7499988584519,2|0,1:2|0:0,0:0:0:0:
436,61,113890,2,0,B|455:56|455:56|481:72,1,42.7499988584519,0|0,1:0|0:0,0:0:0:0:
473,68,113979,6,0,B|468:46|468:46|451:36,1,42.7499988584519,6|0,1:2|0:0,0:0:0:0:
474,67,114067,2,0,B|450:73|450:73|441:91,1,42.7499988584519,0|0,1:0|0:0,0:0:0:0:
474,67,114155,2,0,B|480:90|480:90|497:100,1,42.7499988584519,6|0,1:2|0:0,0:0:0:0:
472,67,114243,2,0,B|496:62|496:62|505:44,1,42.7499988584519,0|0,1:0|0:0,0:0:0:0:
480,73,114332,6,0,B|434:43|434:43|263:70,1,198.000006042481,6|0,3:2|0:0,0:0:0:0:
278,144,114596,1,0,0:0:0:0:
294,155,114685,2,0,L|427:135,1,99.0000030212403,2|0,3:2|1:0,0:0:0:0:
465,227,114861,5,0,1:0:0:0:
485,260,114949,1,0,1:0:0:0:
474,300,115038,2,0,B|440:331|399:302|399:302|365:234|305:267|305:267|329:305|323:353,1,256.499993150711,14|0,0:0|0:0,0:0:0:0:
233,363,115390,6,0,P|222:322|203:277,1,67.5000025749208,2|0,3:2|1:0,0:0:0:0:
122,318,115567,2,0,P|133:350|141:383,1,67.5000025749208,0|0,1:0|1:0,0:0:0:0:
12,251,115743,6,0,B|109:230|230:193,1,202.500007724762,6|0,3:2|0:0,0:0:0:0:
151,75,116096,6,0,B|128:40|75:41|42:71|32:63|32:63|59:93|62:114,2,188.999994232178,2|2|14,3:2|1:2|0:0,0:0:0:0:
227,121,116538,5,0,0:0:0:0:
239,104,116626,2,0,P|275:96|310:87,1,67.5000025749208,0|0,1:0|1:0,0:0:0:0:
414,231,116802,6,0,P|397:259|359:176,1,188.999994232178,6|2,3:2|1:2,0:0:0:0:
416,349,117155,6,0,P|355:295|222:291,1,198.000006042481,6|0,3:2|0:0,0:0:0:0:
178,331,117420,1,0,0:0:0:0:
156,331,117508,2,0,P|147:370|186:358,1,99.0000030212403,2|0,3:2|1:0,0:0:0:0:
265,262,117685,5,0,1:0:0:0:
280,225,117773,1,0,1:0:0:0:
259,191,117861,2,0,B|277:256|186:271|144:187|204:139,1,198.000006042481,14|2,0:0|1:2,0:0:0:0:
213,134,118126,1,0,0:0:0:0:
220,122,118214,2,0,P|231:83|218:41,1,67.5000025749208,2|0,3:2|1:0,0:0:0:0:
129,0,118390,2,0,P|89:9|59:42,1,67.5000025749208,0|0,1:0|1:0,0:0:0:0:
145,76,118567,6,0,B|241:101|198:14|327:53,1,170.999995433807,6|2,3:2|1:2,0:0:0:0:
430,18,118832,5,0,0:0:0:0:
456,28,118920,2,0,P|476:61|477:122,1,94.499997116089,6|0,3:2|1:0,0:0:0:0:
376,136,119096,2,0,P|372:174|337:224,1,94.499997116089,2|0,1:2|1:0,0:0:0:0:
208,367,119273,6,0,P|228:334|229:273,1,94.499997116089,14|0,0:0|0:0,0:0:0:0:
128,259,119449,2,0,P|124:220|89:170,1,94.499997116089,2|0,1:2|0:0,0:0:0:0:
219,83,119626,6,0,B|171:142|218:209|275:191|326:147|283:82,1,229.500004377365,6|0,3:2|0:0,0:0:0:0:
273,17,119979,6,0,B|428:48|428:48|414:70|414:96,1,198.000006042481,6|0,3:2|0:0,0:0:0:0:
509,95,120243,1,0,0:0:0:0:
491,102,120332,2,0,B|472:135|472:135|506:206,1,99.0000030212403,2|0,3:2|1:0,0:0:0:0:
392,291,120508,5,0,1:0:0:0:
412,258,120596,1,0,1:0:0:0:
400,214,120685,2,0,B|368:185|328:204|331:196|331:196|286:250|225:227|225:237|225:237|245:212|236:168,1,256.499993150711,14|0,0:0|0:0,0:0:0:0:
123,99,121037,6,0,P|90:109|58:117,1,67.5000025749208,2|0,3:2|1:0,0:0:0:0:
145,175,121214,2,0,P|112:183|80:193,1,67.5000025749208,0|0,1:0|1:0,0:0:0:0:
0,172,121390,6,0,B|101:149|218:107,1,202.500007724762,6|0,3:2|0:0,0:0:0:0:
292,14,121743,6,0,B|339:36|311:91|311:91|290:48|268:62|266:-2,2,188.999994232178,2|2|14,3:2|1:2|0:0,0:0:0:0:
258,168,122185,5,0,0:0:0:0:
244,185,122273,2,0,P|245:225|261:256,1,67.5000025749208,6|0,1:2|0:0,0:0:0:0:
343,329,122449,2,0,B|355:364|398:366|414:343|426:346|426:346|403:315|378:354|338:306,1,188.999994232178,6|0,3:2|0:0,0:0:0:0:
399,252,122714,5,0,0:0:0:0:
383,239,122802,2,0,B|336:134|464:168|389:40,1,198.000006042481,6|0,3:2|1:0,0:0:0:0:
234,62,123067,1,0,1:0:0:0:
249,48,123155,2,0,P|292:56|319:109,1,99.0000030212403,2|0,3:2|1:0,0:0:0:0:
207,211,123332,5,0,1:0:0:0:
168,204,123420,1,0,1:0:0:0:
130,216,123508,2,0,B|125:242|164:265|164:265|155:241|153:218|175:216|147:166|108:155,1,198.000006042481,14|0,0:0|1:0,0:0:0:0:
91,151,123773,1,0,1:0:0:0:
77,141,123861,2,0,P|58:104|63:61,1,67.5000025749208,6|0,3:2|0:0,0:0:0:0:
177,0,124038,2,0,P|158:36|163:79,1,67.5000025749208,0|0,1:2|0:0,0:0:0:0:
325,193,124214,6,0,B|357:199|377:225|377:231|377:231|422:211|423:166|388:118,1,170.999995433807,6|0,3:2|1:0,0:0:0:0:
329,116,124479,1,0,1:0:0:0:
318,100,124567,2,0,P|317:62|354:7,1,94.499997116089,2|0,3:2|1:0,0:0:0:0:
496,124,124743,5,0,1:0:0:0:
507,160,124832,1,0,1:0:0:0:
496,196,124920,2,0,P|422:267|413:141,1,283.499991348267,14|0,0:0|0:0,0:0:0:0:
484,198,125273,6,0,P|421:257|414:151,1,229.500004377365,6|0,3:2|1:0,0:0:0:0:
473,201,125626,6,0,B|304:257|304:257|268:237|268:237|276:202|241:156,1,283.499991348267,6|0,3:2|0:0,0:0:0:0:
176,227,125979,5,2,3:2:0:0:
166,212,126068,1,2,1:2:0:0:
141,200,126156,1,2,1:2:0:0:
95,199,126244,1,2,1:2:0:0:
47,225,126332,6,0,B|6:244|-9:306|36:330|39:342|39:342|50:311|67:298,1,188.999994232178,14|2,0:0|1:2,0:0:0:0:
157,370,126685,5,2,3:2:0:0:
196,331,126773,1,2,1:2:0:0:
242,323,126861,1,2,1:2:0:0:
269,330,126949,1,2,1:2:0:0:
281,343,127038,6,0,B|361:317|361:317|318:144,1,229.500004377365,6|0,3:2|0:0,0:0:0:0:
181,102,127390,6,0,B|168:80|168:80|188:9,1,94.499997116089,2|0,3:2|0:0,0:0:0:0:
259,0,127567,2,0,B|272:22|272:22|253:88,1,94.499997116089,2|0,1:2|0:0,0:0:0:0:
142,178,127743,6,0,B|81:215|76:174|19:209|19:209|37:174|37:174|67:147|113:149,1,229.500004377365,14|0,0:0|1:0,0:0:0:0:
178,105,128096,6,0,B|165:83|165:83|185:12,1,94.499997116089,2|0,3:2|0:0,0:0:0:0:
264,4,128273,2,0,B|277:26|277:26|258:92,1,94.499997116089,2|0,1:2|0:0,0:0:0:0:
98,53,128449,6,0,B|132:86|132:86|387:58,1,256.499993150711,6|0,3:2|1:0,0:0:0:0:
424,179,128802,5,2,3:2:0:0:
412,165,128891,1,2,1:2:0:0:
406,138,128979,1,2,1:2:0:0:
417,93,129067,1,2,1:2:0:0:
464,66,129155,6,0,B|486:113|446:153|447:138|400:154|400:217|480:273|524:235|525:164|494:138,1,283.499991348267,14|0,0:0|0:0,0:0:0:0:
347,207,129508,5,2,3:2:0:0:
294,189,129596,1,2,1:2:0:0:
249,202,129684,1,2,1:2:0:0:
228,220,129772,1,2,1:2:0:0:
218,240,129861,6,0,B|176:289|120:267|120:267|112:213|25:229|25:229|48:254|45:290,1,283.499991348267,6|0,3:2|0:0,0:0:0:0:
0,377,130214,6,0,L|82:364,1,67.5000025749208,2|2,3:2|1:2,0:0:0:0:
147,351,130390,2,0,L|229:364,1,67.5000025749208,2|0,1:2|0:0,0:0:0:0:
299,339,130567,6,0,L|381:326,1,67.5000025749208,14|0,0:0|0:0,0:0:0:0:
446,313,130743,2,0,L|528:326,1,67.5000025749208,2|0,1:2|0:0,0:0:0:0:
418,157,130920,6,0,B|430:175|450:191|450:191|375:185|403:168|351:135|317:162|317:162|332:185|326:211,1,229.500004377365,6|0,3:2|0:0,0:0:0:0:
255,205,131273,6,0,B|335:248|365:164|373:187|415:77|518:148,1,283.499991348267,6|0,3:2|0:0,0:0:0:0:
503,233,131626,5,2,3:2:0:0:
486,239,131715,1,2,1:2:0:0:
458,234,131803,1,2,1:2:0:0:
421,208,131891,1,2,1:2:0:0:
418,157,131979,6,0,B|405:137|426:108|429:119|456:97|443:51|443:51|417:33|417:33|339:63,1,188.999994232178,14|2,0:0|1:2,0:0:0:0:
284,136,132332,5,2,1:2:0:0:
245,175,132420,1,2,1:2:0:0:
199,183,132508,1,2,1:2:0:0:
172,176,132596,1,2,1:2:0:0:
158,162,132685,6,0,B|103:193|95:163|70:157|41:169|41:169|18:213|18:213|55:189|67:213|84:190,1,229.500004377365,6|0,3:2|0:0,0:0:0:0:
211,275,133038,6,0,B|199:321|199:321|220:376,1,94.499997116089,2|0,3:2|0:0,0:0:0:0:
295,366,133214,2,0,B|311:322|311:322|299:276,1,94.499997116089,2|0,1:2|0:0,0:0:0:0:
324,137,133390,6,0,B|382:147|397:203|371:227|379:243|379:243|355:194|334:211|325:169,1,229.500004377365,14|0,0:0|0:0,0:0:0:0:
204,282,133743,6,0,B|197:308|197:308|209:340,3,47.2499985580445,2|0|0|0,1:2|0:0|1:0|0:0,0:0:0:0:
308,327,133920,2,0,B|314:308|314:308|308:282,3,47.2499985580445,2|0|0|0,1:2|0:0|1:0|0:0,0:0:0:0:
254,382,134096,6,0,P|249:287|249:90,1,256.499993150711,6|0,3:2|1:0,0:0:0:0:
163,136,134449,5,2,1:2:0:0:
174,123,134538,1,0,1:0:0:0:
180,96,134626,1,2,1:2:0:0:
169,51,134714,1,0,1:0:0:0:
128,21,134802,6,0,B|67:58|67:58|99:209,1,188.999994232178,14|0,0:0|1:0,0:0:0:0:
102,192,135067,5,0,1:0:0:0:
166,232,135155,2,0,L|254:209,1,72,2|0,3:2|0:0,0:0:0:0:
247,49,135332,2,0,L|316:67,1,72,2|0,1:2|0:0,0:0:0:0:
438,168,135508,5,6,3:2:0:0:
438,168,135685,1,0,1:0:0:0:
438,168,135861,1,0,1:0:0:0:
361,177,136038,5,2,1:2:0:0:
343,184,136127,1,0,0:0:0:0:
324,179,136215,1,2,1:2:0:0:
240,187,136390,5,6,1:2:0:0:
156,184,136567,6,0,B|126:176|106:197|106:197|134:187|156:196,1,101.250003862381,6|0,0:0|0:0,0:0:0:0:
164,193,136920,6,0,P|261:197|404:207,1,215.999993408203,6|2,3:2|1:2,0:0:0:0:
379,204,137449,1,0,0:0:0:0:
336,62,137626,5,10,0:0:0:0:
256,67,137802,1,0,0:0:0:0:
236,76,137890,1,0,0:0:0:0:
218,72,137979,2,0,P|159:82|100:89,1,90,2|2,1:2|1:2,0:0:0:0:
25,169,138332,5,6,3:2:0:0:
25,169,138685,5,2,1:2:0:0:
104,181,138861,1,2,3:2:0:0:
184,193,139038,1,10,0:0:0:0:
201,190,139126,1,2,1:2:0:0:
218,186,139214,1,2,1:2:0:0:
235,183,139302,1,2,1:2:0:0:
252,179,139390,2,0,L|262:122,3,45,2|0|2|0,1:2|0:0|1:2|0:0,0:0:0:0:
409,219,139743,5,6,3:2:0:0:
477,262,139920,2,0,L|487:319,2,45,2|2|2,1:2|1:2|1:2,0:0:0:0:
287,380,140273,5,2,1:2:0:0:
325,307,140449,2,0,P|268:299|212:241,1,107.999996704102,14|2,0:0|1:2,0:0:0:0:
220,255,140714,1,0,0:0:0:0:
220,241,140802,2,0,B|212:207|244:190|244:190|230:213|231:231,1,101.250003862381,2|0,3:2|0:0,0:0:0:0:
390,264,141155,6,0,L|449:277,1,45,6|2,3:2|0:0,0:0:0:0:
348,125,141332,1,0,0:0:0:0:
364,117,141420,1,2,0:0:0:0:
381,117,141508,2,0,L|440:104,1,45,2|2,1:2|0:2,0:0:0:0:
247,218,141685,6,0,L|306:231,1,45,2|2,3:2|0:2,0:0:0:0:
173,154,141861,2,0,L|232:141,1,45,10|2,0:0|1:2,0:0:0:0:
56,199,142038,6,0,L|116:201,5,45,2|2|2|2|2|2,1:2|1:2|1:2|1:2|1:2|1:2,0:0:0:0:
37,185,142567,6,0,B|66:130|18:102|9:107|-33:74|11:-2,1,180,6|2,3:2|1:2,0:0:0:0:
0,23,143096,1,0,0:0:0:0:
115,72,143273,6,0,P|141:82|188:83,1,45,10|0,0:0|0:0,0:0:0:0:
260,77,143449,1,0,0:0:0:0:
277,73,143537,1,0,0:0:0:0:
288,63,143626,2,0,P|328:43|396:60,1,90,2|2,1:2|1:2,0:0:0:0:
484,145,143979,5,6,3:2:0:0:
484,145,144332,5,2,1:2:0:0:
405,157,144508,1,2,3:2:0:0:
325,169,144685,1,10,0:0:0:0:
308,166,144773,1,2,1:2:0:0:
291,162,144861,1,0,1:2:0:0:
274,159,144949,1,2,1:2:0:0:
257,155,145037,2,0,L|247:98,3,45,2|0|2|0,1:2|1:2|1:2|1:2,0:0:0:0:
94,247,145390,5,6,3:2:0:0:
167,225,145567,1,0,0:0:0:0:
218,281,145743,2,0,P|245:299|255:317,1,45
417,344,145920,2,0,P|412:365|400:384,1,45
336,328,146096,6,0,P|334:274|313:224,1,107.999996704102,10|0,0:0|0:0,0:0:0:0:
301,213,146361,1,0,0:0:0:0:
286,206,146449,1,0,1:0:0:0:
358,201,146802,5,6,3:2:0:0:
337,215,146890,1,2,0:0:0:0:
313,224,146979,1,0,0:0:0:0:
238,296,147155,1,2,1:2:0:0:
109,313,147332,1,2,3:2:0:0:
0,194,147508,6,0,B|0:174|0:174|15:163|15:163|35:168,1,53.9999983520508,14|0,0:0|0:0,0:0:0:0:
50,127,147685,6,0,B|62:109|62:109|83:110|83:110|97:127,1,62.9999980773926,2|2,0:0|0:0,0:0:0:0:
160,80,147861,6,0,B|170:69|185:71|185:71|208:88|208:88|206:100|210:116,1,72,2|2,0:0|0:0,0:0:0:0:
288,65,148038,6,0,B|304:66|314:73|314:73|322:100|322:100|312:110|307:125,1,80.9999975280763,0|2,0:0|0:0,0:0:0:0:
480,204,148214,6,0,P|393:185|310:217,1,125.999996154785,6|2,3:2|1:2,0:0:0:0:
207,258,148567,1,0,3:0:0:0:
430,329,148743,5,2,1:2:0:0:
444,307,148832,1,0,0:0:0:0:
469,292,148920,2,0,P|382:273|299:305,1,125.999996154785,14|2,0:0|0:0,0:0:0:0:
285,205,149185,5,0,3:0:0:0:
267,211,149273,2,0,P|241:183|235:153,1,62.9999980773926,0|2,1:0|1:2,0:0:0:0:
122,197,149449,2,0,P|116:234|130:262,1,62.9999980773926,2|0,3:2|0:0,0:0:0:0:
178,379,149626,6,0,P|246:340|313:339,1,125.999996154785,6|2,3:2|1:2,0:0:0:0:
370,193,149979,5,0,3:0:0:0:
429,356,150156,1,2,1:2:0:0:
370,193,150332,1,14,0:0:0:0:
453,220,150508,5,0,0:0:0:0:
475,209,150596,1,2,3:2:0:0:
493,192,150685,1,0,1:0:0:0:
502,168,150773,1,0,3:0:0:0:
504,143,150861,1,2,3:2:0:0:
498,118,150949,1,0,3:0:0:0:
484,97,151038,6,0,P|432:74|349:72,1,125.999996154785,6|0,3:2|1:0,0:0:0:0:
192,164,151390,1,0,3:0:0:0:
288,66,151567,5,2,1:2:0:0:
274,47,151655,1,0,0:0:0:0:
271,23,151743,1,14,0:0:0:0:
326,135,151920,6,0,P|285:146|260:165,1,62.9999980773926,2|0,0:0|3:0,0:0:0:0:
383,280,152096,1,0,1:0:0:0:
367,263,152185,1,0,1:0:0:0:
343,254,152273,1,2,3:2:0:0:
318,250,152361,1,0,0:0:0:0:
292,251,152449,5,6,3:2:0:0:
257,267,152538,2,0,P|230:299|221:330,1,62.9999980773926,0|0,3:0|0:0,0:0:0:0:
7,297,152714,5,2,3:2:0:0:
11,334,152803,2,0,P|33:369|59:387,1,62.9999980773926,0|0,3:0|0:0,0:0:0:0:
145,239,152979,5,2,3:2:0:0:
126,271,153067,2,0,P|122:312|133:343,1,62.9999980773926,0|2,3:0|3:2,0:0:0:0:
51,204,153332,5,2,3:2:0:0:
32,178,153420,1,0,3:0:0:0:
37,146,153508,1,6,3:2:0:0:
50,133,153596,1,0,3:0:0:0:
61,117,153685,1,2,3:2:0:0:
61,91,153773,1,0,0:0:0:0:
44,64,153861,6,0,P|119:35|181:44,1,125.999996154785,6|2,3:2|1:2,0:0:0:0:
291,9,154214,2,0,P|311:29|327:62,2,62.9999980773926,2|2|2,3:2|1:2|1:2,0:0:0:0:
247,153,154567,5,14,0:0:0:0:
392,108,154743,1,0,0:0:0:0:
406,95,154832,1,0,3:0:0:0:
413,77,154920,1,0,0:0:0:0:
476,188,155096,5,0,3:0:0:0:
449,178,155185,1,0,3:0:0:0:
419,185,155273,2,0,B|312:225|346:101|225:161,1,188.999994232178,6|0,3:2|1:0,0:0:0:0:
226,168,155626,5,2,3:2:0:0:
147,323,155802,1,2,3:2:0:0:
15,208,155979,6,0,P|49:201|82:209,2,62.9999980773926,14|0|0,0:0|0:0|0:0,0:0:0:0:
153,153,156243,1,2,3:2:0:0:
138,132,156332,2,0,P|112:108|80:97,1,62.9999980773926,0|0,3:0|0:0,0:0:0:0:
51,296,156508,2,0,P|20:313|0:340,1,62.9999980773926,2|0,3:2|0:0,0:0:0:0:
102,384,156685,5,6,3:2:0:0:
266,359,156861,1,2,3:2:0:0:
238,186,157038,1,0,3:0:0:0:
178,317,157214,5,0,3:0:0:0:
202,297,157302,1,0,3:0:0:0:
232,290,157390,1,14,0:0:0:0:
408,308,157567,2,0,P|439:317|461:345,1,62.9999980773926,2|0,1:2|3:0,0:0:0:0:
353,246,157743,6,0,P|345:214|358:181,1,62.9999980773926,0|0,1:0|0:0,0:0:0:0:
439,99,157920,1,2,1:2:0:0:
426,85,158008,1,0,0:0:0:0:
427,65,158096,2,0,P|450:42|485:37,1,62.9999980773926,6|0,3:2|0:0,0:0:0:0:
512,235,158361,6,0,P|490:212|459:206,1,62.9999980773926,2|6,3:2|1:2,0:0:0:0:
356,337,158626,6,0,P|386:330|408:308,1,62.9999980773926,6|0,3:2|0:0,0:0:0:0:
371,150,158802,5,0,1:0:0:0:
356,158,158890,1,0,1:0:0:0:
342,166,158979,1,0,1:0:0:0:
326,169,159067,1,0,1:0:0:0:
310,170,159155,1,6,1:2:0:0:
236,101,159332,5,6,1:2:0:0:
236,101,159508,2,0,L|140:108,1,80.9999975280763,6|0,3:2|0:0,0:0:0:0:
236,101,159861,2,0,L|140:108,1,80.9999975280763,6|0,3:2|0:0,0:0:0:0:
236,101,160214,6,0,L|140:108,1,80.9999975280763,6|0,3:2|0:0,0:0:0:0:
236,101,160479,2,0,L|140:108,1,80.9999975280763,6|2,3:2|0:0,0:0:0:0:
236,101,160743,2,0,L|140:108,1,80.9999975280763,2|0,3:2|0:0,0:0:0:0:
224,182,160920,5,6,3:2:0:0:
255,189,161008,1,2,3:2:0:0:
236,215,161096,1,2,3:2:0:0:
267,224,161185,1,2,3:2:0:0:
256,254,161273,6,0,L|351:244,1,80.9999975280763,6|0,3:2|0:0,0:0:0:0:
256,254,161626,2,0,L|351:244,1,80.9999975280763,6|0,3:2|0:0,0:0:0:0:
256,254,161890,6,0,L|351:244,1,80.9999975280763,6|0,3:2|0:0,0:0:0:0:
256,254,162155,6,0,L|351:244,1,80.9999975280763,6|6,3:2|3:2,0:0:0:0:
343,325,162332,2,0,L|262:333,1,80.9999975280763,6|0,3:2|0:0,0:0:0:0:
256,254,162685,6,0,L|351:244,1,80.9999975280763,6|0,3:2|0:0,0:0:0:0:
239,356,162861,5,6,3:2:0:0:
207,349,162949,1,2,3:2:0:0:
230,325,163038,2,0,L|131:331,1,80.9999975280763,6|0,3:2|0:0,0:0:0:0:
230,325,163302,2,0,L|131:331,1,80.9999975280763,6|0,3:2|0:0,0:0:0:0:
230,325,163567,2,0,L|131:331,1,80.9999975280763,6|0,3:2|0:0,0:0:0:0:
61,343,163743,5,6,3:2:0:0:
33,247,163920,1,0,1:0:0:0:
36,223,164008,1,0,1:0:0:0:
55,209,164096,1,6,3:2:0:0:
127,175,164273,2,0,P|146:155|145:122,2,53.9999983520508,6|2|6,3:2|3:2|3:2,0:0:0:0:
230,76,164626,5,2,1:2:0:0:
275,197,164803,1,6,1:2:0:0:
247,271,164979,1,6,1:2:0:0:
338,381,165155,6,0,P|369:349|368:292,1,80.9999975280763,6|0,3:2|0:0,0:0:0:0:
137,315,165508,2,0,P|148:358|198:385,1,80.9999975280763,6|0,3:2|0:0,0:0:0:0:
259,353,165861,6,0,L|263:256,1,80.9999975280763,6|0,3:2|0:0,0:0:0:0:
259,353,166126,2,0,B|253:299|253:299|269:258,1,80.9999975280763,6|0,3:2|0:0,0:0:0:0:
193,242,166302,1,2,0:0:0:0:
193,242,166390,2,0,B|202:217|202:217|196:163,1,80.9999975280763,2|2,3:2|3:2,0:0:0:0:
182,53,166567,5,6,3:2:0:0:
268,112,166743,1,6,3:2:0:0:
276,88,166832,1,0,0:0:0:0:
267,65,166920,2,0,L|262:16,2,40.4999987640381,6|0|0,3:2|0:0|0:0,0:0:0:0:
356,68,167096,5,0,0:0:0:0:
361,52,167185,1,2,0:0:0:0:
354,37,167273,1,6,3:2:0:0:
182,53,167449,5,2,3:2:0:0:
177,69,167538,1,6,3:2:0:0:
184,84,167626,1,6,1:2:0:0:
385,230,167802,5,6,1:2:0:0:
147,184,167979,1,14,0:0:0:0:
385,230,168155,1,6,3:2:0:0:
362,138,168685,5,14,0:0:0:0:
185,264,168862,1,10,0:0:0:0:
423,337,169214,5,0,0:0:0:0:
423,337,169390,6,0,B|456:324|473:296|473:296|470:277|471:265|471:265|463:210|390:184|368:191|368:191|272:171|195:277|228:406|515:395|328:184|361:264|414:120|344:153|354:82|354:82|364:69|301:72|249:127|332:155|240:206,1,877.49995983124,2|0,0:2|0:0,0:0:0:0:
260,192,170802,5,6,3:2:0:0:
190,206,170979,1,0,0:0:0:0:
181,128,171155,2,0,L|132:132,3,36,8|0|0|8,1:2|0:0|0:0|1:2,0:0:0:0:
258,115,171508,5,0,0:0:0:0:
257,97,171596,1,0,1:0:0:0:
255,79,171685,1,0,1:0:0:0:
254,61,171773,1,0,1:0:0:0:
274,30,171861,5,8,1:2:0:0:
375,39,172038,1,0,0:0:0:0:
366,139,172214,1,0,1:0:0:0:
265,130,172390,2,0,L|216:134,2,36,0|0|8,1:0|1:0|1:2,0:0:0:0:
258,242,172743,1,0,1:0:0:0:
358,252,172920,2,0,L|407:248,2,36,0|0|8,1:0|1:0|1:2,0:0:0:0:
246,352,173273,5,8,1:2:0:0:
210,347,173361,1,8,1:2:0:0:
174,342,173450,1,0,1:0:0:0:
138,336,173538,1,8,1:2:0:0:
88,352,173626,5,6,3:2:0:0:
424,330,173979,1,8,1:2:0:0:
421,251,174155,1,0,1:0:0:0:
500,245,174332,1,0,0:0:0:0:
497,227,174420,1,0,1:0:0:0:
495,209,174508,1,0,1:0:0:0:
492,191,174596,1,0,1:0:0:0:
489,172,174685,1,8,1:2:0:0:
410,168,174861,5,0,0:0:0:0:
453,101,175038,1,0,1:0:0:0:
401,44,175214,1,0,1:0:0:0:
401,44,175302,1,0,1:0:0:0:
401,44,175390,1,8,1:2:0:0:
333,143,175567,6,0,L|291:149,2,36,0|0|0,0:0|1:0|1:0,0:0:0:0:
350,221,175832,1,0,0:0:0:0:
350,221,175920,1,8,1:2:0:0:
207,283,176096,1,8,1:2:0:0:
171,274,176185,1,8,1:2:0:0:
136,263,176273,1,0,1:0:0:0:
104,280,176361,1,8,1:2:0:0:
63,312,176449,5,6,3:2:0:0:
25,43,176802,1,8,1:2:0:0:
103,32,176979,1,0,0:0:0:0:
103,32,177067,1,0,1:0:0:0:
103,32,177155,2,0,L|99:81,3,36,0|8|0|0,0:0|1:2|1:0|0:0,0:0:0:0:
176,52,177508,5,8,1:2:0:0:
253,35,177685,2,0,L|249:-14,2,36,0|0|0,0:0|1:0|1:0,0:0:0:0:
328,56,178038,1,0,0:0:0:0:
348,62,178126,1,0,1:0:0:0:
369,59,178214,1,8,1:2:0:0:
443,46,178390,2,0,L|438:4,1,36,0|0,1:0|1:0,0:0:0:0:
462,117,178567,2,0,L|466:81,1,36,0|0,1:0|1:0,0:0:0:0:
435,186,178743,2,0,L|430:150,1,36,0|8,1:0|1:2,0:0:0:0:
483,249,178920,5,8,1:2:0:0:
488,285,179008,1,8,1:2:0:0:
493,321,179097,1,0,1:0:0:0:
499,357,179185,1,8,1:2:0:0:
455,384,179273,5,6,3:2:0:0:
71,358,179626,1,8,1:2:0:0:
134,310,179802,1,0,1:0:0:0:
128,289,179890,1,8,1:2:0:0:
120,268,179979,2,0,L|126:206,4,36,0|8|0|8|8,1:0|1:2|1:0|1:2|1:2,0:0:0:0:
42,262,180508,1,0,1:0:0:0:
212,273,180685,6,0,B|221:269|221:269|228:263|236:271|236:271|226:276|221:270|221:270|211:263,8,53.9999983520508,2|0|2|0|2|0|2|0|2,0:0|0:0|0:0|0:0|0:0|0:0|0:0|0:0|0:0,0:0:0:0:
81,377,181567,5,0,1:0:0:0:
81,377,181655,2,0,P|64:335|69:309,1,53.9999983520508,2|0,0:0|1:0,0:0:0:0:
0,288,181832,5,2,0:0:0:0:
0,288,181920,2,0,P|1:261|14:237,1,53.9999983520508,0|0,1:0|1:0,0:0:0:0:
0,378,182096,6,0,P|86:314|246:248,1,256.499993150711,6|0,3:2|0:0,0:0:0:0:
151,156,182449,5,8,1:2:0:0:
124,146,182538,1,0,1:0:0:0:
101,126,182626,1,6,1:2:0:0:
83,103,182714,1,0,1:0:0:0:
78,78,182802,6,0,B|86:64|86:64|74:8,3,67.5000025749208,6|0|0|0,3:2|1:0|1:0|1:0,0:0:0:0:
236,100,183155,2,0,B|244:114|244:114|232:170,3,67.5000025749208,10|0|0|0,1:2|1:0|1:0|1:0,0:0:0:0:
410,49,183508,5,2,3:2:0:0:
390,27,183597,1,0,1:0:0:0:
363,15,183685,1,0,1:0:0:0:
334,9,183773,1,0,1:0:0:0:
307,12,183861,2,0,L|216:32,3,67.5000025749208,10|0|0|0,1:2|1:0|1:0|1:0,0:0:0:0:
333,199,184214,6,0,L|399:184,1,67.5000025749208,6|0,3:2|0:0,0:0:0:0:
460,109,184390,2,0,L|445:43,1,67.5000025749208,2|0,1:2|1:0,0:0:0:0:
450,32,184567,2,0,L|464:97,1,67.5000025749208,10|0,1:2|1:0,0:0:0:0:
410,189,184743,2,0,L|345:203,1,67.5000025749208,0|0,1:0|1:0,0:0:0:0:
422,344,184920,6,0,B|430:248|506:308|504:181,1,170.999995433807,6|0,3:2|1:0,0:0:0:0:
348,304,185185,5,0,1:0:0:0:
337,321,185273,2,0,P|302:302|260:297,3,67.5000025749208,10|0|6|0,1:2|0:0|1:2|1:0,0:0:0:0:
130,350,185626,2,0,P|95:369|53:374,3,67.5000025749208,6|0|0|0,3:2|1:0|1:0|1:0,0:0:0:0:
217,223,185979,6,0,P|222:183|242:146,1,67.5000025749208,10|0,1:2|1:0,0:0:0:0:
74,166,186155,2,0,P|55:131|49:89,1,67.5000025749208,0|0,1:0|1:0,0:0:0:0:
116,253,186332,5,6,3:2:0:0:
90,260,186420,1,2,1:2:0:0:
63,254,186508,1,2,1:2:0:0:
37,263,186596,1,2,1:2:0:0:
16,281,186685,6,0,P|10:317|39:353,1,67.5000025749208,14|0,0:0|0:0,0:0:0:0:
233,335,186861,1,2,1:2:0:0:
223,309,186949,1,2,1:2:0:0:
230,287,187038,2,0,B|249:256|309:254|344:298|344:298|318:338,1,170.999995433807,2|2,3:2|1:2,0:0:0:0:
308,340,187302,1,0,1:0:0:0:
291,334,187390,2,0,B|297:231|369:313|378:185,1,170.999995433807,14|6,0:0|1:2,0:0:0:0:
302,141,187655,5,0,0:0:0:0:
302,158,187743,2,0,B|321:208|377:197|377:197|369:194|400:139|370:83|312:66,1,256.499993150711,6|0,3:2|0:0,0:0:0:0:
163,35,188096,5,8,1:2:0:0:
143,37,188185,1,0,1:0:0:0:
126,48,188273,2,0,P|107:73|96:121,1,67.5000025749208,6|0,1:2|1:0,0:0:0:0:
29,226,188449,6,0,P|10:200|0:152,3,67.5000025749208,6|0|0|0,3:2|1:0|1:0|1:0,0:0:0:0:
171,178,188802,2,0,P|170:146|189:101,3,67.5000025749208,10|0|0|0,1:2|1:0|1:0|1:0,0:0:0:0:
95,356,189155,5,2,3:2:0:0:
112,333,189243,1,0,1:0:0:0:
135,315,189332,1,0,1:0:0:0:
159,304,189420,1,0,1:0:0:0:
181,300,189508,2,0,L|259:309,3,67.5000025749208,10|0|0|0,1:2|1:0|1:0|1:0,0:0:0:0:
161,177,189861,6,0,P|160:145|179:100,1,67.5000025749208,6|0,3:2|0:0,0:0:0:0:
267,25,190038,2,0,P|294:8|342:2,1,67.5000025749208,2|0,1:2|1:0,0:0:0:0:
330,11,190214,2,0,P|297:17|269:35,1,67.5000025749208,10|0,1:2|1:0,0:0:0:0:
181,114,190390,2,0,P|170:146|171:180,1,67.5000025749208,0|0,1:0|1:0,0:0:0:0:
310,149,190567,6,0,B|298:164|297:187|297:187|332:144|389:107|436:114|436:114|408:128|398:148,1,256.499993150711,6|0,3:2|1:0,0:0:0:0:
387,251,190920,2,0,B|367:174|317:226|307:136,1,135.000005149842,10|6,1:2|1:2,0:0:0:0:
282,37,191185,5,0,0:0:0:0:
268,35,191273,2,0,P|237:49|217:76,3,67.5000025749208,6|0|0|0,3:2|1:0|1:0|1:0,0:0:0:0:
388,83,191626,2,0,P|400:113|397:147,3,67.5000025749208,10|0|0|0,0:0|1:0|1:0|1:0,0:0:0:0:
312,201,191979,5,6,3:2:0:0:
296,213,192067,2,0,P|264:208|236:188,1,67.5000025749208,0|2,1:0|1:2,0:0:0:0:
223,325,192243,1,0,1:0:0:0:
239,338,192331,2,0,P|271:333|299:313,1,67.5000025749208,14|0,1:2|0:0,0:0:0:0:
158,171,192508,2,0,P|154:204|167:236,1,67.5000025749208,0|0,1:0|1:0,0:0:0:0:
302,92,192685,6,0,L|269:88,1,33.7500012874604,6|0,3:2|0:0,0:0:0:0:
289,100,192773,2,0,L|285:133,1,33.7500012874604,0|0,1:0|0:0,0:0:0:0:
298,113,192861,2,0,L|331:117,1,33.7500012874604,2|0,1:2|0:0,0:0:0:0:
311,105,192949,2,0,L|315:72,1,33.7500012874604
331,77,193038,5,10,1:2:0:0:
374,59,193126,1,0,0:0:0:0:
423,66,193214,1,6,1:2:0:0:
459,96,193302,1,0,0:0:0:0:
469,155,193391,6,0,B|379:197|348:122|349:140|325:75|204:129,1,256.499993150711,6|0,3:2|1:0,0:0:0:0:
198,256,193743,2,0,B|227:270|268:253|282:219|282:219|263:189,1,135.000005149842,10|6,1:2|1:2,0:0:0:0:
157,147,194008,1,0,0:0:0:0:
142,132,194096,2,0,B|127:100|127:100|146:61,3,67.5000025749208,6|0|0|0,3:2|1:0|1:0|1:0,0:0:0:0:
61,253,194449,5,10,1:2:0:0:
41,248,194538,1,0,1:0:0:0:
22,255,194626,2,0,B|7:287|7:287|26:326,1,67.5000025749208,0|0,1:0|1:0,0:0:0:0:
133,379,194802,2,0,L|209:385,3,67.5000025749208,2|0|0|0,3:2|1:0|1:0|1:0,0:0:0:0:
244,293,195155,5,10,1:2:0:0:
274,277,195244,1,0,1:0:0:0:
296,251,195332,1,0,1:0:0:0:
305,218,195420,1,0,1:0:0:0:
294,186,195508,6,0,B|282:173|282:173|289:115,1,67.5000025749208,6|2,3:2|1:2,0:0:0:0:
217,26,195685,2,0,B|205:39|205:39|212:97,1,67.5000025749208,2|2,1:2|1:2,0:0:0:0:
376,155,195861,2,0,L|460:147,1,67.5000025749208,14|0,0:0|1:0,0:0:0:0:
453,158,196038,2,0,L|385:164,1,67.5000025749208,0|0,1:0|1:0,0:0:0:0:
350,259,196214,6,0,B|322:282|322:282|407:276|407:276|413:270|413:270|513:260|513:260|492:281,1,256.499993150711,6|0,3:2|1:0,0:0:0:0:
401,367,196567,2,0,B|359:346|359:346|344:210,1,135.000005149842,10|6,1:2|1:2,0:0:0:0:
132,323,196832,5,0,0:0:0:0:
138,343,196920,2,0,B|151:367|151:367|230:378,1,67.5000025749208,2|0,3:2|1:2,0:0:0:0:
275,265,197096,2,0,B|239:283|239:283|215:272,1,67.5000025749208,0|0,1:0|1:0,0:0:0:0:
252,177,197273,2,0,B|279:172|279:172|314:100,1,67.5000025749208,10|0,1:2|1:2,0:0:0:0:
221,38,197449,6,0,B|224:57|224:57|215:67,1,33.7500012874604,2|0,1:2|0:0,0:0:0:0:
207,33,197538,2,0,B|197:43|197:43|200:62,1,33.7500012874604,0|0,1:0|0:0,0:0:0:0:
209,40,197626,6,0,L|213:126,1,67.5000025749208,6|0,3:2|1:0,0:0:0:0:
97,113,197802,2,0,L|94:46,1,67.5000025749208,2|0,1:2|1:0,0:0:0:0:
303,40,197979,6,0,L|299:107,1,67.5000025749208,14|2,1:2|1:2,0:0:0:0:
415,113,198155,2,0,L|418:46,1,67.5000025749208,2|2,1:2|1:2,0:0:0:0:
281,212,198332,6,0,B|266:197|266:197|233:199,1,33.7500012874604,6|0,3:2|0:0,0:0:0:0:
243,196,198420,2,0,B|228:210|228:210|230:243,1,33.7500012874604,2|0,1:2|0:0,0:0:0:0:
227,233,198508,2,0,B|241:247|241:247|274:245,1,33.7500012874604,2|0,1:2|0:0,0:0:0:0:
265,249,198596,2,0,B|279:234|279:234|277:201,1,33.7500012874604,2|0,1:2|0:0,0:0:0:0:
271,232,198685,5,14,1:2:0:0:
261,204,198773,1,0,0:0:0:0:
235,213,198861,1,6,1:2:0:0:
242,238,198949,1,0,0:0:0:0:
261,225,199038,6,0,B|278:208|278:208|451:183,1,170.999995433807,6|0,3:2|0:0,0:0:0:0:
451,349,199302,5,0,0:0:0:0:
435,362,199390,2,0,B|342:340|342:340|346:322|334:294,1,135.000005149842,10|6,0:0|1:2,0:0:0:0:
262,326,199655,1,0,0:0:0:0:
245,337,199743,2,0,B|211:329|211:329|178:347,1,67.5000025749208,6|0,3:2|1:0,0:0:0:0:
91,322,199920,2,0,B|57:330|57:330|24:312,1,67.5000025749208,0|0,1:0|1:0,0:0:0:0:
54,190,200096,5,10,1:2:0:0:
80,183,200185,1,0,1:0:0:0:
106,177,200273,1,0,1:0:0:0:
132,172,200361,1,0,1:0:0:0:
162,197,200449,6,0,B|207:229|256:194|256:194|242:180|241:133,1,135.000005149842,6|0,3:2|1:0,0:0:0:0:
335,136,200714,1,0,1:0:0:0:
348,120,200802,2,0,P|390:124|421:145,1,67.5000025749208,10|0,1:2|1:0,0:0:0:0:
335,34,200979,2,0,P|377:30|408:9,1,67.5000025749208,0|0,1:0|1:0,0:0:0:0:
392,233,201155,6,0,P|361:218|328:216,1,67.5000025749208,6|2,3:2|1:2,0:0:0:0:
339,362,201332,2,0,P|366:343|399:337,1,67.5000025749208,2|2,1:2|1:2,0:0:0:0:
337,374,201508,2,0,P|364:355|397:349,1,67.5000025749208,10|0,1:2|1:0,0:0:0:0:
386,244,201685,2,0,P|355:229|322:227,1,67.5000025749208,0|0,1:0|1:0,0:0:0:0:
180,364,201861,6,0,B|160:373|160:373|103:333|139:275|139:275|211:228|149:141,1,256.499993150711,6|0,3:2|1:0,0:0:0:0:
172,266,202214,2,0,B|226:290|211:347|211:347|173:367,1,135.000005149842,10|6,1:2|1:2,0:0:0:0:
1,193,202479,5,0,0:0:0:0:
17,203,202567,2,0,P|62:203|103:211,3,67.5000025749208,6|0|0|0,3:2|1:0|1:0|1:0,0:0:0:0:
13,106,202920,2,0,P|58:105|99:98,1,67.5000025749208,10|0,1:2|1:0,0:0:0:0:
245,163,203096,5,0,1:0:0:0:
264,170,203185,1,0,1:0:0:0:
283,164,203273,2,0,B|312:135|377:147|397:184|397:184|368:210|364:246,1,180.000006866455,6|0,3:2|1:0,0:0:0:0:
386,355,203626,5,10,0:0:0:0:
347,316,203743,5,0,1:0:0:0:
293,318,203861,5,0,1:0:0:0:
226,360,203979,6,0,B|206:349|206:349|201:327,1,45.0000017166138,0|0,3:0|0:0,0:0:0:0:
160,321,204097,6,0,B|179:309|179:309|200:315,1,45.0000017166138,0|0,1:0|0:0,0:0:0:0:
222,283,204214,6,0,B|222:305|222:305|206:321,1,45.0000017166138,0|0,1:0|0:0,0:0:0:0:
204,324,204332,6,0,B|226:330|226:330|245:319,1,45.0000017166138,10|0,0:0|0:0,0:0:0:0:
206,315,204449,6,0,B|201:294|201:294|181:284,1,45.0000017166138,2|0,3:2|0:0,0:0:0:0:
196,322,204567,6,0,B|179:338|179:338|180:360,1,45.0000017166138,2|0,3:2|0:0,0:0:0:0:
200,313,204685,6,0,B|192:197|112:269|109:133,1,204.000003890991,6|0,3:2|0:0,0:0:0:0:
300,143,205038,2,0,P|240:146|183:163,1,90.0000034332277,14|0,1:2|0:0,0:0:0:0:
289,53,205273,1,0,1:0:0:0:
289,53,205390,2,0,P|244:44|200:43,1,90.0000034332277,2|0,3:2|1:0,0:0:0:0:
185,246,205626,5,0,0:0:0:0:
185,246,205743,2,0,B|209:327|244:279|268:329|276:338|276:338|296:303|248:265,1,204.000003890991,14|0,1:2|1:0,0:0:0:0:
205,384,206096,6,0,P|320:331|415:316,1,204.000003890991,2|0,3:2|1:0,0:0:0:0:
450,239,206449,2,0,P|438:195|429:142,1,90.0000034332277,14|0,1:2|0:0,0:0:0:0:
456,79,206685,1,0,1:0:0:0:
335,101,206802,6,0,B|310:127|310:127|253:122|253:122|250:125|250:125|190:119|190:119|179:90|138:63,1,204.000003890991,6|0,3:2|0:0,0:0:0:0:
50,247,207155,5,14,1:2:0:0:
139,292,207273,1,2,1:2:0:0:
72,314,207390,1,2,1:2:0:0:
119,221,207508,2,0,B|147:148|49:106|49:106|49:140|27:174,1,204.000003890991,6|0,3:2|1:0,0:0:0:0:
16,372,207861,6,0,P|114:342|225:318,1,204.000003890991,14|0,1:2|1:0,0:0:0:0:
308,233,208214,5,2,3:2:0:0:
292,303,208332,1,0,1:0:0:0:
360,320,208449,1,0,0:0:0:0:
381,251,208567,2,0,P|433:241|487:219,1,90.0000034332277,14|0,1:2|0:0,0:0:0:0:
421,164,208802,1,0,1:0:0:0:
308,233,208920,6,0,B|281:214|245:215|245:215|184:154|235:92,1,204.000003890991,2|0,3:2|1:0,0:0:0:0:
342,99,209273,2,0,P|384:83|429:75,1,90.0000034332277,14|0,0:0|1:0,0:0:0:0:
488,124,209508,1,0,1:0:0:0:
342,99,209626,6,0,B|307:66|307:66|318:12,1,102.000001945496,6|2,3:2|1:2,0:0:0:0:
237,15,209861,1,0,1:0:0:0:
148,61,209979,6,0,B|113:94|113:94|124:148,1,102.000001945496,14|2,3:2|1:2,0:0:0:0:
131,162,210155,1,2,1:2:0:0:
142,172,210214,2,0,L|206:188,1,51.0000009727478,2|2,1:2|1:2,0:0:0:0:
105,247,210332,6,0,B|46:233|46:233|12:66,1,227.999993911743,6|0,3:2|0:0,0:0:0:0:
221,19,210685,1,10,1:2:0:0:
286,110,210802,1,0,0:0:0:0:
208,97,210920,1,0,1:0:0:0:
301,30,211038,2,0,B|418:99|405:-51|536:40,1,227.999993911743,6|0,3:2|0:0,0:0:0:0:
455,129,211390,5,10,1:2:0:0:
402,186,211508,1,0,1:2:0:0:
450,246,211626,1,0,1:2:0:0:
505,192,211743,2,0,P|414:172|292:175,1,180.000006866455,6|0,3:2|1:0,0:0:0:0:
243,317,212096,5,10,1:2:0:0:
352,336,212213,1,0,1:0:0:0:
286,380,212331,1,0,1:0:0:0:
306,266,212449,2,0,B|375:283|410:216|393:227|424:155|529:200,1,227.999993911743,6|0,3:2|0:0,0:0:0:0:
472,94,212802,6,0,P|419:103|367:123,2,90.0000034332277,10|0|0,1:2|1:0|1:0,0:0:0:0:
504,1,213155,6,0,P|380:21|254:84,1,204.000003890991,6|0,3:2|0:0,0:0:0:0:
227,246,213508,1,10,1:2:0:0:
292,155,213625,1,0,1:0:0:0:
305,233,213743,1,0,1:0:0:0:
212,166,213861,2,0,B|95:235|108:85|-23:176,1,227.999993911743,6|0,3:2|0:0,0:0:0:0:
45,355,214214,5,10,1:2:0:0:
95,303,214332,1,0,0:0:0:0:
166,304,214449,1,0,1:0:0:0:
257,346,214567,6,0,P|301:336|372:328,1,90.0000034332277,6|0,3:2|1:0,0:0:0:0:
238,258,214802,1,0,1:0:0:0:
238,258,214920,2,0,P|282:248|353:240,1,90.0000034332277,10|0,1:2|1:0,0:0:0:0:
512,207,215155,5,0,1:0:0:0:
512,207,215273,2,0,P|504:158|493:127,2,60,2|0|0,3:2|1:0|1:0,0:0:0:0:
482,281,215626,5,14,1:2:0:0:
395,299,215743,1,0,0:0:0:0:
449,355,215861,5,0,1:0:0:0:
423,223,215979,2,0,P|414:172|401:123,1,102.000001945496,6|0,3:2|0:0,0:0:0:0:
324,106,216214,1,0,1:0:0:0:
237,18,216332,6,0,P|223:67|215:117,1,102.000001945496,2|0,3:2|1:0,0:0:0:0:
269,174,216567,1,0,1:0:0:0:
156,223,216685,6,0,P|147:172|134:123,1,102.000001945496,14|0,1:2|0:0,0:0:0:0:
57,106,216920,1,0,1:0:0:0:
0,204,217038,6,0,P|9:255|22:304,1,102.000001945496,2|0,3:2|1:0,0:0:0:0:
99,321,217273,1,0,1:0:0:0:
206,378,217390,6,0,P|245:344|295:344,1,102.000001945496,6|0,3:2|0:0,0:0:0:0:
369,368,217625,1,0,1:0:0:0:
311,258,217743,6,0,P|360:253|401:282,1,102.000001945496,2|0,3:2|0:0,0:0:0:0:
448,347,217978,1,0,0:0:0:0:
445,215,218096,6,0,B|405:105|523:139|468:5,1,204.000003890991,14|0,1:2|1:0,0:0:0:0:
347,161,218449,6,0,P|430:161|512:178,1,167.999994873047,2|2,3:2|1:2,0:0:0:0:
377,59,218802,6,0,P|318:59|261:70,1,102.000001945496,6|0,3:2|0:0,0:0:0:0:
201,87,219038,1,0,1:0:0:0:
103,160,219155,6,0,P|162:160|219:171,1,102.000001945496,2|0,3:2|1:0,0:0:0:0:
279,188,219391,1,0,1:0:0:0:
378,258,219508,6,0,P|319:258|262:269,1,102.000001945496,14|0,1:2|0:0,0:0:0:0:
202,286,219744,1,0,1:0:0:0:
102,356,219861,6,0,P|161:356|218:367,1,102.000001945496,2|0,3:2|1:0,0:0:0:0:
278,384,220097,1,0,1:0:0:0:
394,352,220214,6,0,P|389:229|397:111,1,204.000003890991,6|0,3:2|1:0,0:0:0:0:
467,292,220567,2,0,P|469:230|465:171,1,102.000001945496,2|0,3:2|0:0,0:0:0:0:
308,187,220802,1,0,1:0:0:0:
310,264,220920,2,0,B|256:295|214:251|235:254|190:207|101:250,1,204.000003890991,14|0,1:2|1:0,0:0:0:0:
88,361,221273,6,0,B|106:355|106:355|117:308,1,45.0000017166138,6|0,3:2|0:0,0:0:0:0:
80,347,221390,2,0,B|76:365|76:365|111:398,1,45.0000017166138,2|0,1:2|0:0,0:0:0:0:
96,346,221508,2,0,B|81:333|81:333|35:347,1,45.0000017166138,2|0,1:2|0:0,0:0:0:0:
87,348,221626,6,0,B|20:305|20:305|52:134,1,227.999993911743,6|0,3:2|1:0,0:0:0:0:
23,34,221979,5,6,3:2:0:0:
12,53,222096,1,0,1:0:0:0:
0,33,222214,1,0,1:0:0:0:
75,103,222332,5,14,1:2:0:0:
78,135,222449,1,0,1:0:0:0:
46,122,222567,1,0,1:0:0:0:
155,154,222685,5,2,3:2:0:0:
188,190,222802,1,0,0:0:0:0:
137,202,222920,1,0,1:0:0:0:
246,140,223038,5,6,3:2:0:0:
317,155,223155,1,0,1:0:0:0:
266,213,223273,1,0,1:0:0:0:
335,83,223390,5,2,3:2:0:0:
432,38,223507,1,0,1:0:0:0:
423,153,223625,1,0,1:0:0:0:
512,100,223743,6,0,B|381:147|441:18|297:52,1,227.999993911743,14|0,1:2|1:0,0:0:0:0:
250,111,224096,6,0,P|204:122|144:123,2,83.9999974365235,6|0|2,3:2|1:0|1:2,0:0:0:0:
326,194,224449,6,0,P|225:205|127:231,1,204.000003890991,6|0,3:2|1:0,0:0:0:0:
286,301,224802,2,0,P|244:304|203:314,1,83.9999974365235,2|0,3:2|1:0,0:0:0:0:
145,362,225038,1,0,1:0:0:0:
34,302,225155,6,0,B|-11:195|105:232|32:102,1,192,14|0,1:2|1:0,0:0:0:0:
138,33,225508,2,0,P|158:83|168:137,1,96,0|0,3:2|1:0,0:0:0:0:
246,140,225743,1,0,1:0:0:0:
253,121,225861,6,0,P|304:108|340:109,1,60,6|0,3:2|1:0,0:0:0:0:
228,41,226096,2,0,P|279:28|315:29,1,60,0|10,1:0|1:2,0:0:0:0:
376,59,226332,5,0,1:0:0:0:
376,59,226449,1,0,1:0:0:0:
376,59,226567,2,0,P|403:54|435:49,5,45.0000017166138,2|0|0|10|0|0,3:2|1:0|1:0|1:2|1:0|1:0,0:0:0:0:
460,127,227273,6,0,B|507:173|475:223|475:223|433:214,1,135.000005149842,6|0,3:2|0:0,0:0:0:0:
400,280,227538,1,6,0:0:0:0:
388,268,227626,2,0,L|265:283,1,112.5,8|6,0:0|0:0,0:0:0:0:
110,330,227979,2,0,B|95:306|95:306|104:278|104:277,3,56.25,0|2|6|0,3:0|0:0|0:0|0:0,0:0:0:0:
0,316,228332,1,10,0:0:0:0:
199,293,228508,1,2,0:0:0:0:
0,316,228685,6,0,B|119:304|119:304|123:300|123:300|204:292,1,202.500007724762,6|6,3:2|0:0,0:0:0:0:
249,230,229038,2,0,B|264:206|264:206|255:178|255:177,2,56.25,8|0|6,0:0|0:0|0:0,0:0:0:0:
98,75,229390,6,0,B|22:95|22:95|36:137,1,112.5,0|2,3:0|0:0,0:0:0:0:
133,213,229743,1,0,3:0:0:0:
172,219,229832,1,2,3:2:0:0:
210,225,229920,1,0,3:0:0:0:
249,230,230008,1,2,3:2:0:0:
281,265,230096,6,0,B|329:238|329:238|298:123,1,135.000005149842,6|0,3:2|0:0,0:0:0:0:
244,118,230361,1,6,0:0:0:0:
227,113,230449,2,0,B|151:104|151:104|132:122|154:165,1,112.5,8|6,0:0|0:0,0:0:0:0:
172,339,230802,6,0,P|179:314|214:301,1,56.25,0|2,3:0|0:0,0:0:0:0:
330,329,230979,2,0,P|347:347|341:384,1,56.25,6|0,0:0|0:0,0:0:0:0:
333,384,231155,6,0,P|315:365|321:328,1,56.25,10|0,0:0|0:0,0:0:0:0:
423,263,231332,2,0,P|447:257|476:281,1,56.25,2|0,0:0|0:0,0:0:0:0:
469,287,231508,6,0,P|392:275|409:177,1,135.000005149842,6|0,3:2|0:0,0:0:0:0:
305,163,231773,1,2,0:0:0:0:
314,148,231861,2,0,B|331:153|331:153|389:130,1,56.25,8|2,0:0|0:0,0:0:0:0:
376,29,232038,2,0,B|393:24|393:24|451:47,1,56.25,2|2,3:2|0:0,0:0:0:0:
491,124,232214,6,0,B|471:128|470:111|501:122|485:137|461:123|501:103,7,47.2499985580445,2|0|0|0|2|0|0|0,0:0|0:0|0:0|0:0|0:0|0:0|0:0|0:0,0:0:0:0:
463,210,232920,6,0,P|437:241|435:285,1,67.5000025749208,6|0,3:2|0:0,0:0:0:0:
355,254,233096,2,0,P|352:294|377:331,1,67.5000025749208,2|0,3:2|0:0,0:0:0:0:
281,368,233273,6,0,L|237:374,3,45,2|0|0|0,3:2|0:0|1:0|1:0,0:0:0:0:
147,341,233626,6,0,P|146:300|127:265,1,72,6|0,3:2|0:0,0:0:0:0:
211,215,233802,2,0,P|184:181|145:163,1,72,2|0,3:2|0:0,0:0:0:0:
44,252,233979,6,0,L|0:258,3,45,2|0|0|0,3:2|0:0|0:0|0:0,0:0:0:0:
37,121,234332,6,0,P|70:94|112:86,1,76.5000014591217,6|0,3:2|0:0,0:0:0:0:
195,0,234508,2,0,P|237:-1|276:16,1,76.5000014591217,2|0,3:2|0:0,0:0:0:0:
289,138,234685,6,0,L|333:132,3,45,2|0|0|0,3:2|0:0|0:0|0:0,0:0:0:0:
252,257,235038,6,0,P|290:271|330:270,1,80.9999975280763,6|0,3:2|0:0,0:0:0:0:
414,183,235214,2,0,P|454:174|484:148,1,80.9999975280763,2|0,3:2|0:0,0:0:0:0:
474,33,235390,5,6,3:2:0:0:
439,12,235478,1,0,3:0:0:0:
398,3,235566,1,0,3:0:0:0:
359,14,235655,1,0,3:0:0:0:
328,41,235743,5,6,3:2:0:0:
293,63,235831,1,0,3:0:0:0:
254,73,235919,1,0,3:0:0:0:
213,64,236008,1,0,3:0:0:0:
181,38,236096,5,0,3:0:0:0:
146,17,236184,1,0,3:0:0:0:
106,9,236272,1,0,3:2:0:0:
66,19,236361,1,0,0:0:0:0:
32,41,236449,5,0,1:0:0:0:
20,76,236537,1,0,1:0:0:0:
50,48,236625,5,0,1:0:0:0:
15,55,236713,1,0,1:0:0:0:
54,68,236801,5,0,1:0:0:0:
32,41,236890,1,0,1:0:0:0:
38,82,236978,5,0,1:0:0:0:
50,48,237066,1,0,1:0:0:0:
20,76,237155,5,6,3:2:0:0:
232,360,237508,5,2,0:0:0:0:
232,360,237685,1,2,0:0:0:0:
232,360,237861,6,0,P|257:329|272:273,1,53.9999983520508,2|0,0:0|0:0,0:0:0:0:
257,236,238038,1,2,1:2:0:0:
232,360,238214,6,0,P|262:334|319:320,1,53.9999983520508,2|0,1:2|0:0,0:0:0:0:
354,333,238391,1,2,0:1:0:0:
232,360,238567,6,0,B|255:333|278:336|278:336|321:326|321:333|321:333|326:323|334:277|334:277|374:187|283:267|291:125|298:123|298:123|258:61|262:54|262:54|252:55|234:66|191:57|191:57|180:47|180:47|188:50|184:138|229:100|225:187|225:187|277:171|283:176,1,693.000021148682,6|0,3:2|0:0,0:0:0:0:
385,161,239273,6,0,P|265:183|130:225,1,242.999992584229,14|0,0:0|1:0,0:0:0:0:
37,252,239626,5,2,3:2:0:0:
21,290,239714,1,0,0:0:0:0:
16,255,239802,5,0,1:0:0:0:
41,288,239890,1,0,1:0:0:0:
8,274,239979,5,6,3:2:0:0:
49,269,240067,1,0,0:0:0:0:
11,284,240155,5,0,1:0:0:0:
44,260,240243,1,0,1:0:0:0:
31,292,240331,5,2,3:2:0:0:
26,251,240419,1,0,0:0:0:0:
47,280,240508,5,0,1:0:0:0:
9,264,240596,1,0,1:0:0:0:
31,272,240685,6,0,P|24:311|52:361,1,80.9999975280763,14|2,0:0|1:2,0:0:0:0:
200,248,240861,6,0,P|227:261|269:254,1,45,2|2,1:2|1:2,0:0:0:0:
117,284,241038,6,0,P|135:320|186:344,1,62.9999980773926,2|2,3:2|1:2,0:0:0:0:
255,176,241214,6,0,P|274:173|294:152,1,26.9999991760254,2|2,1:2|1:2,0:0:0:0:
211,91,241390,6,0,B|202:63|222:34|222:34|208:38|188:-9|135:-70|14:41|-11:115|9:197|218:86|307:160|144:393|110:387|14:336|-24:357|-55:215|34:138|40:176|119:148|143:127|139:94,1,792.000024169923,6|14,3:2|0:0,0:0:0:0:
325,61,242273,5,0,1:0:0:0:
362,58,242361,1,0,1:0:0:0:
392,77,242449,2,0,B|408:69|408:69|437:-1,2,80.9999975280763,2|0|0,3:2|0:0|1:0,0:0:0:0:
457,306,242802,5,2,3:2:0:0:
432,284,242890,1,0,0:0:0:0:
401,271,242979,1,0,1:0:0:0:
369,271,243067,1,0,1:0:0:0:
323,207,243155,5,2,3:2:0:0:
344,186,243243,1,0,0:0:0:0:
381,180,243332,1,0,1:0:0:0:
415,184,243420,1,0,1:0:0:0:
479,225,243508,6,0,B|506:193|506:193|496:139,1,80.9999975280763,14|0,0:0|0:0,0:0:0:0:
431,89,243685,1,2,1:2:0:0:
269,22,243861,6,0,B|296:54|296:54|286:108,1,80.9999975280763,6|0,3:2|0:0,0:0:0:0:
216,153,244038,1,2,1:2:0:0:
431,89,244214,6,0,B|431:90|431:92|431:92|433:92|433:92|429:92|429:92|431:93|431:93|431:94|432:95|432:95|433:95|433:95|430:95|430:95|432:96|432:96|432:97|432:98|432:98|434:98|434:98|430:98|430:98|432:99|432:99|432:100|432:101|432:101|434:101|434:101|430:101|430:101|432:102|432:102|432:103|432:104|432:104|434:104|434:104|430:104|430:104|432:105|432:105|432:106|432:107|432:107|433:107|433:107|430:107|430:107|432:108|432:108|432:109|431:109|431:109|434:110|434:110|429:110|429:110|431:111|431:111|431:112|431:113|431:113|433:113|433:113|429:113|429:113|431:114|431:114|431:115|431:116|431:116|432:116|432:116|429:116|429:116|431:116|431:116|430:117|430:118|430:118|432:119|432:119|428:119|428:119|430:119|430:119|430:120|430:121|430:121|431:122|431:122|428:121|428:121|429:122|429:122|429:124|429:124|431:125|431:125|427:124|427:124|429:125|429:125|428:127|428:127|429:128|429:128|426:127|426:127|428:128|428:128|427:129|427:130|427:130|429:131|429:131|425:130|425:130|427:131|427:131|426:132|426:133|426:133|427:134|427:134|424:132|424:132|425:134|425:134|425:135|424:135|424:135|426:137|426:137|422:135|422:135|424:136|424:136|423:137|423:138|423:138|424:139|424:139|421:137|421:137|422:139|422:139|422:140|421:140|421:140|423:142|423:142|419:139|419:139|421:141|421:141|420:142|419:143|419:143|420:144|420:144|418:142|418:142|419:144|419:144|418:144|417:145|417:145|418:147|418:147|415:144|415:144|417:146|417:146|416:147|415:147|415:147|416:149|416:149|413:146|413:146|414:148|414:148|413:149|413:149|414:151|414:151|411:148|411:148|412:150|412:150|411:150|410:151|410:151|411:153|411:153|409:149|409:149|409:151|409:151|409:152|408:152|408:152|408:154|408:154|407:151|407:151|407:153|407:153|406:153|405:153|405:153|405:156|405:156|404:152|404:152|404:154|404:154|403:154|402:155|402:155|402:157|402:157|401:153|401:153|401:155|401:155|400:155|399:156|399:156|399:158|399:158|398:154|398:154|398:156|398:156|397:156|396:156|396:156|396:158|396:158|396:154|396:154|395:156|395:156|394:157|393:157|393:157|393:159|393:159|393:155|393:155|392:157|392:157|391:157|391:157|390:159|390:159|390:155|390:155|390:157|390:157|388:157|388:157|387:159|387:159|387:155|387:155|387:157|387:157|385:157|385:157|384:159|384:159|384:155|384:155|384:157|384:157|382:157|381:157|381:157|381:159|381:159|381:155|381:155|380:157|380:157|379:157|379:157|378:159|378:159|378:155|378:155|378:156|378:156|376:156|376:156|375:158|375:158|375:154|375:154|375:156|375:156|373:156|373:156|372:157|372:157|373:153|373:153|372:155|372:155|370:155|370:155|369:157|369:157|370:153|370:153|369:154|369:154|368:154|367:154|367:154|366:155|366:155|367:152|367:152|366:154|366:154|365:153|364:153|364:153|363:155|363:155|364:151|364:151|363:153|363:153|362:152|361:152|361:152|360:153|360:153|362:150|362:150|360:151|360:151|359:151|359:151|357:152|357:152|359:149|359:149|358:150|358:150|357:150|356:149|356:149|354:151|354:151|356:147|356:147|355:149|355:149|354:148|353:148|353:148|352:149|352:149|354:146|354:146|352:147|352:147|351:147|351:146|351:146|349:148|349:148|351:144|351:144|350:146|350:146|349:145|348:145|348:145|347:146|347:146|349:143|349:143|347:144|347:144|346:144|346:143|346:143|344:144|344:144|346:141|346:141|345:142|345:142|344:142|343:141|343:141|341:143|341:143|344:139|344:139|342:141|342:141|342:140|341:140|341:140|339:141|339:141|342:137|342:137|340:139|340:139|339:138|338:138|338:138|337:139|337:139|339:136|339:136|338:137|338:137|337:136|336:136|336:136|334:137|334:137|337:134|337:134|335:135|335:135|335:134|334:134|334:134|332:135|332:135|335:132|335:132|333:133|333:133|333:132|332:131|332:131|330:132|330:132|333:130|333:130|331:131|331:131|331:130|330:129|330:129|328:130|328:130|331:127|331:127|329:128|329:128|328:127|328:127|326:128|326:128|329:125|329:125|327:126|327:126|327:125|326:125|326:125|324:125|324:125|328:123|328:123|326:124|326:124|325:123|324:122|324:122|323:123|323:123|326:121|326:121|324:121|324:121|323:120|323:120|321:120|321:120|324:118|324:118|322:119|322:119|322:118|321:117|321:117|319:117|319:117|323:116|323:116|321:116|321:116|320:115|320:114|320:114|318:115|318:115|321:113|321:113|319:113|319:113|319:112|319:112|316:112|316:112|320:110|320:110|318:111|318:111|318:110|317:109|317:109|315:109|315:109|319:108|319:108|317:108|317:108|317:107|316:106|316:106|314:106|314:106|318:105|318:105|316:105|316:105|316:104|315:103|315:103|313:103|313:103|317:102|317:102|315:102|315:102|315:101|315:100|315:100|313:101|313:101|316:99|316:99|314:99|314:99|313:99|313:99|314:99|314:99|314:97|314:97|314:101|314:101|315:99|315:99|316:99|316:98|316:98|316:96|316:96|318:99|318:99|317:97|317:97|318:97|319:96|319:96|318:94|318:94|320:97|320:97|319:95|319:95|320:95|321:94|321:94|319:92|319:92|323:95|323:95|321:93|321:93|322:92|322:91|322:91|321:90|321:90|324:92|324:92|323:91|323:91|324:90|324:89|324:89|322:88|322:88|326:89|326:89|324:88|324:88|325:87|325:86|325:86|323:85|323:85|327:86|327:86|325:85|325:85|326:84|326:83|326:83|324:82|324:82|328:83|328:83|326:82|326:82|327:81|327:80|327:80|325:79|325:79|329:80|329:80|327:79|327:79|327:78|327:77|327:77|325:77|325:77|329:77|329:77|327:76|327:76|328:75|328:74|328:74|326:74|326:74|330:74|330:74|328:73|328:73|328:72|328:71|328:71|326:71|326:71|330:71|330:71|328:70|328:70|328:69|328:68|328:68|325:68|325:68|330:68|330:68|328:67|328:67|328:66|327:65|327:65|325:65|325:65|329:65|329:65|327:64|327:64|327:63|327:62|327:62|325:62|325:62|329:62|329:62|327:61|327:61|327:60|326:59|326:59|324:59|324:59|328:58|328:58|326:58|326:58|326:57|326:57|324:57|324:57|327:56|327:56|325:56|325:56|325:55|325:54|325:54|323:54|323:54|327:53|327:53|324:53|324:53|324:52|324:51|324:51|322:51|322:51|325:50|325:50|323:50|323:50|323:49|323:48|323:48|321:48|321:48|324:47|324:47|322:47|322:47|322:46|321:45|321:45|319:46|319:46|323:44|323:44|321:44|321:44|320:43|320:43|318:43|318:43|322:41|322:41|320:42|320:42|319:41|319:40|319:40|317:41|317:41|320:39|320:39|318:39|318:39|317:38|317:38|315:38|315:38|318:36|318:36|316:37|316:37|316:36|315:35|315:35|313:36|313:36|316:34|316:34|315:34|315:34|314:33|313:33|313:33|311:34|311:34|315:31|315:31|313:32|313:32|312:31|312:30|312:30|310:31|310:31|313:29|313:29|311:30|311:30|310:29|310:28|310:28|308:29|308:29|311:26|311:26|309:27|309:27|308:26|308:26|306:27|306:27|309:24|309:24|307:25|307:25|306:24|305:24|305:24|303:25|303:25|307:22|307:22|305:23|305:23|304:22|303:22|303:22|302:23|302:23|304:20|304:20|302:21|302:21|302:20|301:20|301:20|299:21|299:21|302:18|302:18|300:19|300:19|299:18|299:18|297:19|297:19|299:16|299:16|298:17|298:17|297:17|296:16|296:16|295:17|295:17|297:14|297:14|295:15|295:15|294:15|294:14|294:14|292:16|292:16|294:12|294:12|293:14|293:14|292:13|291:13|291:13|290:14|290:14|292:11|292:11|290:12|290:12|289:11|289:11|287:13|287:13|289:9|289:9|288:11|288:11|287:10|286:10|286:10|285:11|285:11|287:8|287:8|285:9|285:9|284:9|284:8|284:8|282:10|282:10|284:6|284:6|283:8|283:8|281:7|281:7|280:8|280:8|281:5|281:5|280:6|280:6|279:6|278:6|278:6|277:7|277:7|278:4|278:4|277:5|277:5|276:5|275:4|275:4|274:6|274:6|276:2|276:2|274:4|274:4|273:4|273:3|273:3|271:5|271:5|273:1|273:1|272:3|272:3|271:3|270:2|270:2|269:4|269:4|270:0|270:0|269:2|269:2|268:2|267:1|267:1|266:3|266:3|267:-1|267:-1|266:1|266:1|265:1|264:1|264:1|263:2|263:2|264:-1|264:-1|263:0|263:0|262:0|261:0|261:0|260:2|260:2|261:-3|261:-3|260:0|260:0|259:-1|258:-1|258:-1|257:1|257:1|258:-3|258:-3|257:-1|257:-1|256:-1|255:-1|255:-1|254:1|254:1|255:-3|255:-3|254:-2|254:-2|253:-2|252:-2|252:-2|251:0|251:0|252:-4|252:-4|251:-2|251:-2|250:-2|249:-2|249:-2|248:0|248:0|249:-5|249:-5|248:-2|248:-2|247:-2|246:-2|246:-2|246:-1|246:-1|246:-4|246:-4|245:-3|245:-3|244:-3|243:-3|243:-3|243:-1|243:-1|243:-5|243:-5|242:-3|242:-3|241:-3|240:-3|240:-3|240:-1|240:-1|240:-5|240:-5|239:-3|239:-3|238:-3|237:-3|237:-3|237:-1|237:-1|237:-5|237:-5|236:-3|236:-3|235:-3|234:-3|234:-3|234:-1|234:-1|234:-5|234:-5|233:-3|233:-3|232:-3|231:-3|231:-3|231:-1|231:-1|231:-4|231:-4|230:-2|230:-2|229:-2|228:-2|228:-2|228:0|228:0|228:-4|228:-4|227:-2|227:-2|226:-2|225:-2|225:-2|225:0|225:0|224:-4|224:-4|224:-2|224:-2|223:-2|222:-1|222:-1|222:1|222:1|221:-3|221:-3|221:-1|221:-1|220:-1|219:-1|219:-1|219:1|219:1|218:-3|218:-3|218:-1|218:-1|217:-1|216:0|216:0|216:2|216:2|215:-2|215:-2|215:0|215:0|214:0|214:0|214:2|214:2|213:-1|213:-1|213:1|213:1|211:1|211:1|211:3|211:3|210:0|210:0|210:2|210:2|209:2|208:2|208:2|208:4|208:4|207:1|207:1|207:3|207:3|206:3|205:3|205:3|205:5|205:5|204:2|204:2|204:4|204:4|203:4|202:4|202:4|202:6|202:6|201:3|201:3|201:5|201:5|200:5|199:5|199:5|200:8|200:8|198:4|198:4|198:6|198:6|197:6|197:7|197:7|197:9|197:9|195:5|195:5|196:7|196:7|195:8|194:8|194:8|194:10|194:10|193:7|193:7|193:9|193:9|192:9|191:9|191:9|192:11|192:11|190:8|190:8|191:10|191:10|190:11|189:11|189:11|189:13|189:13|187:9|187:9|188:11|188:11|187:12|186:12|186:12|187:14|187:14|185:11|185:11|185:13|185:13|184:13|184:14|184:14|184:16|184:16|182:12|182:12|183:14|183:14|182:15|181:15|181:15|181:17|181:17|180:13|180:13|180:15|180:15|178:15|178:14|178:14|181:14|181:14|175:16|175:16|179:15|179:15|179:16|179:17|179:17|181:16|181:16|177:18|177:18|179:17|179:17|180:19|180:19|182:19|182:19|178:20|178:20|180:20|180:20|180:21|181:22|181:22|183:22|183:22|179:23|179:23|181:23|181:23|181:24|182:25|182:25|183:25|183:25|180:26|180:26|182:26|182:26|182:27|182:28|182:28|185:28|185:28|180:29|180:29|183:29|183:29|183:30|183:31|183:31|185:31|185:31|181:32|181:32|183:32|183:32|183:33|184:34|184:34|186:34|186:34|182:35|182:35|184:35|184:35|184:36|184:37|184:37|186:37|186:37|182:38|182:38|184:38|184:38|184:39|185:40|185:40|187:40|187:40|183:40|183:40|185:41|185:41|185:42|185:43|185:43|187:43|187:43|183:43|183:43|185:44|185:44|185:45|185:46|185:46|187:46|187:46|183:46|183:46|185:47|185:47|185:48|185:49|185:49|188:49|188:49|183:49|183:49|186:50|186:50|186:51|186:52|186:52|188:52|188:52|184:52|184:52|186:53|186:53|186:54|186:55|186:55|188:55|188:55|184:55|184:55|186:56|186:56|186:57|186:58|186:58|187:58|187:58|184:58|184:58|185:59|185:59|185:60|185:61|185:61|187:61|187:61|183:61|183:61|185:62|185:62|185:63|185:64|185:64|187:64|187:64|183:64|183:64|185:65|185:65|185:66|185:67|185:67|187:68|187:68|183:67|183:67|185:68|185:68|184:69|184:70|184:70|186:70|186:70|182:70|182:70|184:71|184:71|184:72|184:72|185:73|185:73|182:73|182:73|183:73|183:73|183:74|183:75|183:75|185:77|185:77|180:75|180:75|183:77|183:77|182:77|182:78|182:78|184:79|184:79|180:78|180:78|182:79|182:79|181:81|181:81|183:82|183:82|179:81|179:81|181:82|181:82|180:83|180:84|180:84|182:85|182:85|178:84|178:84|180:85|180:85|179:87,1,1683.00005136109,6|0,3:2|0:0,0:0:0:0:
216,153,244743,6,0,B|210:178|210:178|227:216,1,49.5000015106202,0|0,3:0|0:0,0:0:0:0:
229,211,244832,2,0,B|238:232|238:232|232:257,1,49.5000015106202,0|0,3:0|0:0,0:0:0:0:
243,268,244920,2,0,B|237:293|237:293|246:314,1,49.5000015106202,14|0,0:0|0:0,0:0:0:0:
17,349,245096,5,0,1:0:0:0:
31,322,245185,1,0,1:0:0:0:
53,313,245273,2,0,P|56:272|26:227,1,80.9999975280763,2|0,3:2|0:0,0:0:0:0:
122,353,245449,6,0,P|156:376|209:372,1,80.9999975280763,0|0,1:0|1:0,0:0:0:0:
330,340,245626,1,6,3:2:0:0:
348,303,245714,1,0,0:0:0:0:
357,330,245802,1,0,1:0:0:0:
320,312,245890,1,0,1:0:0:0:
332,301,245979,5,2,3:2:0:0:
345,340,246067,1,0,0:0:0:0:
358,314,246155,1,0,1:0:0:0:
319,328,246243,1,0,1:0:0:0:
340,323,246332,6,0,P|382:315|428:278,1,80.9999975280763,14|2,0:0|1:2,0:0:0:0:
497,87,246508,6,0,P|500:59|486:23,1,45,2|2,1:2|1:2,0:0:0:0:
460,221,246685,6,0,P|483:196|495:150,1,62.9999980773926,2|2,3:2|1:2,0:0:0:0:
395,137,246861,6,0,P|398:148|393:142,1,26.9999991760254,2|2,1:2|1:2,0:0:0:0:
332,72,247038,6,0,B|330:74|330:74|331:77|331:77|327:73|327:73|329:76|329:76|328:76|328:76|330:79|330:79|325:75|325:75|327:78|327:78|326:79|326:79|328:81|328:81|323:78|323:78|325:80|325:80|324:81|324:81|326:84|326:84|321:80|321:80|323:83|323:83|322:83|322:83|324:86|324:86|319:83|319:83|321:85|321:85|321:86|321:86|323:88|323:88|318:85|318:85|320:88|320:88|319:88|319:88|321:91|321:91|316:88|316:88|318:90|318:90|318:91|318:91|320:93|320:93|314:90|314:90|317:93|317:93|316:94|316:94|318:96|318:96|313:93|313:93|315:95|315:95|315:96|315:96|317:99|317:99|312:96|312:96|314:98|314:98|313:99|313:99|316:101|316:101|310:99|310:99|313:101|313:101|312:102|312:102|315:104|315:104|309:102|309:102|311:104|311:104|311:105|311:105|314:107|314:107|308:104|308:104|310:106|310:106|310:107|310:107|313:109|313:109|307:107|307:107|309:109|309:109|309:110|309:110|312:112|312:112|306:110|306:110|309:112|309:112|308:113|308:113|311:115|311:115|305:113|305:113|308:115|308:115|308:116|308:116|310:118|310:118|304:116|304:116|307:118|307:118|307:119|307:119|310:121|310:121|304:119|304:119|307:121|307:121|306:122|306:122|309:123|309:123|303:122|303:122|306:124|306:124|306:125|306:125|309:126|309:126|303:126|303:126|306:127|306:127|306:128|306:128|308:129|308:129|303:129|303:129|305:130|305:130|305:131|305:131|308:132|308:132|302:132|302:132|305:133|305:133|305:134|305:134|308:135|308:135|302:135|302:135|305:136|305:136|305:137|305:137|308:138|308:138|302:138|302:138|305:139|305:139|305:140|305:140|308:141|308:141|302:141|302:141|305:142|305:142|305:143|305:143|308:144|308:144|302:144|302:144|305:145|305:145|305:146|305:146|309:147|309:147|303:147|303:147|306:148|306:148|306:149|306:149|309:149|309:149|303:150|303:150|306:151|306:151|306:152|306:152|309:152|309:152|303:153|303:153|307:154|307:154|307:155|307:155|310:155|310:155|304:156|304:156|307:157|307:157|307:158|307:158|310:158|310:158|305:159|305:159|308:160|308:160|308:161|308:161|311:161|311:161|305:162|305:162|309:163|309:163|312:164|312:164|306:165|306:165|309:165|309:165|310:166|310:166|313:166|313:166|307:168|307:168|310:168|310:168|311:169|311:169|314:169|314:169|308:171|308:171|311:171|311:171|312:172|312:172|315:172|315:172|309:174|309:174|313:174|313:174|313:175|313:175|316:174|316:174|311:177|311:177|314:177|314:177|314:178|314:178|317:177|317:177|312:180|312:180|315:179|315:179|315:180|315:180|319:180|319:180|313:182|313:182|316:182|316:182|317:183|317:183|320:182|320:182|315:185|315:185|318:185|318:185|321:185|321:185|316:188|316:188|319:187|319:187|320:188|320:188|323:187|323:187|318:190|318:190|321:190|321:190|322:190|322:190|325:190|325:190|320:193|320:193|323:192|323:192|323:193|323:193|326:192|326:192|322:196|322:196|325:195|325:195|328:194|328:194|324:198|324:198|326:197|326:197|327:198|327:198|330:196|330:196|326:200|326:200|328:199|328:199|329:200|329:200|332:199|332:199|328:203|328:203|330:201|330:201|331:202|331:202|334:201|334:201|330:205|330:205|333:203|333:203|333:204|333:204|336:203|336:203|332:207|332:207|335:206|335:206|338:205|338:205|334:209|334:209|337:208|337:208|338:208|338:208|340:207|340:207|337:211|337:211|339:210|339:210|340:210|340:210|343:208|343:208|339:213|339:213|342:211|342:211|342:212|342:212|345:210|345:210|341:215|341:215|344:213|344:213|345:214|345:214|347:212|347:212|344:217|344:217|346:215|346:215|347:215|347:215|350:213|350:213|346:218|346:218|349:217|349:217|350:217|350:217|352:215|352:215|349:220|349:220|352:218|352:218|352:219|352:219|355:216|355:216|352:222|352:222|354:220|354:220|355:220|355:220|357:218|357:218|355:223|355:223|357:221|357:221|358:221|358:221|360:219|360:219|357:224|357:224|360:222|360:222|360:223|360:223|363:220|363:220|360:226|360:226|362:223|362:223|363:224|363:224|365:221|365:221|363:227|363:227|365:225|365:225|366:225|366:225|368:222|368:222|366:228|366:228|368:226|368:226|369:226|369:226|371:223|371:223|369:229|369:229|371:226|371:226|372:227|372:227|373:224|373:224|372:230|372:230|374:227|374:227|375:228|375:228|376:225|376:225|375:231|375:231|376:228|376:228|377:228|377:228|379:226|379:226|378:231|378:231|379:229|379:229|380:229|380:229|382:226|382:226|381:232|381:232|382:229|382:229|383:229|383:229|385:227|385:227|384:233|384:233|385:230|385:230|386:230|386:230|388:227|388:227|387:233|387:233|388:230|388:230|389:230|389:230|391:227|391:227|390:233|390:233|391:230|391:230|392:230|392:230|393:227|393:227|393:233|393:233|394:231|394:231|395:231|395:231|396:228|396:228|396:234|396:234|397:231|397:231|398:231|398:231|399:228|399:228|399:234|399:234|400:231|400:231|401:231|401:231|402:228|402:228|402:234|402:234|403:230|403:230|404:230|404:230|405:227|405:227|406:233|406:233|406:230|406:230|407:230|407:230|408:227|408:227|409:233|409:233|409:230|409:230|410:230|410:230|411:227|411:227|412:233|412:233|412:230|412:230|413:229|413:229|414:226|414:226|415:232|415:232|415:229|415:229|416:229|416:229|417:226|417:226|418:232|418:232|418:228|418:228|419:228|419:228|419:225|419:225|421:231|421:231|421:228|421:228|422:228|422:228|422:224|422:224|424:230|424:230|424:227|424:227|425:227|425:227|425:224|425:224|427:229|427:229|427:226|427:226|428:226|428:226|428:223|428:223|430:228|430:228|430:225|430:225|431:225|431:225|430:222|430:222|433:227|433:227|432:224|432:224|433:224|433:224|433:221|433:221|435:226|435:226|435:223|435:223|436:223|436:223|436:219|436:219|438:225|438:225|438:222|438:222|439:221|439:221|438:218|438:218|441:224|441:224|441:220|441:220|442:220|442:220|441:217|441:217|444:222|444:222|443:219|443:219|444:219|444:219|444:215|444:215|447:221|447:221|446:218|446:218|447:217|447:217|446:214|446:214|449:219|449:219|448:216|448:216|449:215|449:215|448:212|448:212|452:217|452:217|451:214|451:214|452:214|452:214|451:211|451:211|454:216|454:216|453:213|453:213|454:212|454:212|453:209|453:209|457:214|457:214|456:211|456:211|457:210|457:210|455:207|455:207|459:212|459:212|458:209|458:209|459:208|459:208|458:205|458:205|462:210|462:210|460:207|460:207|461:206|461:206|460:203|460:203|464:208|464:208|463:205|463:205|463:204|463:204|462:201|462:201|466:206|466:206|465:203|465:203|465:202|465:202|464:199|464:199|468:203|468:203|467:201|467:201|467:200|467:200|466:197|466:197|470:201|470:201|469:198|469:198|468:195|468:195|472:199|472:199|471:196|471:196|471:195|471:195|470:193|470:193|474:196|474:196|473:194|473:194|473:193|473:193|471:190|471:190|476:194|476:194|474:191|474:191|475:190|475:190|473:188|473:188|478:191|478:191|476:189|476:189|477:188|477:188|475:185|475:185|480:189|480:189|478:186|478:186|478:185|478:185|476:183|476:183|481:186|481:186|479:184|479:184|480:183|480:183|477:180|477:180|483:183|483:183|481:181|481:181|481:180|481:180|479:178|479:178|484:181|484:181|482:178|482:178|482:177|482:177|480:175|480:175|486:178|486:178|483:176|483:176|484:175|484:175|481:173|481:173|487:175|487:175|484:173|484:173|485:172|485:172|482:170|482:170|488:172|488:172|486:170|486:170|486:169|486:169|483:167|483:167|489:169|489:169|487:167|487:167|487:166|487:166|484:164|484:164|490:166|490:166|487:164|487:164|488:163|488:163|485:162|485:162|491:163|491:163|488:162|488:162|489:161|489:161|486:159|486:159|492:160|492:160|489:159|489:159|489:158|489:158|486:156|486:156|492:157|492:157|490:156|490:156|490:155|490:155|487:153|487:153|493:154|493:154|490:153|490:153|490:152|490:152|487:150|487:150|493:151|493:151|491:150|491:150|491:149|491:149|488:147|488:147|494:148|494:148|491:147|491:147|491:146|491:146|488:145|488:145|494:145|494:145|491:144|491:144|491:143|491:143|488:142|488:142|494:142|494:142|491:141|491:141|491:140|491:140|488:139|488:139|494:139|494:139|491:138|491:138|491:137|491:137|488:136|488:136|494:136|494:136|491:135|491:135|491:134|491:134|488:133|488:133|494:133|494:133|491:132|491:132|491:131|491:131|488:130|488:130|494:130|494:130|491:129|491:129|491:128|491:128|488:127|488:127|494:126|494:126|491:126|491:126|491:125|491:125|487:124|487:124|493:123|493:123|490:123|490:123|490:122|490:122|487:121|487:121|493:120|493:120|490:120|490:120|490:119|490:119|486:119|486:119|492:117|492:117|489:117|489:117|489:116|489:116|486:116|486:116|492:114|492:114|488:114|488:114|488:113|488:113|485:113|485:113|491:111|491:111|488:111|488:111|487:110|487:110|484:110|484:110|490:108|490:108|487:108|487:108|486:105|486:106,1,1778.91915633582,6|6,3:2|3:2,0:0:0:0:
485,106,247743,6,0,P|434:52|404:50,1,80.9999975280763,14|0,0:0|0:0,0:0:0:0:
395,137,247920,1,0,1:0:0:0:
407,147,248008,1,0,1:0:0:0:
410,162,248096,2,0,P|359:216|329:218,1,80.9999975280763,2|0,3:2|0:0,0:0:0:0:
355,45,248273,2,0,P|320:24|280:25,1,80.9999975280763,0|0,1:0|1:0,0:0:0:0:
159,122,248449,5,6,3:2:0:0:
186,107,248538,1,0,0:0:0:0:
232,123,248626,1,0,1:0:0:0:
257,169,248714,1,0,1:0:0:0:
237,219,248802,2,0,P|195:236|144:237,1,80.9999975280763,2|0,3:2|0:0,0:0:0:0:
81,143,248979,2,0,P|39:126|-12:125,1,80.9999975280763,0|0,1:0|1:0,0:0:0:0:
6,223,249155,5,14,0:0:0:0:
61,52,249332,2,0,L|53:4,2,40.4999987640381,0|0|0,3:0|0:0|0:0,0:0:0:0:
139,45,249508,5,14,0:0:0:0:
257,169,249685,1,2,3:2:0:0:
110,138,249861,6,0,B|109:137|109:136|109:136|106:138|106:138|110:134|110:134|107:135|107:135|107:134|107:134|104:136|104:136|108:131|108:131|105:133|105:133|105:132|105:132|102:134|102:134|106:129|106:129|103:131|103:131|102:130|102:130|100:132|100:132|103:127|103:127|100:129|100:129|97:131|97:131|100:126|100:126|98:128|98:128|97:127|97:127|95:130|95:130|97:124|97:124|95:127|95:127|94:126|94:126|92:128|92:128|94:123|94:123|92:125|92:125|91:125|91:125|90:128|90:128|91:122|91:122|89:125|89:125|89:124|88:124|88:124|87:127|87:127|88:121|88:121|87:124|87:124|86:124|85:124|85:124|84:126|84:126|85:121|85:121|84:123|84:123|83:123|82:123|82:123|81:126|81:126|82:120|82:120|81:123|81:123|80:123|80:123|78:126|78:126|79:120|79:120|77:123|77:123|76:126|76:126|76:120|76:120|75:123|75:123|74:123|74:123|73:126|73:126|72:120|72:120|72:123|72:123|71:123|71:123|70:126|70:126|69:120|69:120|69:123|69:123|68:123|68:123|67:126|67:126|66:120|66:120|66:123|66:123|65:124|65:124|64:127|64:127|63:121|63:121|63:124|63:124|62:124|62:124|62:128|62:128|60:122|60:122|60:125|60:125|59:125|59:125|59:128|59:128|57:122|57:122|57:126|57:126|56:126|56:126|56:129|56:129|54:124|54:124|54:127|54:127|53:127|53:127|54:130|54:130|51:125|51:125|51:128|51:128|51:132|51:132|48:126|48:126|49:129|49:129|48:130|48:130|49:133|49:133|45:128|45:128|46:131|46:131|45:131|45:131|46:135|46:135|43:130|43:130|44:133|44:133|43:133|43:133|44:136|44:136|40:131|40:131|41:134|41:134|41:135|40:135|40:135|42:138|42:138|38:133|38:133|39:136|39:136|39:137|38:137|38:137|40:140|40:140|35:136|35:136|37:138|37:138|36:139|36:139|38:142|38:142|33:138|33:138|35:141|35:141|34:141|34:141|36:144|36:144|31:140|31:140|33:143|33:143|32:144|32:144|34:146|34:146|29:143|29:143|31:145|31:145|31:146|31:146|33:149|33:149|27:146|27:146|30:148|30:148|29:149|29:149|31:151|31:151|26:149|26:149|28:151|28:151|28:152|28:152|30:154|30:154|25:151|25:151|27:153|27:153|27:154|27:154|29:156|29:156|24:154|24:154|26:156|26:156|26:157|26:157|29:159|29:159|23:157|23:157|25:159|25:159|25:160|25:160|28:162|28:162|22:161|22:161|25:162|25:162|25:163|25:163|27:165|27:165|22:164|22:164|24:165|24:165|24:166|24:166|27:167|27:167|21:167|21:167|24:168|24:168|24:169|24:169|27:170|27:170|21:170|21:170|24:171|24:171|24:172|24:172|27:173|27:173|21:173|21:173|24:174|24:174|24:175|24:175|27:176|27:176|22:176|22:176|25:177|25:177|25:178|25:178|28:179|28:179|22:180|22:180|25:180|25:180|25:181|25:181|28:181|28:181|23:183|23:183|26:183|26:183|26:184|26:184|29:184|29:184|23:186|23:186|27:186|27:186|27:187|27:187|30:187|30:187|25:189|25:189|28:189|28:189|28:190|28:190|31:189|31:189|26:192|26:192|29:191|29:191|29:192|29:192|33:192|33:192|27:194|27:194|30:194|30:194|31:195|31:195|34:194|34:194|29:197|29:197|32:197|32:197|33:197|33:197|36:196|36:196|31:200|31:200|34:199|34:199|34:200|34:200|37:199|37:199|33:202|33:202|36:201|36:201|36:202|36:202|39:201|39:201|35:205|35:205|38:203|38:203|38:204|38:204|41:203|41:203|37:207|37:207|40:206|40:206|41:206|41:206|43:204|43:204|40:209|40:209|42:207|42:207|43:208|43:208|46:206|46:206|42:211|42:211|45:209|45:209|45:210|46:210|46:210|48:208|48:208|45:213|45:213|47:211|47:211|48:211|48:211|50:209|50:209|48:214|48:214|50:212|50:212|51:212|51:212|53:210|53:210|51:216|51:216|53:213|53:213|54:213|54:213|55:211|55:211|54:217|54:217|56:214|56:214|57:214|57:214|58:212|58:212|57:217|57:217|58:215|58:215|59:215|60:215|60:215|61:212|61:212|60:218|60:218|61:215|61:215|62:215|63:215|63:215|64:212|64:212|63:218|63:218|65:215|65:215|66:212|66:212|67:219|67:219|68:215|68:215|69:212|69:212|70:218|70:218|70:215|70:215|71:215|72:215|72:215|72:212|72:212|73:218|73:218|73:215|73:215|74:215|74:215|75:212|75:212|76:217|76:217|76:214|76:214|77:214|77:214|77:211|77:211|79:217|79:217|79:213|79:213|80:213|80:213|80:210|80:210|82:215|82:215|82:212|82:212|83:212|83:212|83:209|83:209|85:214|85:214|85:211|85:211|86:211|86:211|85:208|85:208|88:213|88:213|88:210|88:210|88:209|88:209|88:206|88:206|91:212|91:212|90:208|90:208|91:208|91:208|90:205|90:205|94:210|94:210|93:207|93:207|94:206|94:206|93:203|93:203|96:208|96:208|95:205|95:205|96:205|96:205|95:202|95:202|98:206|98:206|98:203|98:203|97:200|97:200|101:204|101:204|100:202|100:202|101:201|101:201|100:198|100:198|104:202|104:202|102:200|102:200|103:199|103:199|102:196|102:196|106:201|106:201|105:198|105:198|105:197|105:197|104:194|104:194|108:198|108:198|107:195|107:195|108:194|108:194|107:191|107:191|111:196|111:196|110:193|110:193|109:190|109:190|112:194|112:194|111:192|111:192|112:191|112:191|111:188|111:188|114:193|114:193|114:190|114:190|114:189|114:189|114:186|114:186|117:192|117:192|116:188|116:188|117:188|117:188|117:185|117:185|119:190|119:190|119:187|119:187|120:187|120:187|119:183|119:183|122:189|122:189|122:186|122:186|122:185|122:185|122:182|122:182|125:188|125:188|124:184|124:184|125:184|125:184|125:181|125:181|127:187|127:187|127:183|127:183|128:183|128:183|128:180|128:180|130:186|130:186|130:183|130:183|131:182|131:182|131:179|131:179|133:185|133:185|133:182|133:182|134:182|134:182|134:178|134:178|135:185|135:185|136:181|136:181|137:181|137:181|138:178|138:178|138:184|138:184|139:181|139:181|140:181|140:181|141:178|141:178|141:184|141:184|142:181|142:181|143:181|143:181|144:178|144:178|144:184|144:184|145:181|145:181|146:181|146:181|147:178|147:178|147:184|147:184|148:181|148:181|149:181|149:181|150:178|150:178|149:184|149:184|151:181|151:181|152:182|152:182|153:179|153:179|152:185|152:185|154:182|154:182|155:182|155:182|156:180|156:180|155:185|155:185|157:183|157:183|158:183|158:183|160:181|160:181|157:186|157:186|159:184|159:184|160:184|160:184|162:182|162:182|160:187|160:187|162:185|162:185|163:185|163:185|165:183|165:183|162:189|162:189|165:186|165:186|165:187|166:187|166:187|168:185|168:185|165:190|165:190|167:188|167:188|168:188|168:189|168:189|171:187|171:187|167:192|167:192|170:190|170:190|171:190|171:190|173:189|173:189|169:193|169:193|172:192|172:192|173:192|173:192|176:191|176:191|172:195|172:195|174:194|174:194|175:194|175:194|178:193|178:193|173:197|173:197|176:196|176:196|177:196|177:197|177:197|180:195|180:195|175:199|175:199|178:198|178:198|179:199|179:199|182:198|182:198|177:201|177:201|180:200|180:200|181:201|181:201|184:200|184:200|179:204|179:204|182:203|182:203|182:204|182:204|185:202|185:202|180:206|180:206|183:206|183:206|184:206|184:206|187:206|187:206|182:209|182:209|185:208|185:208|185:209|185:209|188:209|188:209|183:211|183:211|186:211|186:211|186:212|186:212|189:212|189:212|184:214|184:214|187:214|187:214|187:215|187:215|191:215|191:215|185:217|185:217|188:217|188:217|188:218|188:218|191:218|191:218|186:219|186:219|189:219|189:219|189:220|189:220|192:221|192:221|186:222|186:222|190:222|190:222|190:223|190:223|193:224|193:224|187:225|187:225|190:225|190:225|190:226|190:226|193:227|193:227|187:228|187:228|190:228|190:228|191:229|191:229|194:230|194:230|188:231|188:231|191:231|191:231|191:232|191:232|194:233|194:233|188:233|188:233|191:234|191:234|191:235|191:235|194:236|194:236|188:236|188:236|191:237|191:237|191:238|191:238|194:239|194:239|188:239|188:239|191:240|191:240|191:241|191:241|194:243|194:243|188:242|188:242|191:243|191:243|190:244|190:244|193:246|193:246|188:245|188:245|190:246|190:246|190:247|190:247|193:249|193:249|187:248|187:248|190:249|190:249|190:250|190:250|192:252|192:252|186:251|186:251|189:252|189:252|189:253|189:253|191:255|191:255|186:253|186:253|188:255|188:255|188:256|188:256|191:258|191:258|185:256|185:256|188:258|188:258|187:259|187:259|190:261|190:261|184:259|184:259|186:261|186:261|186:262|186:262|189:264|189:264|183:261|183:261|185:264|185:264|185:265|185:265|187:267|187:267|182:264|182:264|184:266|184:266|184:267|184:267|186:269|186:269|181:267|181:267|183:269|183:269|182:270|182:270|185:272|185:272|179:269|179:269|181:272|181:272|183:275|183:275|178:272|178:272|180:274|180:274|179:275|179:275|181:277|181:277|176:274|176:274|178:277|178:277|177:277|177:277|179:280|179:280|174:276|174:276|176:279|176:279|176:280|176:280|177:283|177:283|173:279|173:279|174:281|174:281|174:282|174:282|175:285|175:285|171:281|171:281|172:284|172:284|173:287|173:287|169:283|169:283|170:286|170:286|169:286|169:286|171:289|171:289|167:285|167:285|168:288|168:288|167:288|167:288|168:291|168:291|164:287|164:287|166:290|166:290|165:290|165:290|166:293|166:293|162:288|162:288|163:291|163:291|163:292|162:292|162:292|163:295|163:295|160:290|160:290|161:293|161:293|160:293|160:293|161:297|161:297|157:291|157:291|158:294|158:294|157:295|157:295|158:298|158:298|155:293|155:293|155:296|155:296|155:300|155:300|152:294|152:294|153:297|153:297|152:297|152:297|152:300|152:300|150:295|150:295|150:298|150:298|149:298|149:298|149:302|149:302|147:296|147:296|147:299|147:299|146:299|146:299|146:303|146:303|144:297|144:297|144:300|144:300|143:300|143:300|143:303|143:303|142:297|142:297|141:300|141:300|140:301|140:301|140:304|140:304|139:298|139:298|138:301|138:301|137:301|137:301|136:304|136:304|136:298|136:298|135:301|135:301|134:301|134:301|133:304|133:304|133:298|133:298|132:301|132:301|131:301|131:301|130:304|130:304|130:298|130:298|129:301|129:301|128:301|128:301|127:304|127:304|128:298|128:298|126:301|126:301|125:301|125:301|124:303|124:303|125:297|125:297|123:300|123:300|122:300|122:300|121:303|121:303|122:297|122:297|120:300|120:300|119:300|119:300|118:302|118:302|119:296|119:296|117:299|117:299|116:299|116:299|115:301|115:301|116:295|116:295|114:298|114:298|112:300|112:300|114:295|114:295|112:297|112:297|111:297|111:297|109:299|109:299|111:293|111:293|109:296|109:296|108:295|108:295|106:298|106:298|108:292|108:292|106:294|106:294|105:294|105:294|103:296|103:296|106:291|106:291|104:293|104:293|103:293|103:292|103:292|100:295|100:295|104:289|104:289|101:291|101:291|100:291|100:291|98:293|98:293|101:288|101:288|99:290|99:290|98:289|98:289|95:291|95:291|99:286|99:286|96:288|96:288|96:287|96:287|93:289|93:289|97:284|97:284|94:286|94:286|93:285,1,2207.01918041648,6|0,3:2|0:0,0:0:0:0:
40,373,250390,6,0,P|65:345|99:329,1,49.5000015106202,0|0,3:0|0:0,0:0:0:0:
90,319,250479,2,0,P|126:312|163:318,1,49.5000015106202,0|0,3:0|0:0,0:0:0:0:
161,301,250567,2,0,P|194:317|220:343,1,49.5000015106202,14|0,0:0|0:0,0:0:0:0:
328,281,250743,5,0,1:0:0:0:
356,309,250832,1,0,1:0:0:0:
396,303,250920,2,0,B|441:262|493:300|493:300|472:329|472:371,1,161.999995056153,2|0,3:2|1:0,0:0:0:0:
248,231,251273,5,6,3:2:0:0:
199,198,251361,1,0,0:0:0:0:
195,149,251449,1,0,1:0:0:0:
209,126,251538,1,0,1:0:0:0:
229,115,251626,2,0,P|241:92|241:57,3,53.9999983520508,2|0|0|0,3:2|0:0|1:0|1:0,0:0:0:0:
74,120,251979,6,0,P|120:90|162:87,1,80.9999975280763,14|0,0:0|1:0,0:0:0:0:
375,120,252155,6,0,P|405:144|416:172,1,45,0|0,1:0|1:0,0:0:0:0:
242,64,252332,6,0,P|285:66|314:84,1,62.9999980773926,6|0,3:2|1:0,0:0:0:0:
443,218,252508,6,0,P|448:238|444:255,1,26.9999991760254,0|0,1:0|1:0,0:0:0:0:
369,278,252685,6,0,P|364:258|368:241,3,24.7500007553101,6|0|0|0,3:2|0:0|0:0|0:0,0:0:0:0:
355,265,252773,2,0,P|355:244|364:229,3,24.7500007553101
345,249,252861,2,0,P|351:229|363:217,3,24.7500007553101
340,232,252949,2,0,P|351:214|366:206,3,24.7500007553101
339,216,253038,2,0,P|354:202|371:198,3,24.7500007553101,2|0|0|0,0:0|0:0|0:0|0:0,0:0:0:0:
500,170,253214,6,0,P|521:215|516:270,1,99.0000030212403,6|0,3:2|0:0,0:0:0:0:
487,334,253390,2,0,L|380:352,1,80.9999975280763,14|0,0:0|0:0,0:0:0:0:
273,378,253567,5,0,1:0:0:0:
255,361,253655,1,0,1:0:0:0:
230,361,253743,2,0,L|123:343,3,80.9999975280763,2|0|0|0,3:2|0:0|1:0|1:0,0:0:0:0:
83,258,254096,5,6,3:2:0:0:
52,212,254185,1,0,0:0:0:0:
4,243,254273,1,0,1:0:0:0:
35,289,254362,1,0,1:0:0:0:
36,238,254449,5,2,3:2:0:0:
30,265,254538,1,0,0:0:0:0:
58,271,254627,1,0,1:0:0:0:
63,244,254715,1,0,1:0:0:0:
48,256,254802,6,0,B|173:235|173:235|173:213|195:179,1,161.999995056153,14|0,0:0|1:0,0:0:0:0:
265,228,255067,5,0,1:0:0:0:
272,242,255155,2,0,B|290:263|290:263|389:243|389:243|390:219|403:199,1,161.999995056153,2|10,3:2|0:0,0:0:0:0:
482,235,255420,5,0,0:0:0:0:
500,242,255508,2,0,B|480:292|438:293|438:293|398:271|352:280|352:280|339:230|276:201|276:201|249:266|225:222|193:285|193:285|152:215|109:237|109:237|72:257|35:231|35:231|4:273|4:273|32:257|59:264,1,693.000021148682,6|0,3:2|0:0,0:0:0:0:
116,221,256214,5,14,0:0:0:0:
139,214,256302,1,0,0:0:0:0:
163,211,256390,1,0,1:0:0:0:
187,212,256479,1,0,1:0:0:0:
261,240,256567,5,2,3:2:0:0:
284,247,256655,1,0,0:0:0:0:
308,250,256743,1,0,1:0:0:0:
332,249,256832,1,0,1:0:0:0:
407,223,256920,5,6,3:2:0:0:
436,204,257008,1,0,0:0:0:0:
413,199,257096,1,0,1:0:0:0:
432,228,257185,1,0,1:0:0:0:
426,217,257273,6,0,B|468:122|347:184|396:42,1,161.999995056153,2|0,3:2|1:0,0:0:0:0:
510,103,257538,5,0,1:0:0:0:
490,90,257626,2,0,P|500:43|500:-12,1,80.9999975280763,14|0,0:0|1:0,0:0:0:0:
284,13,257802,6,0,P|282:41|275:68,1,45,0|0,1:0|1:0,0:0:0:0:
386,75,257979,6,0,P|393:42|393:3,1,62.9999980773926,2|0,3:2|1:0,0:0:0:0:
168,13,258155,6,0,P|166:33|162:52,1,26.9999991760254,0|0,1:0|1:0,0:0:0:0:
102,134,258332,6,0,B|101:134|99:134|99:134|99:137|99:137|98:134|98:134|97:134|96:134|96:134|96:131|96:131|95:134|95:134|94:134|93:134|93:134|93:137|93:137|92:134|92:134|91:134|90:134|90:134|90:132|90:132|90:134|90:134|88:135|88:135|88:138|88:138|86:135|86:135|85:135|85:136|85:136|83:133|83:133|84:136|84:136|83:136|82:137|82:137|83:140|83:140|81:137|81:137|80:138|79:138|79:138|77:135|77:135|78:138|78:138|77:139|76:139|76:139|77:142|77:142|76:140|76:140|75:140|74:141|74:141|72:139|72:139|73:142|73:142|72:142|71:143|71:143|73:145|73:145|71:143|71:143|70:144|69:145|69:145|67:143|67:143|68:145|68:145|68:146|67:147|67:147|69:149|69:149|66:148|66:148|65:148|65:149|65:149|62:147|62:147|64:150|64:150|63:151|63:151|65:154|65:154|62:152|62:152|62:153|61:153|61:153|58:152|58:152|60:154|60:154|60:155|59:156|59:156|61:158|61:158|59:157|59:157|58:158|57:158|57:158|55:157|55:157|57:159|57:159|56:160|56:161|56:161|58:163|58:163|55:161|55:161|54:163|54:163|51:162|51:162|53:164|53:164|53:165|52:166|52:166|55:168|55:168|52:167|52:167|51:168|51:168|48:167|48:167|50:169|50:169|50:170|49:171|49:171|52:173|52:173|49:172|49:172|48:173|48:173|45:172|45:172|47:174|47:174|47:175|46:176|46:176|48:178|48:178|46:177|46:177|45:178|45:179|45:179|42:177|42:177|44:179|44:179|43:180|43:181|43:181|45:183|45:183|42:182|42:182|41:182|41:183|41:183|39:180|39:180|40:183|40:183|39:183|39:183|40:184|40:184|43:183|43:183|40:185|40:185|41:186|41:187|41:187|38:189|38:189|42:188|42:188|42:189|43:190|43:190|45:189|45:189|43:190|43:190|44:192|44:192|41:194|41:194|45:193|45:193|45:194|46:195|46:195|48:194|48:194|46:196|46:196|47:197|47:198|47:198|45:199|45:199|47:198|47:198|48:199|48:200|48:200|51:199|51:199|49:201|49:201|49:202|50:203|50:203|47:205|47:205|50:204|50:204|51:204|51:205|51:205|54:204|54:204|51:206|51:206|52:207|52:208|52:208|49:210|49:210|53:209|53:209|53:210|54:211|54:211|57:210|57:210|54:212|54:212|55:213|55:214|55:214|53:215|53:215|55:214|55:214|56:215|56:216|56:216|59:216|59:216|57:217|57:217|57:218|57:219|57:219|55:220|55:220|58:220|58:220|58:221|58:222|58:222|62:221|62:221|59:223|59:223|59:224|59:225|59:225|57:226|57:226|60:226|60:226|60:227|60:227|63:227|63:227|61:228|61:228|61:230|61:230|58:231|58:231|61:231|61:231|61:233|61:233|64:234|64:234|61:234|61:234|61:235|61:236|61:236|64:238|64:238|62:235|62:235|63:234|63:234|62:231|62:231|64:233|64:233|65:232|66:232|66:232|68:234|68:234|66:231|66:231|67:230|68:230|68:230|66:227|66:227|69:229|69:229|70:228|70:228|73:230|73:230|71:227|71:227|72:226|73:226|73:226|71:223|71:223|73:225|73:225|74:225|75:224|75:224|77:226|77:226|76:224|76:224|77:223|77:222|77:222|76:220|76:220|78:222|78:222|79:221|80:221|80:221|82:223|82:223|81:220|81:220|82:219|82:219|81:216|81:216|83:218|83:218|84:218|85:217|85:217|87:219|87:219|86:217|86:217|87:216|87:216|86:213|86:213|88:215|88:215|89:215|90:214|90:214|92:217|92:217|91:214|91:214|92:213|93:213|93:213|92:210|92:210|94:212|94:212|95:211|95:211|97:214|97:214|96:211|96:211|97:210|98:210|98:210|97:207|97:207|99:210|99:210|100:209|101:209|101:209|102:211|102:211|101:208|101:208|102:208|103:207|103:207|102:204|102:204|104:207|104:207|105:206|106:206|106:206|108:208|108:208|107:205|107:205|108:205|109:204|109:204|108:202|108:202|109:204|109:204|110:204|111:203|111:203|113:205|113:205|112:203|112:203|113:202|114:202|114:202|113:199|113:199|115:201|115:201|116:200|116:200|118:202|118:202|117:199|117:199|118:199|119:198|119:198|118:196|118:196|120:198|120:198|121:197|121:197|123:199|123:199|122:196|122:196|123:195|124:195|124:195|122:192|122:192|124:194|124:194|125:193|126:193|126:193|128:194|128:194|127:192|127:192|128:191|128:191|126:188|126:188|129:190|129:190|130:189|130:189|133:190|133:190|131:188|131:188|132:187|132:186|132:186|130:184|130:184|133:186|133:186|134:185|134:184|134:184|137:185|137:185|135:183|135:183|135:182|136:182|136:182|134:179|134:179|136:181|136:181|137:180|138:179|138:179|140:180|140:180|138:178|138:178|139:177|139:177|137:175|137:175|140:176|140:176|140:174|141:174|141:174|143:175|143:175|141:173|141:173|142:172|142:171|142:171|139:169|139:169|143:170|143:170|143:169|143:169|146:169|146:169|144:168|144:168|144:166|145:166|145:166|142:164|142:164|145:165|145:165|146:164|146:163|146:163|149:164|149:164|146:162|146:162|147:161|147:160|147:160|145:159|145:159|147:159|147:159|148:158|148:157|148:157|151:158|151:158|148:157|148:157|149:155|149:155|147:153|147:153|149:154|149:154|150:153|150:152|150:152|153:152|153:152|150:151|150:151|151:150|151:149|151:149|148:148|148:148|151:148|151:148|152:147|152:146|152:146|155:146|155:146|152:145|152:145|152:144|153:143|153:143|150:142|150:142|153:142|153:142|153:141|153:140|153:140|156:140|156:140|154:139|154:139|154:138|154:137|154:137|151:136|151:136|154:136|154:136|155:135|155:134|155:134|157:135|157:135|155:134|155:134|155:132|155:132|152:130|152:130|156:131|156:131|156:129|156:129|159:129|159:129|156:128|156:128|157:126|157:125,1,800.430154013943,6|0,3:2|0:0,0:0:0:0:
171,50,258685,6,0,P|174:25|177:0,4,49.5000015106202,0|0|0|0|6,3:0|3:0|3:0|3:0|3:2,0:0:0:0:
305,170,259038,5,14,0:0:0:0:
297,121,259126,1,0,0:0:0:0:
298,170,259214,5,0,1:0:0:0:
303,120,259302,1,0,1:0:0:0:
289,167,259390,5,2,3:2:0:0:
312,123,259478,1,0,0:0:0:0:
284,163,259566,5,0,1:0:0:0:
317,127,259654,1,0,1:0:0:0:
283,158,259743,6,0,B|276:135|276:135|336:126|336:126|387:186|342:232,1,198.000006042481,6|0,3:2|1:0,0:0:0:0:
235,288,260008,1,0,1:0:0:0:
219,300,260096,2,0,B|189:306|180:316|180:316|171:297|141:281,1,80.9999975280763,2|0,3:2|0:0,0:0:0:0:
48,384,260273,2,0,B|68:361|70:348|70:348|88:358|122:353,1,80.9999975280763,0|0,1:0|1:0,0:0:0:0:
170,162,260449,5,14,0:0:0:0:
97,172,260538,1,0,3:0:0:0:
25,185,260626,1,2,3:2:0:0:
166,83,260802,5,14,0:0:0:0:
63,263,260979,1,2,3:2:0:0:
0,41,261155,6,0,B|41:2|104:25|104:25|84:49|88:81,1,153.000002918243,6|2,3:2|1:2,0:0:0:0:
166,83,261420,1,0,0:0:0:0:
180,69,261508,2,0,B|216:77|216:77|236:114,2,67.5000025749208,6|2|0,3:2|0:2|0:0,0:0:0:0:
297,49,261773,5,2,0:0:0:0:
316,45,261861,2,0,B|340:72|340:72|334:114,2,67.5000025749208,14|0|6,0:0|0:0|0:0,0:0:0:0:
427,72,262126,5,2,0:0:0:0:
444,80,262214,2,0,B|447:116|447:116|418:147,2,67.5000025749208,0|6|2,3:0|0:0|0:0,0:0:0:0:
504,180,262479,5,0,0:0:0:0:
512,197,262567,2,0,B|493:228|493:228|451:236,1,67.5000025749208,6|0,3:2|0:0,0:0:0:0:
366,213,262743,2,0,B|332:198|332:198|294:216,1,67.5000025749208
245,303,262920,5,4,3:2:0:0:
225,299,263008,1,2,0:0:0:0:
205,295,263096,1,0,0:0:0:0:
184,292,263185,1,2,0:0:0:0:
147,301,263273,6,0,B|126:291|126:291|117:215,2,67.5000025749208,10|2|2,0:0|0:0|0:0,0:0:0:0:
71,113,263538,1,2,0:0:0:0:
50,115,263626,2,0,B|29:125|29:125|20:201,2,67.5000025749208,0|2|2,3:0|0:0|0:0,0:0:0:0:
150,172,263890,5,0,0:0:0:0:
166,159,263979,2,0,L|240:147,2,67.5000025749208,6|0|0,3:2|0:0|0:0,0:0:0:0:
283,73,264243,5,0,0:0:0:0:
299,86,264332,2,0,L|373:98,2,67.5000025749208,6|2|2,3:2|0:0|0:0,0:0:0:0:
389,200,264596,1,0,0:0:0:0:
408,205,264685,2,0,B|438:212|466:193|466:193|481:168|481:168|448:184|413:184,1,153.000002918243,14|6,0:0|0:0,0:0:0:0:
313,263,264949,5,2,0:0:0:0:
321,241,265038,2,0,P|283:211|227:215,1,76.5000014591217,0|6,3:0|0:0,0:0:0:0:
127,297,265214,2,0,P|120:344|151:391,1,76.5000014591217,2|0,0:0|0:0,0:0:0:0:
256,378,265390,5,6,3:2:0:0:
259,362,265479,1,0,0:0:0:0:
253,347,265567,1,0,0:0:0:0:
256,332,265655,1,2,0:0:0:0:
256,293,265743,5,2,3:2:0:0:
262,257,265832,1,0,0:0:0:0:
248,223,265920,1,2,0:0:0:0:
256,190,266008,1,2,0:0:0:0:
242,146,266096,6,0,L|247:59,1,76.5000014591217,14|0,0:0|0:0,0:0:0:0:
353,123,266273,6,0,B|374:152|374:152|361:188,1,67.5000025749208,0|2,0:0|0:0,0:0:0:0:
140,256,266449,2,0,B|119:227|119:227|132:191,1,67.5000025749208,6|2,3:2|0:0,0:0:0:0:
42,152,266626,21,2,0:0:0:0:
23,142,266714,1,2,0:0:0:0:
0,151,266802,2,0,B|2:151|3:151|3:151|3:148|3:148|4:154|4:154|4:151|4:151|7:151|6:151|6:151|6:148|6:148|7:154|7:154|7:151|7:151|8:151|9:151|9:151|9:148|9:148|10:154|10:154|10:151|10:151|13:150|12:150|12:150|12:147|12:147|13:153|13:153|13:150|13:150|14:150|15:150|15:150|15:147|15:147|16:153|16:153|16:150|16:150|19:150|18:150|18:150|18:147|18:147|19:153|19:153|19:150|19:150|20:150|21:150|21:150|21:147|21:147|22:153|22:153|22:150|22:150|23:150|24:150|24:150|24:147|24:147|25:153|25:153|25:150|25:150|26:150|27:150|27:150|27:147|27:147|28:153|28:153|28:150|28:150|31:150|30:150|30:150|30:147|30:147|31:153|31:153|31:150|31:150|32:150|33:150|33:150|33:147|33:147|34:153|34:153|34:150|34:150|37:150|36:150|36:150|36:147|36:147|37:153|37:153|37:150|37:150|40:149|39:149|39:149|39:146|39:146|40:152|40:152|40:149|40:149|43:149|42:149|42:149|42:146|42:146|43:152|43:152|43:149|43:149|46:149|45:149|45:149|45:146|45:146|46:152|46:152|46:149|46:149|47:149|48:149|48:149|48:146|48:146|49:152|49:152|49:149|49:149|50:149|51:149|51:149|51:146|51:146|52:152|52:152|52:149|52:149|53:149|54:149|54:149|54:146|54:146|55:152|55:152|55:149|55:149|58:149|57:149|57:149|57:146|57:146|58:152|58:152|58:149|58:149|59:149|60:149|60:149|60:146|60:146|61:152|61:152|61:149|61:149|64:149|63:149|63:149|63:146|63:146|64:152|64:152|64:149|64:149|67:149|66:149|66:149|66:146|66:146|67:152|67:152|67:149|67:149|70:149|69:149|69:149|69:146|69:146|70:152|70:152|70:149|70:149|73:148|72:148|72:148|72:145|72:145|73:151|73:151|73:148|73:148|74:148|75:148|75:148|75:145|75:145|76:151|76:151|76:148|76:148|77:148|78:148|78:148|78:145|78:145|78:151|78:151|79:148|79:148|80:148|81:148|81:148|81:145|81:145|81:151|81:151|82:148|82:148|83:148|84:148|84:148|84:145|84:145|84:151|84:151|85:148|85:148|86:148|87:148|87:148|87:145|87:145|87:151|87:151|88:148|88:148|89:148|90:148|90:148|90:145|90:145|90:151|90:151|91:148|91:148|94:148|93:148|93:148|93:145|93:145|93:151|93:151|94:148|94:148|97:148|96:148|96:148|96:145|96:145|96:151|96:151|97:148|97:148|100:148|99:148|99:148|99:145|99:145|99:151|99:151|100:148|100:148|101:148|102:148|102:148|102:145|102:145|102:151|102:151|103:148|103:148|104:148|105:148|105:148|105:145|105:145|105:151|105:151|106:148|106:148|107:148|108:148|108:148|108:145|108:145|108:151|108:151|109:148|109:148|110:148|111:148|111:148|111:145|111:145|111:151|111:151|112:148|112:148|115:148|114:148|114:148|114:145|114:145|114:151|114:151|115:148|115:148|118:148|117:148|117:148|117:145|117:145|117:151|117:151|118:148|118:148|121:148|120:148|120:148|120:145|120:145|120:151|120:151|121:148|121:148|122:148|123:148|123:148|123:145|123:145|123:151|123:151|124:148|124:148|127:148|126:148|126:148|126:145|126:145|126:151|126:151|127:148|127:148|128:148|129:148|129:148|129:145|129:145|129:151|129:151|130:148|130:148|131:148|132:148|132:148|132:145|132:145|132:151|132:151|133:148|133:148|134:148|135:148|135:148|135:145|135:145|135:151|135:151|136:148|136:148|137:148|138:148|138:148|138:145|138:145|138:151|138:151|139:148|139:148|140:148|141:148|141:148|141:145|141:145|141:151|141:151|142:148|142:148|143:148|144:148|144:148|144:145|144:145|144:151|144:151|145:148|145:148|146:148|147:148|147:148|147:145|147:145|147:151|147:151|148:148|148:148|149:148|150:148|150:148|150:145|150:145|150:151|150:151|151:148|151:148|154:148|153:148|153:148|153:145|153:145|153:151|153:151|154:148|154:148|155:148|156:148|156:148|156:145|156:145|156:151|156:151|157:148|157:148|158:148|159:148|159:148|159:145|159:145|159:151|159:151|160:148|160:148|161:148|162:148|162:148|162:145|162:145|162:151|162:151|163:148|163:148|164:148|165:148|165:148|165:145|165:145|165:151|165:151|166:148|166:148|167:148|168:148|168:148|168:145|168:145|168:151|168:151|169:148|169:148|170:148|171:148|171:148|171:145|171:145|171:151|171:151|172:148|172:148|175:148|174:148|174:148|174:145|174:145|174:151|174:151|175:148|175:148|176:148|177:148|177:148|177:145|177:145|177:151|177:151|178:148|178:148|181:148|180:148|180:148|180:145|180:145|180:151|180:151|181:148|181:148|182:148|183:148|183:148|183:145|183:145|183:151|183:151|184:148|184:148|185:148|186:148|186:148|186:145|186:145|186:151|186:151|187:148|187:148|188:148|189:148|189:148|189:145|189:145|189:151|189:151|190:148|190:148|191:148|192:148|192:148|192:145|192:145|192:151|192:151|193:148|193:148|194:148|195:148|195:148|195:145|195:145|195:151|195:151|196:148|196:148|197:148|198:148|198:148|198:145|198:145|198:151|198:151|199:148|199:148|202:148|201:148|201:148|201:145|201:145|201:151|201:151|202:148|202:148|205:148|204:148|204:148|204:145|204:145|204:151|204:151|205:148|205:148|208:148|207:148|207:148|207:145|207:145|207:151|207:151|208:148|208:148|209:148|210:148|210:148|210:145|210:145|210:151|210:151|211:148|211:148|212:148|213:148|213:148|213:145|213:145|213:151|213:151|214:148|214:148|215:148|216:148|216:148|216:145|216:145|216:151|216:151|217:148|217:148|218:148|219:148|219:148|219:145|219:145|219:151|219:151|220:148|220:148|221:148|222:148|222:148|222:145|222:145|222:151|222:151|223:148|223:148|224:148|225:148|225:148|225:145|225:145|225:151|225:151|226:148|226:148|229:148|228:148|228:148|228:145|228:145|228:151|228:151|229:148|229:148|230:148|231:148|231:148|231:145|231:145|231:151|231:151|232:148|232:148|233:148|234:149|234:149|234:146|234:146|234:152|234:152|235:149|235:149|236:149|237:149|237:149|237:146|237:146|237:152|237:152|238:149|238:149|239:149|240:149|240:149|240:146|240:146|240:152|240:152|241:149|241:149|242:149|243:149|243:149|243:146|243:146|243:152|243:152|244:149|244:149|245:149|246:149|246:149|246:146|246:146|246:152|246:152|247:149|247:149|248:149|249:149|249:149|249:146|249:146|249:152|249:152|250:149|250:149|251:149|252:149|252:149|252:146|252:146|252:152|252:152|253:149|253:149|254:149|255:149|255:149|255:146|255:146|255:152|255:152|256:149|256:149|257:149|258:149|258:149|258:146|258:146|258:152|258:152|259:149|259:149|262:149|261:149|261:149|261:146|261:146|261:152|261:152|262:149|262:149|265:149|264:149|264:149|264:146|264:146|264:152|264:152|265:149|265:149|266:149|267:149|267:149|267:146|267:146|267:152|267:152|268:150|268:150|271:150|270:150|270:150|270:147|270:147|270:153|270:153|271:150|271:150|272:150|273:150|273:150|273:147|273:147|273:153|273:153|274:150|274:150|275:150|276:150|276:150|276:147|276:147|276:153|276:153|277:150|277:150|278:150|279:150|279:150|279:147|279:147|279:153|279:153|280:150|280:150|283:150|282:150|282:150|282:147|282:147|282:153|282:153|283:150|283:150|284:150|285:150|285:150|285:147|285:147|285:153|285:153|286:150|286:150|289:150|288:150|288:150|288:147|288:147|288:153|288:153|289:150|289:150|292:150|291:150|291:150|291:147|291:147|291:153|291:153|292:150|292:150|293:150|294:150|294:150|294:148|294:148|294:154|294:154|295:151|295:151|296:151|297:151|297:151|297:148|297:148|297:154|297:154|298:151|298:151|299:151|300:151|300:151|300:148|300:148|300:154|300:154|301:151|301:151|302:151|303:151|303:151|303:148|303:148|303:154|303:154|304:151|304:151|305:151|306:151|306:151|306:148|306:148|306:154|306:154|307:151|307:151|308:151|309:151|309:151|309:148|309:148|309:154|309:154|310:151|310:151|311:151|312:151|312:151|312:148|312:148|312:154|312:154|313:151|313:151|316:151|315:151|315:151|315:148|315:148|315:154|315:154|316:151|316:151|317:152|318:152|318:152|318:149|318:149|318:155|318:155|319:152|319:152|320:152|321:152|321:152|321:149|321:149|321:155|321:155|322:152|322:152|325:152|324:152|324:152|324:149|324:149|324:155|324:155|325:152|325:152|326:152|327:152|327:152|327:149|327:149|327:155|327:155|328:152|328:152|329:152|330:152|330:152|330:149|330:149|330:155|330:155|331:152|331:152|332:152|333:152|333:152|333:149|333:149|333:155|333:155|334:152|334:152|337:153|336:153|336:153|336:150|336:150|336:156|336:156|337:153|337:153|340:153|339:153|339:153|339:150|339:150|339:156|339:156|340:153|340:153|343:153|342:153|342:153|342:150|342:150|342:156|342:156|343:153|343:153|344:153|345:153|345:153|345:150|345:150|345:156|345:156|346:153|346:153|347:153|348:153|348:153|348:150|348:150|348:156|348:156|349:153|349:153|350:153|351:153|351:153|351:150|351:150|351:156|351:156|352:153|352:153|353:153|354:154|354:154|354:151|354:151|354:157|354:157|355:154|355:154|358:154|357:154|357:154|357:151|357:151|357:157|357:157|358:154|358:154|359:154|360:154|360:154|360:151|360:151|360:157|360:157|361:154|361:154|362:154|363:154|363:154|363:151|363:151|363:157|363:157|364:154|364:154|365:154|366:154|366:154|366:151|366:151|366:157|366:157|367:154|367:154|370:155|369:154|369:154|369:152|369:152|369:158|369:158|370:155|370:155|371:155|372:155|372:155|372:152|372:152|372:158|372:158|373:155|373:155|374:155|375:155|375:155|375:152|375:152|375:158|375:158|376:155|376:155|377:155|378:155|378:155|378:152|378:152|378:158|378:158|379:155|379:155|382:155|381:155|381:155|381:152|381:152|381:158|381:158|382:155|382:155|385:156|384:155|384:155|384:153|384:153|384:159|384:159|385:156|385:156|388:156|387:156|387:156|387:153|387:153|387:159|387:159|388:156|388:156|391:156|390:156|390:156|390:153|390:153|390:159|390:159|391:156|391:156|392:156|393:156|393:156|393:153|393:153|393:159|393:159|394:156|394:156|397:156|396:156|396:156|396:153|396:153|396:159|396:159|397:156|397:156|400:157|399:157|399:157|399:154|399:154|399:160|399:160|400:157|400:157|401:157|402:157|402:157|402:154|402:154|402:160|402:160|403:157|403:157|404:157|405:157|405:157|405:154|405:154|405:160|405:160|406:157|406:157|407:157|408:157|408:157|408:154|408:154|408:160|408:160|409:157|409:157|410:157|411:157|411:157|411:154|411:154|411:160|411:160|412:158|412:158|413:158|414:158|414:158|414:155|414:155|414:161|414:161|415:158|415:158|418:158|417:158|417:158|417:155|417:155|417:161|417:161|418:158|418:158|419:158|420:158|420:158|420:155|420:155|420:161|420:161|421:158|421:158|424:158|423:158|423:158|423:155|423:155|423:161|423:161|424:158|424:158|425:159|426:159|426:159|426:156|426:156|426:162|426:162|427:159|427:159|428:159|429:159|429:159|429:156|429:156|429:162|429:162|430:159|430:159|431:159|432:159|432:159|432:156|432:156|432:162|432:162|433:159|433:159|436:159|435:159|435:159|435:156|435:156|435:162|435:162|436:159|436:159|438:160|437:160|437:160|438:157|438:157|438:163|438:163|438:160|438:160|441:160|440:160|440:160|441:157|441:157|441:163|441:163|441:160|441:160|444:160|443:160|443:160|444:157|444:157|444:163|444:163|444:160|444:160|445:160|446:160|446:160|447:157|447:157|447:163|447:163|447:160|447:160|448:161|449:161|449:161|450:158|450:158|450:164|450:164|450:161|450:161|451:161|452:161|452:161|453:158|453:158|453:164|453:164|453:161|453:161|454:161|455:161|455:161|456:158|456:158|456:164|456:164|456:161|456:161|457:161|458:161|458:161|459:159|459:159|459:164|459:164|459:162|459:162|460:162|461:162|461:162|462:159|462:159|462:165|462:165|462:162|462:162|465:162|464:162|464:162|465:159|465:159|465:165|465:165|465:162|465:162|466:162|467:162|467:162|468:159|468:159|468:165|468:165|468:162|468:162|471:163|470:163|470:163|471:160|471:160|471:166|471:166|471:163|471:163|472:163|473:163|473:163|474:160|474:160|474:166|474:166|474:163|474:163|477:163|476:163|476:163|477:160|477:160|477:166|477:166|477:163|477:163|478:163|479:163|479:163|480:160|480:160|480:166|480:166|480:164|480:164|481:164|482:164|482:164|483:161|483:161|482:167|482:167|483:164|483:164|484:164|485:164|485:164|486:161|486:161|485:167|485:167|486:164|486:164|487:164|488:164|488:164|489:161|489:161|488:167|488:167|489:164|489:164|492:165|491:165|491:165|492:162|492:162|491:168|491:168|492:165|492:165|495:165|494:165|494:165|495:162|495:162|494:168|494:168|495:165|495:165|498:165|497:165|497:165|498:162|498:162|497:168|497:168|498:165|498:165|499:165|500:166|500:166|501:163|501:163|500:169|500:169|501:166|501:166|504:166,1,2391.58561941075,6|0,3:2|0:0,0:0:0:0:
471,245,267508,5,14,0:2:0:0:
466,264,267596,1,0,0:0:0:0:
462,284,267685,1,2,0:0:0:0:
458,303,267773,1,2,0:0:0:0:
470,341,267861,6,0,L|372:361,1,67.5000025749208,0|2,3:0|0:0,0:0:0:0:
213,329,268038,2,0,B|203:295|203:295|225:234,1,67.5000025749208,2|0,0:0|0:0,0:0:0:0:
297,265,268214,6,0,B|307:299|307:299|285:360,1,67.5000025749208,6|0,3:2|0:0,0:0:0:0:
108,354,268390,2,0,L|42:341,1,67.5000025749208,2|0,0:0|0:0,0:0:0:0:
13,197,268567,5,2,3:2:0:0:
32,191,268655,1,2,0:0:0:0:
51,186,268743,1,0,0:0:0:0:
71,181,268832,1,2,0:0:0:0:
110,190,268920,6,0,B|120:170|120:170|104:108,2,67.5000025749208,14|0|2,0:0|0:0|0:0,0:0:0:0:
198,251,269185,1,2,0:0:0:0:
213,264,269273,2,0,B|223:284|223:284|207:346,2,67.5000025749208,0|2|2,3:0|0:0|0:0,0:0:0:0:
277,179,269538,5,0,0:0:0:0:
266,158,269626,2,0,B|308:127|367:159|367:159|350:220,1,153.000002918243,6|2,3:2|0:0,0:0:0:0:
427,279,269890,5,0,0:0:0:0:
445,288,269979,2,0,L|535:280,1,67.5000025749208,2|2,3:2|0:0,0:0:0:0:
439,149,270155,2,0,L|529:157,1,67.5000025749208,2|0,0:0|0:0,0:0:0:0:
349,213,270332,6,0,B|306:190|306:190|325:51,1,153.000002918243,14|2,0:0|0:0,0:0:0:0:
425,56,270596,1,2,0:0:0:0:
443,63,270685,2,0,B|451:42|451:42|432:-21,1,67.5000025749208,0|2,3:0|0:0,0:0:0:0:
305,76,270861,2,0,B|297:55|297:55|316:-8,1,67.5000025749208,2|0,0:0|0:0,0:0:0:0:
389,177,271038,6,0,B|380:213|400:244|400:244|372:220|337:226|337:226|371:210|386:178|385:178,1,202.500007724762,10|0,0:0|0:0,0:0:0:0:
391,172,271390,6,0,B|380:214|404:251|404:251|370:223|329:230|329:230|369:211|387:173|386:173,1,229.500004377365,0|0,3:0|0:0,0:0:0:0:
393,168,271743,6,0,B|380:218|408:262|408:262|369:228|319:237|319:237|367:214|388:169|387:169,1,270,8|0,0:0|0:0,0:0:0:0:
296,145,272096,6,0,B|279:134|264:133|264:133|277:127|287:110|287:110|287:131|296:143|296:143,1,99.0000030212403,6|0,3:2|0:0,0:0:0:0:
195,82,272273,6,0,B|176:91|168:103|168:103|169:89|160:71|160:71|178:82|193:80|193:80,1,99.0000030212403,2|0,3:2|0:0,0:0:0:0:
79,94,272449,6,0,B|109:25|192:10|224:59|224:59|211:101|156:103,1,256.499993150711,6|0,3:2|0:0,0:0:0:0:
50,188,272802,6,0,B|40:211|40:211|55:246,3,53.9999983520508,2|0|0|0,0:0|0:0|0:0|0:0,0:0:0:0:
150,239,273155,1,10,1:2:0:0:
157,222,273243,1,0,0:0:0:0:
179,197,273332,1,2,1:2:0:0:
222,181,273420,1,2,1:2:0:0:
277,195,273508,2,0,L|283:134,1,53.9999983520508,2|2,1:2|1:2,0:0:0:0:
399,308,273685,1,2,3:2:0:0:
231,307,273861,6,0,P|276:278|356:284,1,107.999996704102,2|0,0:0|1:0,0:0:0:0:
399,308,274126,1,0,1:0:0:0:
402,329,274214,1,0,0:0:0:0:
490,332,274390,1,0,0:0:0:0:
320,356,274567,1,8,0:0:0:0:
390,230,274743,1,0,3:0:0:0:
396,209,274832,1,2,1:2:0:0:
384,190,274920,1,0,1:0:0:0:
274,63,275096,6,0,P|309:48|350:51,1,53.9999983520508,0|0,3:0|0:0,0:0:0:0:
317,134,275273,2,0,B|225:184|205:111|196:111|173:38|57:107,1,270.000010299683,6|0,1:2|1:0,0:0:0:0:
7,168,275714,5,0,1:0:0:0:
5,188,275802,1,0,1:0:0:0:
2,207,275890,1,0,0:0:0:0:
0,227,275979,1,10,1:2:0:0:
103,320,276155,6,0,L|96:251,1,53.9999983520508,0|2,1:0|1:2,0:0:0:0:
202,262,276332,2,0,L|208:209,1,53.9999983520508,0|0,0:0|1:0,0:0:0:0:
306,331,276508,2,0,L|299:262,1,53.9999983520508,0|0,3:0|0:0,0:0:0:0:
370,212,276685,5,6,1:2:0:0:
391,215,276773,1,2,1:2:0:0:
413,218,276861,1,0,0:0:0:0:
435,222,276949,1,2,1:2:0:0:
456,226,277038,2,0,L|467:145,3,53.9999983520508,0|0|0|0,0:0|1:0|1:0|1:0,0:0:0:0:
421,305,277390,5,14,1:2:0:0:
255,340,277567,2,0,B|282:269|200:302|243:183,1,125.999996154785,2|0,3:2|1:0,0:0:0:0:
257,340,277920,6,0,B|234:348|234:348|224:371,1,38.2500007295609,0|0,3:0|0:0,0:0:0:0:
257,340,278009,2,0,B|275:355|275:355|300:353,1,38.2500007295609,0|0,3:0|0:0,0:0:0:0:
257,340,278096,2,0,B|195:217|329:268|249:111,1,229.500004377365,0|0,1:0|0:0,0:0:0:0:
183,85,278449,6,0,L|112:101,1,53.9999983520508,0|0,1:0|1:0,0:0:0:0:
251,48,278626,1,0,1:0:0:0:
256,32,278714,1,0,0:0:0:0:
251,16,278802,1,10,1:2:0:0:
327,95,278979,6,0,L|398:79,1,53.9999983520508,0|0,3:0|1:0,0:0:0:0:
348,179,279155,2,0,L|419:163,1,53.9999983520508,0|0,3:0|1:0,0:0:0:0:
308,306,279332,5,0,1:0:0:0:
290,292,279420,1,0,0:0:0:0:
268,287,279508,2,0,L|280:191,1,53.9999983520508,6|0,1:2|0:0,0:0:0:0:
252,161,279685,2,0,L|240:65,1,53.9999983520508,0|0,1:0|1:0,0:0:0:0:
148,199,279861,5,0,0:0:0:0:
126,200,279949,1,2,1:2:0:0:
104,200,280038,1,0,3:0:0:0:
82,201,280126,1,2,1:2:0:0:
60,202,280214,2,0,L|-36:214,3,53.9999983520508,8|2|0|0,0:0|1:2|0:0|1:0,0:0:0:0:
73,296,280567,2,0,L|19:302,3,53.9999983520508,0|0|0|0,1:0|1:0|1:0|0:0,0:0:0:0:
151,334,280920,6,0,B|165:366|165:366|360:345|360:345|377:283,1,270.000010299683,6|0,3:2|1:0,0:0:0:0:
301,266,281449,1,0,1:0:0:0:
301,266,281538,1,0,0:0:0:0:
217,231,281802,5,0,1:0:0:0:
217,231,281891,1,0,1:0:0:0:
151,334,282155,5,0,1:0:0:0:
94,145,282332,6,0,B|83:172|99:191|99:191|123:200|135:225|135:225|92:260|92:260|38:234|-13:225|-13:225|61:148|-16:117|61:94|157:86|165:96|179:92|209:82|163:164|180:182|192:275|366:237|333:250|335:221|519:-2|377:19|170:-7|257:-46|146:1|116:-1|-55:115|409:270|311:117|346:75|355:70|381:113|376:89,1,1080.00004119873,6|0,3:2|0:0,0:0:0:0:
