osu file format v14

[General]
AudioFilename: audio.mp3
AudioLeadIn: 0
PreviewTime: 90861
Countdown: 0
SampleSet: Soft
StackLeniency: 0.7
Mode: 0
LetterboxInBreaks: 0
EpilepsyWarning: 1
WidescreenStoryboard: 1

[Editor]
Bookmarks: 182096
DistanceSpacing: 0.1
BeatDivisor: 6
GridSize: 32
TimelineZoom: 2.799999

[Metadata]
Title:true DJ MAG top ranker's song Zenpen (katagiri Remix)
TitleUnicode:true DJ MAG top ranker's song 前編 (かたぎり Remix)
Artist:sabi
ArtistUnicode:sabi
Creator:Nathan
Version:Scub x Nathan's Insane
Source:
Tags:toybot vikala sukinathan sing senseabel tommy phelps tommy_phelps im_a_fancy_lad fancy lad captin1 acylica scubdomino [keqing] yorushika ヨルシカ n-buna だから僕は音楽を辞めた that's thats why I gave up on music Dakara Boku wa Ongaku wo Yameta electronic japanese instrumental 飯島ゆん KEMOMIMI EDM SQUAD new game virtual riot alien pray for riddim chrono trigger wind must die! die onii-chan aire dodge fuski
BeatmapID:2916949
BeatmapSetID:1357624

[Difficulty]
HPDrainRate:4
CircleSize:3.8
OverallDifficulty:7.5
ApproachRate:9.2
SliderMultiplier:1.8
SliderTickRate:1

[Events]
//Background and Video events
0,0,"7f6d8060-19ad-4374-8335-b0e80496c274.jpg",0,0
//Break Periods
//Storyboard Layer 0 (Background)
Sprite,Background,Centre,"sb\square.png",0,0 F,0,136832,169390,1 M,0,136920,,320,240 S,0,136920,,1.971636
Sprite,Background,Centre,"sb\Animation_1\Ellipse27.png",0,0 C,0,92449,,79,101,191 M,22,92449,93149,339,93 F,0,92449,93149,1,0 S,22,92449,93149,0.1,0.3 R,22,92449,93149,0,1
Sprite,Background,Centre,"sb\Animation_1\Ellipse27.png",0,0 C,0,92538,,79,101,191 M,22,92538,93238,344,129 F,0,92538,93238,1,0 S,22,92538,93238,0.1,0.3 R,22,92538,93238,0,1
Sprite,Background,Centre,"sb\Animation_1\Ellipse27.png",0,0 C,0,92626,,79,101,191 M,22,92626,93326,350,165 F,0,92626,93326,1,0 S,22,92626,93326,0.1,0.3 R,22,92626,93326,0,1
Sprite,Background,Centre,"sb\Animation_1\Ellipse27.png",0,0 C,0,92714,,79,101,191 M,22,92714,93414,355,202 F,0,92714,93414,1,0 S,22,92714,93414,0.1,0.3 R,22,92714,93414,0,1
Sprite,Background,Centre,"sb\Animation_1\Ellipse27.png",0,0 C,0,92802,,79,101,191 M,22,92802,93766,361,238 F,0,92802,93766,1,0 S,22,92802,93766,0.1,0.3 R,22,92802,93766,0,1
Sprite,Background,Centre,"sb\Animation_1\Ellipse27.png",0,0 C,0,93155,,79,101,191 M,22,93155,93855,279,226 F,0,93155,93855,1,0 S,22,93155,93855,0.1,0.3 R,22,93155,93855,0,1
Sprite,Background,Centre,"sb\Animation_1\Ellipse27.png",0,0 C,0,93244,,79,101,191 M,22,93244,93944,243,221 F,0,93244,93944,1,0 S,22,93244,93944,0.1,0.3 R,22,93244,93944,0,1
Sprite,Background,Centre,"sb\Animation_1\Ellipse27.png",0,0 C,0,93332,,79,101,191 M,22,93332,94032,206,215 F,0,93332,94032,1,0 S,22,93332,94032,0.1,0.3 R,22,93332,94032,0,1
Sprite,Background,Centre,"sb\Animation_1\Ellipse27.png",0,0 C,0,93420,,79,101,191 M,22,93420,94120,170,209 F,0,93420,94120,1,0 S,22,93420,94120,0.1,0.3 R,22,93420,94120,0,1
Sprite,Background,Centre,"sb\Animation_1\Ellipse27.png",0,0 C,0,93508,,79,101,191 M,22,93508,94472,133,204 F,0,93508,94472,1,0 S,22,93508,94472,0.1,0.3 R,22,93508,94472,0,1
Sprite,Background,Centre,"sb\Animation_1\Ellipse27.png",0,0 C,0,93861,,79,101,191 M,22,93861,94561,263,124 F,0,93861,94561,1,0 S,22,93861,94561,0.1,0.3 R,22,93861,94561,0,1
Sprite,Background,Centre,"sb\Animation_1\Ellipse27.png",0,0 C,0,93949,,79,101,191 M,22,93949,94649,287,131 F,0,93949,94649,1,0 S,22,93949,94649,0.1,0.3 R,22,93949,94649,0,1
Sprite,Background,Centre,"sb\Animation_1\Ellipse27.png",0,0 C,0,94038,,79,101,191 M,22,94038,94738,307,150 F,0,94038,94738,1,0 S,22,94038,94738,0.1,0.3 R,22,94038,94738,0,1
Sprite,Background,Centre,"sb\Animation_1\Ellipse27.png",0,0 C,0,94126,,79,101,191 M,22,94126,94826,313,176 F,0,94126,94826,1,0 S,22,94126,94826,0.1,0.3 R,22,94126,94826,0,1
Sprite,Background,Centre,"sb\Animation_1\Ellipse27.png",0,0 C,0,94214,,79,101,191 M,22,94214,94914,309,205 F,0,94214,94914,1,0 S,22,94214,94914,0.1,0.3 R,22,94214,94914,0,1
Sprite,Background,Centre,"sb\Animation_1\Ellipse27.png",0,0 C,0,94302,,79,101,191 M,22,94302,95002,291,225 F,0,94302,95002,1,0 S,22,94302,95002,0.1,0.3 R,22,94302,95002,0,1
Sprite,Background,Centre,"sb\Animation_1\Ellipse27.png",0,0 C,0,94390,,79,101,191 M,22,94390,95090,266,237 F,0,94390,95090,1,0 S,22,94390,95090,0.1,0.3 R,22,94390,95090,0,1
Sprite,Background,Centre,"sb\Animation_1\Ellipse27.png",0,0 C,0,94479,,79,101,191 M,22,94479,95179,237,236 F,0,94479,95179,1,0 S,22,94479,95179,0.1,0.3 R,22,94479,95179,0,1
Sprite,Background,Centre,"sb\circle.png",0,0 C,0,80449,,255,255,255 M,21,80449,81249,455,369,320,240 F,0,80449,81249,0.2,0 S,21,80449,81249,0.4,0 R,0,80449,81249,0
Sprite,Background,Centre,"sb\circle.png",0,0 C,0,80626,,255,255,255 M,21,80626,81426,321,277,320,240 F,0,80626,81426,0.2,0 S,21,80626,81426,0.4,0 R,0,80626,81426,0
Sprite,Background,Centre,"sb\circle.png",0,0 C,0,80714,,255,255,255 M,21,80714,81514,303,296,320,240 F,0,80714,81514,0.2,0 S,21,80714,81514,0.4,0 R,0,80714,81514,0
Sprite,Background,Centre,"sb\circle.png",0,0 C,0,80802,,255,255,255 M,21,80802,81778,285,315,320,240 F,0,80802,81778,0.2,0 S,21,80802,81778,0.4,0 R,0,80802,81778,0
Sprite,Background,Centre,"sb\circle.png",0,0 C,0,81155,,255,255,255 M,21,81155,82043,284,185,320,240 F,0,81155,82043,0.2,0 S,21,81155,82043,0.4,0 R,0,81155,82043,0,-1
Sprite,Background,Centre,"sb\circle.png",0,0 C,0,81332,,255,255,255 M,21,81332,82220,178,292,320,240 F,0,81332,82220,0.2,0 S,21,81332,82220,0.4,0 R,0,81332,82220,0
Sprite,Background,Centre,"sb\circle.png",0,0 C,0,81508,,255,255,255 M,21,81508,82396,303,296,320,240 F,0,81508,82396,0.2,0 S,21,81508,82396,0.4,0 R,0,81508,82396,0
Sprite,Background,Centre,"sb\circle.png",0,0 C,0,81685,,255,255,255 M,21,81685,82573,179,177,320,240 F,0,81685,82573,0.2,0 S,21,81685,82573,0.4,0 R,0,81685,82573,0,-1
Sprite,Background,Centre,"sb\circle.png",0,0 C,0,81861,,255,255,255 M,21,81861,82661,391,191,320,240 F,0,81861,82661,0.2,0 S,21,81861,82661,0.4,0 R,0,81861,82661,0
Sprite,Background,Centre,"sb\circle.png",0,0 C,0,81949,,255,255,255 M,21,81949,82925,381,205,320,240 F,0,81949,82925,0.2,0 S,21,81949,82925,0.4,0 R,0,81949,82925,0,-1
Sprite,Background,Centre,"sb\circle.png",0,0 C,0,82214,,255,255,255 M,21,82214,83190,531,189,320,240 F,0,82214,83190,0.2,0 S,21,82214,83190,0.4,0 R,0,82214,83190,0,-1
Sprite,Background,Centre,"sb\circle.png",0,0 C,0,82567,,255,255,255 M,21,82567,83543,307,74,320,240 F,0,82567,83543,0.2,0 S,21,82567,83543,0.4,0 R,0,82567,83543,0,-1
Sprite,Background,Centre,"sb\circle.png",0,0 C,0,82920,,255,255,255 M,21,82920,83720,203,358,320,240 F,0,82920,83720,0.2,0 S,21,82920,83720,0.4,0 R,0,82920,83720,0
Sprite,Background,Centre,"sb\circle.png",0,0 C,0,83008,,255,255,255 M,21,83008,83808,203,358,320,240 F,0,83008,83808,0.2,0 S,21,83008,83808,0.4,0 R,0,83008,83808,0,-1
Sprite,Background,Centre,"sb\circle.png",0,0 C,0,83096,,255,255,255 M,21,83096,83896,203,358,320,240 F,0,83096,83896,0.2,0 S,21,83096,83896,0.4,0 R,0,83096,83896,0
Sprite,Background,Centre,"sb\circle.png",0,0 C,0,83185,,255,255,255 M,21,83185,83985,203,358,320,240 F,0,83185,83985,0.2,0 S,21,83185,83985,0.4,0 R,0,83185,83985,0,-1
Sprite,Background,Centre,"sb\circle.png",0,0 C,0,83273,,255,255,255 M,21,83273,84337,203,358,320,240 F,0,83273,84337,0.2,0 S,21,83273,84337,0.4,0 R,0,83273,84337,0
Sprite,Background,Centre,"sb\circle.png",0,0 C,0,83626,,255,255,255 M,21,83626,84602,378,400,320,240 F,0,83626,84602,0.2,0 S,21,83626,84602,0.4,0 R,0,83626,84602,0
Sprite,Background,Centre,"sb\circle.png",0,0 C,0,83979,,255,255,255 M,21,83979,84867,567,158,320,240 F,0,83979,84867,0.2,0 S,21,83979,84867,0.4,0 R,0,83979,84867,0
Sprite,Background,Centre,"sb\circle.png",0,0 C,0,84155,,255,255,255 M,21,84155,85043,326,246,320,240 F,0,84155,85043,0.2,0 S,21,84155,85043,0.4,0 R,0,84155,85043,0,-1
Sprite,Background,Centre,"sb\circle.png",0,0 C,0,84332,,255,255,255 M,21,84332,85308,339,126,320,240 F,0,84332,85308,0.2,0 S,21,84332,85308,0.4,0 R,0,84332,85308,0
Sprite,Background,Centre,"sb\circle.png",0,0 C,0,84596,,255,255,255 M,21,84596,85396,424,130,320,240 F,0,84596,85396,0.2,0 S,21,84596,85396,0.4,0 R,0,84596,85396,0
Sprite,Background,Centre,"sb\circle.png",0,0 C,0,84685,,255,255,255 M,21,84685,85661,424,130,320,240 F,0,84685,85661,0.2,0 S,21,84685,85661,0.4,0 R,0,84685,85661,0
Sprite,Background,Centre,"sb\circle.png",0,0 C,0,85038,,255,255,255 M,21,85038,86014,216,130,320,240 F,0,85038,86014,0.2,0 S,21,85038,86014,0.4,0 R,0,85038,86014,0,-1
Sprite,Background,Centre,"sb\circle.png",0,0 C,0,85390,,255,255,255 M,21,85390,86278,381,347,320,240 F,0,85390,86278,0.2,0 S,21,85390,86278,0.4,0 R,0,85390,86278,0
Sprite,Background,Centre,"sb\circle.png",0,0 C,0,85567,,255,255,255 M,21,85567,86455,262,416,320,240 F,0,85567,86455,0.2,0 S,21,85567,86455,0.4,0 R,0,85567,86455,0
Sprite,Background,Centre,"sb\circle.png",0,0 C,0,85743,,255,255,255 M,21,85743,86543,320,174,320,240 F,0,85743,86543,0.2,0 S,21,85743,86543,0.4,0 R,0,85743,86543,0
Sprite,Background,Centre,"sb\circle.png",0,0 C,0,85920,,255,255,255 M,21,85920,86808,320,285,320,240 F,0,85920,86808,0.2,0 S,21,85920,86808,0.4,0 R,0,85920,86808,0
Sprite,Background,Centre,"sb\circle.png",0,0 C,0,86096,,255,255,255 M,21,86096,86896,237,101,320,240 F,0,86096,86896,0.2,0 S,21,86096,86896,0.4,0 R,0,86096,86896,0
Sprite,Background,Centre,"sb\circle.png",0,0 C,0,86273,,255,255,255 M,21,86273,87073,360,82,320,240 F,0,86273,87073,0.2,0 S,21,86273,87073,0.4,0 R,0,86273,87073,0,-1
Sprite,Background,Centre,"sb\circle.png",0,0 C,0,86449,,255,255,255 M,21,86449,87425,237,101,320,240 F,0,86449,87425,0.2,0 S,21,86449,87425,0.4,0 R,0,86449,87425,0,-1
Sprite,Background,Centre,"sb\circle.png",0,0 C,0,86802,,255,255,255 M,21,86802,87602,409,214,320,240 F,0,86802,87602,0.2,0 S,21,86802,87602,0.4,0 R,0,86802,87602,0,-1
Sprite,Background,Centre,"sb\circle.png",0,0 C,0,86979,,255,255,255 M,21,86979,87779,241,186,320,240 F,0,86979,87779,0.2,0 S,21,86979,87779,0.4,0 R,0,86979,87779,0,-1
Sprite,Background,Centre,"sb\circle.png",0,0 C,0,87155,,255,255,255 M,21,87155,88131,409,214,320,240 F,0,87155,88131,0.2,0 S,21,87155,88131,0.4,0 R,0,87155,88131,0
Sprite,Background,Centre,"sb\circle.png",0,0 C,0,87508,,255,255,255 M,21,87508,88308,268,378,320,240 F,0,87508,88308,0.2,0 S,21,87508,88308,0.4,0 R,0,87508,88308,0
Sprite,Background,Centre,"sb\circle.png",0,0 C,0,87685,,255,255,255 M,21,87685,88485,492,352,320,240 F,0,87685,88485,0.2,0 S,21,87685,88485,0.4,0 R,0,87685,88485,0
Sprite,Background,Centre,"sb\circle.png",0,0 C,0,87861,,255,255,255 M,21,87861,88837,268,378,320,240 F,0,87861,88837,0.2,0 S,21,87861,88837,0.4,0 R,0,87861,88837,0,-1
Sprite,Background,Centre,"sb\circle.png",0,0 C,0,88126,,255,255,255 M,21,88126,88926,134,396,320,240 F,0,88126,88926,0.2,0 S,21,88126,88926,0.4,0 R,0,88126,88926,0,-1
Sprite,Background,Centre,"sb\circle.png",0,0 C,0,88214,,255,255,255 M,21,88214,89102,134,396,320,240 F,0,88214,89102,0.2,0 S,21,88214,89102,0.4,0 R,0,88214,89102,0,-1
Sprite,Background,Centre,"sb\circle.png",0,0 C,0,88390,,255,255,255 M,21,88390,89278,197,295,320,240 F,0,88390,89278,0.2,0 S,21,88390,89278,0.4,0 R,0,88390,89278,0
Sprite,Background,Centre,"sb\circle.png",0,0 C,0,88567,,255,255,255 M,21,88567,89367,96,204,320,240 F,0,88567,89367,0.2,0 S,21,88567,89367,0.4,0 R,0,88567,89367,0
Sprite,Background,Centre,"sb\circle.png",0,0 C,0,88655,,255,255,255 M,21,88655,89455,115,171,320,240 F,0,88655,89455,0.2,0 S,21,88655,89455,0.4,0 R,0,88655,89455,0
Sprite,Background,Centre,"sb\circle.png",0,0 C,0,88743,,255,255,255 M,21,88743,89543,145,148,320,240 F,0,88743,89543,0.2,0 S,21,88743,89543,0.4,0 R,0,88743,89543,0,-1
Sprite,Background,Centre,"sb\circle.png",0,0 C,0,88832,,255,255,255 M,21,88832,89632,182,141,320,240 F,0,88832,89632,0.2,0 S,21,88832,89632,0.4,0 R,0,88832,89632,0,-1
Sprite,Background,Centre,"sb\circle.png",0,0 C,0,88920,,255,255,255 M,21,88920,89720,218,146,320,240 F,0,88920,89720,0.2,0 S,21,88920,89720,0.4,0 R,0,88920,89720,0
Sprite,Background,Centre,"sb\circle.png",0,0 C,0,89008,,255,255,255 M,21,89008,89808,248,167,320,240 F,0,89008,89808,0.2,0 S,21,89008,89808,0.4,0 R,0,89008,89808,0
Sprite,Background,Centre,"sb\circle.png",0,0 C,0,89096,,255,255,255 M,21,89096,89896,267,198,320,240 F,0,89096,89896,0.2,0 S,21,89096,89896,0.4,0 R,0,89096,89896,0,-1
Sprite,Background,Centre,"sb\circle.png",0,0 C,0,89185,,255,255,255 M,21,89185,89985,288,229,320,240 F,0,89185,89985,0.2,0 S,21,89185,89985,0.4,0 R,0,89185,89985,0,-1
Sprite,Background,Centre,"sb\circle.png",0,0 C,0,89273,,255,255,255 M,21,89273,90073,322,242,320,240 F,0,89273,90073,0.2,0 S,21,89273,90073,0.4,0 R,0,89273,90073,0,-1
Sprite,Background,Centre,"sb\circle.png",0,0 C,0,89361,,255,255,255 M,21,89361,90161,359,237,320,240 F,0,89361,90161,0.2,0 S,21,89361,90161,0.4,0 R,0,89361,90161,0,-1
Sprite,Background,Centre,"sb\circle.png",0,0 C,0,89449,,255,255,255 M,21,89449,90249,389,215,320,240 F,0,89449,90249,0.2,0 S,21,89449,90249,0.4,0 R,0,89449,90249,0,-1
Sprite,Background,Centre,"sb\circle.png",0,0 C,0,89538,,255,255,255 M,21,89538,90338,406,181,320,240 F,0,89538,90338,0.2,0 S,21,89538,90338,0.4,0 R,0,89538,90338,0
Sprite,Background,Centre,"sb\circle.png",0,0 C,0,89626,,255,255,255 M,21,89626,90426,402,143,320,240 F,0,89626,90426,0.2,0 S,21,89626,90426,0.4,0 R,0,89626,90426,0
Sprite,Background,Centre,"sb\circle.png",0,0 C,0,89714,,255,255,255 M,21,89714,90514,367,156,320,240 F,0,89714,90514,0.2,0 S,21,89714,90514,0.4,0 R,0,89714,90514,0,-1
Sprite,Background,Centre,"sb\circle.png",0,0 C,0,89802,,255,255,255 M,21,89802,90602,333,172,320,240 F,0,89802,90602,0.2,0 S,21,89802,90602,0.4,0 R,0,89802,90602,0,-1
Sprite,Background,Centre,"sb\circle.png",0,0 C,0,89890,,255,255,255 M,21,89890,90690,299,187,320,240 F,0,89890,90690,0.2,0 S,21,89890,90690,0.4,0 R,0,89890,90690,0
Sprite,Background,Centre,"sb\circle.png",0,0 C,0,89979,,255,255,255 M,21,89979,90779,264,203,320,240 F,0,89979,90779,0.2,0 S,21,89979,90779,0.4,0 R,0,89979,90779,0
Sprite,Background,Centre,"sb\circle.png",0,0 C,0,90067,,255,255,255 M,21,90067,90867,285,210,320,240 F,0,90067,90867,0.2,0 S,21,90067,90867,0.4,0 R,0,90067,90867,0
Sprite,Background,Centre,"sb\circle.png",0,0 C,0,90155,,255,255,255 M,21,90155,90955,306,217,320,240 F,0,90155,90955,0.2,0 S,21,90155,90955,0.4,0 R,0,90155,90955,0
Sprite,Background,Centre,"sb\circle.png",0,0 C,0,90243,,255,255,255 M,21,90243,91043,327,224,320,240 F,0,90243,91043,0.2,0 S,21,90243,91043,0.4,0 R,0,90243,91043,0
Sprite,Background,Centre,"sb\Animation_1\Ellipse27.png",0,0 C,0,95273,,79,101,191 M,22,95273,95973,556,234 F,0,95273,95973,1,0 S,22,95273,95973,0.1,0.3 R,22,95273,95973,0,1
Sprite,Background,Centre,"sb\Animation_1\Ellipse27.png",0,0 C,0,95361,,79,101,191 M,22,95361,96061,537,267 F,0,95361,96061,1,0 S,22,95361,96061,0.1,0.3 R,22,95361,96061,0,1
Sprite,Background,Centre,"sb\Animation_1\Ellipse27.png",0,0 C,0,95449,,79,101,191 M,22,95449,96149,509,292 F,0,95449,96149,1,0 S,22,95449,96149,0.1,0.3 R,22,95449,96149,0,1
Sprite,Background,Centre,"sb\Animation_1\Ellipse27.png",0,0 C,0,95538,,79,101,191 M,22,95538,96238,474,308 F,0,95538,96238,1,0 S,22,95538,96238,0.1,0.3 R,22,95538,96238,0,1
Sprite,Background,Centre,"sb\Animation_1\Ellipse27.png",0,0 C,0,95626,,79,101,191 M,22,95626,96414,435,306 F,0,95626,96414,1,0 S,22,95626,96414,0.1,0.3 R,22,95626,96414,0,1
Sprite,Background,Centre,"sb\Animation_1\Ellipse27.png",0,0 C,0,95802,,79,101,191 M,22,95802,96590,348,361 F,0,95802,96590,1,0 S,22,95802,96590,0.1,0.3 R,22,95802,96590,0,1
Sprite,Background,Centre,"sb\Animation_1\Ellipse27.png",0,0 C,0,95979,,79,101,191 M,22,95979,96679,413,189 F,0,95979,96679,1,0 S,22,95979,96679,0.1,0.3 R,22,95979,96679,0,1
Sprite,Background,Centre,"sb\Animation_1\Ellipse27.png",0,0 C,0,96067,,79,101,191 M,22,96067,96767,375,187 F,0,96067,96767,1,0 S,22,96067,96767,0.1,0.3 R,22,96067,96767,0,1
Sprite,Background,Centre,"sb\Animation_1\Ellipse27.png",0,0 C,0,96155,,79,101,191 M,22,96155,96855,338,198 F,0,96155,96855,1,0 S,22,96155,96855,0.1,0.3 R,22,96155,96855,0,1
Sprite,Background,Centre,"sb\Animation_1\Ellipse27.png",0,0 C,0,96244,,79,101,191 M,22,96244,96944,306,219 F,0,96244,96944,1,0 S,22,96244,96944,0.1,0.3 R,22,96244,96944,0,1
Sprite,Background,Centre,"sb\Animation_1\Ellipse27.png",0,0 C,0,96332,,79,101,191 M,22,96332,97120,284,249 F,0,96332,97120,1,0 S,22,96332,97120,0.1,0.3 R,22,96332,97120,0,1
Sprite,Background,Centre,"sb\Animation_1\Ellipse27.png",0,0 C,0,96508,,79,101,191 M,22,96508,97296,186,295 F,0,96508,97296,1,0 S,22,96508,97296,0.1,0.3 R,22,96508,97296,0,1
Sprite,Background,Centre,"sb\Animation_1\Ellipse27.png",0,0 C,0,96685,,79,101,191 M,22,96685,97385,250,115 F,0,96685,97385,1,0 S,22,96685,97385,0.1,0.3 R,22,96685,97385,0,1
Sprite,Background,Centre,"sb\Animation_1\Ellipse27.png",0,0 C,0,96773,,79,101,191 M,22,96773,97473,250,121 F,0,96773,97473,1,0 S,22,96773,97473,0.1,0.3 R,22,96773,97473,0,1
Sprite,Background,Centre,"sb\Animation_1\Ellipse27.png",0,0 C,0,96861,,79,101,191 M,22,96861,97561,251,127 F,0,96861,97561,1,0 S,22,96861,97561,0.1,0.3 R,22,96861,97561,0,1
Sprite,Background,Centre,"sb\Animation_1\Ellipse27.png",0,0 C,0,96949,,79,101,191 M,22,96949,97649,250,133 F,0,96949,97649,1,0 S,22,96949,97649,0.1,0.3 R,22,96949,97649,0,1
Sprite,Background,Centre,"sb\Animation_1\Ellipse27.png",0,0 C,0,97038,,79,101,191 M,22,97038,97826,251,140 F,0,97038,97826,1,0 S,22,97038,97826,0.1,0.3 R,22,97038,97826,0,1
Sprite,Background,Centre,"sb\Animation_1\Ellipse27.png",0,0 C,0,97214,,79,101,191 M,22,97214,98002,404,273 F,0,97214,98002,1,0 S,22,97214,98002,0.1,0.3 R,22,97214,98002,0,1
Sprite,Background,Centre,"sb\Animation_1\Ellipse27.png",0,0 C,0,98096,,79,101,191 M,22,98096,98796,304,409 F,0,98096,98796,1,0 S,22,98096,98796,0.1,0.3 R,22,98096,98796,0,1
Sprite,Background,Centre,"sb\Animation_1\Ellipse27.png",0,0 C,0,98185,,79,101,191 M,22,98185,98885,336,390 F,0,98185,98885,1,0 S,22,98185,98885,0.1,0.3 R,22,98185,98885,0,1
Sprite,Background,Centre,"sb\Animation_1\Ellipse27.png",0,0 C,0,98273,,79,101,191 M,22,98273,98973,354,357 F,0,98273,98973,1,0 S,22,98273,98973,0.1,0.3 R,22,98273,98973,0,1
Sprite,Background,Centre,"sb\Animation_1\Ellipse27.png",0,0 C,0,98361,,79,101,191 M,22,98361,99061,362,319 F,0,98361,99061,1,0 S,22,98361,99061,0.1,0.3 R,22,98361,99061,0,1
Sprite,Background,Centre,"sb\Animation_1\Ellipse27.png",0,0 C,0,98449,,79,101,191 M,22,98449,99413,347,284 F,0,98449,99413,1,0 S,22,98449,99413,0.1,0.3 R,22,98449,99413,0,1
Sprite,Background,Centre,"sb\Animation_1\Ellipse27.png",0,0 C,0,98802,,79,101,191 M,22,98802,99502,177,350 F,0,98802,99502,1,0 S,22,98802,99502,0.1,0.3 R,22,98802,99502,0,1
Sprite,Background,Centre,"sb\Animation_1\Ellipse27.png",0,0 C,0,98891,,79,101,191 M,22,98891,99591,144,331 F,0,98891,99591,1,0 S,22,98891,99591,0.1,0.3 R,22,98891,99591,0,1
Sprite,Background,Centre,"sb\Animation_1\Ellipse27.png",0,0 C,0,98979,,79,101,191 M,22,98979,99679,126,298 F,0,98979,99679,1,0 S,22,98979,99679,0.1,0.3 R,22,98979,99679,0,1
Sprite,Background,Centre,"sb\Animation_1\Ellipse27.png",0,0 C,0,99067,,79,101,191 M,22,99067,99767,118,260 F,0,99067,99767,1,0 S,22,99067,99767,0.1,0.3 R,22,99067,99767,0,1
Sprite,Background,Centre,"sb\Animation_1\Ellipse27.png",0,0 C,0,99155,,79,101,191 M,22,99155,100119,127,223 F,0,99155,100119,1,0 S,22,99155,100119,0.1,0.3 R,22,99155,100119,0,1
Sprite,Background,Centre,"sb\Animation_1\Ellipse27.png",0,0 C,0,99508,,79,101,191 M,22,99508,100208,271,155 F,0,99508,100208,1,0 S,22,99508,100208,0.1,0.3 R,22,99508,100208,0,1
Sprite,Background,Centre,"sb\Animation_1\Ellipse27.png",0,0 C,0,99596,,79,101,191 M,22,99596,100296,289,175 F,0,99596,100296,1,0 S,22,99596,100296,0.1,0.3 R,22,99596,100296,0,1
Sprite,Background,Centre,"sb\Animation_1\Ellipse27.png",0,0 C,0,99685,,79,101,191 M,22,99685,100385,296,202 F,0,99685,100385,1,0 S,22,99685,100385,0.1,0.3 R,22,99685,100385,0,1
Sprite,Background,Centre,"sb\Animation_1\Ellipse27.png",0,0 C,0,99773,,79,101,191 M,22,99773,100473,289,228 F,0,99773,100473,1,0 S,22,99773,100473,0.1,0.3 R,22,99773,100473,0,1
Sprite,Background,Centre,"sb\Animation_1\Ellipse27.png",0,0 C,0,99861,,79,101,191 M,22,99861,100561,271,248 F,0,99861,100561,1,0 S,22,99861,100561,0.1,0.3 R,22,99861,100561,0,1
Sprite,Background,Centre,"sb\Animation_1\Ellipse27.png",0,0 C,0,99949,,79,101,191 M,22,99949,100649,250,265 F,0,99949,100649,1,0 S,22,99949,100649,0.1,0.3 R,22,99949,100649,0,1
Sprite,Background,Centre,"sb\Animation_1\Ellipse27.png",0,0 C,0,100037,,79,101,191 M,22,100037,100737,238,289 F,0,100037,100737,1,0 S,22,100037,100737,0.1,0.3 R,22,100037,100737,0,1
Sprite,Background,Centre,"sb\Animation_1\Ellipse27.png",0,0 C,0,100126,,79,101,191 M,22,100126,100826,241,315 F,0,100126,100826,1,0 S,22,100126,100826,0.1,0.3 R,22,100126,100826,0,1
Sprite,Background,Centre,"sb\Animation_1\Ellipse27.png",0,0 C,0,100920,,79,101,191 M,22,100920,101620,529,111 F,0,100920,101620,1,0 S,22,100920,101620,0.1,0.3 R,22,100920,101620,0,1
Sprite,Background,Centre,"sb\Animation_1\Ellipse27.png",0,0 C,0,101008,,79,101,191 M,22,101008,101708,495,108 F,0,101008,101708,1,0 S,22,101008,101708,0.1,0.3 R,22,101008,101708,0,1
Sprite,Background,Centre,"sb\Animation_1\Ellipse27.png",0,0 C,0,101096,,79,101,191 M,22,101096,101796,461,105 F,0,101096,101796,1,0 S,22,101096,101796,0.1,0.3 R,22,101096,101796,0,1
Sprite,Background,Centre,"sb\Animation_1\Ellipse27.png",0,0 C,0,101185,,79,101,191 M,22,101185,101885,427,102 F,0,101185,101885,1,0 S,22,101185,101885,0.1,0.3 R,22,101185,101885,0,1
Sprite,Background,Centre,"sb\Animation_1\Ellipse27.png",0,0 C,0,101273,,79,101,191 M,22,101273,102061,393,99 F,0,101273,102061,1,0 S,22,101273,102061,0.1,0.3 R,22,101273,102061,0,1
Sprite,Background,Centre,"sb\Animation_1\Ellipse27.png",0,0 C,0,101449,,79,101,191 M,22,101449,102237,245,112 F,0,101449,102237,1,0 S,22,101449,102237,0.1,0.3 R,22,101449,102237,0,1
Sprite,Background,Centre,"sb\Animation_1\Ellipse27.png",0,0 C,0,101626,,79,101,191 M,22,101626,102326,299,256 F,0,101626,102326,1,0 S,22,101626,102326,0.1,0.3 R,22,101626,102326,0,1
Sprite,Background,Centre,"sb\Animation_1\Ellipse27.png",0,0 C,0,101714,,79,101,191 M,22,101714,102414,300,264 F,0,101714,102414,1,0 S,22,101714,102414,0.1,0.3 R,22,101714,102414,0,1
Sprite,Background,Centre,"sb\Animation_1\Ellipse27.png",0,0 C,0,101802,,79,101,191 M,22,101802,102502,300,272 F,0,101802,102502,1,0 S,22,101802,102502,0.1,0.3 R,22,101802,102502,0,1
Sprite,Background,Centre,"sb\Animation_1\Ellipse27.png",0,0 C,0,101890,,79,101,191 M,22,101890,102590,300,280 F,0,101890,102590,1,0 S,22,101890,102590,0.1,0.3 R,22,101890,102590,0,1
Sprite,Background,Centre,"sb\Animation_1\Ellipse27.png",0,0 C,0,101979,,79,101,191 M,22,101979,102767,301,287 F,0,101979,102767,1,0 S,22,101979,102767,0.1,0.3 R,22,101979,102767,0,1
Sprite,Background,Centre,"sb\Animation_1\Ellipse27.png",0,0 C,0,102155,,79,101,191 M,22,102155,102943,470,355 F,0,102155,102943,1,0 S,22,102155,102943,0.1,0.3 R,22,102155,102943,0,1
Sprite,Background,Centre,"sb\Animation_1\Ellipse27.png",0,0 C,0,102332,,79,101,191 M,22,102332,103120,300,367 F,0,102332,103120,1,0 S,22,102332,103120,0.1,0.3 R,22,102332,103120,0,1
Sprite,Background,Centre,"sb\Animation_1\Ellipse27.png",0,0 C,0,102508,,79,101,191 M,22,102508,103296,449,263 F,0,102508,103296,1,0 S,22,102508,103296,0.1,0.3 R,22,102508,103296,0,1
Sprite,Background,Centre,"sb\Animation_1\Ellipse27.png",0,0 C,0,102685,,79,101,191 M,22,102685,103385,384,364 F,0,102685,103385,1,0 S,22,102685,103385,0.1,0.3 R,22,102685,103385,0,1
Sprite,Background,Centre,"sb\Animation_1\Ellipse27.png",0,0 C,0,102773,,79,101,191 M,22,102773,103473,378,317 F,0,102773,103473,1,0 S,22,102773,103473,0.1,0.3 R,22,102773,103473,0,1
Sprite,Background,Centre,"sb\Animation_1\Ellipse27.png",0,0 C,0,102861,,79,101,191 M,22,102861,103561,372,271 F,0,102861,103561,1,0 S,22,102861,103561,0.1,0.3 R,22,102861,103561,0,1
Sprite,Background,Centre,"sb\Animation_1\Ellipse27.png",0,0 C,0,102949,,79,101,191 M,22,102949,103649,366,225 F,0,102949,103649,1,0 S,22,102949,103649,0.1,0.3 R,22,102949,103649,0,1
Sprite,Background,Centre,"sb\vectorsquare.png",0,0 C,0,103743,,79,101,191 M,22,103743,104443,378,317 F,0,103743,104443,1,0 S,22,103743,104443,0.15,0.35 R,22,103743,104443,0,1
Sprite,Background,Centre,"sb\vectorsquare.png",0,0 C,0,103832,,79,101,191 M,22,103832,104532,378,344 F,0,103832,104532,1,0 S,22,103832,104532,0.15,0.35 R,22,103832,104532,0,1
Sprite,Background,Centre,"sb\vectorsquare.png",0,0 C,0,103920,,79,101,191 M,22,103920,104708,369,369 F,0,103920,104708,1,0 S,22,103920,104708,0.15,0.35 R,22,103920,104708,0,1
Sprite,Background,Centre,"sb\vectorsquare.png",0,0 C,0,104096,,79,101,191 M,22,104096,104796,411,239 F,0,104096,104796,1,0 S,22,104096,104796,0.15,0.35 R,22,104096,104796,0,1
Sprite,Background,Centre,"sb\vectorsquare.png",0,0 C,0,104185,,79,101,191 M,22,104185,104885,434,252 F,0,104185,104885,1,0 S,22,104185,104885,0.15,0.35 R,22,104185,104885,0,1
Sprite,Background,Centre,"sb\vectorsquare.png",0,0 C,0,104273,,79,101,191 M,22,104273,105061,451,272 F,0,104273,105061,1,0 S,22,104273,105061,0.15,0.35 R,22,104273,105061,0,1
Sprite,Background,Centre,"sb\vectorsquare.png",0,0 C,0,104449,,79,101,191 M,22,104449,105149,357,164 F,0,104449,105149,1,0 S,22,104449,105149,0.15,0.35 R,22,104449,105149,0,1
Sprite,Background,Centre,"sb\vectorsquare.png",0,0 C,0,104538,,79,101,191 M,22,104538,105238,380,151 F,0,104538,105238,1,0 S,22,104538,105238,0.15,0.35 R,22,104538,105238,0,1
Sprite,Background,Centre,"sb\vectorsquare.png",0,0 C,0,104626,,79,101,191 M,22,104626,105414,406,146 F,0,104626,105414,1,0 S,22,104626,105414,0.15,0.35 R,22,104626,105414,0,1
Sprite,Background,Centre,"sb\vectorsquare.png",0,0 C,0,104802,,79,101,191 M,22,104802,105502,266,173 F,0,104802,105502,1,0 S,22,104802,105502,0.15,0.35 R,22,104802,105502,0,1
Sprite,Background,Centre,"sb\vectorsquare.png",0,0 C,0,104891,,79,101,191 M,22,104891,105591,266,147 F,0,104891,105591,1,0 S,22,104891,105591,0.15,0.35 R,22,104891,105591,0,1
Sprite,Background,Centre,"sb\vectorsquare.png",0,0 C,0,104979,,79,101,191 M,22,104979,105767,275,122 F,0,104979,105767,1,0 S,22,104979,105767,0.15,0.35 R,22,104979,105767,0,1
Sprite,Background,Centre,"sb\vectorsquare.png",0,0 C,0,105155,,79,101,191 M,22,105155,105855,229,256 F,0,105155,105855,1,0 S,22,105155,105855,0.15,0.35 R,22,105155,105855,0,1
Sprite,Background,Centre,"sb\vectorsquare.png",0,0 C,0,105244,,79,101,191 M,22,105244,105944,200,227 F,0,105244,105944,1,0 S,22,105244,105944,0.15,0.35 R,22,105244,105944,0,1
Sprite,Background,Centre,"sb\vectorsquare.png",0,0 C,0,105332,,79,101,191 M,22,105332,106032,184,189 F,0,105332,106032,1,0 S,22,105332,106032,0.15,0.35 R,22,105332,106032,0,1
Sprite,Background,Centre,"sb\vectorsquare.png",0,0 C,0,105420,,79,101,191 M,22,105420,106120,182,148 F,0,105420,106120,1,0 S,22,105420,106120,0.15,0.35 R,22,105420,106120,0,1
Sprite,Background,Centre,"sb\vectorsquare.png",0,0 C,0,105508,,79,101,191 M,22,105508,106208,188,108 F,0,105508,106208,1,0 S,22,105508,106208,0.15,0.35 R,22,105508,106208,0,1
Sprite,Background,Centre,"sb\vectorsquare.png",0,0 C,0,105596,,79,101,191 M,22,105596,106296,169,115 F,0,105596,106296,1,0 S,22,105596,106296,0.15,0.35 R,22,105596,106296,0,1
Sprite,Background,Centre,"sb\vectorsquare.png",0,0 C,0,105685,,79,101,191 M,22,105685,106385,159,133 F,0,105685,106385,1,0 S,22,105685,106385,0.15,0.35 R,22,105685,106385,0,1
Sprite,Background,Centre,"sb\vectorsquare.png",0,0 C,0,105773,,79,101,191 M,22,105773,106473,152,152 F,0,105773,106473,1,0 S,22,105773,106473,0.15,0.35 R,22,105773,106473,0,1
Sprite,Background,Centre,"sb\vectorsquare.png",0,0 C,0,106567,,79,101,191 M,22,106567,107267,416,197 F,0,106567,107267,1,0 S,22,106567,107267,0.15,0.35 R,22,106567,107267,0,1
Sprite,Background,Centre,"sb\vectorsquare.png",0,0 C,0,106656,,79,101,191 M,22,106656,107356,416,170 F,0,106656,107356,1,0 S,22,106656,107356,0.15,0.35 R,22,106656,107356,0,1
Sprite,Background,Centre,"sb\vectorsquare.png",0,0 C,0,106744,,79,101,191 M,22,106744,107532,407,145 F,0,106744,107532,1,0 S,22,106744,107532,0.15,0.35 R,22,106744,107532,0,1
Sprite,Background,Centre,"sb\vectorsquare.png",0,0 C,0,106920,,79,101,191 M,22,106920,107620,449,275 F,0,106920,107620,1,0 S,22,106920,107620,0.15,0.35 R,22,106920,107620,0,1
Sprite,Background,Centre,"sb\vectorsquare.png",0,0 C,0,107009,,79,101,191 M,22,107009,107709,472,262 F,0,107009,107709,1,0 S,22,107009,107709,0.15,0.35 R,22,107009,107709,0,1
Sprite,Background,Centre,"sb\vectorsquare.png",0,0 C,0,107097,,79,101,191 M,22,107097,107885,489,242 F,0,107097,107885,1,0 S,22,107097,107885,0.15,0.35 R,22,107097,107885,0,1
Sprite,Background,Centre,"sb\vectorsquare.png",0,0 C,0,107273,,79,101,191 M,22,107273,107973,395,350 F,0,107273,107973,1,0 S,22,107273,107973,0.15,0.35 R,22,107273,107973,0,1
Sprite,Background,Centre,"sb\vectorsquare.png",0,0 C,0,107362,,79,101,191 M,22,107362,108062,418,363 F,0,107362,108062,1,0 S,22,107362,108062,0.15,0.35 R,22,107362,108062,0,1
Sprite,Background,Centre,"sb\vectorsquare.png",0,0 C,0,107450,,79,101,191 M,22,107450,108238,444,368 F,0,107450,108238,1,0 S,22,107450,108238,0.15,0.35 R,22,107450,108238,0,1
Sprite,Background,Centre,"sb\vectorsquare.png",0,0 C,0,107626,,79,101,191 M,22,107626,108326,310,346 F,0,107626,108326,1,0 S,22,107626,108326,0.15,0.35 R,22,107626,108326,0,1
Sprite,Background,Centre,"sb\vectorsquare.png",0,0 C,0,107715,,79,101,191 M,22,107715,108415,310,372 F,0,107715,108415,1,0 S,22,107715,108415,0.15,0.35 R,22,107715,108415,0,1
Sprite,Background,Centre,"sb\vectorsquare.png",0,0 C,0,107803,,79,101,191 M,22,107803,108591,319,397 F,0,107803,108591,1,0 S,22,107803,108591,0.15,0.35 R,22,107803,108591,0,1
Sprite,Background,Centre,"sb\vectorsquare.png",0,0 C,0,107979,,79,101,191 M,22,107979,108679,361,248 F,0,107979,108679,1,0 S,22,107979,108679,0.15,0.35 R,22,107979,108679,0,1
Sprite,Background,Centre,"sb\vectorsquare.png",0,0 C,0,108067,,79,101,191 M,22,108067,108767,337,223 F,0,108067,108767,1,0 S,22,108067,108767,0.15,0.35 R,22,108067,108767,0,1
Sprite,Background,Centre,"sb\vectorsquare.png",0,0 C,0,108155,,79,101,191 M,22,108155,108855,303,216 F,0,108155,108855,1,0 S,22,108155,108855,0.15,0.35 R,22,108155,108855,0,1
Sprite,Background,Centre,"sb\vectorsquare.png",0,0 C,0,108243,,79,101,191 M,22,108243,108943,270,223 F,0,108243,108943,1,0 S,22,108243,108943,0.15,0.35 R,22,108243,108943,0,1
Sprite,Background,Centre,"sb\vectorsquare.png",0,0 C,0,108332,,79,101,191 M,22,108332,109120,240,240 F,0,108332,109120,1,0 S,22,108332,109120,0.15,0.35 R,22,108332,109120,0,1
Sprite,Background,Centre,"sb\vectorsquare.png",0,0 C,0,108508,,79,101,191 M,22,108508,109296,224,91 F,0,108508,109296,1,0 S,22,108508,109296,0.15,0.35 R,22,108508,109296,0,1
Sprite,Background,Centre,"sb\vectorsquare.png",0,0 C,0,109390,,79,101,191 M,22,109390,110090,191,339 F,0,109390,110090,1,0 S,22,109390,110090,0.15,0.35 R,22,109390,110090,0,1
Sprite,Background,Centre,"sb\vectorsquare.png",0,0 C,0,109479,,79,101,191 M,22,109479,110179,217,334 F,0,109479,110179,1,0 S,22,109479,110179,0.15,0.35 R,22,109479,110179,0,1
Sprite,Background,Centre,"sb\vectorsquare.png",0,0 C,0,109567,,79,101,191 M,22,109567,110355,243,330 F,0,109567,110355,1,0 S,22,109567,110355,0.15,0.35 R,22,109567,110355,0,1
Sprite,Background,Centre,"sb\vectorsquare.png",0,0 C,0,109743,,79,101,191 M,22,109743,110443,377,236 F,0,109743,110443,1,0 S,22,109743,110443,0.15,0.35 R,22,109743,110443,0,1
Sprite,Background,Centre,"sb\vectorsquare.png",0,0 C,0,109832,,79,101,191 M,22,109832,110532,382,262 F,0,109832,110532,1,0 S,22,109832,110532,0.15,0.35 R,22,109832,110532,0,1
Sprite,Background,Centre,"sb\vectorsquare.png",0,0 C,0,109920,,79,101,191 M,22,109920,110708,386,288 F,0,109920,110708,1,0 S,22,109920,110708,0.15,0.35 R,22,109920,110708,0,1
Sprite,Background,Centre,"sb\vectorsquare.png",0,0 C,0,110096,,79,101,191 M,22,110096,110796,254,220 F,0,110096,110796,1,0 S,22,110096,110796,0.15,0.35 R,22,110096,110796,0,1
Sprite,Background,Centre,"sb\vectorsquare.png",0,0 C,0,110185,,79,101,191 M,22,110185,110885,280,215 F,0,110185,110885,1,0 S,22,110185,110885,0.15,0.35 R,22,110185,110885,0,1
Sprite,Background,Centre,"sb\vectorsquare.png",0,0 C,0,110273,,79,101,191 M,22,110273,111061,306,211 F,0,110273,111061,1,0 S,22,110273,111061,0.15,0.35 R,22,110273,111061,0,1
Sprite,Background,Centre,"sb\vectorsquare.png",0,0 C,0,110449,,79,101,191 M,22,110449,111149,440,117 F,0,110449,111149,1,0 S,22,110449,111149,0.15,0.35 R,22,110449,111149,0,1
Sprite,Background,Centre,"sb\vectorsquare.png",0,0 C,0,110538,,79,101,191 M,22,110538,111238,445,143 F,0,110538,111238,1,0 S,22,110538,111238,0.15,0.35 R,22,110538,111238,0,1
Sprite,Background,Centre,"sb\vectorsquare.png",0,0 C,0,110626,,79,101,191 M,22,110626,111414,449,169 F,0,110626,111414,1,0 S,22,110626,111414,0.15,0.35 R,22,110626,111414,0,1
Sprite,Background,Centre,"sb\vectorsquare.png",0,0 C,0,110802,,79,101,191 M,22,110802,111502,506,360 F,0,110802,111502,1,0 S,22,110802,111502,0.15,0.35 R,22,110802,111502,0,1
Sprite,Background,Centre,"sb\vectorsquare.png",0,0 C,0,110890,,79,101,191 M,22,110890,111590,465,355 F,0,110890,111590,1,0 S,22,110890,111590,0.15,0.35 R,22,110890,111590,0,1
Sprite,Background,Centre,"sb\vectorsquare.png",0,0 C,0,110979,,79,101,191 M,22,110979,111679,424,350 F,0,110979,111679,1,0 S,22,110979,111679,0.15,0.35 R,22,110979,111679,0,1
Sprite,Background,Centre,"sb\vectorsquare.png",0,0 C,0,111067,,79,101,191 M,22,111067,111767,383,346 F,0,111067,111767,1,0 S,22,111067,111767,0.15,0.35 R,22,111067,111767,0,1
Sprite,Background,Centre,"sb\vectorsquare.png",0,0 C,0,111155,,79,101,191 M,22,111155,111855,342,342 F,0,111155,111855,1,0 S,22,111155,111855,0.15,0.35 R,22,111155,111855,0,1
Sprite,Background,Centre,"sb\vectorsquare.png",0,0 C,0,111243,,79,101,191 M,22,111243,111943,345,322 F,0,111243,111943,1,0 S,22,111243,111943,0.15,0.35 R,22,111243,111943,0,1
Sprite,Background,Centre,"sb\vectorsquare.png",0,0 C,0,111332,,79,101,191 M,22,111332,112032,348,301 F,0,111332,112032,1,0 S,22,111332,112032,0.15,0.35 R,22,111332,112032,0,1
Sprite,Background,Centre,"sb\vectorsquare.png",0,0 C,0,111420,,79,101,191 M,22,111420,112120,351,281 F,0,111420,112120,1,0 S,22,111420,112120,0.15,0.35 R,22,111420,112120,0,1
Sprite,Background,Centre,"sb\vectorsquare.png",0,0 C,0,112214,,79,101,191 M,22,112214,112914,253,270 F,0,112214,112914,1,0 S,22,112214,112914,0.15,0.35 R,22,112214,112914,0,1
Sprite,Background,Centre,"sb\vectorsquare.png",0,0 C,0,112302,,79,101,191 M,22,112302,113002,242,307 F,0,112302,113002,1,0 S,22,112302,113002,0.15,0.35 R,22,112302,113002,0,1
Sprite,Background,Centre,"sb\vectorsquare.png",0,0 C,0,112390,,79,101,191 M,22,112390,113090,224,340 F,0,112390,113090,1,0 S,22,112390,113090,0.15,0.35 R,22,112390,113090,0,1
Sprite,Background,Centre,"sb\vectorsquare.png",0,0 C,0,112479,,79,101,191 M,22,112479,113179,192,363 F,0,112479,113179,1,0 S,22,112479,113179,0.15,0.35 R,22,112479,113179,0,1
Sprite,Background,Centre,"sb\vectorsquare.png",0,0 C,0,112567,,79,101,191 M,22,112567,113355,155,370 F,0,112567,113355,1,0 S,22,112567,113355,0.15,0.35 R,22,112567,113355,0,1
Sprite,Background,Centre,"sb\vectorsquare.png",0,0 C,0,112743,,79,101,191 M,22,112743,113531,331,317 F,0,112743,113531,1,0 S,22,112743,113531,0.15,0.35 R,22,112743,113531,0,1
Sprite,Background,Centre,"sb\vectorsquare.png",0,0 C,0,112920,,79,101,191 M,22,112920,113620,238,219 F,0,112920,113620,1,0 S,22,112920,113620,0.15,0.35 R,22,112920,113620,0,1
Sprite,Background,Centre,"sb\vectorsquare.png",0,0 C,0,113008,,79,101,191 M,22,113008,113708,236,210 F,0,113008,113708,1,0 S,22,113008,113708,0.15,0.35 R,22,113008,113708,0,1
Sprite,Background,Centre,"sb\vectorsquare.png",0,0 C,0,113096,,79,101,191 M,22,113096,113796,234,201 F,0,113096,113796,1,0 S,22,113096,113796,0.15,0.35 R,22,113096,113796,0,1
Sprite,Background,Centre,"sb\vectorsquare.png",0,0 C,0,113184,,79,101,191 M,22,113184,113884,233,192 F,0,113184,113884,1,0 S,22,113184,113884,0.15,0.35 R,22,113184,113884,0,1
Sprite,Background,Centre,"sb\vectorsquare.png",0,0 C,0,113273,,79,101,191 M,22,113273,114061,232,182 F,0,113273,114061,1,0 S,22,113273,114061,0.15,0.35 R,22,113273,114061,0,1
Sprite,Background,Centre,"sb\vectorsquare.png",0,0 C,0,113449,,79,101,191 M,22,113449,114237,383,155 F,0,113449,114237,1,0 S,22,113449,114237,0.15,0.35 R,22,113449,114237,0,1
Sprite,Background,Centre,"sb\vectorsquare.png",0,0 C,0,113626,,79,101,191 M,22,113626,114326,486,273 F,0,113626,114326,1,0 S,22,113626,114326,0.15,0.35 R,22,113626,114326,0,1
Sprite,Background,Centre,"sb\vectorsquare.png",0,0 C,0,113802,,79,101,191 M,22,113802,114502,540,139 F,0,113802,114502,1,0 S,22,113802,114502,0.15,0.35 R,22,113802,114502,0,1
Sprite,Background,Centre,"sb\vectorsquare.png",0,0 C,0,113890,,79,101,191 M,22,113890,114590,540,139 F,0,113890,114590,1,0 S,22,113890,114590,0.15,0.35 R,22,113890,114590,0,1
Sprite,Background,Centre,"sb\vectorsquare.png",0,0 C,0,113979,,79,101,191 M,22,113979,114767,540,139 F,0,113979,114767,1,0 S,22,113979,114767,0.15,0.35 R,22,113979,114767,0,1
Sprite,Background,Centre,"sb\vectorsquare.png",0,0 C,0,114155,,79,101,191 M,22,114155,114943,397,240 F,0,114155,114943,1,0 S,22,114155,114943,0.15,0.35 R,22,114155,114943,0,1
Sprite,Background,Centre,"sb\a.png",0,0 C,0,148214,,255,189,189 M,22,148214,149390,348,407 F,0,148214,149390,0.5,0 S,22,148214,149390,0.8,1 R,22,148214,149390,0.09049731
Sprite,Background,Centre,"sb\a.png",0,0 C,0,148567,,255,189,189 M,22,148567,149743,561,207 F,0,148567,149743,0.5,0 S,22,148567,149743,0.8,1 R,22,148567,149743,0.1269301
Sprite,Background,Centre,"sb\a.png",0,0 C,0,148832,,255,189,189 M,22,148832,149832,436,192 F,0,148832,149832,0.5,0 S,22,148832,149832,0.8,1 R,22,148832,149832,0.1072091
Sprite,Background,Centre,"sb\a.png",0,0 C,0,148920,,255,189,189 M,22,148920,150096,436,192 F,0,148920,150096,0.5,0 S,22,148920,150096,0.8,1 R,22,148920,150096,0.02326448
Sprite,Background,Centre,"sb\a.png",0,0 C,0,149185,,255,189,189 M,22,149185,150361,227,115 F,0,149185,150361,0.5,0 S,22,149185,150361,0.8,1 R,22,149185,150361,-0.1175867
Sprite,Background,Centre,"sb\a.png",0,0 C,0,149449,,255,189,189 M,22,149449,150449,349,277 F,0,149449,150449,0.5,0 S,22,149449,150449,0.8,1 R,22,149449,150449,0.02355392
Sprite,Background,Centre,"sb\a.png",0,0 C,0,149538,,255,189,189 M,22,149538,150538,349,277 F,0,149538,150538,0.5,0 S,22,149538,150538,0.8,1 R,22,149538,150538,0.1624108
Sprite,Background,Centre,"sb\a.png",0,0 C,0,149626,,255,189,189 M,22,149626,150802,349,277 F,0,149626,150802,0.5,0 S,22,149626,150802,0.8,1 R,22,149626,150802,-0.02312885
Sprite,Background,Centre,"sb\a.png",0,0 C,0,149979,,255,189,189 M,22,149979,151067,83,287 F,0,149979,151067,0.5,0 S,22,149979,151067,0.8,1 R,22,149979,151067,0.1910199
Sprite,Background,Centre,"sb\a.png",0,0 C,0,150155,,255,189,189 M,22,150155,151243,250,393 F,0,150155,151243,0.5,0 S,22,150155,151243,0.8,1 R,22,150155,151243,-0.09051821
Sprite,Background,Centre,"sb\a.png",0,0 C,0,150332,,255,189,189 M,22,150332,151508,144,282 F,0,150332,151508,0.5,0 S,22,150332,151508,0.8,1 R,22,150332,151508,-0.08323748
Sprite,Background,Centre,"sb\a.png",0,0 C,0,150596,,255,189,189 M,22,150596,151596,271,307 F,0,150596,151596,0.5,0 S,22,150596,151596,0.8,1 R,22,150596,151596,-0.01307412
Sprite,Background,Centre,"sb\a.png",0,0 C,0,150685,,255,189,189 M,22,150685,151773,271,307 F,0,150685,151773,0.5,0 S,22,150685,151773,0.8,1 R,22,150685,151773,0.05306363
Sprite,Background,Centre,"sb\a.png",0,0 C,0,150861,,255,189,189 M,22,150861,151861,242,156 F,0,150861,151861,0.5,0 S,22,150861,151861,0.8,1 R,22,150861,151861,-0.01219525
Sprite,Background,Centre,"sb\a.png",0,0 C,0,150949,,255,189,189 M,22,150949,151949,242,156 F,0,150949,151949,0.5,0 S,22,150949,151949,0.8,1 R,22,150949,151949,0.1928605
Sprite,Background,Centre,"sb\a.png",0,0 C,0,151038,,255,189,189 M,22,151038,152214,242,156 F,0,151038,152214,0.5,0 S,22,151038,152214,0.8,1 R,22,151038,152214,-0.1878532
Sprite,Background,Centre,"sb\a.png",0,0 C,0,151390,,255,189,189 M,22,151390,152478,543,341 F,0,151390,152478,0.5,0 S,22,151390,152478,0.8,1 R,22,151390,152478,0.1449481
Sprite,Background,Centre,"sb\a.png",0,0 C,0,151567,,255,189,189 M,22,151567,152655,391,267 F,0,151567,152655,0.5,0 S,22,151567,152655,0.8,1 R,22,151567,152655,0.1981388
Sprite,Background,Centre,"sb\a.png",0,0 C,0,151743,,255,189,189 M,22,151743,152743,466,306 F,0,151743,152743,0.5,0 S,22,151743,152743,0.8,1 R,22,151743,152743,0.07087246
Sprite,Background,Centre,"sb\a.png",0,0 C,0,151920,,255,189,189 M,22,151920,152920,478,227 F,0,151920,152920,0.5,0 S,22,151920,152920,0.8,1 R,22,151920,152920,-0.07416328
Sprite,Background,Centre,"sb\a.png",0,0 C,0,152008,,255,189,189 M,22,152008,153008,478,227 F,0,152008,153008,0.5,0 S,22,152008,153008,0.8,1 R,22,152008,153008,0.1267632
Sprite,Background,Centre,"sb\a.png",0,0 C,0,152096,,255,189,189 M,22,152096,153096,478,227 F,0,152096,153096,0.5,0 S,22,152096,153096,0.8,1 R,22,152096,153096,0.1392207
Sprite,Background,Centre,"sb\a.png",0,0 C,0,152273,,255,189,189 M,22,152273,153273,482,138 F,0,152273,153273,0.5,0 S,22,152273,153273,0.8,1 R,22,152273,153273,0.1967609
Sprite,Background,Centre,"sb\a.png",0,0 C,0,152449,,255,189,189 M,22,152449,153449,302,198 F,0,152449,153449,0.5,0 S,22,152449,153449,0.8,1 R,22,152449,153449,-0.1869499
Sprite,Background,Centre,"sb\a.png",0,0 C,0,152538,,255,189,189 M,22,152538,153626,305,188 F,0,152538,153626,0.5,0 S,22,152538,153626,0.8,1 R,22,152538,153626,0.0799768
Sprite,Background,Centre,"sb\a.png",0,0 C,0,152714,,255,189,189 M,22,152714,153714,336,287 F,0,152714,153714,0.5,0 S,22,152714,153714,0.8,1 R,22,152714,153714,0.01051366
Sprite,Background,Centre,"sb\a.png",0,0 C,0,152803,,255,189,189 M,22,152803,153891,346,292 F,0,152803,153891,0.5,0 S,22,152803,153891,0.8,1 R,22,152803,153891,0.1736075
Sprite,Background,Centre,"sb\a.png",0,0 C,0,152979,,255,189,189 M,22,152979,153979,243,265 F,0,152979,153979,0.5,0 S,22,152979,153979,0.8,1 R,22,152979,153979,0.07504811
Sprite,Background,Centre,"sb\a.png",0,0 C,0,153067,,255,189,189 M,22,153067,154067,233,268 F,0,153067,154067,0.5,0 S,22,153067,154067,0.8,1 R,22,153067,154067,0.01872617
Sprite,Background,Centre,"sb\a.png",0,0 C,0,153155,,255,189,189 M,22,153155,154419,221,272 F,0,153155,154419,0.5,0 S,22,153155,154419,0.8,1 R,22,153155,154419,-0.167556
Sprite,Background,Centre,"sb\a.png",0,0 C,0,153508,,255,189,189 M,22,153508,154684,210,185 F,0,153508,154684,0.5,0 S,22,153508,154684,0.8,1 R,22,153508,154684,-0.1251502
Sprite,Background,Centre,"sb\a.png",0,0 C,0,153861,,255,189,189 M,22,153861,155125,402,244 F,0,153861,155125,0.5,0 S,22,153861,155125,0.8,1 R,22,153861,155125,-0.01866913
Sprite,Background,Centre,"sb\a.png",0,0 C,0,154214,,255,189,189 M,22,154214,155214,526,341 F,0,154214,155214,0.5,0 S,22,154214,155214,0.8,1 R,22,154214,155214,-0.08113126
Sprite,Background,Centre,"sb\a.png",0,0 C,0,154302,,255,189,189 M,22,154302,155302,530,328 F,0,154302,155302,0.5,0 S,22,154302,155302,0.8,1 R,22,154302,155302,0.1954175
Sprite,Background,Centre,"sb\a.png",0,0 C,0,154390,,255,189,189 M,22,154390,155390,532,315 F,0,154390,155390,0.5,0 S,22,154390,155390,0.8,1 R,22,154390,155390,0.05707899
Sprite,Background,Centre,"sb\a.png",0,0 C,0,154479,,255,189,189 M,22,154479,155479,535,302 F,0,154479,155479,0.5,0 S,22,154479,155479,0.8,1 R,22,154479,155479,0.1051854
Sprite,Background,Centre,"sb\a.png",0,0 C,0,154567,,255,189,189 M,22,154567,155743,538,289 F,0,154567,155743,0.5,0 S,22,154567,155743,0.8,1 R,22,154567,155743,-0.1878423
Sprite,Background,Centre,"sb\a.png",0,0 C,0,154832,,255,189,189 M,22,154832,156008,390,139 F,0,154832,156008,0.5,0 S,22,154832,156008,0.8,1 R,22,154832,156008,-0.0475982
Sprite,Background,Centre,"sb\a.png",0,0 C,0,155096,,255,189,189 M,22,155096,156096,453,341 F,0,155096,156096,0.5,0 S,22,155096,156096,0.8,1 R,22,155096,156096,-0.06274326
Sprite,Background,Centre,"sb\a.png",0,0 C,0,155185,,255,189,189 M,22,155185,156185,453,341 F,0,155185,156185,0.5,0 S,22,155185,156185,0.8,1 R,22,155185,156185,0.1829821
Sprite,Background,Centre,"sb\a.png",0,0 C,0,155273,,255,189,189 M,22,155273,156273,453,341 F,0,155273,156273,0.5,0 S,22,155273,156273,0.8,1 R,22,155273,156273,0.002051685
Sprite,Background,Centre,"sb\a.png",0,0 C,0,155449,,255,189,189 M,22,155449,156625,469,209 F,0,155449,156625,0.5,0 S,22,155449,156625,0.8,1 R,22,155449,156625,0.08638901
Sprite,Background,Centre,"sb\a.png",0,0 C,0,155802,,255,189,189 M,22,155802,156890,297,283 F,0,155802,156890,0.5,0 S,22,155802,156890,0.8,1 R,22,155802,156890,-0.1524169
Sprite,Background,Centre,"sb\a.png",0,0 C,0,155979,,255,189,189 M,22,155979,157155,170,335 F,0,155979,157155,0.5,0 S,22,155979,157155,0.8,1 R,22,155979,157155,-0.09061941
Sprite,Background,Centre,"sb\a.png",0,0 C,0,156243,,255,189,189 M,22,156243,157419,176,106 F,0,156243,157419,0.5,0 S,22,156243,157419,0.8,1 R,22,156243,157419,0.1628392
Sprite,Background,Centre,"sb\a.png",0,0 C,0,156508,,255,189,189 M,22,156508,157596,95,226 F,0,156508,157596,0.5,0 S,22,156508,157596,0.8,1 R,22,156508,157596,0.1179062
Sprite,Background,Centre,"sb\a.png",0,0 C,0,156685,,255,189,189 M,22,156685,157685,336,176 F,0,156685,157685,0.5,0 S,22,156685,157685,0.8,1 R,22,156685,157685,-0.06513587
Sprite,Background,Centre,"sb\a.png",0,0 C,0,156861,,255,189,189 M,22,156861,157861,322,288 F,0,156861,157861,0.5,0 S,22,156861,157861,0.8,1 R,22,156861,157861,-0.01711649
Sprite,Background,Centre,"sb\a.png",0,0 C,0,157038,,255,189,189 M,22,157038,158038,310,390 F,0,157038,158038,0.5,0 S,22,157038,158038,0.8,1 R,22,157038,158038,-0.14127
Sprite,Background,Centre,"sb\a.png",0,0 C,0,157214,,255,189,189 M,22,157214,158214,418,248 F,0,157214,158214,0.5,0 S,22,157214,158214,0.8,1 R,22,157214,158214,-0.1114741
Sprite,Background,Centre,"sb\a.png",0,0 C,0,157302,,255,189,189 M,22,157302,158302,418,248 F,0,157302,158302,0.5,0 S,22,157302,158302,0.8,1 R,22,157302,158302,-0.03597069
Sprite,Background,Centre,"sb\a.png",0,0 C,0,157390,,255,189,189 M,22,157390,158566,418,248 F,0,157390,158566,0.5,0 S,22,157390,158566,0.8,1 R,22,157390,158566,0.08749073
Sprite,Background,Centre,"sb\a.png",0,0 C,0,157655,,255,189,189 M,22,157655,158655,537,351 F,0,157655,158655,0.5,0 S,22,157655,158655,0.8,1 R,22,157655,158655,0.04793211
Sprite,Background,Centre,"sb\a.png",0,0 C,0,157743,,255,189,189 M,22,157743,158831,537,351 F,0,157743,158831,0.5,0 S,22,157743,158831,0.8,1 R,22,157743,158831,-0.004812779
Sprite,Background,Centre,"sb\a.png",0,0 C,0,157920,,255,189,189 M,22,157920,159008,266,243 F,0,157920,159008,0.5,0 S,22,157920,159008,0.8,1 R,22,157920,159008,-0.1220346
Sprite,Background,Centre,"sb\Animation_1\Ellipse27.png",0,0 C,0,182802,,79,101,191 M,22,182802,183502,372,195 F,0,182802,183502,1,0 S,22,182802,183502,0.1,0.3 R,22,182802,183502,0,1
Sprite,Background,Centre,"sb\Animation_1\Ellipse27.png",0,0 C,0,182890,,79,101,191 M,22,182890,183590,379,148 F,0,182890,183590,1,0 S,22,182890,183590,0.1,0.3 R,22,182890,183590,0,1
Sprite,Background,Centre,"sb\Animation_1\Ellipse27.png",0,0 C,0,182978,,79,101,191 M,22,182978,183678,387,102 F,0,182978,183678,1,0 S,22,182978,183678,0.1,0.3 R,22,182978,183678,0,1
Sprite,Background,Centre,"sb\Animation_1\Ellipse27.png",0,0 C,0,183066,,79,101,191 M,22,183066,183766,395,56 F,0,183066,183766,1,0 S,22,183066,183766,0.1,0.3 R,22,183066,183766,0,1
Sprite,Background,Centre,"sb\Animation_1\Ellipse27.png",0,0 C,0,183155,,79,101,191 M,22,183155,183855,347,65 F,0,183155,183855,1,0 S,22,183155,183855,0.1,0.3 R,22,183155,183855,0,1
Sprite,Background,Centre,"sb\Animation_1\Ellipse27.png",0,0 C,0,183243,,79,101,191 M,22,183243,183943,340,101 F,0,183243,183943,1,0 S,22,183243,183943,0.1,0.3 R,22,183243,183943,0,1
Sprite,Background,Centre,"sb\Animation_1\Ellipse27.png",0,0 C,0,183331,,79,101,191 M,22,183331,184031,334,137 F,0,183331,184031,1,0 S,22,183331,184031,0.1,0.3 R,22,183331,184031,0,1
Sprite,Background,Centre,"sb\Animation_1\Ellipse27.png",0,0 C,0,183419,,79,101,191 M,22,183419,184119,328,174 F,0,183419,184119,1,0 S,22,183419,184119,0.1,0.3 R,22,183419,184119,0,1
Sprite,Background,Centre,"sb\Animation_1\Ellipse27.png",0,0 C,0,183508,,79,101,191 M,22,183508,184208,286,153 F,0,183508,184208,1,0 S,22,183508,184208,0.1,0.3 R,22,183508,184208,0,1
Sprite,Background,Centre,"sb\Animation_1\Ellipse27.png",0,0 C,0,183596,,79,101,191 M,22,183596,184296,290,127 F,0,183596,184296,1,0 S,22,183596,184296,0.1,0.3 R,22,183596,184296,0,1
Sprite,Background,Centre,"sb\Animation_1\Ellipse27.png",0,0 C,0,183684,,79,101,191 M,22,183684,184384,294,102 F,0,183684,184384,1,0 S,22,183684,184384,0.1,0.3 R,22,183684,184384,0,1
Sprite,Background,Centre,"sb\Animation_1\Ellipse27.png",0,0 C,0,183772,,79,101,191 M,22,183772,184472,300,78 F,0,183772,184472,1,0 S,22,183772,184472,0.1,0.3 R,22,183772,184472,0,1
Sprite,Background,Centre,"sb\Animation_1\Ellipse27.png",0,0 C,0,183861,,79,101,191 M,22,183861,184825,252,82 F,0,183861,184825,1,0 S,22,183861,184825,0.1,0.3 R,22,183861,184825,0,1
Sprite,Background,Centre,"sb\Animation_1\Ellipse27.png",0,0 C,0,184214,,79,101,191 M,22,184214,184914,180,207 F,0,184214,184914,1,0 S,22,184214,184914,0.1,0.3 R,22,184214,184914,0,1
Sprite,Background,Centre,"sb\Animation_1\Ellipse27.png",0,0 C,0,184302,,79,101,191 M,22,184302,185002,214,212 F,0,184302,185002,1,0 S,22,184302,185002,0.1,0.3 R,22,184302,185002,0,1
Sprite,Background,Centre,"sb\Animation_1\Ellipse27.png",0,0 C,0,184390,,79,101,191 M,22,184390,185090,184,203 F,0,184390,185090,1,0 S,22,184390,185090,0.1,0.3 R,22,184390,185090,0,1
Sprite,Background,Centre,"sb\Animation_1\Ellipse27.png",0,0 C,0,184478,,79,101,191 M,22,184478,185178,210,215 F,0,184478,185178,1,0 S,22,184478,185178,0.1,0.3 R,22,184478,185178,0,1
Sprite,Background,Centre,"sb\Animation_1\Ellipse27.png",0,0 C,0,184567,,79,101,191 M,22,184567,185267,188,202 F,0,184567,185267,1,0 S,22,184567,185267,0.1,0.3 R,22,184567,185267,0,1
Sprite,Background,Centre,"sb\Animation_1\Ellipse27.png",0,0 C,0,184655,,79,101,191 M,22,184655,185355,206,216 F,0,184655,185355,1,0 S,22,184655,185355,0.1,0.3 R,22,184655,185355,0,1
Sprite,Background,Centre,"sb\Animation_1\Ellipse27.png",0,0 C,0,184743,,79,101,191 M,22,184743,185443,192,202 F,0,184743,185443,1,0 S,22,184743,185443,0.1,0.3 R,22,184743,185443,0,1
Sprite,Background,Centre,"sb\Animation_1\Ellipse27.png",0,0 C,0,184831,,79,101,191 M,22,184831,185531,202,216 F,0,184831,185531,1,0 S,22,184831,185531,0.1,0.3 R,22,184831,185531,0,1
Sprite,Background,Centre,"sb\Animation_1\Ellipse27.png",0,0 C,0,185626,,79,101,191 M,22,185626,186326,376,435 F,0,185626,186326,1,0 S,22,185626,186326,0.1,0.3 R,22,185626,186326,0,1
Sprite,Background,Centre,"sb\Animation_1\Ellipse27.png",0,0 C,0,185714,,79,101,191 M,22,185714,186414,422,424 F,0,185714,186414,1,0 S,22,185714,186414,0.1,0.3 R,22,185714,186414,0,1
Sprite,Background,Centre,"sb\Animation_1\Ellipse27.png",0,0 C,0,185802,,79,101,191 M,22,185802,186502,468,415 F,0,185802,186502,1,0 S,22,185802,186502,0.1,0.3 R,22,185802,186502,0,1
Sprite,Background,Centre,"sb\Animation_1\Ellipse27.png",0,0 C,0,185890,,79,101,191 M,22,185890,186590,514,406 F,0,185890,186590,1,0 S,22,185890,186590,0.1,0.3 R,22,185890,186590,0,1
Sprite,Background,Centre,"sb\Animation_1\Ellipse27.png",0,0 C,0,185979,,79,101,191 M,22,185979,186679,488,365 F,0,185979,186679,1,0 S,22,185979,186679,0.1,0.3 R,22,185979,186679,0,1
Sprite,Background,Centre,"sb\Animation_1\Ellipse27.png",0,0 C,0,186067,,79,101,191 M,22,186067,186767,452,371 F,0,186067,186767,1,0 S,22,186067,186767,0.1,0.3 R,22,186067,186767,0,1
Sprite,Background,Centre,"sb\Animation_1\Ellipse27.png",0,0 C,0,186155,,79,101,191 M,22,186155,186855,416,378 F,0,186155,186855,1,0 S,22,186155,186855,0.1,0.3 R,22,186155,186855,0,1
Sprite,Background,Centre,"sb\Animation_1\Ellipse27.png",0,0 C,0,186243,,79,101,191 M,22,186243,186943,379,386 F,0,186243,186943,1,0 S,22,186243,186943,0.1,0.3 R,22,186243,186943,0,1
Sprite,Background,Centre,"sb\Animation_1\Ellipse27.png",0,0 C,0,186332,,79,101,191 M,22,186332,187032,421,404 F,0,186332,187032,1,0 S,22,186332,187032,0.1,0.3 R,22,186332,187032,0,1
Sprite,Background,Centre,"sb\Animation_1\Ellipse27.png",0,0 C,0,186420,,79,101,191 M,22,186420,187120,416,378 F,0,186420,187120,1,0 S,22,186420,187120,0.1,0.3 R,22,186420,187120,0,1
Sprite,Background,Centre,"sb\Animation_1\Ellipse27.png",0,0 C,0,186508,,79,101,191 M,22,186508,187208,410,354 F,0,186508,187208,1,0 S,22,186508,187208,0.1,0.3 R,22,186508,187208,0,1
Sprite,Background,Centre,"sb\Animation_1\Ellipse27.png",0,0 C,0,186596,,79,101,191 M,22,186596,187296,407,329 F,0,186596,187296,1,0 S,22,186596,187296,0.1,0.3 R,22,186596,187296,0,1
Sprite,Background,Centre,"sb\Animation_1\Ellipse27.png",0,0 C,0,186685,,79,101,191 M,22,186685,187473,371,353 F,0,186685,187473,1,0 S,22,186685,187473,0.1,0.3 R,22,186685,187473,0,1
Sprite,Background,Centre,"sb\Animation_1\Ellipse27.png",0,0 C,0,186861,,79,101,191 M,22,186861,187561,452,256 F,0,186861,187561,1,0 S,22,186861,187561,0.1,0.3 R,22,186861,187561,0,1
Sprite,Background,Centre,"sb\Animation_1\Ellipse27.png",0,0 C,0,186949,,79,101,191 M,22,186949,187649,452,256 F,0,186949,187649,1,0 S,22,186949,187649,0.1,0.3 R,22,186949,187649,0,1
Sprite,Background,Centre,"sb\Animation_1\Ellipse27.png",0,0 C,0,187038,,79,101,191 M,22,187038,187826,452,256 F,0,187038,187826,1,0 S,22,187038,187826,0.1,0.3 R,22,187038,187826,0,1
Sprite,Background,Centre,"sb\Animation_1\Ellipse27.png",0,0 C,0,187214,,79,101,191 M,22,187214,187914,389,142 F,0,187214,187914,1,0 S,22,187214,187914,0.1,0.3 R,22,187214,187914,0,1
Sprite,Background,Centre,"sb\Animation_1\Ellipse27.png",0,0 C,0,187302,,79,101,191 M,22,187302,188002,389,142 F,0,187302,188002,1,0 S,22,187302,188002,0.1,0.3 R,22,187302,188002,0,1
Sprite,Background,Centre,"sb\Animation_1\Ellipse27.png",0,0 C,0,187391,,79,101,191 M,22,187391,188179,389,142 F,0,187391,188179,1,0 S,22,187391,188179,0.1,0.3 R,22,187391,188179,0,1
Sprite,Background,Centre,"sb\Animation_1\Ellipse27.png",0,0 C,0,187567,,79,101,191 M,22,187567,188267,501,129 F,0,187567,188267,1,0 S,22,187567,188267,0.1,0.3 R,22,187567,188267,0,1
Sprite,Background,Centre,"sb\Animation_1\Ellipse27.png",0,0 C,0,188449,,79,101,191 M,22,188449,189149,392,288 F,0,188449,189149,1,0 S,22,188449,189149,0.1,0.3 R,22,188449,189149,0,1
Sprite,Background,Centre,"sb\Animation_1\Ellipse27.png",0,0 C,0,188537,,79,101,191 M,22,188537,189237,402,331 F,0,188537,189237,1,0 S,22,188537,189237,0.1,0.3 R,22,188537,189237,0,1
Sprite,Background,Centre,"sb\Animation_1\Ellipse27.png",0,0 C,0,188625,,79,101,191 M,22,188625,189325,428,368 F,0,188625,189325,1,0 S,22,188625,189325,0.1,0.3 R,22,188625,189325,0,1
Sprite,Background,Centre,"sb\Animation_1\Ellipse27.png",0,0 C,0,188713,,79,101,191 M,22,188713,189413,465,391 F,0,188713,189413,1,0 S,22,188713,189413,0.1,0.3 R,22,188713,189413,0,1
Sprite,Background,Centre,"sb\Animation_1\Ellipse27.png",0,0 C,0,188802,,79,101,191 M,22,188802,189766,464,402 F,0,188802,189766,1,0 S,22,188802,189766,0.1,0.3 R,22,188802,189766,0,1
Sprite,Background,Centre,"sb\Animation_1\Ellipse27.png",0,0 C,0,189155,,79,101,191 M,22,189155,189855,481,291 F,0,189155,189855,1,0 S,22,189155,189855,0.1,0.3 R,22,189155,189855,0,1
Sprite,Background,Centre,"sb\Animation_1\Ellipse27.png",0,0 C,0,189243,,79,101,191 M,22,189243,189943,514,283 F,0,189243,189943,1,0 S,22,189243,189943,0.1,0.3 R,22,189243,189943,0,1
Sprite,Background,Centre,"sb\Animation_1\Ellipse27.png",0,0 C,0,189331,,79,101,191 M,22,189331,190031,542,264 F,0,189331,190031,1,0 S,22,189331,190031,0.1,0.3 R,22,189331,190031,0,1
Sprite,Background,Centre,"sb\Animation_1\Ellipse27.png",0,0 C,0,189419,,79,101,191 M,22,189419,190119,559,236 F,0,189419,190119,1,0 S,22,189419,190119,0.1,0.3 R,22,189419,190119,0,1
Sprite,Background,Centre,"sb\Animation_1\Ellipse27.png",0,0 C,0,189508,,79,101,191 M,22,189508,190472,568,236 F,0,189508,190472,1,0 S,22,189508,190472,0.1,0.3 R,22,189508,190472,0,1
Sprite,Background,Centre,"sb\Animation_1\Ellipse27.png",0,0 C,0,189861,,79,101,191 M,22,189861,190561,525,105 F,0,189861,190561,1,0 S,22,189861,190561,0.1,0.3 R,22,189861,190561,0,1
Sprite,Background,Centre,"sb\Animation_1\Ellipse27.png",0,0 C,0,189949,,79,101,191 M,22,189949,190649,559,110 F,0,189949,190649,1,0 S,22,189949,190649,0.1,0.3 R,22,189949,190649,0,1
Sprite,Background,Centre,"sb\Animation_1\Ellipse27.png",0,0 C,0,190037,,79,101,191 M,22,190037,190737,529,101 F,0,190037,190737,1,0 S,22,190037,190737,0.1,0.3 R,22,190037,190737,0,1
Sprite,Background,Centre,"sb\Animation_1\Ellipse27.png",0,0 C,0,190125,,79,101,191 M,22,190125,190825,555,113 F,0,190125,190825,1,0 S,22,190125,190825,0.1,0.3 R,22,190125,190825,0,1
Sprite,Background,Centre,"sb\Animation_1\Ellipse27.png",0,0 C,0,190214,,79,101,191 M,22,190214,190914,533,100 F,0,190214,190914,1,0 S,22,190214,190914,0.1,0.3 R,22,190214,190914,0,1
Sprite,Background,Centre,"sb\Animation_1\Ellipse27.png",0,0 C,0,190302,,79,101,191 M,22,190302,191002,551,114 F,0,190302,191002,1,0 S,22,190302,191002,0.1,0.3 R,22,190302,191002,0,1
Sprite,Background,Centre,"sb\Animation_1\Ellipse27.png",0,0 C,0,190390,,79,101,191 M,22,190390,191090,537,100 F,0,190390,191090,1,0 S,22,190390,191090,0.1,0.3 R,22,190390,191090,0,1
Sprite,Background,Centre,"sb\Animation_1\Ellipse27.png",0,0 C,0,190478,,79,101,191 M,22,190478,191178,547,114 F,0,190478,191178,1,0 S,22,190478,191178,0.1,0.3 R,22,190478,191178,0,1
Sprite,Background,Centre,"sb\Animation_1\Ellipse27.png",0,0 C,0,191273,,79,101,191 M,22,191273,191973,221,320 F,0,191273,191973,1,0 S,22,191273,191973,0.1,0.3 R,22,191273,191973,0,1
Sprite,Background,Centre,"sb\Animation_1\Ellipse27.png",0,0 C,0,191361,,79,101,191 M,22,191361,192061,225,297 F,0,191361,192061,1,0 S,22,191361,192061,0.1,0.3 R,22,191361,192061,0,1
Sprite,Background,Centre,"sb\Animation_1\Ellipse27.png",0,0 C,0,191449,,79,101,191 M,22,191449,192149,229,275 F,0,191449,192149,1,0 S,22,191449,192149,0.1,0.3 R,22,191449,192149,0,1
Sprite,Background,Centre,"sb\Animation_1\Ellipse27.png",0,0 C,0,191537,,79,101,191 M,22,191537,192237,233,253 F,0,191537,192237,1,0 S,22,191537,192237,0.1,0.3 R,22,191537,192237,0,1
Sprite,Background,Centre,"sb\Animation_1\Ellipse27.png",0,0 C,0,191626,,79,101,191 M,22,191626,192326,191,262 F,0,191626,192326,1,0 S,22,191626,192326,0.1,0.3 R,22,191626,192326,0,1
Sprite,Background,Centre,"sb\Animation_1\Ellipse27.png",0,0 C,0,191714,,79,101,191 M,22,191714,192414,195,240 F,0,191714,192414,1,0 S,22,191714,192414,0.1,0.3 R,22,191714,192414,0,1
Sprite,Background,Centre,"sb\Animation_1\Ellipse27.png",0,0 C,0,191802,,79,101,191 M,22,191802,192502,199,218 F,0,191802,192502,1,0 S,22,191802,192502,0.1,0.3 R,22,191802,192502,0,1
Sprite,Background,Centre,"sb\Animation_1\Ellipse27.png",0,0 C,0,191890,,79,101,191 M,22,191890,192590,203,196 F,0,191890,192590,1,0 S,22,191890,192590,0.1,0.3 R,22,191890,192590,0,1
Sprite,Background,Centre,"sb\Animation_1\Ellipse27.png",0,0 C,0,191979,,79,101,191 M,22,191979,192767,165,193 F,0,191979,192767,1,0 S,22,191979,192767,0.1,0.3 R,22,191979,192767,0,1
Sprite,Background,Centre,"sb\Animation_1\Ellipse27.png",0,0 C,0,192155,,79,101,191 M,22,192155,192943,64,227 F,0,192155,192943,1,0 S,22,192155,192943,0.1,0.3 R,22,192155,192943,0,1
Sprite,Background,Centre,"sb\Animation_1\Ellipse27.png",0,0 C,0,192332,,79,101,191 M,22,192332,193120,181,101 F,0,192332,193120,1,0 S,22,192332,193120,0.1,0.3 R,22,192332,193120,0,1
Sprite,Background,Centre,"sb\Animation_1\Ellipse27.png",0,0 C,0,192508,,79,101,191 M,22,192508,193296,342,63 F,0,192508,193296,1,0 S,22,192508,193296,0.1,0.3 R,22,192508,193296,0,1
Sprite,Background,Centre,"sb\Animation_1\Ellipse27.png",0,0 C,0,192685,,79,101,191 M,22,192685,193385,337,177 F,0,192685,193385,1,0 S,22,192685,193385,0.1,0.3 R,22,192685,193385,0,1
Sprite,Background,Centre,"sb\Animation_1\Ellipse27.png",0,0 C,0,192773,,79,101,191 M,22,192773,193473,381,183 F,0,192773,193473,1,0 S,22,192773,193473,0.1,0.3 R,22,192773,193473,0,1
Sprite,Background,Centre,"sb\Animation_1\Ellipse27.png",0,0 C,0,192861,,79,101,191 M,22,192861,193561,425,190 F,0,192861,193561,1,0 S,22,192861,193561,0.1,0.3 R,22,192861,193561,0,1
Sprite,Background,Centre,"sb\Animation_1\Ellipse27.png",0,0 C,0,192949,,79,101,191 M,22,192949,193649,470,197 F,0,192949,193649,1,0 S,22,192949,193649,0.1,0.3 R,22,192949,193649,0,1
Sprite,Background,Centre,"sb\Animation_1\Ellipse27.png",0,0 C,0,193038,,79,101,191 M,22,193038,193914,514,204 F,0,193038,193914,1,0 S,22,193038,193914,0.1,0.3 R,22,193038,193914,0,1
Sprite,Background,Centre,"sb\vectorsquare.png",0,0 C,0,194097,,79,101,191 M,22,194097,194797,111,342 F,0,194097,194797,1,0 S,22,194097,194797,0.15,0.35 R,22,194097,194797,0,1
Sprite,Background,Centre,"sb\vectorsquare.png",0,0 C,0,194185,,79,101,191 M,22,194185,194885,108,319 F,0,194185,194885,1,0 S,22,194185,194885,0.15,0.35 R,22,194185,194885,0,1
Sprite,Background,Centre,"sb\vectorsquare.png",0,0 C,0,194273,,79,101,191 M,22,194273,195061,106,295 F,0,194273,195061,1,0 S,22,194273,195061,0.15,0.35 R,22,194273,195061,0,1
Sprite,Background,Centre,"sb\vectorsquare.png",0,0 C,0,194449,,79,101,191 M,22,194449,195149,173,155 F,0,194449,195149,1,0 S,22,194449,195149,0.15,0.35 R,22,194449,195149,0,1
Sprite,Background,Centre,"sb\vectorsquare.png",0,0 C,0,194537,,79,101,191 M,22,194537,195237,175,177 F,0,194537,195237,1,0 S,22,194537,195237,0.15,0.35 R,22,194537,195237,0,1
Sprite,Background,Centre,"sb\vectorsquare.png",0,0 C,0,194625,,79,101,191 M,22,194625,195413,178,202 F,0,194625,195413,1,0 S,22,194625,195413,0.15,0.35 R,22,194625,195413,0,1
Sprite,Background,Centre,"sb\vectorsquare.png",0,0 C,0,194802,,79,101,191 M,22,194802,195766,235,363 F,0,194802,195766,1,0 S,22,194802,195766,0.15,0.35 R,22,194802,195766,0,1
Sprite,Background,Centre,"sb\vectorsquare.png",0,0 C,0,195155,,79,101,191 M,22,195155,196119,114,106 F,0,195155,196119,1,0 S,22,195155,196119,0.15,0.35 R,22,195155,196119,0,1
Sprite,Background,Centre,"sb\vectorsquare.png",0,0 C,0,195508,,79,101,191 M,22,195508,196208,254,68 F,0,195508,196208,1,0 S,22,195508,196208,0.15,0.35 R,22,195508,196208,0,1
Sprite,Background,Centre,"sb\vectorsquare.png",0,0 C,0,195596,,79,101,191 M,22,195596,196296,288,73 F,0,195596,196296,1,0 S,22,195596,196296,0.15,0.35 R,22,195596,196296,0,1
Sprite,Background,Centre,"sb\vectorsquare.png",0,0 C,0,195684,,79,101,191 M,22,195684,196384,258,64 F,0,195684,196384,1,0 S,22,195684,196384,0.15,0.35 R,22,195684,196384,0,1
Sprite,Background,Centre,"sb\vectorsquare.png",0,0 C,0,195772,,79,101,191 M,22,195772,196472,284,76 F,0,195772,196472,1,0 S,22,195772,196472,0.15,0.35 R,22,195772,196472,0,1
Sprite,Background,Centre,"sb\vectorsquare.png",0,0 C,0,195861,,79,101,191 M,22,195861,196649,272,70 F,0,195861,196649,1,0 S,22,195861,196649,0.15,0.35 R,22,195861,196649,0,1
Sprite,Background,Centre,"sb\vectorsquare.png",0,0 C,0,196038,,79,101,191 M,22,196038,196826,428,74 F,0,196038,196826,1,0 S,22,196038,196826,0.15,0.35 R,22,196038,196826,0,1
Sprite,Background,Centre,"sb\vectorsquare.png",0,0 C,0,199743,,79,101,191 M,22,199743,200443,529,154 F,0,199743,200443,1,0 S,22,199743,200443,0.15,0.35 R,22,199743,200443,0,1
Sprite,Background,Centre,"sb\vectorsquare.png",0,0 C,0,199831,,79,101,191 M,22,199831,200531,532,177 F,0,199831,200531,1,0 S,22,199831,200531,0.15,0.35 R,22,199831,200531,0,1
Sprite,Background,Centre,"sb\vectorsquare.png",0,0 C,0,199919,,79,101,191 M,22,199919,200707,534,201 F,0,199919,200707,1,0 S,22,199919,200707,0.15,0.35 R,22,199919,200707,0,1
Sprite,Background,Centre,"sb\vectorsquare.png",0,0 C,0,200095,,79,101,191 M,22,200095,200795,467,341 F,0,200095,200795,1,0 S,22,200095,200795,0.15,0.35 R,22,200095,200795,0,1
Sprite,Background,Centre,"sb\vectorsquare.png",0,0 C,0,200185,,79,101,191 M,22,200185,200885,465,319 F,0,200185,200885,1,0 S,22,200185,200885,0.15,0.35 R,22,200185,200885,0,1
Sprite,Background,Centre,"sb\vectorsquare.png",0,0 C,0,200273,,79,101,191 M,22,200273,201061,462,294 F,0,200273,201061,1,0 S,22,200273,201061,0.15,0.35 R,22,200273,201061,0,1
Sprite,Background,Centre,"sb\vectorsquare.png",0,0 C,0,200449,,79,101,191 M,22,200449,201413,405,133 F,0,200449,201413,1,0 S,22,200449,201413,0.15,0.35 R,22,200449,201413,0,1
Sprite,Background,Centre,"sb\vectorsquare.png",0,0 C,0,200802,,79,101,191 M,22,200802,201766,526,390 F,0,200802,201766,1,0 S,22,200802,201766,0.15,0.35 R,22,200802,201766,0,1
Sprite,Background,Centre,"sb\vectorsquare.png",0,0 C,0,201155,,79,101,191 M,22,201155,201855,386,428 F,0,201155,201855,1,0 S,22,201155,201855,0.15,0.35 R,22,201155,201855,0,1
Sprite,Background,Centre,"sb\vectorsquare.png",0,0 C,0,201243,,79,101,191 M,22,201243,201943,352,423 F,0,201243,201943,1,0 S,22,201243,201943,0.15,0.35 R,22,201243,201943,0,1
Sprite,Background,Centre,"sb\vectorsquare.png",0,0 C,0,201332,,79,101,191 M,22,201332,202032,382,432 F,0,201332,202032,1,0 S,22,201332,202032,0.15,0.35 R,22,201332,202032,0,1
Sprite,Background,Centre,"sb\vectorsquare.png",0,0 C,0,201420,,79,101,191 M,22,201420,202120,356,420 F,0,201420,202120,1,0 S,22,201420,202120,0.15,0.35 R,22,201420,202120,0,1
Sprite,Background,Centre,"sb\vectorsquare.png",0,0 C,0,201507,,79,101,191 M,22,201507,202295,368,426 F,0,201507,202295,1,0 S,22,201507,202295,0.15,0.35 R,22,201507,202295,0,1
Sprite,Background,Centre,"sb\vectorsquare.png",0,0 C,0,201684,,79,101,191 M,22,201684,202472,212,422 F,0,201684,202472,1,0 S,22,201684,202472,0.15,0.35 R,22,201684,202472,0,1
Sprite,Background,Centre,"sb\vectorsquare.png",0,0 C,0,202567,,79,101,191 M,22,202567,203267,255,56 F,0,202567,203267,1,0 S,22,202567,203267,0.15,0.35 R,22,202567,203267,0,1
Sprite,Background,Centre,"sb\vectorsquare.png",0,0 C,0,202655,,79,101,191 M,22,202655,203355,274,89 F,0,202655,203355,1,0 S,22,202655,203355,0.15,0.35 R,22,202655,203355,0,1
Sprite,Background,Centre,"sb\vectorsquare.png",0,0 C,0,202743,,79,101,191 M,22,202743,203443,302,114 F,0,202743,203443,1,0 S,22,202743,203443,0.15,0.35 R,22,202743,203443,0,1
Sprite,Background,Centre,"sb\vectorsquare.png",0,0 C,0,202832,,79,101,191 M,22,202832,203532,337,130 F,0,202832,203532,1,0 S,22,202832,203532,0.15,0.35 R,22,202832,203532,0,1
Sprite,Background,Centre,"sb\vectorsquare.png",0,0 C,0,202920,,79,101,191 M,22,202920,203884,376,128 F,0,202920,203884,1,0 S,22,202920,203884,0.15,0.35 R,22,202920,203884,0,1
Sprite,Background,Centre,"sb\vectorsquare.png",0,0 C,0,203273,,79,101,191 M,22,203273,204208,409,216 F,0,203273,204208,1,0 S,22,203273,204208,0.15,0.35 R,22,203273,204208,0,1
Sprite,Background,Centre,"sb\vectorsquare.png",0,0 C,0,203626,,79,101,191 M,22,203626,204561,491,248 F,0,203626,204561,1,0 S,22,203626,204561,0.15,0.35 R,22,203626,204561,0,1
Sprite,Background,Centre,"sb\vectorsquare.png",0,0 C,0,203979,,79,101,191 M,22,203979,204679,573,273 F,0,203979,204679,1,0 S,22,203979,204679,0.15,0.35 R,22,203979,204679,0,1
Sprite,Background,Centre,"sb\vectorsquare.png",0,0 C,0,204096,,79,101,191 M,22,204096,204796,567,300 F,0,204096,204796,1,0 S,22,204096,204796,0.15,0.35 R,22,204096,204796,0,1
Sprite,Background,Centre,"sb\vectorsquare.png",0,0 C,0,204214,,79,101,191 M,22,204214,204914,562,328 F,0,204214,204914,1,0 S,22,204214,204914,0.15,0.35 R,22,204214,204914,0,1
Sprite,Background,Centre,"sb\vectorsquare.png",0,0 C,0,196920,,79,101,191 M,22,196920,197620,576,413 F,0,196920,197620,1,0 S,22,196920,197620,0.15,0.35 R,22,196920,197620,0,1
Sprite,Background,Centre,"sb\vectorsquare.png",0,0 C,0,197008,,79,101,191 M,22,197008,197708,553,407 F,0,197008,197708,1,0 S,22,197008,197708,0.15,0.35 R,22,197008,197708,0,1
Sprite,Background,Centre,"sb\vectorsquare.png",0,0 C,0,197096,,79,101,191 M,22,197096,197884,529,403 F,0,197096,197884,1,0 S,22,197096,197884,0.15,0.35 R,22,197096,197884,0,1
Sprite,Background,Centre,"sb\vectorsquare.png",0,0 C,0,197273,,79,101,191 M,22,197273,197973,341,358 F,0,197273,197973,1,0 S,22,197273,197973,0.15,0.35 R,22,197273,197973,0,1
Sprite,Background,Centre,"sb\vectorsquare.png",0,0 C,0,197361,,79,101,191 M,22,197361,198061,318,352 F,0,197361,198061,1,0 S,22,197361,198061,0.15,0.35 R,22,197361,198061,0,1
Sprite,Background,Centre,"sb\vectorsquare.png",0,0 C,0,197449,,79,101,191 M,22,197449,198237,294,348 F,0,197449,198237,1,0 S,22,197449,198237,0.15,0.35 R,22,197449,198237,0,1
Sprite,Background,Centre,"sb\vectorsquare.png",0,0 C,0,197626,,79,101,191 M,22,197626,198414,150,335 F,0,197626,198414,1,0 S,22,197626,198414,0.15,0.35 R,22,197626,198414,0,1
Sprite,Background,Centre,"sb\vectorsquare.png",0,0 C,0,197802,,79,101,191 M,22,197802,198590,327,440 F,0,197802,198590,1,0 S,22,197802,198590,0.15,0.35 R,22,197802,198590,0,1
Sprite,Background,Centre,"sb\vectorsquare.png",0,0 C,0,197979,,79,101,191 M,22,197979,198679,195,425 F,0,197979,198679,1,0 S,22,197979,198679,0.15,0.35 R,22,197979,198679,0,1
Sprite,Background,Centre,"sb\vectorsquare.png",0,0 C,0,198067,,79,101,191 M,22,198067,198767,222,390 F,0,198067,198767,1,0 S,22,198067,198767,0.15,0.35 R,22,198067,198767,0,1
Sprite,Background,Centre,"sb\vectorsquare.png",0,0 C,0,198155,,79,101,191 M,22,198155,198855,233,346 F,0,198155,198855,1,0 S,22,198155,198855,0.15,0.35 R,22,198155,198855,0,1
Sprite,Background,Centre,"sb\vectorsquare.png",0,0 C,0,198243,,79,101,191 M,22,198243,198943,224,302 F,0,198243,198943,1,0 S,22,198243,198943,0.15,0.35 R,22,198243,198943,0,1
Sprite,Background,Centre,"sb\vectorsquare.png",0,0 C,0,198332,,79,101,191 M,22,198332,199120,198,266 F,0,198332,199120,1,0 S,22,198332,199120,0.15,0.35 R,22,198332,199120,0,1
Sprite,Background,Centre,"sb\vectorsquare.png",0,0 C,0,198508,,79,101,191 M,22,198508,199296,262,61 F,0,198508,199296,1,0 S,22,198508,199296,0.15,0.35 R,22,198508,199296,0,1
Sprite,Background,Centre,"sb\vectorsquare.png",0,0 C,0,198685,,79,101,191 M,22,198685,199649,112,121 F,0,198685,199649,1,0 S,22,198685,199649,0.15,0.35 R,22,198685,199649,0,1
//Storyboard Layer 1 (Fail)
//Storyboard Layer 2 (Pass)
//Storyboard Layer 3 (Foreground)
//Storyboard Layer 4 (Overlay)
//Storyboard Sound Samples

[TimingPoints]
1391,352.941176470588,4,2,1,100,1,0
1391,-133.333333333333,4,2,1,100,0,0
4038,-66.6666666666667,4,2,1,100,0,0
4214,-133.333333333333,4,2,1,100,0,0
6861,-66.6666666666667,4,2,1,100,0,0
7038,-100,4,2,1,100,0,0
9685,-66.6666666666667,4,2,1,100,0,0
9861,-100,4,2,1,100,0,0
11273,-90.9090909090909,4,2,1,100,0,0
12155,-74.0740740740741,4,2,1,100,0,0
12685,-83.3333333333333,4,2,1,100,0,0
13655,-83.3333333333333,4,2,1,100,0,0
14096,-83.3333333333333,4,2,1,100,0,0
16479,-83.3333333333333,4,2,1,100,0,0
16920,-83.3333333333333,4,2,1,100,0,0
17979,-83.3333333333333,4,2,1,100,0,0
18332,-83.3333333333333,4,2,1,100,0,0
19302,-83.3333333333333,4,2,1,100,0,0
19743,-83.3333333333333,4,2,1,100,0,0
23626,-66.6666666666667,4,2,1,100,0,0
23979,-100,4,2,1,100,0,0
24332,-83.3333333333333,4,2,1,100,0,0
24685,-60.6060606060606,4,2,1,100,0,0
25038,-83.3333333333333,4,2,1,100,0,0
25390,-100,4,2,1,100,0,0
26096,-66.6666666666667,4,2,1,100,0,0
26802,-100,4,2,1,100,0,0
27508,-66.6666666666667,4,2,1,100,0,0
27861,-83.3333333333333,4,2,1,100,0,0
28214,-83.3333333333333,4,2,1,100,0,0
28920,-66.6666666666667,4,2,1,100,0,0
29449,-83.3333333333333,4,2,1,100,0,0
31743,-83.3333333333333,4,2,1,100,0,0
32449,-83.3333333333333,4,2,1,100,0,0
33861,-66.6666666666667,4,2,1,100,0,0
34567,-57.1428571428571,4,2,1,100,0,0
35096,-100,4,2,1,100,0,0
35273,-100,4,2,1,100,0,0
35626,-76.9230769230769,4,2,1,100,0,0
36861,-66.6666666666667,4,2,1,100,0,0
37038,-100,4,2,1,100,0,0
37214,-100,4,2,1,100,0,0
38096,-55.5555555555556,4,2,1,100,0,0
38449,-76.9230769230769,4,2,1,100,0,0
39861,-66.6666666666667,4,2,1,100,0,0
41273,-76.9230769230769,4,2,1,100,0,0
43038,-100,4,2,1,100,0,0
43743,-66.6666666666667,4,2,1,100,0,0
43920,-76.9230769230769,4,2,1,100,0,0
44096,-55.5555555555556,4,2,1,100,0,0
44626,-76.9230769230769,4,2,1,100,0,0
45155,-66.6666666666667,4,2,1,100,0,0
45685,-66.6666666666667,4,2,1,100,0,0
46214,-55.5555555555556,4,2,1,100,0,0
46567,-66.6666666666667,4,2,1,100,0,0
52920,-57.1428571428571,4,2,1,100,0,0
53626,-50,4,2,1,100,0,0
54332,-44.4444444444445,4,2,1,100,0,0
55038,-100,4,2,1,100,0,0
56449,-66.6666666666667,4,2,1,100,0,0
57508,-50,4,2,1,100,0,0
57861,-57.1428571428571,4,2,1,100,0,1
59273,-57.1428571428571,4,2,1,100,0,1
59979,-100,4,2,1,100,0,1
60332,-50,4,2,1,100,0,1
60685,-50,4,2,1,100,0,1
61038,-57.1428571428571,4,2,1,100,0,1
62096,-57.1428571428571,4,2,1,100,0,1
62538,-57.1428571428571,4,2,1,100,0,1
62802,-57.1428571428571,4,2,1,100,0,1
63861,-50,4,2,1,100,0,1
64920,-57.1428571428571,4,2,1,100,0,1
65626,-100,4,2,1,100,0,1
66332,-55.5555555555556,4,2,1,100,0,1
66685,-45.4545454545455,4,2,1,100,0,1
67743,-50,4,2,1,100,0,1
68096,-50,4,2,1,100,0,1
68273,-50,4,2,1,100,0,1
68802,-50,4,2,1,100,0,1
68979,-50,4,2,1,100,0,1
69155,-52.6315789473684,4,2,1,100,0,1
69508,-52.6315789473684,4,2,1,100,0,1
70567,-52.6315789473684,4,2,1,100,0,1
71096,-52.6315789473684,4,2,1,100,0,1
71273,-52.6315789473684,4,2,1,100,0,1
71979,-52.6315789473684,4,2,1,100,0,1
73390,-50,4,2,1,100,0,1
73920,-50,4,2,1,100,0,1
74449,-50,4,2,1,100,0,1
75155,-52.6315789473684,4,2,1,100,0,1
76214,-66.6666666666667,4,2,1,100,0,1
77626,-50,4,2,1,100,0,1
77979,-50,4,2,1,100,0,1
79567,-50,4,2,1,100,0,1
80273,-28.5714285714286,4,2,1,100,0,1
80449,-62.5,4,2,1,100,0,0
81508,-62.5,4,2,1,100,0,0
81861,-62.5,4,2,1,100,0,0
83008,-62.5,4,2,1,100,0,0
83273,-62.5,4,2,1,100,0,0
84332,-62.5,4,2,1,100,0,0
84685,-62.5,4,2,1,100,0,0
85743,-62.5,4,2,1,100,0,0
86096,-100,4,2,1,100,0,0
86449,-100,4,2,1,100,0,0
86802,-90.9090909090909,4,2,1,100,0,0
87155,-76.9230769230769,4,2,1,100,0,0
87508,-83.3333333333333,4,2,1,100,0,0
87861,-66.6666666666667,4,2,1,100,0,0
88214,-66.6666666666667,4,2,1,100,0,0
90332,-66.6666666666667,4,2,1,100,0,0
90685,-80,4,2,1,100,0,0
91038,-133.333333333333,4,2,1,100,0,0
91390,-100,4,2,1,100,0,0
91743,-50,4,2,1,100,0,1
92449,-66.6666666666667,4,2,1,100,0,1
93861,-50,4,2,1,100,0,1
94567,-50,4,2,1,100,0,1
95273,-66.6666666666667,4,2,1,100,0,1
96685,-66.6666666666667,4,2,1,100,0,1
97038,-50,4,2,1,100,0,1
97390,-50,4,2,1,100,0,1
97920,-50,4,2,1,100,0,1
98096,-66.6666666666667,4,2,1,100,0,1
99508,-50,4,2,1,100,0,1
100214,-50,4,2,1,100,0,1
100920,-66.6666666666667,4,2,1,100,0,1
101626,-50,4,2,1,100,0,1
103038,-50,4,2,1,100,0,1
103567,-50,4,2,1,100,0,1
103743,-66.6666666666667,4,2,1,100,0,1
105861,-50,4,2,1,100,0,1
106567,-66.6666666666667,4,2,1,100,0,1
108332,-50,4,2,1,100,0,1
109390,-66.6666666666667,4,2,1,100,0,1
111508,-50,4,2,1,100,0,1
113449,-50,4,2,1,100,0,1
113979,-66.6666666666667,4,2,1,100,0,1
114155,-45.4545454545455,4,2,1,100,0,1
114332,-58.8235294117647,4,2,2,100,0,0
114685,-66.6666666666667,4,2,2,100,0,0
115743,-66.6666666666667,4,2,2,100,0,0
125626,-60.6060606060606,4,2,2,100,0,0
125979,-60.6060606060606,4,2,2,100,0,0
126023,-60.6060606060606,4,2,2,5,0,0
126067,-60.6060606060606,4,2,2,100,0,0
126111,-60.6060606060606,4,2,2,5,0,0
126155,-60.6060606060606,4,2,2,100,0,0
126199,-60.6060606060606,4,2,2,5,0,0
126243,-60.6060606060606,4,2,2,100,0,0
126288,-60.6060606060606,4,2,2,5,0,0
126332,-60.6060606060606,4,2,2,100,0,0
126685,-60.6060606060606,4,2,2,100,0,0
126729,-60.6060606060606,4,2,2,5,0,0
126773,-60.6060606060606,4,2,2,100,0,0
126817,-60.6060606060606,4,2,2,5,0,0
126861,-60.6060606060606,4,2,2,100,0,0
126905,-60.6060606060606,4,2,2,5,0,0
126949,-60.6060606060606,4,2,2,100,0,0
126993,-60.6060606060606,4,2,1,5,0,0
127038,-60.6060606060606,4,2,2,100,0,0
128802,-60.6060606060606,4,2,2,100,0,0
128846,-60.6060606060606,4,2,2,100,0,0
128890,-60.6060606060606,4,2,2,100,0,0
128935,-60.6060606060606,4,2,2,100,0,0
128979,-60.6060606060606,4,2,2,100,0,0
129023,-60.6060606060606,4,2,2,100,0,0
129067,-60.6060606060606,4,2,2,100,0,0
129111,-60.6060606060606,4,2,2,100,0,0
129155,-60.6060606060606,4,2,2,100,0,0
129508,-60.6060606060606,4,2,2,100,0,0
129552,-60.6060606060606,4,2,2,5,0,0
129596,-60.6060606060606,4,2,2,100,0,0
129640,-60.6060606060606,4,2,2,5,0,0
129685,-60.6060606060606,4,2,2,100,0,0
129729,-100,4,2,2,5,0,0
129773,-100,4,2,2,100,0,0
129817,-100,4,2,2,5,0,0
129861,-100,4,2,2,100,0,0
130038,-60.6060606060606,4,2,2,100,0,0
130920,-60.6060606060606,4,2,2,100,0,0
131273,-60.6060606060606,4,2,2,100,0,0
131626,-60.6060606060606,4,2,2,100,0,0
131670,-60.6060606060606,4,2,2,5,0,0
131714,-60.6060606060606,4,2,2,100,0,0
131758,-60.6060606060606,4,2,2,5,0,0
131802,-60.6060606060606,4,2,2,100,0,0
131846,-60.6060606060606,4,2,2,5,0,0
131890,-60.6060606060606,4,2,2,100,0,0
131935,-60.6060606060606,4,2,2,5,0,0
131979,-60.6060606060606,4,2,2,100,0,0
132332,-60.6060606060606,4,2,2,100,0,0
132376,-60.6060606060606,4,2,2,5,0,0
132420,-60.6060606060606,4,2,2,100,0,0
132464,-60.6060606060606,4,2,2,5,0,0
132508,-60.6060606060606,4,2,2,100,0,0
132552,-100,4,2,2,5,0,0
132596,-100,4,2,2,100,0,0
132640,-100,4,2,2,5,0,0
132685,-60.6060606060606,4,2,2,100,0,0
134273,-60.6060606060606,4,2,2,100,0,0
134449,-60.6060606060606,4,2,2,100,0,0
134493,-60.6060606060606,4,2,2,5,0,0
134538,-60.6060606060606,4,2,2,100,0,0
134582,-60.6060606060606,4,2,2,5,0,0
134626,-60.6060606060606,4,2,2,100,0,0
134670,-60.6060606060606,4,2,2,5,0,0
134714,-60.6060606060606,4,2,2,100,0,0
134758,-60.6060606060606,4,2,2,5,0,0
134802,-60.6060606060606,4,2,2,100,0,0
135155,-60.6060606060606,4,2,1,100,0,0
135332,-33.3333333333333,4,2,1,100,0,0
135508,-100,4,2,1,100,0,0
136567,-83.3333333333333,4,2,1,100,0,0
148214,-74.0740740740741,4,2,1,100,0,0
150332,-74.0740740740741,4,2,1,100,0,0
150596,-74.0740740740741,4,2,1,100,0,0
150773,-74.0740740740741,4,2,1,100,0,0
151038,-74.0740740740741,4,2,1,100,0,0
153155,-74.0740740740741,4,2,1,50,0,0
153332,-74.0740740740741,4,2,1,100,0,0
153508,-74.0740740740741,4,2,1,100,0,0
153861,-68.9655172413793,4,2,1,100,0,0
156861,-68.9655172413793,4,2,1,100,0,0
157038,-68.9655172413793,4,2,1,100,0,0
157567,-68.9655172413793,4,2,1,100,0,0
157743,-68.9655172413793,4,2,1,100,0,0
158096,-62.5,4,2,1,100,0,0
159155,-50,4,2,1,100,0,0
159332,-45.4545454545455,4,2,1,100,0,0
159508,-45.4545454545455,4,2,1,100,0,1
160567,-45.4545454545455,4,2,1,100,0,1
160920,-45.4545454545455,4,2,1,100,0,1
161273,-45.4545454545455,4,2,1,100,0,1
161626,-45.4545454545455,4,2,1,100,0,1
162155,-45.4545454545455,4,2,1,100,0,1
163038,-45.4545454545455,4,2,1,100,0,1
166390,-45.4545454545455,4,2,1,100,0,1
166920,-45.4545454545455,4,2,1,100,0,1
167185,-45.4545454545455,4,2,1,100,0,1
167273,-45.4545454545455,4,2,1,100,0,1
167979,-45.4545454545455,4,2,1,100,0,0
168155,-200,4,2,1,100,0,0
170802,-100,4,2,1,85,0,0
173626,-66.6666666666667,4,2,1,85,0,0
173890,-100,4,2,1,85,0,0
176449,-66.6666666666667,4,2,1,85,0,0
176714,-100,4,2,1,85,0,0
179273,-66.6666666666667,4,2,1,85,0,0
179538,-100,4,2,1,85,0,0
180685,-50,4,2,1,100,0,0
181567,-100,4,2,1,100,0,0
182096,-40,4,2,1,100,0,1
183861,-83.3333333333333,4,2,1,100,0,1
184214,-50,4,2,1,100,0,1
184920,-50,4,2,1,100,0,1
185273,-66.6666666666667,4,2,1,100,0,1
186332,-100,4,2,1,100,0,1
186685,-66.6666666666667,4,2,1,100,0,1
187743,-50,4,2,1,100,0,1
188802,-100,4,2,1,100,0,1
189861,-50,4,2,1,100,0,1
190567,-50,4,2,1,100,0,1
191979,-50,4,2,1,100,0,1
193390,-50,4,2,1,100,0,1
194273,-100,4,2,1,100,0,1
194802,-66.6666666666667,4,2,1,100,0,1
195508,-66.6666666666667,4,2,1,100,0,1
196214,-50,4,2,1,100,0,1
197096,-66.6666666666667,4,2,1,100,0,1
197979,-50,4,2,1,100,0,1
199743,-100,4,2,1,100,0,1
200448,-66.6666666666667,4,2,1,100,0,1
201155,-66.6666666666667,4,2,1,100,0,1
203273,-50,4,2,1,100,0,1
203626,-66.6666666666667,4,2,1,100,0,1
204332,-66.6666666666667,4,2,2,100,0,1
204685,-133.333333333333,4,2,2,100,0,0
205038,-40,4,2,2,100,0,0
205390,-133.333333333333,4,2,2,100,0,0
205743,-66.6666666666667,4,2,2,100,0,0
206096,-66.6666666666667,4,2,2,100,0,0
206449,-66.6666666666667,4,2,2,100,0,0
206802,-50,4,2,2,100,0,0
207155,-66.6666666666667,4,2,2,100,0,0
207508,-66.6666666666667,4,2,2,100,0,0
207861,-66.6666666666667,4,2,2,100,0,0
208214,-66.6666666666667,4,2,2,100,0,0
208567,-66.6666666666667,4,2,2,100,0,0
208920,-66.6666666666667,4,2,2,100,0,0
209273,-66.6666666666667,4,2,2,100,0,0
209626,-66.6666666666667,4,2,2,100,0,0
210332,-66.6666666666667,4,2,2,100,0,1
210685,-181.818181818181,4,2,2,100,0,1
211038,-66.6666666666667,4,2,2,100,0,1
211390,-100,4,2,2,100,0,1
211743,-66.6666666666667,4,2,2,100,0,1
212096,-181.818181818181,4,2,2,100,0,1
212449,-66.6666666666667,4,2,2,100,0,1
212802,-100,4,2,2,100,0,0
213155,-66.6666666666667,4,2,2,100,0,1
213508,-133.333333333333,4,2,2,100,0,1
213861,-66.6666666666667,4,2,2,100,0,1
214214,-133.333333333333,4,2,2,100,0,1
214567,-66.6666666666667,4,2,2,100,0,0
214920,-80,4,2,2,100,0,0
215273,-100,4,2,2,100,0,0
215626,-133.333333333333,4,2,2,100,0,0
215979,-66.6666666666667,4,2,2,100,0,0
216214,-66.6666666666667,4,2,2,100,0,0
216685,-66.6666666666667,4,2,2,100,0,0
216920,-66.6666666666667,4,2,2,100,0,0
217390,-66.6666666666667,4,2,2,100,0,0
217626,-66.6666666666667,4,2,2,100,0,0
217743,-181.818181818181,4,2,2,100,0,0
217979,-100,4,2,2,100,0,0
218214,-66.6666666666667,4,2,2,100,0,0
218449,-66.6666666666667,4,2,2,100,0,0
218802,-66.6666666666667,4,2,2,100,0,0
219155,-66.6666666666667,4,2,2,100,0,0
219508,-66.6666666666667,4,2,2,100,0,0
219861,-66.6666666666667,4,2,2,100,0,0
220214,-66.6666666666667,4,2,2,100,0,0
220449,-66.6666666666667,4,2,2,100,0,0
220567,-66.6666666666667,4,2,2,100,0,0
220802,-66.6666666666667,4,2,2,100,0,0
220920,-55.5555555555556,4,2,2,100,0,0
221038,-66.6666666666667,4,2,2,100,0,0
221155,-66.6666666666667,4,2,2,100,0,0
221626,-90.9090909090909,4,2,2,100,0,1
221861,-100,4,2,2,100,0,1
221979,-100,4,2,2,100,0,1
222332,-66.6666666666667,4,2,2,100,0,1
222685,-100,4,2,2,100,0,1
223390,-200,4,2,2,100,0,1
223743,-66.6666666666667,4,2,2,100,0,1
224096,-100,4,2,2,100,0,0
224332,-66.6666666666667,4,2,2,100,0,0
224449,-66.6666666666667,4,2,2,100,0,1
225038,-66.6666666666667,4,2,2,100,0,1
225155,-66.6666666666667,4,2,2,100,0,1
225508,-181.818181818181,4,2,2,100,0,1
225861,-100,4,2,2,100,0,0
226214,-133.333333333333,4,2,2,100,0,0
226567,-200,4,2,2,100,0,0
226920,-400,4,2,2,100,0,0
227273,-66.6666666666667,4,2,1,100,0,0
227538,-100,4,2,1,100,0,0
227890,-80,4,2,1,100,0,0
228155,-66.6666666666667,4,2,1,100,0,0
228685,-66.6666666666667,4,2,1,100,0,0
228949,-100,4,2,1,100,0,0
229302,-66.6666666666667,4,2,1,100,0,0
230361,-100,4,2,1,100,0,0
230714,-80,4,2,1,100,0,0
230979,-66.6666666666667,4,2,1,100,0,0
231508,-66.6666666666667,4,2,1,100,0,0
231773,-66.6666666666667,4,2,1,100,0,0
232214,-50,4,2,1,100,0,0
232567,-66.6666666666667,4,2,1,100,0,0
232920,-50,4,2,1,100,0,0
233273,-117.647058823529,4,2,1,100,0,0
233626,-66.6666666666667,4,2,1,100,0,0
233979,-117.647058823529,4,2,1,100,0,0
234331,-66.6666666666667,4,2,1,100,0,0
234685,-117.647058823529,4,2,1,100,0,0
235038,-50,4,2,1,100,0,0
235390,-100,4,2,1,100,0,0
236449,-66.6666666666667,4,2,1,100,0,0
236802,-50,4,2,1,100,0,0
237508,-200,4,2,2,100,0,0
238567,-50,4,2,2,100,0,0
239273,-50,4,2,2,100,0,1
241390,-50,4,2,2,100,0,0
241743,-100,4,2,2,100,0,0
242096,-66.6666666666667,4,2,2,100,0,1
243155,-66.6666666666667,4,2,2,100,0,1
243508,-50,4,2,2,100,0,1
243685,-100,4,2,2,100,0,1
243861,-33.3333333333333,4,2,2,100,0,1
244214,-133.333333333333,4,2,2,100,0,0
244567,-66.6666666666667,4,2,2,100,0,0
244743,-50,4,2,2,100,0,0
244920,-66.6666666666667,4,2,2,100,0,1
245273,-50,4,2,2,100,0,1
247038,-100,4,2,2,100,0,0
247214,-100,4,2,2,100,0,0
247390,-50,4,2,2,100,0,0
248096,-66.6666666666667,4,2,2,100,0,0
249861,-50,4,2,2,100,0,0
250390,-100,4,2,2,100,0,0
250567,-66.6666666666667,4,2,2,100,0,1
252685,-100,4,2,2,100,0,0
253390,-66.6666666666667,4,2,2,100,0,1
255508,-55.5555555555556,4,2,2,100,0,0
256214,-66.6666666666667,4,2,2,100,0,1
258332,-66.6666666666667,4,2,2,100,0,0
258685,-285.714285714284,4,2,2,100,0,0
259038,-76.9230769230769,4,2,2,100,0,1
260979,-66.6666666666667,4,2,2,100,0,0
261155,-100,4,2,2,100,0,1
261508,-100,4,2,1,100,0,1
266802,-58.8235294117647,4,2,1,100,0,1
267508,-100,4,2,1,100,0,1
267596,-66.6666666666667,4,2,1,100,0,1
267773,-100,4,2,1,100,0,1
267949,-100,4,2,1,100,0,1
268390,-100,4,2,1,100,0,1
269096,-100,4,2,1,100,0,1
269361,-100,4,2,1,100,0,1
269802,-100,4,2,1,100,0,1
269979,-100,4,2,1,100,0,1
270332,-66.6666666666667,4,2,1,100,0,1
270773,-100,4,2,1,100,0,1
270861,-100,4,2,1,100,0,1
271038,-66.6666666666667,4,2,1,100,0,0
271214,-80,4,2,1,100,0,0
271743,-100,4,2,1,80,0,0
272096,-66.6666666666667,4,2,1,80,0,0
272449,-100,4,2,1,80,0,0
273155,-100,4,2,1,80,0,0
273332,-71.4285714285714,4,2,1,80,0,0
274126,-100,4,2,1,80,0,0
274302,-100,4,2,1,80,0,0
274920,-47.6190476190476,4,2,1,80,0,0
275096,-100,4,2,1,80,0,0
275273,-100,4,2,1,80,0,0
276332,-100,4,2,1,80,0,0
276685,-76.9230769230769,4,2,1,80,0,0
277390,-100,4,2,1,80,0,0
277743,-76.9230769230769,4,2,1,80,0,0
278096,-100,4,2,1,80,0,0
278273,-100,4,2,1,80,0,0
278802,-100,4,2,1,80,0,0
279243,-100,4,2,1,80,0,0
279508,-71.4285714285714,4,2,1,80,0,0
279949,-100,4,2,1,80,0,0
280743,-100,4,2,1,80,0,0
280920,-66.6666666666667,4,2,1,80,0,0
282332,-100,4,2,1,80,0,0
283567,-100,4,2,1,80,0,0
283743,-100,4,2,1,25,0,0

[Colours]
Combo1 : 255,94,55
Combo2 : 173,255,95
Combo3 : 17,254,176
Combo4 : 255,88,100

[HitObjects]
133,353,1391,5,6,3:2:0:0:
195,269,1567,2,0,L|206:317,2,33.7500012874604,2|0|8,0:0|0:0|0:0,0:0:0:0:
286,314,1920,1,2,0:0:0:0:
119,230,2096,6,0,L|102:140,1,67.5000025749208,2|0,3:2|0:0,0:0:0:0:
106,163,2361,2,0,L|161:172,1,33.7500012874604,2|8,0:0|0:0,0:0:0:0:
223,181,2538,1,2,0:0:0:0:
51,286,2714,1,2,0:0:0:0:
51,286,2802,5,6,3:2:0:0:
195,269,2979,2,0,L|275:281,1,67.5000025749208,2|8,0:0|0:0,0:0:0:0:
133,333,3332,1,0,0:0:0:0:
117,235,3508,6,0,L|102:143,1,67.5000025749208,2|0,3:2|0:0,0:0:0:0:
106,168,3773,2,0,L|165:176,1,33.7500012874604,2|8,0:0|0:0,0:0:0:0:
223,181,3950,1,2,0:0:0:0:
223,181,4038,6,0,L|294:192,1,67.5000025749208,6|0,0:0|0:0,0:0:0:0:
379,31,4214,5,6,3:2:0:0:
315,113,4390,2,0,L|304:65,2,33.7500012874604,2|0|8,0:0|0:0|0:0,0:0:0:0:
226,70,4743,1,0,0:0:0:0:
394,153,4919,6,0,L|409:249,1,67.5000025749208,2|0,3:2|0:0,0:0:0:0:
404,219,5184,2,0,L|339:208,1,33.7500012874604,2|8,0:0|0:0,0:0:0:0:
289,203,5361,1,2,0:0:0:0:
461,98,5537,1,2,0:0:0:0:
461,98,5625,5,6,3:2:0:0:
315,113,5802,2,0,L|214:97,1,67.5000025749208,2|8,0:0|0:0,0:0:0:0:
379,51,6155,1,2,1:2:0:0:
394,153,6332,6,0,L|410:252,1,67.5000025749208,2|0,3:2|1:0,0:0:0:0:
404,219,6596,2,0,L|342:208,1,33.7500012874604,2|8,0:0|0:0,0:0:0:0:
289,203,6773,1,0,0:0:0:0:
289,203,6861,6,0,L|218:191,1,67.5000025749208,6|0,0:0|0:0,0:0:0:0:
125,188,7038,5,6,3:2:0:0:
168,111,7214,2,0,L|157:46,2,45,2|0|8,0:0|0:0|0:0,0:0:0:0:
387,188,7567,1,2,1:2:0:0:
344,111,7743,6,0,L|366:-19,1,90,2|0,3:2|0:0,0:0:0:0:
359,22,8008,2,0,L|427:34,1,45,2|8,0:0|0:0,0:0:0:0:
431,111,8185,1,2,0:0:0:0:
254,58,8361,1,2,0:0:0:0:
254,58,8449,5,6,3:2:0:0:
168,111,8626,2,0,L|49:131,1,90,2|8,0:0|0:0,0:0:0:0:
249,161,8979,1,2,0:0:0:0:
186,234,9155,2,0,B|166:279|166:279|176:336,1,90,2|0,3:2|1:0,0:0:0:0:
173,319,9420,2,0,L|232:308,1,45,2|8,0:0|0:0,0:0:0:0:
300,372,9596,1,2,0:0:0:0:
300,372,9685,6,0,L|322:254,1,67.5000025749208,6|0,0:0|0:0,0:0:0:0:
333,222,9861,5,6,3:2:0:0:
401,349,10038,2,0,L|422:239,1,90,2|8,0:0|0:0,0:0:0:0:
466,115,10390,1,2,1:2:0:0:
333,222,10567,1,2,3:2:0:0:
243,54,10743,1,2,1:2:0:0:
329,43,10920,2,0,L|308:153,1,90,10|0,0:0|0:0,0:0:0:0:
80,287,11273,6,0,B|90:255|90:255|212:225|212:225|261:277,1,198.000006042481,6|8,3:2|0:0,0:0:0:0:
238,253,11802,6,0,L|246:176,1,49.5000015106202,2|0,0:0|0:0,0:0:0:0:
152,341,11979,1,6,3:2:0:0:
257,342,12155,6,0,B|170:310|170:310|143:228|143:228|41:193,1,243.000000926971,2|0,1:2|0:0,0:0:0:0:
83,208,12685,6,0,L|70:118,1,53.9999983520508,6|0,3:2|0:0,0:0:0:0:
100,65,12861,2,0,B|144:91|144:91|160:193,1,107.999996704102,0|8,0:0|0:0,0:0:0:0:
310,317,13214,1,2,0:0:0:0:
160,233,13390,6,0,L|327:257,1,107.999996704102,2|0,3:2|0:0,0:0:0:0:
266,248,13655,2,0,B|238:264|238:264|228:328,1,53.9999983520508,2|8,0:0|0:0,0:0:0:0:
134,314,13832,1,2,0:0:0:0:
236,161,14008,1,2,0:0:0:0:
236,161,14096,5,6,3:2:0:0:
310,317,14273,2,0,L|477:341,1,107.999996704102,2|10,0:0|0:0,0:0:0:0:
507,303,14626,1,2,0:0:0:0:
387,246,14802,2,0,B|366:202|366:202|400:109,1,107.999996704102,2|0,3:2|0:0,0:0:0:0:
473,35,15155,1,0,3:0:0:0:
485,37,15243,1,2,3:2:0:0:
493,47,15332,1,0,3:0:0:0:
488,58,15420,1,2,3:2:0:0:
478,64,15508,5,6,3:2:0:0:
310,45,15685,2,0,L|220:58,2,53.9999983520508,2|2|8,0:0|0:0|0:0,0:0:0:0:
392,13,16038,1,2,0:0:0:0:
308,129,16214,6,0,L|161:153,1,107.999996704102,2|0,3:2|0:0,0:0:0:0:
201,146,16479,2,0,L|212:217,1,53.9999983520508,2|8,0:0|0:0,0:0:0:0:
266,249,16655,1,2,0:0:0:0:
403,179,16832,1,2,0:0:0:0:
403,179,16920,5,6,3:2:0:0:
350,242,17096,2,0,L|332:383,1,107.999996704102,2|10,0:0|0:0,0:0:0:0:
218,356,17449,1,2,0:0:0:0:
133,285,17626,2,0,L|276:267,1,107.999996704102,2|0,3:2|0:0,0:0:0:0:
240,271,17890,1,2,0:0:0:0:
240,271,17979,6,0,P|239:244|247:218,1,53.9999983520508,2|0,3:2|0:0,0:0:0:0:
408,246,18155,2,0,P|408:272|401:299,1,53.9999983520508,2|0,3:2|0:0,0:0:0:0:
323,262,18332,5,6,3:2:0:0:
181,145,18508,2,0,L|188:75,2,53.9999983520508,0|2|8,0:0|0:0|0:0,0:0:0:0:
276,122,18861,1,2,1:2:0:0:
97,167,19038,6,0,B|81:107|81:107|113:50,1,107.999996704102,2|0,3:2|0:0,0:0:0:0:
103,66,19302,2,0,L|25:52,1,53.9999983520508,2|8,0:0|0:0,0:0:0:0:
9,163,19479,1,2,0:0:0:0:
185,149,19655,1,2,0:0:0:0:
185,149,19743,5,6,3:2:0:0:
139,270,19920,2,0,L|152:347,2,53.9999983520508,2|0|10,0:0|0:0|0:0,0:0:0:0:
61,328,20273,1,2,0:0:0:0:
219,230,20449,2,0,L|246:384,1,107.999996704102,2|0,3:2|0:0,0:0:0:0:
54,206,20802,1,0,3:0:0:0:
42,208,20890,1,2,3:2:0:0:
34,218,20979,1,0,3:0:0:0:
39,229,21067,1,2,3:2:0:0:
49,234,21155,6,0,P|68:211|75:182,1,53.9999983520508,6|0,3:2|0:0,0:0:0:0:
170,142,21332,2,0,P|172:82|148:27,1,107.999996704102,0|8,0:0|0:0,0:0:0:0:
60,7,21685,1,2,0:0:0:0:
72,111,21861,2,0,P|171:101|276:89,1,161.999995056153,2|2,3:2|0:0,0:0:0:0:
263,98,22214,2,0,L|244:234,1,107.999996704102,8|0,0:0|0:0,0:0:0:0:
150,233,22567,2,0,P|163:158|185:-19,1,215.999993408203,6|10,3:2|0:0,0:0:0:0:
308,215,23273,6,0,P|302:185|314:158,1,53.9999983520508,2|0,1:2|1:0,0:0:0:0:
424,186,23449,1,8,0:0:0:0:
428,206,23538,1,8,0:0:0:0:
425,228,23626,2,0,B|372:206|306:224|349:259|281:282|176:246,1,202.500007724762,6|0,3:2|0:0,0:0:0:0:
155,315,23979,6,0,B|115:296|100:265|100:265|106:229|148:210,1,135,6|0,3:2|0:0,0:0:0:0:
217,170,24332,2,0,P|228:142|236:113,2,53.9999983520508,0|0|2,1:0|0:0|1:2,0:0:0:0:
98,148,24685,6,0,B|128:126|162:119|162:119|205:179|234:260|234:260|285:254|336:212,1,297.000002832413,14|2,0:0|1:2,0:0:0:0:
452,242,25214,5,2,1:2:0:0:
452,242,25302,1,2,1:2:0:0:
452,242,25390,2,0,B|427:311|427:311|347:326,1,135,6|0,3:2|0:0,0:0:0:0:
366,322,25743,2,0,L|352:273,1,45,10|0,0:0|0:0,0:0:0:0:
383,173,25920,1,2,3:2:0:0:
491,342,26096,6,0,B|467:276|467:276|318:247|318:247|294:163,1,270.000010299683,14|2,0:0|1:2,0:0:0:0:
409,95,26626,5,2,1:2:0:0:
409,95,26714,1,2,1:2:0:0:
409,95,26802,2,0,L|235:67,1,135,6|0,3:2|0:0,0:0:0:0:
275,73,27155,2,0,B|263:89|263:89|269:118,1,45,2|0,1:2|0:0,0:0:0:0:
273,194,27332,1,0,3:0:0:0:
129,104,27508,6,0,B|113:24|113:24|41:77|41:77|61:211,1,270.000010299683,14|2,0:0|1:2,0:0:0:0:
45,338,28038,5,2,1:2:0:0:
45,338,28126,1,0,1:0:0:0:
45,338,28214,2,0,B|82:320|82:320|64:216,1,107.999996704102,6|0,3:2|0:0,0:0:0:0:
177,171,28479,2,0,B|140:189|140:189|158:293,1,107.999996704102,2|0,3:2|0:0,0:0:0:0:
163,337,28743,2,0,L|222:346,1,53.9999983520508,2|0,3:2|0:0,0:0:0:0:
347,329,28920,6,0,B|364:201|364:201|259:220|259:220|250:288,1,270.000010299683,14|0,0:0|0:0,0:0:0:0:
254,253,29449,6,0,L|243:328,1,53.9999983520508,6|0,0:0|0:0,0:0:0:0:
439,350,29626,6,0,L|468:142,1,161.999995056153,6|0,3:2|0:0,0:0:0:0:
497,110,29979,2,0,B|476:88|448:83|448:83|427:89|408:115,1,107.999996704102,0|0,1:0|1:0,0:0:0:0:
405,122,30243,1,0,1:0:0:0:
402,131,30332,2,0,B|361:162|353:238|353:238|319:174|268:156,1,215.999993408203,14|0,0:0|0:0,0:0:0:0:
152,228,30861,5,0,0:0:0:0:
166,220,30949,1,0,3:0:0:0:
178,213,31038,2,0,B|250:208|317:258|253:301|326:363|421:344,1,269.999991760254,2|0,3:2|0:0,0:0:0:0:
391,347,31567,2,0,P|402:311|386:266,1,53.9999983520508,2|0,3:2|0:0,0:0:0:0:
414,192,31743,6,0,P|299:247|173:328,1,269.999991760254,14|0,0:0|0:0,0:0:0:0:
178,323,32273,2,0,P|165:301|193:308,1,53.9999983520508,6|0,0:0|0:0,0:0:0:0:
270,335,32449,6,0,P|235:231|151:221,1,161.999995056153,6|0,3:2|0:0,0:0:0:0:
214,132,32802,2,0,P|134:149|101:222,1,161.999995056153,0|0,3:2|0:0,0:0:0:0:
69,291,33155,5,14,0:0:0:0:
256,361,33420,1,2,3:2:0:0:
443,291,33685,1,2,3:2:0:0:
442,285,33773,1,2,1:2:0:0:
441,279,33861,6,0,B|454:179|406:207|431:99,1,135.000005149842,6|0,3:2|0:0,0:0:0:0:
360,28,34126,2,0,B|373:128|325:100|350:208,1,135.000005149842,2|0,3:2|0:0,0:0:0:0:
272,202,34390,2,0,P|261:165|261:128,1,67.5000025749208
439,71,34567,6,0,P|375:106|185:31,1,236.250002253056,14|0,0:0|0:0,0:0:0:0:
221,74,34920,1,14,0:0:0:0:
107,153,35096,2,0,L|61:142,2,30,2|0|0,3:2|3:0|3:0,0:0:0:0:
107,153,35273,6,0,L|130:308,1,135,6|0,3:2|0:0,0:0:0:0:
46,287,35626,6,0,P|63:246|104:233,1,58.4999973220826,10|0,0:0|0:0,0:0:0:0:
199,185,35802,2,0,P|243:179|274:208,1,58.4999973220826
239,307,35979,2,0,L|394:330,1,116.999994644165,0|0,1:0|1:0,0:0:0:0:
493,149,36332,6,0,P|476:108|435:95,1,58.4999973220826,8|0,1:2|0:0,0:0:0:0:
340,47,36508,2,0,P|296:41|265:70,1,58.4999973220826,2|0,1:2|0:0,0:0:0:0:
300,169,36685,2,0,L|144:192,1,116.999994644165,6|2,3:2|0:0,0:0:0:0:
86,193,36949,1,0,0:0:0:0:
86,193,37038,6,0,L|98:112,1,45,10|0,0:0|0:0,0:0:0:0:
36,81,37214,1,0,0:0:0:0:
153,72,37390,2,0,L|202:64,3,45,2|0|0|0,3:2|0:0|0:0|0:0,0:0:0:0:
171,187,37743,5,2,3:2:0:0:
180,184,37832,1,0,3:0:0:0:
188,178,37920,1,2,3:2:0:0:
190,168,38008,1,0,3:0:0:0:
186,160,38096,6,0,B|240:196|240:196|383:162|383:162|355:131,1,242.999992584229,6|0,3:2|0:0,0:0:0:0:
299,85,38449,6,0,P|281:117|306:186,1,58.4999973220826,10|0,0:0|0:0,0:0:0:0:
282,265,38626,2,0,P|301:296|373:309,1,58.4999973220826,2|0,1:2|0:0,0:0:0:0:
426,232,38802,2,0,L|448:117,1,116.999994644165,2|0,3:2|0:0,0:0:0:0:
170,254,39155,6,0,P|187:221|162:152,1,58.4999973220826,8|2,0:0|1:2,0:0:0:0:
195,57,39332,2,0,P|175:25|103:12,1,58.4999973220826,2|2,1:2|1:2,0:0:0:0:
70,122,39508,2,0,L|48:236,1,116.999994644165,6|0,3:2|0:0,0:0:0:0:
309,107,39861,5,10,0:0:0:0:
321,272,40038,1,2,1:2:0:0:
271,191,40214,2,0,P|322:137|412:148,1,135.000005149842,2|0,3:2|0:0,0:0:0:0:
456,162,40479,1,0,0:0:0:0:
451,181,40567,6,0,P|400:216|375:214,1,67.5000025749208,2|0,3:2|0:0,0:0:0:0:
215,118,40743,2,0,P|225:78|226:23,1,67.5000025749208,2|0,3:2|0:0,0:0:0:0:
329,51,40920,2,0,B|300:112|311:204|311:204|317:171|338:156,1,202.500007724762,6|0,3:2|0:0,0:0:0:0:
330,162,41273,5,10,0:0:0:0:
302,292,41449,1,2,0:0:0:0:
200,216,41626,2,0,L|123:230,3,58.4999973220826,2|0|0|0,3:2|1:0|1:0|1:0,0:0:0:0:
195,114,41979,6,0,L|44:85,1,116.999994644165,10|2,0:0|1:2,0:0:0:0:
18,146,42243,1,0,0:0:0:0:
18,146,42332,2,0,P|2:218|49:267,1,116.999994644165,6|0,3:2|1:0,0:0:0:0:
183,347,42685,6,0,B|200:321|200:321|201:289,1,58.4999973220826,10|0,0:0|0:0,0:0:0:0:
135,227,42861,2,0,B|118:253|118:253|117:285,1,58.4999973220826
290,353,43038,2,0,P|296:278|307:204,1,135,2|0,3:2|0:0,0:0:0:0:
365,112,43390,5,2,3:2:0:0:
374,115,43479,1,0,3:0:0:0:
382,121,43567,1,2,3:2:0:0:
384,131,43655,1,0,3:0:0:0:
381,139,43743,2,0,L|285:122,1,67.5000025749208,6|0,3:2|0:0,0:0:0:0:
225,180,43920,2,0,L|68:154,1,116.999994644165,2|10,1:2|0:0,0:0:0:0:
240,276,44273,5,0,0:0:0:0:
362,213,44449,1,2,3:2:0:0:
236,97,44626,1,2,1:2:0:0:
362,213,44802,6,0,P|416:226|464:244,2,77.9999964294435,10|0|0,0:0|0:0|0:0,0:0:0:0:
349,331,45155,2,0,B|308:272|295:173|412:219|399:116|364:65,1,270.000010299683,6|10,3:2|0:0,0:0:0:0:
374,83,45685,6,0,P|364:86|379:63,1,67.5000025749208,2|0,1:2|0:0,0:0:0:0:
464,108,45861,1,8,0:0:0:0:
270,199,46038,5,10,0:0:0:0:
270,199,46126,1,10,0:0:0:0:
270,199,46214,2,0,B|271:170|287:156|287:156|418:253|418:253|441:225|440:198,1,242.999992584229,6|0,3:2|0:0,0:0:0:0:
427,206,46567,6,0,P|321:259|260:307,1,135.000005149842,6|0,3:2|0:0,0:0:0:0:
307,268,46832,1,8,0:0:0:0:
307,268,46920,1,6,3:2:0:0:
222,100,47096,1,2,1:2:0:0:
116,184,47273,6,0,P|159:193|202:199,1,67.5000025749208,6|0,3:2|0:0,0:0:0:0:
166,362,47449,2,0,P|123:353|80:347,1,67.5000025749208,0|0,1:0|1:0,0:0:0:0:
78,257,47626,2,0,P|158:274|245:285,1,135.000005149842,6|0,3:2|0:0,0:0:0:0:
300,226,47979,6,0,P|300:161|353:121,1,135.000005149842,6|2,3:2|1:2,0:0:0:0:
433,142,48243,1,0,1:0:0:0:
433,142,48332,2,0,P|457:203|425:259,1,135.000005149842,6|2,3:2|1:2,0:0:0:0:
97,243,48685,2,0,P|84:212|91:179,1,67.5000025749208,6|0,3:2|0:0,0:0:0:0:
186,232,48861,2,0,P|190:199|176:169,1,67.5000025749208,0|0,1:2|0:0,0:0:0:0:
98,83,49038,5,0,3:0:0:0:
98,83,49127,1,2,3:2:0:0:
98,83,49215,1,0,3:0:0:0:
98,83,49303,1,2,3:2:0:0:
98,83,49390,2,0,P|175:95|270:102,1,135.000005149842,6|0,3:2|0:0,0:0:0:0:
231,100,49655,1,0,1:0:0:0:
231,100,49743,1,6,3:2:0:0:
323,221,49920,1,2,1:2:0:0:
297,41,50096,6,0,B|269:14|269:14|233:19,1,67.5000025749208,6|0,3:2|0:0,0:0:0:0:
189,170,50273,2,0,B|217:197|217:197|252:191,1,67.5000025749208,2|2,1:2|1:2,0:0:0:0:
382,163,50449,2,0,P|396:84|413:7,1,135.000005149842,6|0,3:2|0:0,0:0:0:0:
116,139,50802,6,0,P|102:218|85:295,1,135.000005149842,6|2,3:2|1:2,0:0:0:0:
90,271,51067,1,0,1:0:0:0:
90,271,51155,2,0,P|109:302|143:316,1,67.5000025749208,6|0,3:2|0:0,0:0:0:0:
318,203,51332,2,0,P|316:256|273:289,1,67.5000025749208,2|0,1:2|0:0,0:0:0:0:
242,338,51508,6,0,B|224:282|204:187|204:187|224:221|272:244,1,202.500007724762,6|0,3:2|0:0,0:0:0:0:
235,221,51861,2,0,P|167:236|144:220,1,67.5000025749208,6|0,3:2|0:0,0:0:0:0:
76,190,52038,2,0,P|61:121|78:98,1,67.5000025749208,6|0,1:2|0:0,0:0:0:0:
153,120,52214,6,0,B|202:92|253:114|253:114|275:177|349:181,1,202.500007724762,6|0,3:2|1:0,0:0:0:0:
399,74,52567,5,2,1:2:0:0:
402,88,52655,1,0,1:0:0:0:
403,102,52743,1,0,1:0:0:0:
405,116,52832,1,0,1:0:0:0:
406,130,52920,2,0,B|347:96|287:122|287:122|261:197|173:202,1,236.250002253056,6|0,3:2|1:0,0:0:0:0:
101,144,53273,5,2,1:2:0:0:
98,158,53361,1,0,1:0:0:0:
97,172,53449,1,0,1:0:0:0:
95,186,53538,1,0,1:0:0:0:
93,200,53626,2,0,B|157:163|224:192|224:192|253:274|350:280,1,270,6|0,3:2|0:0,0:0:0:0:
430,196,53979,5,2,1:2:0:0:
433,210,54067,1,0,1:0:0:0:
434,224,54155,1,0,1:0:0:0:
436,238,54244,1,0,1:0:0:0:
438,254,54332,2,0,B|360:209|279:244|279:244|244:344|127:350,1,303.750011587143,6|0,3:2|0:0,0:0:0:0:
89,355,54685,5,2,1:2:0:0:
53,328,54773,1,0,1:0:0:0:
51,283,54861,1,0,1:0:0:0:
81,250,54949,1,0,1:0:0:0:
121,249,55038,6,0,L|150:242,6,22.5,6|0|0|0|0|0|0,3:2|0:0|1:0|0:0|1:0|0:0|1:0,0:0:0:0:
47,176,55390,2,0,L|18:169,6,22.5,2|0|0|0|0|0|0,3:2|0:0|1:0|0:0|1:0|0:0|1:0,0:0:0:0:
18,261,55743,6,0,L|25:290,6,22.5,2|0|0|0|0|0|0,3:2|0:0|1:0|0:0|1:0|0:0|1:0,0:0:0:0:
133,165,56096,2,0,L|140:136,6,22.5,6|0|0|0|0|0|0,3:2|0:0|1:0|0:0|1:2|0:0|1:0,0:0:0:0:
191,228,56449,5,6,3:2:0:0:
338,69,56626,1,0,0:0:0:0:
321,228,56802,5,6,3:2:0:0:
174,69,56979,1,0,0:0:0:0:
256,287,57155,5,6,3:2:0:0:
256,172,57332,1,0,1:0:0:0:
256,161,57420,1,0,1:0:0:0:
256,151,57508,2,0,B|259:129|259:129|251:124|251:124|253:102,6,45,6|0|0|0|0|0|0,3:2|0:0|1:0|0:0|1:0|0:0|1:0,0:0:0:0:
154,188,57861,6,0,P|250:209|355:223,1,157.500001502037,6|0,3:2|0:0,0:0:0:0:
377,290,58126,1,0,1:0:0:0:
377,290,58214,2,0,P|410:241|401:197,1,78.7500007510185,14|0,0:0|0:0,0:0:0:0:
384,92,58390,2,0,P|358:100|372:103,1,78.7500007510185,2|0,1:0|0:0,0:0:0:0:
484,128,58567,5,6,3:2:0:0:
460,137,58655,1,0,1:0:0:0:
476,144,58743,5,0,1:0:0:0:
467,120,58831,1,0,1:0:0:0:
466,144,58920,5,8,0:0:0:0:
477,120,59008,1,0,1:0:0:0:
460,137,59096,5,0,1:0:0:0:
484,127,59184,1,0,1:0:0:0:
471,133,59273,6,0,P|380:114|284:96,1,157.500001502037,6|0,3:2|1:0,0:0:0:0:
200,140,59538,1,6,1:2:0:0:
200,140,59626,2,0,P|114:122|23:105,1,157.500001502037,8|6,0:0|1:2,0:0:0:0:
167,306,59979,5,2,3:2:0:0:
181,309,60067,1,0,1:0:0:0:
195,312,60155,2,0,P|210:281|204:243,1,45,0|0,1:0|1:0,0:0:0:0:
83,145,60332,5,8,3:2:0:0:
63,179,60420,1,0,3:0:0:0:
57,218,60508,1,0,3:0:0:0:
66,256,60596,1,0,3:0:0:0:
93,286,60685,2,0,B|137:237|193:239|193:239|240:264|312:270|312:270|310:227|281:209,1,270,6|0,3:2|1:0,0:0:0:0:
305,238,61038,1,14,0:0:0:0:
240,45,61214,6,0,P|236:13|250:37,1,78.7500007510185,2|0,1:0|0:0,0:0:0:0:
140,157,61390,5,6,3:2:0:0:
174,151,61479,1,0,1:0:0:0:
208,145,61567,1,0,1:0:0:0:
242,139,61655,1,0,1:0:0:0:
276,133,61743,1,8,0:0:0:0:
310,127,61832,1,0,1:0:0:0:
344,121,61920,1,0,1:0:0:0:
378,115,62008,1,0,1:0:0:0:
412,110,62096,6,0,B|445:159|445:159|453:220|400:260,1,157.500001502037,6|0,3:2|1:0,0:0:0:0:
292,225,62361,1,6,1:2:0:0:
292,225,62449,2,0,B|273:169|273:169|282:108|343:83,1,157.500001502037,10|6,1:2|1:2,0:0:0:0:
372,327,62802,2,0,P|287:310|263:307,1,78.7500007510185,6|0,3:2|0:0,0:0:0:0:
164,313,62979,5,0,1:0:0:0:
164,313,63067,1,0,1:0:0:0:
164,313,63155,2,0,P|148:280|172:295,1,78.7500007510185,14|0,0:0|0:0,0:0:0:0:
290,138,63332,2,0,P|306:170|282:155,1,78.7500007510185,6|0,3:2|0:0,0:0:0:0:
242,353,63508,6,0,B|265:291|278:209|184:254|183:159|216:102,1,236.250002253056,6|0,3:2|1:0,0:0:0:0:
203,133,63861,1,8,0:0:0:0:
89,174,64038,6,0,B|104:198|104:198|117:166|84:128,1,90,2|0,1:0|0:0,0:0:0:0:
53,35,64214,5,6,3:2:0:0:
77,44,64302,1,0,1:0:0:0:
61,51,64390,5,0,1:0:0:0:
70,27,64478,1,0,1:0:0:0:
71,51,64567,5,8,0:0:0:0:
60,27,64655,1,0,1:0:0:0:
77,44,64743,5,0,1:0:0:0:
53,34,64831,1,0,1:0:0:0:
63,38,64920,6,0,P|131:53|245:75,1,157.500001502037,6|0,3:2|1:0,0:0:0:0:
327,97,65185,1,6,1:2:0:0:
327,97,65273,2,0,P|351:130|341:187,1,78.7500007510185,8|0,0:0|1:0,0:0:0:0:
176,309,65449,2,0,P|152:276|162:219,1,78.7500007510185,6|0,1:2|0:0,0:0:0:0:
217,169,65626,5,6,3:2:0:0:
236,165,65714,1,0,1:0:0:0:
258,161,65802,2,0,P|273:212|272:238,1,45,0|0,1:0|1:0,0:0:0:0:
270,332,65979,5,10,3:2:0:0:
296,309,66067,1,0,3:2:0:0:
327,293,66155,1,0,3:0:0:0:
361,285,66243,1,0,3:0:0:0:
401,291,66332,2,0,B|476:249|476:249|495:192|482:113|431:82,1,242.999992584229,6|0,3:2|1:0,0:0:0:0:
452,100,66685,1,14,0:0:0:0:
398,200,66861,6,0,P|393:164|329:142,1,99.0000030212403,2|0,1:0|0:0,0:0:0:0:
224,186,67038,5,2,3:2:0:0:
216,196,67126,1,2,1:2:0:0:
211,207,67214,1,0,1:2:0:0:
211,219,67302,1,0,1:2:0:0:
216,230,67390,1,14,0:0:0:0:
225,237,67479,1,0,1:2:0:0:
236,240,67567,1,0,1:2:0:0:
248,239,67655,1,0,1:2:0:0:
256,234,67743,6,0,B|170:263|134:277|134:277|105:221,1,180,6|0,3:2|0:0,0:0:0:0:
101,217,68008,1,0,1:0:0:0:
85,208,68096,2,0,P|128:297|161:392,1,180,10|0,1:2|1:2,0:0:0:0:
427,208,68449,6,0,P|400:261|385:300,1,90,0|0,3:0|1:0,0:0:0:0:
264,241,68626,1,8,0:0:0:0:
264,241,68714,1,8,0:0:0:0:
264,241,68802,2,0,B|314:259|314:259|324:240|330:215,1,90,6|0,3:2|0:0,0:0:0:0:
370,147,68979,2,0,P|342:134|361:151,1,90,0|0,1:0|0:0,0:0:0:0:
227,69,69155,6,0,P|190:179|159:297,1,170.999995433807,6|0,3:2|0:0,0:0:0:0:
93,285,69420,1,0,1:0:0:0:
93,285,69508,2,0,P|54:251|64:211,1,85.4999977169037,14|0,0:0|0:0,0:0:0:0:
134,41,69685,6,0,B|147:12|137:-1|137:-1|120:2|115:36,1,85.4999977169037,2|0,1:0|0:0,0:0:0:0:
98,121,69861,5,6,3:2:0:0:
74,130,69949,1,0,1:0:0:0:
90,137,70037,5,0,1:0:0:0:
81,113,70125,1,0,1:0:0:0:
80,137,70214,5,8,0:0:0:0:
91,113,70302,1,0,1:0:0:0:
74,130,70390,5,0,1:0:0:0:
98,120,70478,1,0,1:0:0:0:
87,127,70567,6,0,P|186:170|237:95,1,170.999995433807,6|0,3:2|1:0,0:0:0:0:
280,28,70832,1,6,1:2:0:0:
280,28,70920,2,0,P|362:62|358:151,1,170.999995433807,8|6,1:2|1:2,0:0:0:0:
336,312,71273,5,6,3:2:0:0:
310,320,71361,1,0,1:0:0:0:
283,329,71449,2,0,P|256:295|271:230,1,85.4999977169037,0|0,1:0|1:0,0:0:0:0:
437,184,71626,5,0,3:0:0:0:
409,209,71714,1,0,3:0:0:0:
372,219,71802,1,0,3:0:0:0:
334,216,71890,1,0,3:0:0:0:
304,189,71979,2,0,B|213:137|104:125|104:125|141:155|136:207,1,256.499993150711,6|0,3:2|1:0,0:0:0:0:
130,160,72332,1,14,0:0:0:0:
19,227,72508,6,0,B|33:220|58:196|58:196|67:210|60:249,1,85.4999977169037,2|0,1:0|0:0,0:0:0:0:
197,243,72684,5,6,3:2:0:0:
233,254,72773,1,0,1:0:0:0:
270,247,72861,1,0,1:0:0:0:
301,224,72949,1,0,1:0:0:0:
327,195,73038,1,8,1:2:0:0:
330,156,73126,1,0,1:0:0:0:
321,118,73214,1,0,1:0:0:0:
291,93,73302,1,0,1:0:0:0:
263,71,73390,6,0,P|348:90|476:115,1,180,6|0,3:2|1:0,0:0:0:0:
491,199,73655,1,6,1:2:0:0:
491,199,73743,2,0,P|475:291|383:307,1,180,10|6,1:2|1:2,0:0:0:0:
248,325,74096,2,0,P|242:270|239:207,1,90,6|0,3:2|0:0,0:0:0:0:
320,192,74273,5,0,1:0:0:0:
320,192,74361,1,0,1:0:0:0:
320,192,74449,2,0,B|339:207|365:213|365:213|351:235|322:237,1,90,14|0,0:0|0:0,0:0:0:0:
157,241,74626,2,0,B|139:227|113:221|113:221|127:198|155:196,1,90,6|0,3:2|0:0,0:0:0:0:
232,99,74802,6,0,B|215:179|128:183|128:183|74:130|103:48,1,270,6|0,3:2|1:0,0:0:0:0:
96,69,75155,1,8,0:0:0:0:
320,192,75332,6,0,B|335:212|351:217|351:217|366:207|371:178,1,85.4999977169037,2|0,1:0|0:0,0:0:0:0:
335,95,75508,5,4,3:2:0:0:
310,102,75596,1,0,1:0:0:0:
326,110,75684,5,0,1:0:0:0:
318,86,75772,1,0,1:0:0:0:
316,110,75861,5,8,1:2:0:0:
328,86,75949,1,0,1:0:0:0:
310,102,76037,5,0,1:0:0:0:
335,94,76125,1,0,1:0:0:0:
320,99,76214,6,0,P|246:102|193:153,1,135.000005149842,6|0,3:2|1:0,0:0:0:0:
201,266,76479,1,6,1:2:0:0:
201,266,76567,2,0,P|274:278|344:305,1,135.000005149842,10|6,1:2|1:2,0:0:0:0:
417,119,76920,5,6,3:2:0:0:
430,112,77008,1,0,1:0:0:0:
448,106,77096,2,0,P|464:139|468:176,1,67.5000025749208,0|0,1:0|1:0,0:0:0:0:
344,206,77273,5,2,3:2:0:0:
305,183,77361,1,0,3:0:0:0:
260,178,77449,1,0,3:0:0:0:
215,183,77538,1,0,3:0:0:0:
173,206,77626,2,0,B|94:219|29:172|29:172|59:105|59:105|74:113|116:126,1,270,6|0,3:2|1:0,0:0:0:0:
100,121,77979,1,8,0:0:0:0:
268,102,78155,6,0,P|281:71|263:90,1,90,2|0,1:0|0:0,0:0:0:0:
175,30,78332,5,6,3:2:0:0:
181,72,78420,1,0,1:0:0:0:
186,113,78508,1,0,1:0:0:0:
190,155,78596,1,0,1:0:0:0:
227,177,78685,5,12,1:2:0:0:
232,219,78773,1,0,1:0:0:0:
237,260,78861,1,0,1:2:0:0:
242,302,78949,1,0,1:0:0:0:
220,335,79038,6,0,P|341:306|418:321,1,180,6|0,3:2|0:0,0:0:0:0:
476,236,79302,1,0,0:0:0:0:
476,236,79390,6,0,P|455:209|479:224,1,90,14|0,0:0|0:0,0:0:0:0:
361,225,79567,2,0,P|370:176|403:139,1,90,0|0,1:0|1:0,0:0:0:0:
510,130,79743,5,6,3:2:0:0:
406,66,79920,1,0,1:0:0:0:
406,66,80008,1,0,1:0:0:0:
406,66,80096,2,0,B|448:98|457:218|364:170|351:271|401:326,1,270,6|0,3:2|0:0,0:0:0:0:
391,313,80449,5,6,3:2:0:0:
257,221,80626,1,0,0:0:0:0:
239,240,80714,1,0,0:0:0:0:
221,259,80802,2,0,P|136:242|156:172,1,144,8|0,0:0|0:0,0:0:0:0:
220,129,81155,6,0,P|220:67|204:50,1,72,2|0,3:2|0:0,0:0:0:0:
114,236,81332,2,0,P|114:298|130:315,1,72,2|0,1:2|1:0,0:0:0:0:
239,240,81508,2,0,P|274:247|308:258,1,72,10|0,0:0|0:0,0:0:0:0:
115,121,81685,2,0,P|79:113|45:102,1,72,0|2,0:0|0:0,0:0:0:0:
327,135,81861,5,6,3:2:0:0:
317,149,81949,2,0,P|401:127|475:115,1,144,2|0,1:2|0:0,0:0:0:0:
467,133,82214,2,0,B|409:96|409:96|433:-11,1,144,10|2,1:2|1:2,0:0:0:0:
243,18,82567,2,0,B|185:55|185:55|204:143,1,144,2|2,3:2|1:2,0:0:0:0:
139,302,82920,5,2,3:2:0:0:
139,302,83008,1,0,3:0:0:0:
139,302,83096,1,0,3:0:0:0:
139,302,83185,1,0,3:0:0:0:
139,302,83273,2,0,B|286:269|286:269|254:279|238:318,1,216,6|0,3:2|0:0,0:0:0:0:
314,344,83626,2,0,P|334:251|349:171,1,144,10|0,0:0|0:0,0:0:0:0:
503,102,83979,6,0,B|449:88|449:88|470:117,1,72,2|0,3:2|0:0,0:0:0:0:
262,190,84155,2,0,B|212:203|212:203|233:174,1,72,2|0,1:2|1:2,0:0:0:0:
275,70,84332,2,0,B|382:47|382:47|335:103,1,144,10|0,0:0|0:0,0:0:0:0:
360,74,84596,1,0,1:0:0:0:
360,74,84685,6,0,P|380:169|396:251,1,144,6|0,3:2|0:0,0:0:0:0:
152,74,85038,2,0,P|132:169|116:251,1,144,10|0,1:2|1:0,0:0:0:0:
317,291,85390,6,0,B|329:330|329:330|315:366,1,72,2|0,3:2|1:0,0:0:0:0:
198,360,85567,2,0,B|184:324|184:324|194:284,1,72,2|0,1:2|0:0,0:0:0:0:
256,118,85743,5,14,0:0:0:0:
256,229,85920,2,0,L|256:134,1,72,6|0,3:2|0:0,0:0:0:0:
173,45,86096,5,6,3:2:0:0:
296,26,86273,1,2,3:2:0:0:
173,45,86449,2,0,L|50:61,1,90,2|0,3:2|0:0,0:0:0:0:
345,158,86802,5,6,3:2:0:0:
177,130,86979,1,2,3:2:0:0:
345,158,87155,2,0,L|507:181,1,116.999994644165,2|0,3:2|0:0,0:0:0:0:
204,322,87508,5,6,3:2:0:0:
428,296,87685,1,2,3:2:0:0:
204,322,87861,2,0,L|9:348,1,135.000005149842,2|0,3:2|0:0,0:0:0:0:
70,340,88126,1,0,0:0:0:0:
70,340,88214,6,0,L|55:247,1,67.5000025749208,6|0,3:2|1:0,0:0:0:0:
133,239,88390,2,0,L|118:146,1,67.5000025749208,2|0,3:2|1:0,0:0:0:0:
32,148,88567,5,6,3:2:0:0:
51,115,88655,1,0,3:0:0:0:
81,92,88743,1,0,3:0:0:0:
118,85,88832,1,0,3:0:0:0:
154,90,88920,1,2,3:2:0:0:
184,111,89008,1,0,3:0:0:0:
203,142,89096,1,2,3:2:0:0:
224,173,89185,1,0,3:0:0:0:
258,186,89273,1,2,3:2:0:0:
295,181,89361,1,0,3:0:0:0:
325,159,89449,1,0,3:0:0:0:
342,125,89538,1,0,3:0:0:0:
338,87,89626,5,2,3:2:0:0:
303,100,89714,1,0,3:0:0:0:
269,116,89802,1,2,3:2:0:0:
235,131,89890,1,0,3:0:0:0:
200,147,89979,5,2,3:2:0:0:
221,154,90067,1,0,3:0:0:0:
242,161,90155,1,2,3:2:0:0:
263,168,90243,1,0,3:0:0:0:
285,175,90332,6,0,B|329:193|329:193|347:310|347:310|292:362,1,202.500007724762,6|0,3:2|0:0,0:0:0:0:
192,375,90685,6,0,B|229:359|229:359|245:258|245:258|213:228,1,168.75,2|0,0:0|0:0,0:0:0:0:
118,204,91038,6,0,B|141:213|141:213|150:274|150:274|130:293,1,101.250003862381,2|0,0:0|0:0,0:0:0:0:
45,299,91390,6,0,B|55:294|55:294|60:264|60:264|50:256,1,45,6|0,3:2|0:0,0:0:0:0:
214,114,91567,2,0,B|202:117|202:117|197:147|197:147|207:155,1,45,14|0,0:0|0:0,0:0:0:0:
36,182,91743,6,0,B|-7:136|-7:136|97:111|204:106|204:106|160:81|140:54,1,360,6|8,3:2|0:0,0:0:0:0:
132,42,92185,1,0,1:0:0:0:
124,33,92273,2,0,B|95:32|73:37|73:37|108:-15,1,90,6|0,1:2|1:2,0:0:0:0:
275,37,92449,5,6,3:2:0:0:
280,73,92538,1,0,1:0:0:0:
286,109,92626,1,0,1:2:0:0:
291,146,92714,1,0,1:0:0:0:
297,182,92802,2,0,L|310:295,3,67.5000025749208,10|0|0|0,0:0|1:0|1:2|1:0,0:0:0:0:
215,170,93155,5,2,3:2:0:0:
179,165,93244,1,0,1:0:0:0:
142,159,93332,1,0,1:2:0:0:
106,153,93420,1,0,1:0:0:0:
69,148,93508,2,0,L|-44:134,3,67.5000025749208,10|0|0|0,0:0|1:0|1:0|1:0,0:0:0:0:
199,68,93861,5,6,3:2:0:0:
223,75,93949,1,0,0:0:0:0:
243,94,94038,1,2,1:2:0:0:
249,120,94126,1,0,1:0:0:0:
245,149,94214,1,10,1:2:0:0:
227,169,94302,1,0,1:0:0:0:
202,181,94390,1,0,1:0:0:0:
173,180,94479,1,0,1:0:0:0:
150,165,94567,6,0,B|218:119|290:123|344:189|344:189|382:178|408:148|408:148|391:111|365:98,1,360,6|10,3:2|1:2,0:0:0:0:
360,93,95008,1,0,0:0:0:0:
356,85,95096,2,0,P|397:55|462:76,1,90,6|0,1:2|0:0,0:0:0:0:
492,178,95273,5,6,3:2:0:0:
473,211,95361,1,0,1:0:0:0:
445,236,95449,1,0,1:0:0:0:
410,252,95538,1,0,1:0:0:0:
371,250,95626,2,0,P|337:230|280:235,1,67.5000025749208,10|0,0:2|1:0,0:0:0:0:
284,305,95802,2,0,P|318:325|375:320,1,67.5000025749208,0|0,1:0|1:2,0:0:0:0:
349,133,95979,5,2,3:2:0:0:
311,131,96067,1,0,1:0:0:0:
274,142,96155,1,0,1:0:0:0:
242,163,96244,1,0,1:2:0:0:
220,193,96332,2,0,P|218:232|184:278,1,67.5000025749208,10|0,0:0|1:0,0:0:0:0:
122,239,96508,2,0,P|123:199|157:153,1,67.5000025749208,0|0,1:2|1:2,0:0:0:0:
186,59,96685,5,6,3:2:0:0:
186,65,96773,1,2,1:2:0:0:
187,71,96861,1,2,1:2:0:0:
186,77,96949,1,0,1:0:0:0:
187,84,97038,2,0,P|127:77|78:67,1,90,14|0,0:0|0:0,0:0:0:0:
340,217,97214,2,0,P|400:224|449:234,1,90,6|0,1:2|0:0,0:0:0:0:
373,73,97390,6,0,B|355:43|324:35|324:35|269:90|248:232|248:232|207:227|185:184,1,360,6|8,3:2|1:2,0:0:0:0:
180,176,97832,1,0,1:0:0:0:
170,171,97920,2,0,P|122:189|125:243,1,90,6|0,1:2|0:0,0:0:0:0:
240,353,98096,5,6,3:2:0:0:
272,334,98185,1,0,1:0:0:0:
290,301,98273,1,0,1:2:0:0:
298,263,98361,1,0,1:0:0:0:
283,228,98449,2,0,P|226:212|213:215,3,67.5000025749208,10|0|0|0,0:0|1:0|1:2|1:0,0:0:0:0:
113,294,98802,5,2,3:2:0:0:
80,275,98891,1,0,1:0:0:0:
62,242,98979,1,0,1:2:0:0:
54,204,99067,1,0,1:0:0:0:
63,167,99155,2,0,P|120:151|133:154,3,67.5000025749208,10|0|0|0,0:0|1:0|1:0|1:0,0:0:0:0:
207,99,99508,5,6,3:2:0:0:
225,119,99596,1,0,0:0:0:0:
232,146,99685,1,2,1:2:0:0:
225,172,99773,1,0,1:0:0:0:
207,192,99861,1,10,1:2:0:0:
186,209,99949,1,0,1:0:0:0:
174,233,100037,1,0,1:0:0:0:
177,259,100126,1,0,1:0:0:0:
186,280,100214,6,0,B|257:240|312:312|260:328|334:390|445:380|457:223|362:217,1,360,6|10,3:2|1:2,0:0:0:0:
374,213,100655,1,0,0:0:0:0:
367,207,100743,2,0,P|336:165|370:106,1,90,6|0,1:2|0:0,0:0:0:0:
465,55,100920,5,6,3:2:0:0:
431,52,101008,1,0,1:0:0:0:
397,49,101096,1,0,1:0:0:0:
363,46,101185,1,0,1:0:0:0:
329,43,101273,2,0,L|244:33,1,67.5000025749208,10|0,0:0|1:0,0:0:0:0:
181,56,101449,2,0,L|191:141,1,67.5000025749208,0|0,1:0|1:0,0:0:0:0:
235,200,101626,5,6,3:2:0:0:
236,208,101714,1,2,1:2:0:0:
236,216,101802,1,2,1:2:0:0:
236,224,101890,1,2,1:2:0:0:
237,231,101979,2,0,P|162:204|132:197,1,90,14|0,1:2|0:0,0:0:0:0:
406,299,102155,2,0,P|481:326|511:333,1,90,2|2,1:2|1:2,0:0:0:0:
236,311,102332,2,0,P|176:364|156:387,1,90,6|0,3:2|0:0,0:0:0:0:
385,207,102508,2,0,P|444:153|464:130,1,90,2|0,1:2|0:0,0:0:0:0:
320,308,102685,5,10,1:2:0:0:
314,261,102773,1,2,1:2:0:0:
308,215,102861,1,2,1:2:0:0:
302,169,102949,1,2,1:2:0:0:
292,123,103038,6,0,B|179:130|70:54|70:54|112:115|80:176,1,360,6|8,3:2|1:2,0:0:0:0:
116,247,103479,1,0,1:0:0:0:
126,267,103567,2,0,P|172:241|212:244,1,90,6|0,1:2|0:0,0:0:0:0:
314,261,103743,5,6,3:2:0:0:
314,288,103832,1,0,1:0:0:0:
305,313,103920,2,0,P|276:343|248:357,1,67.5000025749208,0|0,1:0|1:0,0:0:0:0:
347,183,104096,5,10,1:2:0:0:
370,196,104185,1,0,1:0:0:0:
387,216,104273,2,0,P|398:256|396:287,1,67.5000025749208,0|0,1:0|1:0,0:0:0:0:
293,108,104449,5,2,3:2:0:0:
316,95,104538,1,0,1:0:0:0:
342,90,104626,2,0,P|382:100|408:117,1,67.5000025749208,0|0,1:0|1:0,0:0:0:0:
202,117,104802,5,10,1:2:0:0:
202,91,104891,1,0,1:0:0:0:
211,66,104979,2,0,P|240:36|268:22,1,67.5000025749208,0|0,1:0|1:0,0:0:0:0:
165,200,105155,5,6,3:2:0:0:
136,171,105244,1,2,1:2:0:0:
120,133,105332,1,2,1:2:0:0:
118,92,105420,1,0,0:0:0:0:
124,52,105508,5,14,0:0:0:0:
105,59,105596,1,0,1:0:0:0:
95,77,105685,1,0,1:0:0:0:
88,96,105773,1,0,1:0:0:0:
83,114,105861,6,0,B|76:210|155:272|155:272|252:233|263:131,1,360,6|8,3:2|0:0,0:0:0:0:
199,57,106302,1,0,1:0:0:0:
186,70,106390,2,0,P|168:115|178:167,1,90,6|0,1:2|0:0,0:0:0:0:
352,141,106567,5,6,3:2:0:0:
352,114,106656,1,0,1:0:0:0:
343,89,106744,2,0,P|314:59|286:45,1,67.5000025749208,0|0,1:0|1:0,0:0:0:0:
385,219,106920,5,10,1:2:0:0:
408,206,107009,1,0,1:0:0:0:
425,186,107097,2,0,P|436:146|434:115,1,67.5000025749208,0|0,1:0|1:0,0:0:0:0:
331,294,107273,5,2,3:2:0:0:
354,307,107362,1,0,1:0:0:0:
380,312,107450,2,0,P|420:302|446:285,1,67.5000025749208,0|0,1:0|1:0,0:0:0:0:
246,290,107626,5,10,1:2:0:0:
246,316,107715,1,0,1:0:0:0:
255,341,107803,2,0,P|284:371|312:385,1,67.5000025749208,0|0,1:0|1:0,0:0:0:0:
297,192,107979,5,6,3:2:0:0:
273,167,108067,1,2,1:2:0:0:
239,160,108155,1,2,1:2:0:0:
206,167,108243,1,2,1:2:0:0:
176,184,108332,6,0,P|137:178|178:173,1,90,6|0,3:2|0:0,0:0:0:0:
160,35,108508,2,0,P|206:50|270:72,1,90,6|0,1:2|0:0,0:0:0:0:
246,264,108685,6,0,B|280:187|245:74|95:183|50:86|80:-4,1,360,6|8,3:2|0:0,0:0:0:0:
54,98,109126,1,0,1:0:0:0:
45,113,109214,2,0,P|30:155|19:206,1,90,6|0,1:2|0:0,0:0:0:0:
127,283,109390,5,6,3:2:0:0:
153,278,109479,1,0,1:0:0:0:
179,274,109567,2,0,L|268:260,1,67.5000025749208,0|0,1:0|1:0,0:0:0:0:
313,180,109743,5,10,1:2:0:0:
318,206,109832,1,0,1:0:0:0:
322,232,109920,2,0,L|336:321,1,67.5000025749208,0|0,1:0|1:0,0:0:0:0:
190,164,110096,5,2,3:2:0:0:
216,159,110185,1,0,1:0:0:0:
242,155,110273,2,0,L|331:141,1,67.5000025749208,0|0,1:0|1:0,0:0:0:0:
376,61,110449,5,10,1:2:0:0:
381,87,110538,1,0,1:0:0:0:
385,113,110626,2,0,L|399:202,1,67.5000025749208,0|0,1:0|1:0,0:0:0:0:
442,304,110802,5,6,3:2:0:0:
401,299,110890,1,2,1:2:0:0:
360,294,110979,1,2,1:2:0:0:
319,290,111067,1,0,0:0:0:0:
278,286,111155,5,14,0:0:0:0:
281,266,111243,1,0,1:0:0:0:
284,245,111332,1,0,1:0:0:0:
287,225,111420,1,0,1:0:0:0:
290,208,111508,6,0,B|277:167|258:158|258:158|157:159|44:201|44:201|45:151|71:124,1,360,6|8,3:2|0:0,0:0:0:0:
56,42,111949,1,0,1:0:0:0:
75,39,112038,2,0,P|131:66|147:95,1,90,6|0,1:2|0:0,0:0:0:0:
189,214,112214,5,6,3:2:0:0:
178,251,112302,1,0,1:0:0:0:
160,284,112390,1,0,1:0:0:0:
128,307,112479,1,0,1:0:0:0:
91,314,112567,2,0,P|68:283|75:235,1,90,10|0,0:0|1:0,0:0:0:0:
267,261,112743,2,0,P|294:298|286:355,1,90,0|0,1:0|1:0,0:0:0:0:
174,163,112920,5,6,3:2:0:0:
172,154,113008,1,2,1:2:0:0:
170,145,113096,1,2,1:2:0:0:
169,136,113184,1,2,1:2:0:0:
168,126,113273,2,0,P|243:153|274:134,1,90,6|0,3:2|1:0,0:0:0:0:
319,99,113449,2,0,P|363:98|398:124,1,90,6|0,1:2|0:0,0:0:0:0:
422,217,113626,5,6,3:2:0:0:
476,83,113802,1,2,1:2:0:0:
476,83,113890,1,0,1:0:0:0:
476,83,113979,2,0,B|491:109|491:109|492:128|484:146,1,67.5000025749208,6|0,3:2|1:0,0:0:0:0:
333,184,114155,2,0,B|315:216|318:239|318:239|338:276,1,99.0000030212403,6|0,1:2|1:0,0:0:0:0:
462,312,114332,6,0,P|351:294|189:274,1,229.500004377365,6|0,3:2|0:0,0:0:0:0:
234,278,114685,1,2,3:2:0:0:
85,233,114861,1,0,1:0:0:0:
72,197,114949,1,0,1:0:0:0:
75,158,115038,2,0,P|148:171|218:177,1,135.000005149842,14|2,0:0|1:2,0:0:0:0:
352,200,115390,5,2,3:2:0:0:
389,189,115478,1,0,1:0:0:0:
417,162,115566,1,0,1:0:0:0:
430,126,115654,1,0,1:0:0:0:
427,87,115743,1,6,3:2:0:0:
208,64,115920,6,0,P|180:81|146:94,1,67.5000025749208,2|0,1:2|0:0,0:0:0:0:
253,136,116096,2,0,L|243:215,1,67.5000025749208,2|0,3:2|0:0,0:0:0:0:
307,74,116273,2,0,P|335:91|441:128,1,135.000005149842,2|14,1:2|0:0,0:0:0:0:
195,56,116626,6,0,P|160:78|117:94,1,67.5000025749208,0|0,1:0|1:0,0:0:0:0:
252,147,116802,2,0,L|239:247,1,67.5000025749208,6|0,3:2|0:0,0:0:0:0:
320,69,116979,2,0,P|355:90|398:107,1,67.5000025749208,2|0,1:2|0:0,0:0:0:0:
397,282,117155,6,0,B|350:260|287:263|302:303|255:316|182:288,1,202.500007724762,6|0,3:2|0:0,0:0:0:0:
202,294,117508,1,2,3:2:0:0:
79,281,117685,1,0,1:0:0:0:
89,249,117773,1,0,1:0:0:0:
107,220,117861,2,0,L|96:69,1,135.000005149842,14|2,0:0|1:2,0:0:0:0:
337,82,118214,5,2,3:2:0:0:
351,113,118302,1,0,1:0:0:0:
351,148,118391,1,0,1:0:0:0:
341,180,118479,1,0,1:0:0:0:
323,209,118567,1,6,3:2:0:0:
205,124,118743,6,0,P|246:114|276:133,1,67.5000025749208,2|0,1:2|0:0,0:0:0:0:
415,233,118920,1,6,3:2:0:0:
415,233,119008,1,0,1:0:0:0:
415,233,119096,2,0,P|456:243|486:224,1,67.5000025749208,2|0,1:2|1:0,0:0:0:0:
437,125,119273,5,14,0:0:0:0:
246,216,119449,1,2,1:2:0:0:
436,143,119626,2,0,B|389:137|359:150|359:150|319:194|319:194|299:205|255:204,1,202.500007724762,6|0,3:2|0:0,0:0:0:0:
311,82,119979,6,0,P|345:189|376:328,1,202.500007724762,6|0,3:2|0:0,0:0:0:0:
366,276,120332,1,2,3:2:0:0:
244,342,120508,1,0,1:0:0:0:
210,339,120596,1,0,1:0:0:0:
176,335,120685,2,0,P|93:327|10:316,1,135.000005149842,14|2,0:0|1:2,0:0:0:0:
0,151,121038,1,2,3:2:0:0:
34,154,121126,1,0,1:0:0:0:
68,157,121214,1,0,1:0:0:0:
102,160,121302,1,0,1:0:0:0:
136,164,121390,1,6,3:2:0:0:
93,78,121567,6,0,P|131:66|161:27,1,67.5000025749208,2|0,1:2|0:0,0:0:0:0:
172,168,121743,2,0,P|209:172|252:174,1,67.5000025749208,2|0,3:2|0:0,0:0:0:0:
81,245,121920,2,0,P|134:271|185:334,1,135.000005149842,2|14,1:2|0:0,0:0:0:0:
293,83,122273,6,0,P|281:68|284:100,1,67.5000025749208,6|0,1:2|0:0,0:0:0:0:
178,178,122449,2,0,P|281:188|382:201,1,202.500007724762,6|0,3:2|0:0,0:0:0:0:
417,207,122802,5,6,3:2:0:0:
458,92,122979,1,0,1:0:0:0:
458,92,123068,1,0,1:0:0:0:
458,92,123156,1,2,3:2:0:0:
458,92,123244,1,0,1:0:0:0:
458,92,123332,2,0,P|419:90|379:84,1,67.5000025749208,0|0,1:0|1:0,0:0:0:0:
251,190,123508,6,0,B|258:151|308:117|308:117|315:69|269:3,1,202.500007724762,14|0,0:0|1:0,0:0:0:0:
223,81,123861,6,0,P|169:94|148:99,1,67.5000025749208,6|0,3:2|0:0,0:0:0:0:
336,204,124038,2,0,P|368:211|401:219,1,67.5000025749208,0|0,1:2|0:0,0:0:0:0:
222,283,124214,6,0,B|166:275|112:293|137:326|93:352|24:344,1,202.500007724762,6|0,3:2|1:0,0:0:0:0:
62,260,124567,5,2,3:2:0:0:
62,260,124655,1,0,1:0:0:0:
62,260,124743,1,0,1:0:0:0:
62,260,124832,1,0,1:0:0:0:
62,260,124920,2,0,L|49:85,1,135.000005149842,14|0,0:0|0:0,0:0:0:0:
153,155,125185,1,0,0:0:0:0:
153,155,125273,2,0,L|143:21,1,135.000005149842,6|0,3:2|1:0,0:0:0:0:
336,260,125626,6,0,B|412:245|417:164|417:164|469:193|488:238,1,222.75000212431,6|0,3:2|0:0,0:0:0:0:
461,329,125979,5,2,3:2:0:0:
416,335,126067,1,2,1:2:0:0:
372,341,126155,1,2,1:2:0:0:
328,348,126243,1,2,1:2:0:0:
283,354,126332,1,14,0:0:0:0:
327,187,126508,2,0,L|338:272,1,74.2500007081032,2|0,1:2|0:0,0:0:0:0:
461,329,126685,5,2,3:2:0:0:
416,335,126773,1,2,1:2:0:0:
372,341,126861,1,2,1:2:0:0:
328,348,126949,1,2,1:2:0:0:
283,354,127038,1,6,3:2:0:0:
327,187,127214,6,0,L|338:272,1,74.2500007081032,2|0,1:2|0:0,0:0:0:0:
242,274,127390,2,0,L|232:200,1,74.2500007081032,2|0,3:2|0:0,0:0:0:0:
144,212,127567,2,0,L|153:285,1,74.2500007081032,2|0,1:2|0:0,0:0:0:0:
67,295,127743,1,14,0:0:0:0:
67,295,127920,6,0,B|37:261|37:261|56:210,1,74.2500007081032,0|0,1:0|1:0,0:0:0:0:
232,200,128096,2,0,B|251:163|251:163|230:128,1,74.2500007081032,2|0,3:2|0:0,0:0:0:0:
41,124,128273,2,0,L|32:51,1,74.2500007081032,2|0,1:2|0:0,0:0:0:0:
152,81,128449,6,0,B|326:111|326:111|286:55,1,222.75000212431,6|0,3:2|1:0,0:0:0:0:
218,21,128802,5,2,3:2:0:0:
224,66,128890,1,2,1:2:0:0:
230,110,128978,1,2,1:2:0:0:
237,154,129066,1,2,1:2:0:0:
243,199,129155,1,14,0:0:0:0:
76,155,129331,2,0,L|161:144,1,74.2500007081032,2|0,1:2|0:0,0:0:0:0:
218,21,129508,5,2,3:2:0:0:
224,66,129596,1,2,1:2:0:0:
230,110,129684,1,2,1:2:0:0:
237,154,129772,1,2,1:2:0:0:
243,199,129861,1,6,3:2:0:0:
76,155,130038,6,0,L|161:144,1,74.2500007081032,2|0,1:2|0:0,0:0:0:0:
169,240,130214,1,2,3:2:0:0:
169,240,130302,1,2,1:2:0:0:
169,240,130390,2,0,L|84:251,1,74.2500007081032,2|0,1:2|0:0,0:0:0:0:
67,326,130567,6,0,P|71:354|81:331,1,74.2500007081032,14|0,0:0|0:0,0:0:0:0:
231,302,130743,2,0,B|252:288|260:275|260:275|263:261|257:241,1,74.2500007081032,2|0,1:2|0:0,0:0:0:0:
149,145,130920,2,0,P|207:201|387:202,1,222.75000212431,6|0,3:2|0:0,0:0:0:0:
402,156,131273,6,0,B|360:225|372:325|372:325|419:259,1,222.75000212431,6|0,3:2|0:0,0:0:0:0:
469,226,131626,5,2,3:2:0:0:
488,186,131714,1,2,1:2:0:0:
494,142,131802,1,2,1:2:0:0:
479,100,131890,1,2,1:2:0:0:
444,71,131979,1,14,0:0:0:0:
325,138,132155,2,0,P|332:200|349:214,1,74.2500007081032,2|0,1:2|0:0,0:0:0:0:
469,226,132332,5,2,1:2:0:0:
488,186,132420,1,2,1:2:0:0:
494,142,132508,1,2,1:2:0:0:
479,100,132596,1,2,1:2:0:0:
444,71,132685,1,6,3:2:0:0:
325,138,132861,6,0,P|332:200|349:214,1,74.2500007081032,2|0,1:2|0:0,0:0:0:0:
386,297,133038,2,0,L|283:279,1,74.2500007081032,2|0,3:2|0:0,0:0:0:0:
243,162,133214,2,0,L|140:180,1,74.2500007081032,2|0,1:2|0:0,0:0:0:0:
237,309,133390,1,14,0:0:0:0:
325,138,133567,6,0,P|332:200|349:214,1,74.2500007081032,2|0,1:2|0:0,0:0:0:0:
387,297,133743,2,0,B|214:268|214:268|250:331,1,222.75000212431,6|0,3:2|1:0,0:0:0:0:
304,369,134096,6,0,L|318:288,3,74.2500007081032,6|0|0|0,3:2|0:0|1:0|1:0,0:0:0:0:
145,315,134449,2,0,L|131:234,3,74.2500007081032,2|0|2|0,1:2|1:0|1:2|1:0,0:0:0:0:
302,277,134802,2,0,L|331:98,1,148.500001416206,14|0,0:0|1:0,0:0:0:0:
325,130,135067,1,0,1:0:0:0:
325,130,135155,1,2,3:2:0:0:
412,218,135332,1,2,1:2:0:0:
186,85,135508,5,6,3:2:0:0:
270,66,135685,1,0,1:0:0:0:
353,48,135861,1,0,1:0:0:0:
228,197,136038,1,2,1:2:0:0:
227,197,136126,1,0,1:0:0:0:
228,197,136214,1,2,1:2:0:0:
228,197,136302,1,0,1:0:0:0:
228,197,136390,1,6,1:2:0:0:
122,23,136567,5,6,0:0:0:0:
122,23,136920,6,0,P|153:67|139:128,1,107.999996704102,6|2,3:2|0:0,0:0:0:0:
37,245,137273,2,0,P|85:226|152:212,1,107.999996704102,2|0,1:2|0:0,0:0:0:0:
228,196,137626,1,10,0:0:0:0:
20,125,137802,2,0,L|28:71,3,35.9999989013672,0|0|0|2,0:0|1:0|1:0|1:2,0:0:0:0:
110,117,138155,1,2,1:2:0:0:
177,291,138332,6,0,P|260:291|318:153,1,215.999993408203,6|2,3:2|1:2,0:0:0:0:
411,142,138861,1,2,3:2:0:0:
349,37,139038,6,0,L|339:101,1,53.9999983520508,10|2,0:0|1:2,0:0:0:0:
493,98,139214,1,2,1:2:0:0:
493,98,139302,1,2,1:2:0:0:
493,98,139390,2,0,L|503:162,1,53.9999983520508,2|0,1:2|0:0,0:0:0:0:
316,240,139567,2,0,L|325:187,1,53.9999983520508,2|0,1:2|0:0,0:0:0:0:
340,90,139743,5,6,3:2:0:0:
497,224,139920,2,0,L|504:277,2,53.9999983520508,2|2|2,1:2|1:2|1:2,0:0:0:0:
404,272,140273,1,2,1:2:0:0:
421,163,140449,2,0,P|317:147|213:131,1,161.999995056153,14|0,0:0|0:0,0:0:0:0:
250,141,140802,2,0,P|222:74|260:49,1,107.999996704102,2|0,3:2|0:0,0:0:0:0:
368,266,141155,6,0,P|331:247|296:255,1,53.9999983520508,6|2,3:2|0:0,0:0:0:0:
184,283,141332,1,0,0:0:0:0:
184,283,141420,1,2,0:0:0:0:
184,283,141508,2,0,P|221:302|256:294,1,53.9999983520508,2|2,1:2|0:2,0:0:0:0:
376,174,141685,1,2,3:2:0:0:
313,332,141861,5,10,0:0:0:0:
242,210,142038,1,2,1:2:0:0:
216,217,142126,1,2,1:2:0:0:
190,224,142214,1,2,1:2:0:0:
164,231,142302,1,2,1:2:0:0:
138,239,142390,1,2,1:2:0:0:
112,246,142479,1,2,1:2:0:0:
83,253,142567,6,0,B|109:199|99:126|56:172|34:107|59:49,1,215.999993408203,6|2,3:2|1:2,0:0:0:0:
137,88,143096,1,0,0:0:0:0:
7,213,143273,1,10,0:0:0:0:
185,271,143449,2,0,P|204:280|234:287,3,35.9999989013672,0|0|0|2,0:0|1:0|1:0|1:2,0:0:0:0:
122,186,143802,1,2,1:2:0:0:
198,363,143979,6,0,P|238:309|350:313,1,161.999995056153,6|0,3:2|0:0,0:0:0:0:
335,309,144332,2,0,P|346:246|359:192,1,107.999996704102,2|2,1:2|3:2,0:0:0:0:
472,99,144685,5,10,0:0:0:0:
445,96,144773,1,2,1:2:0:0:
417,92,144861,1,0,1:2:0:0:
391,90,144949,1,2,1:2:0:0:
364,86,145037,1,2,1:2:0:0:
337,83,145126,1,0,1:2:0:0:
310,79,145214,1,2,1:2:0:0:
283,76,145302,1,0,1:2:0:0:
256,73,145390,6,0,P|265:165|274:323,1,215.999993408203,6|0,3:2|0:0,0:0:0:0:
308,376,145920,1,0,0:0:0:0:
194,282,146096,1,10,0:0:0:0:
355,231,146273,2,0,P|361:195|362:178,3,35.9999989013672,0|0|0|0,0:0|1:0|1:0|1:0,0:0:0:0:
273,289,146626,1,0,0:0:0:0:
437,227,146802,6,0,P|322:199|230:172,1,161.999995056153,6|0,3:2|0:0,0:0:0:0:
194,198,147155,2,0,P|206:152|224:139,1,53.9999983520508,2|0,1:2|0:0,0:0:0:0:
80,43,147332,2,0,P|65:65|64:92,1,53.9999983520508,2|0,3:2|0:0,0:0:0:0:
232,74,147508,5,14,0:0:0:0:
66,174,147685,2,0,P|37:166|14:164,3,53.9999983520508,2|2|2|2,0:0|0:0|0:0|0:0,0:0:0:0:
284,351,148214,6,0,P|339:345|357:281,1,121.500000463486,6|2,3:2|1:2,0:0:0:0:
497,151,148567,2,0,P|493:108|413:83,1,121.500000463486,0|2,3:0|1:2,0:0:0:0:
372,136,148832,1,0,0:0:0:0:
372,136,148920,6,0,P|288:127|211:115,1,121.500000463486,14|2,0:0|0:0,0:0:0:0:
163,59,149185,2,0,P|171:119|177:179,1,121.500000463486,0|2,3:0|1:2,0:0:0:0:
285,221,149449,1,2,3:2:0:0:
285,221,149538,1,0,0:0:0:0:
285,221,149626,2,0,P|291:281|299:341,1,121.500000463486,6|2,3:2|1:2,0:0:0:0:
19,231,149979,6,0,P|69:240|99:249,1,60.7500002317429,0|0,3:0|0:0,0:0:0:0:
186,337,150155,2,0,P|156:329|126:325,1,60.7500002317429,2|0,1:2|0:0,0:0:0:0:
80,226,150332,2,0,P|141:241|212:245,1,121.500000463486,14|0,0:0|0:0,0:0:0:0:
207,251,150596,1,2,3:2:0:0:
207,251,150685,2,0,P|225:220|218:183,1,60.7500002317429,0|0,1:0|3:0,0:0:0:0:
178,100,150861,1,2,3:2:0:0:
178,100,150949,1,0,3:0:0:0:
178,100,151038,2,0,P|236:114|297:119,1,121.500000463486,6|0,3:2|1:0,0:0:0:0:
479,285,151390,6,0,P|489:237|479:219,1,60.7500002317429,0|0,3:0|0:0,0:0:0:0:
327,211,151567,2,0,P|317:259|327:277,1,60.7500002317429,2|0,1:2|0:0,0:0:0:0:
402,250,151743,1,14,0:0:0:0:
414,171,151920,1,2,0:0:0:0:
414,171,152008,1,0,3:0:0:0:
414,171,152096,1,0,1:0:0:0:
418,82,152273,1,2,3:2:0:0:
238,142,152449,5,6,3:2:0:0:
241,132,152538,2,0,L|251:47,1,60.7500002317429,0|0,3:0|0:0,0:0:0:0:
272,231,152714,1,2,3:2:0:0:
282,236,152803,2,0,L|350:287,1,60.7500002317429,0|0,3:0|0:0,0:0:0:0:
179,209,152979,1,2,3:2:0:0:
169,212,153067,1,0,3:0:0:0:
157,216,153155,2,0,L|107:235,6,30.3750001158714,2|0|2|0|2|0|0,3:2|3:0|3:2|3:0|3:2|0:0|3:0,0:0:0:0:
146,129,153508,2,0,P|65:154|22:165,1,121.500000463486,6|2,3:2|3:2,0:0:0:0:
338,188,153861,6,0,P|387:172|422:164,3,65.250001991272,6|0|2|0,3:2|1:0|1:2|0:0,0:0:0:0:
462,285,154214,1,2,3:2:0:0:
466,272,154302,1,2,1:2:0:0:
468,259,154390,1,2,1:2:0:0:
471,246,154479,1,2,1:2:0:0:
474,233,154567,6,0,P|487:131|505:54,1,130.500003982544,14|0,0:0|0:0,0:0:0:0:
326,83,154832,2,0,P|313:185|295:262,1,130.500003982544,0|0,3:0|0:0,0:0:0:0:
389,285,155096,1,0,3:0:0:0:
389,285,155185,1,0,3:0:0:0:
389,285,155273,1,6,3:2:0:0:
405,153,155449,6,0,P|411:106|418:85,2,65.250001991272,0|0|2,1:0|1:0|3:2,0:0:0:0:
233,227,155802,2,0,P|197:214|168:218,1,65.250001991272,2|0,3:2|1:0,0:0:0:0:
106,279,155979,6,0,P|47:244|45:175,1,130.500003982544,14|0,0:0|0:0,0:0:0:0:
112,50,156243,2,0,P|171:85|173:154,1,130.500003982544,2|0,3:2|0:0,0:0:0:0:
31,170,156508,2,0,P|84:160|114:151,1,65.250001991272,2|0,3:2|0:0,0:0:0:0:
272,120,156685,5,6,3:2:0:0:
258,232,156861,1,2,3:2:0:0:
246,334,157038,1,0,3:0:0:0:
354,192,157214,5,0,3:0:0:0:
354,192,157302,1,0,3:0:0:0:
354,192,157390,2,0,P|388:164|393:243,1,130.500003982544,14|2,0:0|1:2,0:0:0:0:
473,295,157655,1,0,3:0:0:0:
473,295,157743,2,0,P|443:310|411:307,1,65.250001991272,0|0,1:0|0:0,0:0:0:0:
202,187,157920,2,0,P|232:172|264:175,1,65.250001991272,2|0,1:2|0:0,0:0:0:0:
313,335,158096,6,0,P|243:347|173:365,1,144,6|0,3:2|0:0,0:0:0:0:
153,281,158361,2,0,P|224:268|294:250,1,144,2|0,3:2|0:0,0:0:0:0:
355,191,158626,2,0,P|376:144|363:102,1,72,6|0,3:2|0:0,0:0:0:0:
243,65,158802,1,0,1:0:0:0:
233,76,158890,1,0,1:0:0:0:
226,88,158979,1,0,1:0:0:0:
223,102,159067,1,0,1:0:0:0:
222,112,159155,6,0,P|262:99|295:132,1,90,6|0,1:2|0:0,0:0:0:0:
460,301,159332,2,0,P|420:314|374:264,1,99.0000030212403,6|0,1:2|0:0,0:0:0:0:
276,333,159508,6,0,P|341:86|367:3,1,297.000009063721,6|0,3:2|0:0,0:0:0:0:
426,121,159861,2,0,P|179:56|96:29,1,297.000009063721,6|0,3:2|0:0,0:0:0:0:
97,116,160214,6,0,P|102:242|192:286,1,198.000006042481,6|0,3:2|0:0,0:0:0:0:
208,154,160479,1,6,3:2:0:0:
208,154,160567,2,0,P|171:173|216:163,1,99.0000030212403,2|0,0:0|0:0,0:0:0:0:
300,308,160743,2,0,P|302:259|282:303,1,99.0000030212403,2|0,3:2|0:0,0:0:0:0:
435,181,160920,1,6,3:2:0:0:
437,216,161008,1,2,3:2:0:0:
403,229,161096,1,2,3:2:0:0:
381,200,161185,1,2,3:2:0:0:
401,170,161273,1,6,3:2:0:0:
408,355,161626,6,0,P|248:244|217:254,1,198.000006042481,6|0,3:2|0:0,0:0:0:0:
205,315,161890,2,0,P|164:126|152:36,1,198.000006042481,6|0,3:2|0:0,0:0:0:0:
252,70,162155,2,0,P|258:76|233:172,1,99.0000030212403,6|6,3:2|3:2,0:0:0:0:
38,280,162332,6,0,P|15:235|64:286,1,198.000006042481,6|0,3:2|0:0,0:0:0:0:
107,245,162685,2,0,P|220:271|271:285,1,99.0000030212403,6|0,3:2|0:0,0:0:0:0:
299,308,162861,5,6,3:2:0:0:
299,308,162949,1,2,3:2:0:0:
299,308,163038,2,0,B|278:255|298:201|334:224|357:159|323:97,1,198.000006042481,6|0,3:2|0:0,0:0:0:0:
417,237,163302,2,0,P|290:202|173:174,1,198.000006042481,6|0,3:2|0:0,0:0:0:0:
147,160,163567,2,0,P|178:115|261:122,1,99.0000030212403,6|0,3:2|0:0,0:0:0:0:
426,101,163743,5,6,3:2:0:0:
341,129,163920,1,0,1:0:0:0:
341,129,164008,1,0,1:0:0:0:
341,129,164096,2,0,B|327:99|328:78|328:78|334:62|365:41,1,99.0000030212403,6|0,3:2|0:0,0:0:0:0:
509,81,164273,2,0,B|524:108|523:129|523:129|517:145|486:166,1,99.0000030212403,6|6,3:2|3:2,0:0:0:0:
406,214,164449,2,0,P|430:77|448:-12,1,198.000006042481,6|2,3:2|1:2,0:0:0:0:
127,72,164802,6,0,P|179:70|196:120,1,99.0000030212403,6|0,1:2|0:0,0:0:0:0:
170,181,164979,2,0,P|117:182|100:132,1,99.0000030212403,6|0,1:2|0:0,0:0:0:0:
267,42,165155,6,0,P|274:178|102:288,1,297.000009063721,6|0,3:2|0:0,0:0:0:0:
17,253,165508,2,0,P|183:280|349:311,1,297.000009063721,6|0,3:2|0:0,0:0:0:0:
362,368,165861,6,0,P|440:274|379:192,1,198.000006042481,6|0,3:2|0:0,0:0:0:0:
338,222,166126,2,0,P|318:129|391:70,1,198.000006042481,6|2,3:2|0:0,0:0:0:0:
484,53,166390,1,2,3:2:0:0:
484,53,166479,1,2,3:2:0:0:
484,53,166567,6,0,P|405:42|356:34,1,99.0000030212403,6|0,3:2|0:0,0:0:0:0:
208,108,166743,2,0,P|263:116|319:124,1,99.0000030212403,6|0,3:2|0:0,0:0:0:0:
435,188,166920,2,0,P|469:194|492:198,6,49.5000015106202,6|0|0|0|0|0|2,3:2|0:0|0:0|0:0|0:0|0:0|0:0,0:0:0:0:
385,259,167273,5,6,3:2:0:0:
314,129,167449,1,2,3:2:0:0:
314,129,167538,1,6,3:2:0:0:
314,129,167626,1,6,1:2:0:0:
407,100,167802,1,6,1:2:0:0:
244,232,167979,5,14,0:0:0:0:
275,22,168155,1,10,1:2:0:0:
96,210,168685,5,14,0:0:0:0:
396,248,168861,2,0,L|435:252,2,22.5,10|0|0,0:0|0:0|0:0,0:0:0:0:
404,163,169214,1,2,0:0:0:0:
396,248,169390,6,0,L|384:348,1,90,2|0,0:2|0:0,0:0:0:0:
256,192,169832,12,0,170714,0:0:0:0:
237,241,170802,6,0,P|136:226|115:224,1,90,6|0,3:2|0:0,0:0:0:0:
148,227,171067,1,0,0:0:0:0:
148,227,171155,1,8,1:2:0:0:
211,156,171332,2,0,L|199:104,4,45,0|8|0|0|0,0:0|1:2|0:0|1:0|1:0,0:0:0:0:
292,318,171861,2,0,P|367:302|485:285,1,180,8|0,1:2|1:0,0:0:0:0:
390,207,172390,1,0,1:0:0:0:
468,176,172567,6,0,P|482:123|492:7,2,135,8|8|8,1:2|1:2|1:2,0:0:0:0:
335,61,173273,1,8,1:2:0:0:
335,61,173361,2,0,L|278:66,1,45,8|0,1:2|0:0,0:0:0:0:
123,146,173538,1,8,1:2:0:0:
123,146,173626,6,0,B|175:113|225:125|225:125|266:165|311:149,1,202.500007724762,6|0,3:2|1:0,0:0:0:0:
311,148,173979,1,8,1:2:0:0:
264,342,174155,2,0,L|273:279,1,45,0|0,1:0|1:0,0:0:0:0:
202,242,174332,1,0,0:0:0:0:
202,237,174420,1,0,1:0:0:0:
203,232,174508,1,0,1:0:0:0:
203,227,174596,1,0,1:0:0:0:
204,222,174685,2,0,P|142:243|30:268,1,180,8|0,1:2|1:0,0:0:0:0:
258,81,175214,6,0,P|266:115|267:137,1,45,0|0,1:0|1:0,0:0:0:0:
176,121,175390,2,0,P|264:139|349:166,1,180,8|0,1:2|1:0,0:0:0:0:
435,109,175920,1,8,1:2:0:0:
464,231,176096,1,8,1:2:0:0:
464,231,176185,2,0,P|420:242|402:252,1,45,8|0,1:2|0:0,0:0:0:0:
290,317,176361,1,8,1:2:0:0:
290,317,176449,6,0,B|312:257|297:207|262:233|250:186|267:126,1,202.500007724762,6|0,3:2|1:0,0:0:0:0:
267,125,176802,2,0,P|211:142|162:156,1,90,8|0,1:2|0:0,0:0:0:0:
49,188,177155,1,0,1:0:0:0:
49,188,177243,2,0,P|81:225|77:286,1,90,8|0,1:2|0:0,0:0:0:0:
84,264,177508,2,0,P|92:186|111:64,1,180,8|0,1:2|1:0,0:0:0:0:
203,43,178038,1,0,0:0:0:0:
208,164,178214,6,0,P|259:126|344:125,2,135,8|0|0,1:2|1:0|1:0,0:0:0:0:
270,328,178920,1,8,1:2:0:0:
270,328,179008,2,0,P|307:322|321:305,1,45,8|0,1:2|0:0,0:0:0:0:
290,232,179185,1,8,1:2:0:0:
290,232,179273,6,0,B|228:235|200:258|200:258|194:276|194:276|167:310|111:310,1,202.500007724762,6|0,3:2|1:0,0:0:0:0:
115,310,179626,1,8,1:2:0:0:
87,184,179802,2,0,P|110:214|128:257,4,45,0|8|0|8|0,0:0|1:2|0:0|1:2|1:0,0:0:0:0:
209,70,180332,2,0,P|201:114|194:158,1,90,8|0,1:2|1:0,0:0:0:0:
413,249,180685,6,0,P|437:224|403:230,8,90,2|0|2|0|2|0|2|0|2,0:0|0:0|0:0|0:0|0:0|0:0|0:0|0:0|0:0,0:0:0:0:
327,254,181567,6,0,P|301:256|265:263,1,45,0|2,1:0|0:0,0:0:0:0:
351,166,181743,2,0,P|345:124|342:108,1,45,0|2,1:0|0:0,0:0:0:0:
378,323,181920,2,0,P|384:365|387:381,1,45,0|0,1:0|1:0,0:0:0:0:
273,381,182096,6,0,B|348:245|494:274|494:274|479:343,1,337.5,6|0,3:2|0:0,0:0:0:0:
478,343,182449,6,0,P|509:289|407:153,1,225,8|6,1:2|1:2,0:0:0:0:
308,139,182802,5,6,3:2:0:0:
315,92,182890,1,0,1:0:0:0:
323,46,182978,1,0,1:0:0:0:
331,0,183066,1,0,1:2:0:0:
283,9,183155,5,10,1:2:0:0:
276,45,183243,1,0,1:0:0:0:
270,81,183331,1,0,1:0:0:0:
264,118,183419,1,0,1:2:0:0:
222,97,183508,5,2,3:2:0:0:
226,71,183596,1,0,1:0:0:0:
230,46,183684,1,0,1:2:0:0:
236,22,183772,1,0,1:2:0:0:
188,26,183861,6,0,L|174:111,3,53.9999983520508,10|0|0|0,1:2|1:0|1:0|1:2,0:0:0:0:
116,151,184214,5,6,3:2:0:0:
150,156,184302,1,0,0:0:0:0:
120,147,184390,1,2,1:2:0:0:
146,159,184478,1,0,1:0:0:0:
124,146,184567,1,10,1:2:0:0:
142,160,184655,1,0,1:0:0:0:
128,146,184743,1,0,1:0:0:0:
138,160,184831,1,0,1:0:0:0:
133,156,184920,6,0,B|105:256|162:228|130:339,1,180,6|0,3:2|1:0,0:0:0:0:
127,342,185185,1,0,1:0:0:0:
122,349,185273,2,0,B|76:332|76:332|211:318,1,135.000005149842,10|6,1:2|1:2,0:0:0:0:
312,379,185626,5,6,3:2:0:0:
358,368,185714,1,0,1:0:0:0:
404,359,185802,1,0,1:2:0:0:
450,350,185890,1,0,1:0:0:0:
424,309,185979,5,10,1:2:0:0:
388,315,186067,1,0,1:0:0:0:
352,322,186155,1,0,1:2:0:0:
315,330,186243,1,0,1:0:0:0:
357,348,186332,5,6,3:2:0:0:
352,322,186420,1,2,1:2:0:0:
346,298,186508,1,2,1:2:0:0:
343,273,186596,1,2,1:2:0:0:
307,297,186685,6,0,L|316:337,2,33.7500012874604,14|0|0,0:0|0:0|0:0,0:0:0:0:
388,200,186861,1,2,1:2:0:0:
388,200,186949,1,2,1:2:0:0:
388,200,187038,6,0,L|428:209,2,33.7500012874604,2|0|0,3:2|0:0|1:0,0:0:0:0:
325,86,187214,1,2,1:2:0:0:
325,86,187302,1,0,1:0:0:0:
325,86,187391,6,0,L|367:18,1,67.5000025749208,14|2,0:0|1:2,0:0:0:0:
437,73,187567,1,6,1:2:0:0:
280,153,187743,6,0,B|530:105|530:105|500:59|437:74,1,360,6|8,3:2|1:2,0:0:0:0:
429,79,188185,1,0,1:0:0:0:
421,83,188273,2,0,P|385:150|414:221,1,90,6|0,1:2|1:0,0:0:0:0:
328,232,188449,5,6,3:2:0:0:
338,275,188537,1,0,1:0:0:0:
364,312,188625,1,0,1:0:0:0:
401,335,188713,1,0,1:2:0:0:
400,346,188802,6,0,L|461:337,3,45,10|0|0|0,1:2|1:0|1:0|1:2,0:0:0:0:
417,235,189155,5,2,3:2:0:0:
450,227,189243,1,0,1:0:0:0:
478,208,189331,1,0,1:0:0:0:
495,180,189419,1,0,1:2:0:0:
504,180,189508,6,0,L|497:133,3,45,10|0|0|0,1:2|1:0|1:0|1:2,0:0:0:0:
461,49,189861,5,6,3:2:0:0:
495,54,189949,1,0,0:0:0:0:
465,45,190037,1,2,1:2:0:0:
491,57,190125,1,0,1:0:0:0:
469,44,190214,1,10,1:2:0:0:
487,58,190302,1,0,1:0:0:0:
473,44,190390,1,0,1:0:0:0:
483,58,190478,1,0,1:0:0:0:
467,63,190567,6,0,B|324:79|384:-19|192:22,1,270,6|0,3:2|1:0,0:0:0:0:
200,22,190920,2,0,P|266:87|232:190,1,180,10|6,1:2|1:2,0:0:0:0:
157,264,191273,5,6,3:2:0:0:
161,241,191361,1,0,1:0:0:0:
165,219,191449,1,0,1:0:0:0:
169,197,191537,1,0,1:0:0:0:
127,206,191626,5,10,0:0:0:0:
131,184,191714,1,0,1:0:0:0:
135,162,191802,1,0,1:0:0:0:
139,140,191890,1,0,1:0:0:0:
101,137,191979,6,0,P|121:77|91:15,1,90,6|0,3:2|1:0,0:0:0:0:
0,171,192155,6,0,P|11:196|11:163,1,90,2|0,1:2|1:0,0:0:0:0:
117,45,192332,6,0,L|222:67,1,90,14|0,1:2|0:0,0:0:0:0:
278,7,192508,6,0,B|290:40|290:40|313:32|313:32|294:-27,1,90,0|0,1:0|1:0,0:0:0:0:
273,121,192685,5,6,3:2:0:0:
317,127,192773,1,0,1:0:0:0:
361,134,192861,1,2,1:2:0:0:
406,141,192949,1,0,0:0:0:0:
450,148,193038,2,0,P|468:218|380:210,1,180,10|6,1:2|1:2,0:0:0:0:
400,330,193390,6,0,B|439:266|439:266|219:361,1,270,6|0,3:2|1:0,0:0:0:0:
248,349,193743,2,0,B|118:203|118:203|126:277,1,270,10|0,1:2|0:0,0:0:0:0:
47,286,194097,5,6,3:2:0:0:
44,263,194185,1,0,1:0:0:0:
42,239,194273,2,0,L|35:177,1,45,0|0,1:0|1:0,0:0:0:0:
109,99,194449,5,10,1:2:0:0:
111,121,194537,1,0,1:0:0:0:
114,146,194625,2,0,L|121:208,1,45,0|0,1:0|1:0,0:0:0:0:
171,307,194802,6,0,B|124:221|124:221|112:325,1,202.500007724762,2|0,3:2|1:0,0:0:0:0:
50,50,195155,6,0,B|97:136|97:136|109:32,1,202.500007724762,10|0,1:2|1:0,0:0:0:0:
190,12,195508,5,6,3:2:0:0:
224,17,195596,1,2,1:2:0:0:
194,8,195684,1,2,1:2:0:0:
220,20,195772,1,2,1:2:0:0:
208,14,195861,6,0,P|248:17|304:46,1,67.5000025749208,14|0,0:0|1:0,0:0:0:0:
364,18,196038,2,0,P|381:54|384:117,1,67.5000025749208,0|0,1:0|1:0,0:0:0:0:
501,106,196214,6,0,P|344:124|251:229,1,270.000010299683,6|0,3:2|1:0,0:0:0:0:
264,208,196567,2,0,L|466:255,1,180,10|6,1:2|1:2,0:0:0:0:
512,357,196920,5,2,3:2:0:0:
489,351,197008,1,0,1:2:0:0:
465,347,197096,2,0,L|358:323,1,67.5000025749208,0|0,1:0|1:0,0:0:0:0:
277,302,197273,5,10,1:2:0:0:
254,296,197361,1,0,1:2:0:0:
230,292,197449,2,0,L|123:268,1,67.5000025749208,2|0,1:2|1:0,0:0:0:0:
86,279,197626,6,0,P|74:302|89:284,1,67.5000025749208,6|0,3:2|1:0,0:0:0:0:
263,384,197802,2,0,P|275:361|260:379,1,67.5000025749208,2|0,1:2|1:0,0:0:0:0:
131,369,197979,5,14,1:2:0:0:
158,334,198067,1,2,1:2:0:0:
169,290,198155,1,2,1:2:0:0:
160,246,198243,1,2,1:2:0:0:
134,210,198332,6,0,L|120:112,1,90,6|2,3:2|1:2,0:0:0:0:
198,5,198508,2,0,L|210:94,1,90,2|2,1:2|1:2,0:0:0:0:
48,65,198685,6,0,B|125:90|125:90|136:163|136:163|273:202,1,270,14|0,1:2|0:0,0:0:0:0:
392,193,199038,6,0,B|331:195|289:254|302:325|302:325|343:238|411:223,1,270,6|0,3:2|0:0,0:0:0:0:
358,253,199390,2,0,P|364:328|490:370,1,180,10|6,0:0|1:2,0:0:0:0:
465,98,199743,5,6,3:2:0:0:
468,121,199831,1,0,1:0:0:0:
470,145,199919,2,0,L|477:207,1,45,0|0,1:0|1:0,0:0:0:0:
403,285,200095,5,10,1:2:0:0:
401,263,200185,1,0,1:0:0:0:
398,238,200273,2,0,L|391:176,1,45,0|0,1:0|1:0,0:0:0:0:
341,77,200449,6,0,B|388:163|388:163|400:59,1,202.500007724762,6|0,3:2|1:0,0:0:0:0:
462,334,200802,6,0,B|415:248|415:248|403:352,1,202.500007724762,10|0,1:2|1:0,0:0:0:0:
322,372,201155,5,6,3:2:0:0:
288,367,201243,1,2,1:2:0:0:
318,376,201332,1,2,1:2:0:0:
292,364,201420,1,2,1:2:0:0:
304,370,201507,6,0,P|264:367|208:338,1,67.5000025749208,10|0,1:2|1:0,0:0:0:0:
148,366,201684,2,0,P|130:329|127:266,1,67.5000025749208,0|0,1:0|1:0,0:0:0:0:
11,278,201861,6,0,P|168:260|259:139,1,270.000010299683,6|10,3:2|1:2,0:0:0:0:
246,176,202302,1,0,0:0:0:0:
242,165,202390,2,0,P|191:131|121:130,1,67.5000025749208,6|0,1:2|0:0,0:0:0:0:
191,0,202567,5,6,3:2:0:0:
210,33,202655,1,0,1:0:0:0:
238,58,202743,1,0,1:0:0:0:
273,74,202832,1,0,1:0:0:0:
312,72,202920,2,0,P|346:52|403:57,3,67.5000025749208,10|0|0|0,1:2|1:0|1:0|1:0,0:0:0:0:
345,160,203273,6,0,L|322:296,2,120,6|0|0,3:2|1:0|1:0,0:0:0:0:
427,192,203626,6,0,L|404:328,2,90.0000034332277,10|0|0,0:0|1:0|1:0,0:0:0:0:
509,217,203979,5,0,3:0:0:0:
503,244,204096,5,0,1:0:0:0:
498,272,204214,5,0,1:0:0:0:
483,361,204332,6,0,L|394:376,2,90.0000034332277,10|2|2,0:0|3:2|3:2,0:0:0:0:
497,274,204685,5,6,3:2:0:0:
276,317,204920,1,0,0:0:0:0:
255,362,205038,5,14,1:2:0:0:
137,291,205273,1,0,1:0:0:0:
93,315,205390,5,2,3:2:0:0:
42,194,205626,1,0,0:0:0:0:
0,186,205743,6,0,L|160:213,1,90.0000034332277,14|0,1:2|0:0,0:0:0:0:
88,200,206096,5,2,3:2:0:0:
117,65,206332,1,0,1:0:0:0:
158,83,206449,5,14,1:2:0:0:
286,8,206685,1,0,1:0:0:0:
294,53,206802,6,0,L|336:355,1,240,6|0,3:2|0:0,0:0:0:0:
328,300,207155,2,0,P|284:287|240:290,2,90.0000034332277,14|2|2,1:2|1:2|1:2,0:0:0:0:
445,279,207508,5,6,3:2:0:0:
197,384,207743,1,0,1:0:0:0:
244,371,207861,5,14,1:2:0:0:
290,204,208096,1,0,1:0:0:0:
243,191,208214,5,2,3:2:0:0:
190,42,208449,1,0,0:0:0:0:
237,29,208567,5,14,1:2:0:0:
167,162,208802,1,0,1:0:0:0:
154,115,208920,5,2,3:2:0:0:
277,251,209155,1,0,1:0:0:0:
290,204,209273,5,14,0:0:0:0:
147,363,209508,1,0,1:0:0:0:
134,316,209626,6,0,P|86:302|23:303,2,90.0000034332277,6|2|0,3:2|1:2|1:0,0:0:0:0:
206,350,209979,2,0,B|311:358|274:300|421:322,1,180.000006866455,14|2,3:2|1:2,0:0:0:0:
390,318,210273,1,2,1:2:0:0:
399,321,210332,6,0,B|453:372|453:372|415:229,1,180.000006866455,6|0,3:2|0:0,0:0:0:0:
439,188,210685,2,0,L|450:145,2,33.0000010070801,10|0|0,1:2|0:0|1:0,0:0:0:0:
363,214,211038,6,0,B|273:213|273:213|375:180,1,180.000006866455,6|0,3:2|0:0,0:0:0:0:
439,188,211390,1,10,1:2:0:0:
309,80,211626,1,0,1:2:0:0:
342,42,211743,6,0,B|323:-4|323:-4|281:151,1,180.000006866455,6|0,3:2|1:0,0:0:0:0:
226,55,212096,2,0,L|237:12,2,33.0000010070801,10|0|0,1:2|1:0|1:0,0:0:0:0:
207,130,212449,6,0,B|215:158|215:158|188:278|188:278|199:311,1,180.000006866455,6|0,3:2|0:0,0:0:0:0:
160,377,212802,2,0,P|228:382|278:331,1,120,10|0,1:2|1:0,0:0:0:0:
267,351,213155,6,0,P|275:266|205:217,1,180.000006866455,6|0,3:2|0:0,0:0:0:0:
256,148,213508,2,0,P|277:156|305:174,2,45.0000017166138,10|0|0,1:2|1:0|1:0,0:0:0:0:
293,260,213861,6,0,L|500:220,1,180.000006866455,6|0,3:2|0:0,0:0:0:0:
478,224,214214,1,10,1:2:0:0:
382,336,214449,1,0,1:0:0:0:
425,350,214567,6,0,P|359:376|365:294,1,180.000006866455,6|0,3:2|1:0,0:0:0:0:
336,208,214920,6,0,P|274:195|290:256,1,150,10|0,1:2|1:0,0:0:0:0:
389,87,215273,6,0,P|379:136|427:123,1,120,2|0,3:2|1:0,0:0:0:0:
458,48,215626,6,0,L|448:-3,2,45.0000017166138,14|0|0,1:2|0:0|1:0,0:0:0:0:
507,110,215979,6,0,B|401:115|430:48|313:67,1,180.000006866455,6|0,3:2|1:0,0:0:0:0:
254,63,216332,2,0,B|216:38|216:38|286:31,1,90.0000034332277,2|0,3:2|1:0,0:0:0:0:
152,90,216567,1,0,1:0:0:0:
187,117,216685,6,0,B|71:137|71:137|33:186,1,180.000006866455,14|0,1:2|1:0,0:0:0:0:
56,58,217038,2,0,B|76:174|76:174|126:212,1,180.000006866455,2|0,3:2|1:0,0:0:0:0:
57,265,217390,6,0,B|153:226|153:226|97:278,1,180.000006866455,6|0,3:2|1:0,0:0:0:0:
39,381,217743,2,0,L|52:339,2,33.0000010070801,2|0|0,3:2|0:0|0:0,0:0:0:0:
169,334,218096,5,14,1:2:0:0:
169,334,218214,2,0,P|213:373|272:371,1,90.0000034332277,2|0,1:2|1:0,0:0:0:0:
241,293,218449,2,0,P|210:165|234:124,1,180.000006866455,2|2,3:2|1:2,0:0:0:0:
227,44,218802,6,0,P|270:55|301:88,2,90.0000034332277,6|0|0,3:2|0:0|1:0,0:0:0:0:
229,129,219155,2,0,P|354:89|397:110,1,180.000006866455,2|0,3:2|1:0,0:0:0:0:
465,72,219508,6,0,B|510:77|510:77|472:102,1,90.0000034332277,14|0,1:2|0:0,0:0:0:0:
394,216,219743,1,0,1:0:0:0:
359,243,219861,2,0,B|475:263|475:263|512:312,1,180.000006866455,2|0,3:2|1:0,0:0:0:0:
489,184,220214,6,0,B|469:300|469:300|419:337,1,180.000006866455,6|0,3:2|1:0,0:0:0:0:
346,377,220567,2,0,B|333:287|333:287|304:374,1,180.000006866455,2|0,3:2|1:0,0:0:0:0:
264,237,220920,6,0,B|227:198|246:123|246:123|313:114|346:132,1,215.999993408203,14|0,1:2|1:0,0:0:0:0:
407,196,221273,2,0,B|397:246|397:246|330:232|344:159|375:146,1,180.000006866455,6|2,3:2|1:2,0:0:0:0:
476,275,221626,6,0,P|428:322|362:323,1,132.00000402832,6|0,3:2|1:0,0:0:0:0:
272,383,221979,2,0,L|286:307,2,60,6|0|0,3:2|1:0|1:0,0:0:0:0:
398,245,222332,6,0,P|436:348|498:356,1,180.000006866455,14|0,1:2|0:0,0:0:0:0:
476,275,222684,1,2,3:2:0:0:
372,101,222920,1,0,1:0:0:0:
354,177,223038,6,0,P|401:130|459:131,1,120,6|0,3:2|0:0,0:0:0:0:
508,56,223390,2,0,L|514:18,2,30,2|0|0,3:2|1:0|1:0,0:0:0:0:
435,206,223743,6,0,P|396:107|328:101,1,180.000006866455,14|0,1:2|0:0,0:0:0:0:
280,48,224096,2,0,B|256:-8|256:-8|232:48,1,120,6|2,3:2|1:2,0:0:0:0:
120,80,224449,6,0,P|208:80|256:168,1,180.000006866455,6|0,3:2|1:0,0:0:0:0:
192,216,224802,2,0,P|192:304|104:352,1,180.000006866455,2|0,3:2|1:0,0:0:0:0:
79,228,225155,2,0,B|8:293|8:293|88:269,1,180.000006866455,14|0,1:2|1:0,0:0:0:0:
192,216,225508,2,0,L|152:224,2,33.0000010070801,0|0|0,3:2|1:0|1:0,0:0:0:0:
131,350,225861,6,0,P|185:340|265:371,1,120,6|0,3:2|1:0,0:0:0:0:
281,197,226214,6,0,P|273:241|284:285,1,90.0000034332277,10|0,1:2|1:0,0:0:0:0:
420,273,226567,6,0,P|391:267|362:274,1,60,2|0,3:2|1:0,0:0:0:0:
335,383,226920,6,0,P|335:364|331:349,1,30,10|0,1:2|1:0,0:0:0:0:
283,284,227273,5,6,3:2:0:0:
283,284,227361,2,0,L|216:272,1,67.5000025749208,2|0,0:0|0:0,0:0:0:0:
141,256,227538,2,0,L|74:245,1,45,6|8,0:0|0:0,0:0:0:0:
247,155,227802,6,0,L|291:162,1,45,6|2,0:0|0:0,0:0:0:0:
372,177,227979,5,0,3:0:0:0:
372,177,228067,2,0,L|491:197,1,112.5,2|0,0:0|0:0,0:0:0:0:
488,205,228332,6,0,B|503:175|503:175|454:182,1,67.5000025749208,10|0,0:0|0:0,0:0:0:0:
433,103,228508,6,0,B|448:73|448:73|399:80,1,67.5000025749208,2|0,0:0|0:0,0:0:0:0:
351,36,228685,5,6,3:2:0:0:
351,36,228773,2,0,L|284:48,1,67.5000025749208,2|0,0:0|0:0,0:0:0:0:
209,64,228950,2,0,L|142:75,1,45,6|8,0:0|0:0,0:0:0:0:
36,204,229214,2,0,L|104:192,1,45,6|2,0:0|0:0,0:0:0:0:
167,180,229390,5,0,3:0:0:0:
167,180,229479,1,0,0:0:0:0:
167,180,229567,2,0,L|235:168,1,67.5000025749208,2|0,0:0|0:0,0:0:0:0:
233,168,229743,6,0,B|239:200|239:200|263:176,1,67.5000025749208,0|2,3:0|3:2,0:0:0:0:
292,314,229920,1,0,3:0:0:0:
292,314,230007,1,2,3:2:0:0:
292,314,230096,5,6,3:2:0:0:
292,314,230185,2,0,L|268:393,1,67.5000025749208,2|0,0:0|0:0,0:0:0:0:
362,258,230361,2,0,L|378:202,1,45,6|8,0:0|0:0,0:0:0:0:
407,135,230626,6,0,L|392:82,1,45,6|2,0:0|0:0,0:0:0:0:
374,214,230802,5,0,3:0:0:0:
374,214,230890,2,0,L|407:343,1,112.5,2|0,0:0|0:0,0:0:0:0:
401,322,231155,6,0,B|432:344|432:344|395:348,1,67.5000025749208,10|0,0:0|0:0,0:0:0:0:
285,303,231332,6,0,B|315:324|315:324|284:327,1,67.5000025749208,2|0,0:0|0:0,0:0:0:0:
207,308,231507,5,6,3:2:0:0:
207,308,231596,2,0,L|66:338,1,135.000005149842,2|2,0:0|0:0,0:0:0:0:
200,216,231861,6,0,L|293:199,1,67.5000025749208,8|2,0:0|0:0,0:0:0:0:
107,137,232038,2,0,L|200:120,1,67.5000025749208,2|2,3:2|0:0,0:0:0:0:
179,121,232214,6,0,P|212:118|178:109,3,90,2|0|0|0,0:0|0:0|0:0|0:0,0:0:0:0:
299,95,232567,2,0,B|274:181|350:185|327:294,1,202.500007724762,2|0,0:0|0:0,0:0:0:0:
410,324,232920,6,0,L|281:292,1,90,6|0,3:2|0:0,0:0:0:0:
247,284,233097,2,0,L|118:252,1,90,2|0,3:2|0:0,0:0:0:0:
85,245,233273,6,0,L|5:227,1,76.5000014591217,2|0,3:2|1:0,0:0:0:0:
9,130,233626,6,0,L|138:98,1,67.5000025749208,6|0,3:2|0:0,0:0:0:0:
149,93,233802,2,0,L|278:61,1,67.5000025749208,2|0,3:2|0:0,0:0:0:0:
291,53,233979,6,0,L|420:21,1,76.5000014591217,2|0,3:2|0:0,0:0:0:0:
512,3,234332,6,0,L|480:132,1,67.5000025749208,6|0,3:2|0:0,0:0:0:0:
478,144,234508,2,0,L|446:273,1,67.5000025749208,2|0,1:2|0:0,0:0:0:0:
440,289,234685,6,0,L|408:418,1,76.5000014591217,2|0,3:2|0:0,0:0:0:0:
271,297,235038,6,0,L|239:168,1,90,6|0,3:2|0:0,0:0:0:0:
229,130,235214,2,0,L|197:1,1,90,2|0,3:2|0:0,0:0:0:0:
137,0,235390,6,0,L|124:51,3,45,6|0|0|0,3:2|3:0|3:0|3:0,0:0:0:0:
119,56,235743,5,6,3:2:0:0:
146,75,235831,1,0,3:0:0:0:
166,103,235919,1,0,3:0:0:0:
175,136,236007,1,0,3:0:0:0:
172,170,236095,1,0,3:0:0:0:
159,201,236184,1,0,3:0:0:0:
135,226,236272,1,0,3:2:0:0:
104,241,236360,1,0,0:0:0:0:
114,272,236449,5,0,1:0:0:0:
154,252,236537,1,0,1:0:0:0:
185,220,236625,1,0,1:0:0:0:
203,179,236714,1,0,1:0:0:0:
207,134,236802,1,0,1:0:0:0:
195,91,236890,1,0,1:0:0:0:
169,54,236978,1,0,1:0:0:0:
133,29,237066,1,0,1:0:0:0:
91,17,237155,1,6,3:2:0:0:
321,111,237508,5,2,0:0:0:0:
298,39,237685,1,2,0:0:0:0:
343,191,237861,6,0,L|335:248,1,45,2|2,0:0|1:2,0:0:0:0:
208,124,238214,2,0,L|215:79,1,45,2|2,1:2|0:1,0:0:0:0:
40,224,238567,6,0,B|53:213|53:213|42:200|42:200|55:190|55:190|45:177|45:177|58:167|58:167|48:154|48:154|61:143|61:143|51:130|51:130|64:120|64:120|54:107|54:107|67:97|67:97|57:84|57:84|70:74|70:74|60:61|60:61|73:50|73:50|62:37|62:37|102:7|102:7|132:46|132:46|119:56|119:56|129:69|129:69|116:79|116:79|126:92|126:92|113:103|113:103|124:116|124:116|111:126|111:126|121:139|121:139|108:149|108:149|118:162|118:162|105:172|105:172|115:186|115:186|102:196|102:196|112:209|112:209|99:219|99:219|109:232|109:232,1,630,6|0,3:2|0:0,0:0:0:0:
64,304,239273,6,0,L|-16:328,2,45,14|0|0,0:0|0:0|0:0,0:0:0:0:
72,304,239449,2,0,L|200:336,1,90,0|0,1:0|1:0,0:0:0:0:
240,336,239626,6,0,L|264:416,2,45,2|0|0,3:2|0:0|0:0,0:0:0:0:
240,328,239802,2,0,L|272:200,1,90,0|0,1:0|1:0,0:0:0:0:
280,152,239979,6,0,L|360:128,2,45,6|0|0,3:2|0:0|0:0,0:0:0:0:
272,152,240155,2,0,L|144:120,1,90,0|0,1:0|1:0,0:0:0:0:
104,120,240332,6,0,L|80:40,2,45,2|0|0,3:2|0:0|0:0,0:0:0:0:
104,128,240508,2,0,L|72:256,1,90,0|0,1:0|1:0,0:0:0:0:
162,301,240685,5,14,0:0:0:0:
196,273,240773,1,2,1:2:0:0:
240,265,240861,1,2,1:2:0:0:
282,279,240949,1,2,1:2:0:0:
297,246,241038,5,2,3:2:0:0:
241,228,241126,1,2,1:2:0:0:
182,238,241214,1,2,1:2:0:0:
136,275,241302,1,2,1:2:0:0:
115,326,241390,6,0,B|80:264|16:308|77:408|146:408|428:384|550:287|453:193|344:200|377:327,1,540,6|0,3:2|0:0,0:0:0:0:
498,316,242096,6,0,P|509:265|490:195,1,67.5000025749208,14|0,0:0|0:0,0:0:0:0:
512,172,242273,1,0,1:0:0:0:
512,172,242361,1,0,1:0:0:0:
512,172,242449,6,0,P|473:136|403:118,1,67.5000025749208,2|0,3:2|0:0,0:0:0:0:
391,94,242626,1,0,1:0:0:0:
391,94,242714,1,0,1:0:0:0:
391,94,242802,6,0,P|341:109|290:161,1,67.5000025749208,2|0,3:2|0:0,0:0:0:0:
254,141,242979,1,0,1:0:0:0:
254,141,243067,1,0,1:0:0:0:
254,141,243155,6,0,P|242:192|276:273,1,135.000005149842,2|0,3:2|1:0,0:0:0:0:
260,280,243420,1,0,1:0:0:0:
250,297,243508,6,0,B|296:271|296:271|465:339|465:339|322:372,1,360,14|6,0:0|3:2,0:0:0:0:
264,381,244038,1,2,1:2:0:0:
467,334,244214,6,0,B|465:320|465:320|472:319|472:319|467:309|467:309|474:300|474:300|469:297|469:297|475:289|475:289|471:278|471:278|478:283|478:283|479:268|479:268|482:264|482:264|475:261|475:261|481:254|481:254|482:242|482:242|486:244|486:244|479:236|479:236|483:230|483:230|485:220|485:220|481:220|481:220|489:215|489:215|484:210|484:210|490:204|490:204|487:203|487:203|490:196|490:196|488:191|488:191|494:173,1,202.500007724762,6|0,3:2|3:0,0:0:0:0:
492,185,244832,1,0,3:0:0:0:
493,171,244920,6,0,P|453:138|343:144,1,135.000005149842,14|0,0:0|1:0,0:0:0:0:
273,164,245185,1,0,1:0:0:0:
278,167,245273,6,0,L|302:247,2,45,2|0|0,3:2|0:0|0:0,0:0:0:0:
278,159,245449,2,0,L|310:31,1,90,0|0,1:0|1:0,0:0:0:0:
229,32,245626,6,0,L|286:-28,2,45,6|0|0,3:2|0:0|0:0,0:0:0:0:
222,35,245802,2,0,L|95:71,1,90,0|0,1:0|1:0,0:0:0:0:
137,142,245979,6,0,L|55:122,2,45,2|0|0,3:2|0:0|0:0,0:0:0:0:
143,146,246155,2,0,L|237:237,1,90,0|0,1:0|1:0,0:0:0:0:
286,236,246332,5,14,0:0:0:0:
282,280,246420,1,2,1:2:0:0:
256,316,246508,1,2,1:2:0:0:
215,333,246596,1,2,1:2:0:0:
171,327,246684,5,2,3:2:0:0:
212,311,246773,1,2,1:2:0:0:
256,316,246861,1,2,1:2:0:0:
292,342,246949,1,2,1:2:0:0:
309,384,247038,6,0,B|347:375|347:375|351:371|351:371|351:375|351:375|377:370|377:370|384:371|384:371|392:366|392:366|454:354,1,135,6|0,3:2|0:0,0:0:0:0:
443,354,247390,2,0,P|473:356|444:350,1,90,6|0,3:2|0:0,0:0:0:0:
497,166,247743,5,14,0:0:0:0:
399,280,247920,1,0,1:0:0:0:
399,280,248008,1,0,1:0:0:0:
399,280,248096,6,0,L|273:253,1,67.5000025749208,2|0,3:2|0:0,0:0:0:0:
282,202,248273,1,0,1:0:0:0:
282,202,248361,1,0,1:0:0:0:
282,202,248449,6,0,L|156:175,1,67.5000025749208,6|0,3:2|0:0,0:0:0:0:
164,124,248626,1,0,1:0:0:0:
164,124,248714,1,0,1:0:0:0:
164,124,248802,6,0,L|38:97,1,67.5000025749208,2|0,3:2|0:0,0:0:0:0:
46,186,248979,1,0,1:0:0:0:
46,186,249067,1,0,1:0:0:0:
46,186,249155,6,0,P|31:260|94:325,1,135.000005149842,14|0,0:0|3:0,0:0:0:0:
77,333,249420,1,0,0:0:0:0:
72,305,249508,2,0,P|87:231|24:166,1,135.000005149842,14|2,0:0|3:2,0:0:0:0:
176,285,249861,6,0,B|269:253|405:317|405:317|525:380|499:397|316:335|299:243,1,540,6|0,3:2|3:0,0:0:0:0:
279,174,250479,1,0,3:0:0:0:
278,164,250567,6,0,P|208:129|151:139,1,135.000005149842,14|0,0:0|1:0,0:0:0:0:
141,165,250832,1,0,1:0:0:0:
146,138,250920,2,0,P|76:103|19:113,1,135.000005149842,2|0,3:2|1:0,0:0:0:0:
168,52,251273,6,0,P|238:17|295:27,1,135.000005149842,6|0,3:2|1:0,0:0:0:0:
305,53,251538,1,0,1:0:0:0:
300,26,251626,2,0,P|370:-9|427:1,1,135.000005149842,2|0,3:2|1:0,0:0:0:0:
477,104,251979,5,14,0:0:0:0:
468,148,252067,1,0,1:0:0:0:
460,192,252155,1,0,1:0:0:0:
452,236,252243,1,0,1:0:0:0:
486,265,252332,1,6,3:2:0:0:
494,221,252420,1,0,1:0:0:0:
502,177,252508,1,0,1:0:0:0:
511,133,252596,1,0,1:0:0:0:
477,104,252685,6,0,L|469:147,8,22.5,6|0|0|0|0|0|0|0|2,3:2|0:0|0:0|0:0|0:0|0:0|0:0|0:0|0:0,0:0:0:0:
452,236,253214,1,6,3:2:0:0:
512,357,253390,6,0,L|379:325,1,135.000005149842,14|0,0:0|1:0,0:0:0:0:
365,308,253655,1,0,1:0:0:0:
372,323,253743,6,0,L|239:291,1,135.000005149842,2|0,3:2|1:0,0:0:0:0:
225,271,254008,1,0,1:0:0:0:
234,288,254096,6,0,L|101:256,1,135.000005149842,6|0,3:2|1:0,0:0:0:0:
88,235,254361,1,0,1:0:0:0:
96,252,254449,6,0,P|76:317|-18:343,1,135.000005149842,2|0,3:2|1:0,0:0:0:0:
217,251,254802,6,0,P|153:202|195:29,1,270.000010299683,14|2,0:0|3:2,0:0:0:0:
77,30,255332,1,10,0:0:0:0:
232,114,255508,2,0,P|293:101|362:116,6,80.9999975280763,6|0|0|0|0|0|0,3:2|0:0|0:0|0:0|0:0|0:0|0:0,0:0:0:0:
370,223,256214,6,0,P|394:148|442:115,1,135.000005149842,14|0,0:0|1:0,0:0:0:0:
467,126,256479,1,0,1:0:0:0:
444,111,256567,2,0,P|468:36|516:3,1,135.000005149842,2|0,3:2|1:0,0:0:0:0:
504,153,256920,6,0,P|479:227|431:260,1,135.000005149842,6|0,3:2|1:0,0:0:0:0:
407,250,257185,1,0,1:0:0:0:
430,265,257273,2,0,P|405:339|357:372,1,135.000005149842,2|0,3:2|1:0,0:0:0:0:
269,336,257626,5,14,0:0:0:0:
250,295,257714,1,0,1:0:0:0:
216,266,257802,1,0,1:0:0:0:
173,256,257890,1,0,1:0:0:0:
134,276,257979,1,2,3:2:0:0:
157,237,258067,1,0,1:0:0:0:
160,192,258155,1,0,1:0:0:0:
143,152,258243,1,0,1:0:0:0:
112,122,258332,6,0,L|320:186,1,202.500007724762,6|0,3:2|0:0,0:0:0:0:
389,207,258685,2,0,L|386:192,3,15.7499995193482,0|0|6|0,3:0|3:0|3:2|0:0,0:0:0:0:
512,275,259038,6,0,L|395:298,1,116.999994644165,14|0,0:0|1:0,0:0:0:0:
366,282,259303,1,0,1:0:0:0:
390,300,259391,6,0,L|273:323,1,116.999994644165,2|0,3:2|1:0,0:0:0:0:
258,359,259656,1,0,1:0:0:0:
269,326,259744,6,0,L|152:349,1,116.999994644165,6|0,3:2|1:0,0:0:0:0:
125,331,260008,1,0,1:0:0:0:
148,351,260096,6,0,L|31:374,1,116.999994644165,2|0,3:2|1:0,0:0:0:0:
106,190,260449,5,14,0:0:0:0:
106,190,260538,1,0,3:0:0:0:
106,190,260626,1,2,3:2:0:0:
97,101,260802,1,14,0:0:0:0:
31,45,260979,2,0,P|64:52|128:50,1,67.5000025749208,2|0,3:2|1:0,0:0:0:0:
178,29,261155,5,6,3:2:0:0:
316,6,261332,6,0,L|301:60,1,45,2|0,1:2|0:0,0:0:0:0:
392,27,261508,1,6,3:2:0:0:
392,27,261596,2,0,L|377:81,2,45,2|0|2,0:2|0:0|0:0,0:0:0:0:
486,127,261861,6,0,L|473:83,2,45,14|0|6,0:0|0:0|0:0,0:0:0:0:
399,109,262126,2,0,L|411:152,2,45,2|0|6,0:0|3:0|0:0,0:0:0:0:
319,128,262390,1,2,0:0:0:0:
212,183,262567,6,0,L|197:237,1,45,6|0,3:2|0:0,0:0:0:0:
275,247,262743,2,0,L|288:204,1,45
363,224,262920,1,4,3:2:0:0:
363,224,263008,2,0,L|351:268,2,45,2|0|2,0:0|0:0|0:0,0:0:0:0:
442,320,263273,5,10,0:0:0:0:
281,358,263449,5,2,0:0:0:0:
281,358,263538,1,2,0:0:0:0:
199,226,263714,5,2,0:0:0:0:
199,226,263802,1,2,0:0:0:0:
40,273,263979,6,0,L|25:327,1,45,6|0,3:2|0:0,0:0:0:0:
103,337,264155,2,0,L|116:294,1,45
191,314,264332,1,6,3:2:0:0:
191,314,264420,1,2,0:0:0:0:
191,314,264508,2,0,L|179:358,1,45,2|0,0:0|0:0,0:0:0:0:
281,358,264685,5,14,0:0:0:0:
343,249,264861,1,6,0:0:0:0:
343,249,264949,2,0,L|330:205,1,45,2|0,0:0|3:0,0:0:0:0:
256,231,265126,2,0,L|268:274,2,45,6|2|0,0:0|0:0|0:0,0:0:0:0:
204,138,265390,5,6,3:2:0:0:
204,138,265479,2,0,L|191:181,1,45
115,160,265655,1,2,0:0:0:0:
115,160,265743,2,0,L|127:116,1,45,2|0,3:2|0:0,0:0:0:0:
38,138,265920,2,0,L|50:94,1,45,2|2,0:0|0:0,0:0:0:0:
110,35,266096,5,14,0:0:0:0:
115,160,266273,5,0,0:0:0:0:
120,285,266449,5,6,3:2:0:0:
205,284,266626,5,2,0:0:0:0:
205,284,266714,1,2,0:0:0:0:
205,284,266802,2,0,B|232:428|355:415|449:309|361:189|180:212|196:360|236:432,1,459.00000875473,6|0,3:2|0:0,0:0:0:0:
363,332,267508,5,14,0:2:0:0:
363,332,267596,2,0,P|368:291|354:241,1,67.5000025749208,0|2,0:0|0:0,0:0:0:0:
418,190,267773,2,0,L|358:180,2,45,2|0|2,0:0|3:0|0:0,0:0:0:0:
390,107,268038,2,0,L|434:114,1,45,2|0,0:0|0:0,0:0:0:0:
281,16,268214,6,0,L|335:1,1,45,6|0,3:2|0:0,0:0:0:0:
345,79,268390,2,0,L|302:92,1,45,2|0,0:0|0:0,0:0:0:0:
322,167,268567,2,0,L|366:155,2,45,2|2|0,3:2|0:0|0:0,0:0:0:0:
200,54,268920,5,14,0:0:0:0:
68,125,269096,5,2,0:0:0:0:
68,125,269185,1,2,0:0:0:0:
193,214,269360,5,2,0:0:0:0:
193,214,269449,1,2,0:0:0:0:
24,276,269626,6,0,L|78:291,1,45,6|0,3:2|0:0,0:0:0:0:
88,213,269802,2,0,L|45:200,1,45,2|0,0:0|0:0,0:0:0:0:
68,125,269979,1,2,3:2:0:0:
68,125,270068,1,2,0:0:0:0:
68,125,270155,2,0,L|112:137,1,45,2|0,0:0|0:0,0:0:0:0:
150,65,270332,6,0,L|182:216,1,135.000005149842,14|2,0:0|0:0,0:0:0:0:
245,142,270596,2,0,L|217:9,1,135.000005149842,2|2,0:0|0:0,0:0:0:0:
322,93,270861,6,0,L|375:107,1,45,2|0,0:0|0:0,0:0:0:0:
444,142,271038,6,0,P|513:157|450:118,1,202.500007724762,10|0,0:0|0:0,0:0:0:0:
444,142,271390,6,0,P|506:145|452:114,1,168.75,0|0,3:0|0:0,0:0:0:0:
444,142,271743,6,0,P|496:140|452:114,1,135,8|0,0:0|0:0,0:0:0:0:
365,104,272096,6,0,B|330:101|330:101|367:71,1,67.5000025749208,6|0,3:2|0:0,0:0:0:0:
257,135,272273,6,0,B|222:132|222:132|259:102,1,67.5000025749208,2|0,3:2|0:0,0:0:0:0:
152,169,272449,6,0,P|85:145|50:139,1,90,6|0,3:2|0:0,0:0:0:0:
208,328,272802,2,0,P|251:317|293:300,1,90,2|0,0:0|0:0,0:0:0:0:
419,383,273155,6,0,P|436:320|459:242,1,135,10|2,1:2|1:2,0:0:0:0:
488,135,273508,1,2,1:2:0:0:
491,125,273597,1,2,1:2:0:0:
495,115,273685,1,2,3:2:0:0:
440,256,273861,6,0,P|421:191|368:61,1,188.999994232178,2|0,0:0|1:0,0:0:0:0:
369,60,274214,2,0,P|429:52|453:55,1,45,0|2,0:0|1:2,0:0:0:0:
298,202,274390,2,0,P|321:199|343:194,1,45,0|2,0:0|1:2,0:0:0:0:
488,135,274567,5,8,0:0:0:0:
491,125,274656,1,2,1:2:0:0:
495,115,274744,1,0,3:0:0:0:
376,78,274920,2,0,P|412:165|440:256,1,188.999994232178,0|0,1:0|3:0,0:0:0:0:
435,271,275185,1,0,0:0:0:0:
429,289,275273,6,0,P|351:297|307:351,1,135,6|0,1:2|1:0,0:0:0:0:
239,360,275626,2,0,L|188:351,1,45,0|0,1:0|1:0,0:0:0:0:
86,293,275802,2,0,L|131:301,1,45,0|0,1:0|0:0,0:0:0:0:
180,234,275979,5,10,1:2:0:0:
188,213,276068,1,0,1:0:0:0:
185,240,276155,1,0,1:0:0:0:
193,219,276244,1,2,1:2:0:0:
217,251,276332,6,0,L|209:206,1,45,0|0,0:0|1:0,0:0:0:0:
180,41,276508,2,0,L|187:85,1,45,0|0,3:0|0:0,0:0:0:0:
81,104,276685,6,0,B|207:80|178:164|341:133,1,233.999989288331,6|0,1:2|0:0,0:0:0:0:
368,81,277126,2,0,P|399:34|476:27,1,116.999994644165,0|0,1:0|1:0,0:0:0:0:
437,147,277390,6,0,L|445:103,1,45,14|0,1:2|0:0,0:0:0:0:
288,58,277567,1,2,3:2:0:0:
455,20,277743,2,0,P|399:33|368:81,1,116.999994644165,0|0,1:0|3:0,0:0:0:0:
437,147,278008,1,0,3:0:0:0:
437,147,278096,6,0,B|514:134|514:134|437:205,1,180,0|0,1:0|1:0,0:0:0:0:
508,331,278626,2,0,L|452:320,1,45,0|0,1:0|0:0,0:0:0:0:
395,384,278802,6,0,L|370:245,1,135,10|0,1:2|1:0,0:0:0:0:
315,192,279155,1,0,3:0:0:0:
312,182,279244,1,0,1:0:0:0:
308,172,279332,1,0,1:0:0:0:
110,247,279508,6,0,P|195:249|374:298,1,251.999992309571,6|0,1:2|0:0,0:0:0:0:
371,306,279949,1,2,1:2:0:0:
371,306,280038,2,0,P|342:330|308:334,1,45,0|2,3:0|1:2,0:0:0:0:
244,357,280214,5,8,0:0:0:0:
217,169,280390,1,0,0:0:0:0:
110,247,280567,5,0,1:0:0:0:
86,57,280743,1,0,1:0:0:0:
86,57,280832,1,0,0:0:0:0:
86,57,280920,6,0,P|43:41|10:42,1,67.5000025749208,6|0,3:2|0:0,0:0:0:0:
168,68,281096,1,0,0:0:0:0:
168,68,281185,2,0,P|211:84|315:74,1,135.000005149842,0|0,1:0|1:0,0:0:0:0:
364,28,281449,2,0,P|380:76|374:122,1,67.5000025749208,0|0,1:0|0:0,0:0:0:0:
422,164,281626,5,10,1:2:0:0:
418,176,281714,1,0,0:0:0:0:
413,188,281802,1,0,1:0:0:0:
408,199,281891,1,0,1:0:0:0:
335,294,282155,5,0,1:0:0:0:
261,347,282332,6,0,B|273:321|225:284|201:338|240:376,1,90,6|0,3:2|0:0,0:0:0:0:
255,201,282596,2,0,B|243:227|291:264|315:210|276:172,1,90
295,190,282861,2,0,P|363:186|411:206,1,90,0|0,0:0|1:0,0:0:0:0:
447,242,283214,5,0,1:0:0:0:
455,252,283301,1,0,1:0:0:0:
462,262,283390,1,0,1:0:0:0:
452,351,283567,6,0,B|473:358,4,22.5,2|0|0|0|0,1:2|0:0|0:0|0:0|0:0,0:0:0:0:
