osu file format v14

[General]
AudioFilename: Lv20,24 banana man.mp3
AudioLeadIn: 0
PreviewTime: 8888
Countdown: 0
SampleSet: None
StackLeniency: 0.7
Mode: 3
LetterboxInBreaks: 1
SpecialStyle: 0
WidescreenStoryboard: 1

[Editor]
DistanceSpacing: 1.3
BeatDivisor: 4
GridSize: 8
TimelineZoom: 2.5

[Metadata]
Title:banana man
TitleUnicode:banana man
Artist:sa10
ArtistUnicode:sa10
Creator:Jinjin
Version:Bananamania (2022)
Source:BMS
Tags:
BeatmapID:3459405
BeatmapSetID:543154

[Difficulty]
HPDrainRate:7.7
CircleSize:7
OverallDifficulty:5
ApproachRate:5
SliderMultiplier:1.4
SliderTickRate:1

[Events]
//Background and Video events
0,0,"title.png",0,0
//Break Periods
//Storyboard Layer 0 (Background)
//Storyboard Layer 1 (Fail)
//Storyboard Layer 2 (Pass)
//Storyboard Layer 3 (Foreground)
//Storyboard Layer 4 (Overlay)
//Storyboard Sound Samples
Sample,1777,0,"elevate.ogg",70
Sample,2000,0,"voxa02.ogg",70
Sample,3333,0,"voxa07.ogg",70
Sample,3555,0,"rev_stab.ogg",70
Sample,3777,0,"voxa02.ogg",70
Sample,5555,0,"voxa02.ogg",70
Sample,6888,0,"voxa07.ogg",70
Sample,8888,0,"voxa01.ogg",70
Sample,9111,0,"voxa02.ogg",70
Sample,9222,0,"voxa03.ogg",70
Sample,10444,0,"voxa07.ogg",70
Sample,10666,0,"voxa01.ogg",70
Sample,10666,0,"rev_stab.ogg",70
Sample,10888,0,"voxa02.ogg",70
Sample,11000,0,"voxa03.ogg",70
Sample,12444,0,"voxa01.ogg",70
Sample,12666,0,"voxa02.ogg",70
Sample,12777,0,"voxa03.ogg",70
Sample,14000,0,"voxa07.ogg",70
Sample,14222,0,"voxa01.ogg",70
Sample,14444,0,"voxa02.ogg",70
Sample,14555,0,"voxa03.ogg",70
Sample,16000,0,"voxa01.ogg",70
Sample,16222,0,"voxa02.ogg",70
Sample,16333,0,"voxa03.ogg",70
Sample,17555,0,"voxa07.ogg",70
Sample,17777,0,"rev_stab.ogg",70
Sample,17777,0,"voxa01.ogg",70
Sample,18000,0,"voxa02.ogg",70
Sample,18111,0,"voxa03.ogg",70
Sample,19333,0,"voxa14.ogg",70
Sample,19555,0,"voxa01.ogg",70
Sample,19777,0,"voxa02.ogg",70
Sample,19888,0,"voxa03.ogg",70
Sample,21111,0,"voxa07.ogg",70
Sample,21333,0,"voxa01.ogg",70
Sample,21555,0,"voxa02.ogg",70
Sample,21666,0,"voxa03.ogg",70
Sample,23111,0,"voxa01.ogg",70
Sample,23111,0,"perc01.ogg",70
Sample,23222,0,"perc02.ogg",70
Sample,23333,0,"voxa02.ogg",70
Sample,23333,0,"perc03.ogg",70
Sample,23444,0,"perc04.ogg",70
Sample,23444,0,"voxa03.ogg",70
Sample,23555,0,"perc05.ogg",70
Sample,23666,0,"perc06.ogg",70
Sample,23777,0,"perc07.ogg",70
Sample,23796,0,"tt02.ogg",70
Sample,23814,0,"voxa04.ogg",70
Sample,24000,0,"perc08.ogg",70
Sample,24222,0,"perc09.ogg",70
Sample,24333,0,"perc10.ogg",70
Sample,24444,0,"perc11.ogg",70
Sample,24666,0,"perc12.ogg",70
Sample,24888,0,"voxa01.ogg",70
Sample,24888,0,"rev_stab.ogg",70
Sample,24888,0,"perc13.ogg",70
Sample,25000,0,"perc14.ogg",70
Sample,25111,0,"voxa02.ogg",70
Sample,25111,0,"perc15.ogg",70
Sample,25185,0,"voxb03.ogg",70
Sample,25222,0,"perc16.ogg",70
Sample,25222,0,"voxa03.ogg",70
Sample,25333,0,"perc17.ogg",70
Sample,25444,0,"perc18.ogg",70
Sample,25555,0,"perc19.ogg",70
Sample,25777,0,"perc20.ogg",70
Sample,25888,0,"perc21.ogg",70
Sample,26000,0,"perc22.ogg",70
Sample,26111,0,"perc23.ogg",70
Sample,26222,0,"perc24.ogg",70
Sample,26333,0,"perc25.ogg",70
Sample,26444,0,"perc26.ogg",70
Sample,26444,0,"voxa07.ogg",70
Sample,26666,0,"perc01.ogg",70
Sample,26666,0,"voxa01.ogg",70
Sample,26777,0,"perc02.ogg",70
Sample,26888,0,"perc03.ogg",70
Sample,26888,0,"voxa02.ogg",70
Sample,27000,0,"voxa03.ogg",70
Sample,27000,0,"perc04.ogg",70
Sample,27111,0,"perc05.ogg",70
Sample,27222,0,"perc06.ogg",70
Sample,27333,0,"perc07.ogg",70
Sample,27555,0,"perc08.ogg",70
Sample,27777,0,"perc09.ogg",70
Sample,27888,0,"perc10.ogg",70
Sample,28000,0,"perc11.ogg",70
Sample,28222,0,"perc12.ogg",70
Sample,28444,0,"voxa01.ogg",70
Sample,28444,0,"perc13.ogg",70
Sample,28555,0,"perc14.ogg",70
Sample,28666,0,"voxa02.ogg",70
Sample,28666,0,"perc15.ogg",70
Sample,28759,0,"voxa03.ogg",70
Sample,28777,0,"perc16.ogg",70
Sample,28888,0,"perc17.ogg",70
Sample,29000,0,"perc18.ogg",70
Sample,29111,0,"voxb11.ogg",70
Sample,29111,0,"perc19.ogg",70
Sample,29148,0,"voxa04.ogg",70
Sample,30222,0,"perc01.ogg",70
Sample,30222,0,"voxa01.ogg",70
Sample,30333,0,"perc02.ogg",70
Sample,30444,0,"perc03.ogg",70
Sample,30444,0,"voxa02.ogg",70
Sample,30555,0,"voxa03.ogg",70
Sample,30555,0,"perc04.ogg",70
Sample,30666,0,"perc05.ogg",70
Sample,30777,0,"perc06.ogg",70
Sample,30888,0,"perc07.ogg",70
Sample,31111,0,"perc08.ogg",70
Sample,31333,0,"perc09.ogg",70
Sample,31444,0,"perc10.ogg",70
Sample,31555,0,"perc11.ogg",70
Sample,31777,0,"voxa07.ogg",70
Sample,31777,0,"perc12.ogg",70
Sample,32000,0,"voxa01.ogg",70
Sample,32000,0,"perc13.ogg",70
Sample,32111,0,"perc14.ogg",70
Sample,32222,0,"voxa02.ogg",70
Sample,32222,0,"perc15.ogg",70
Sample,32333,0,"perc16.ogg",70
Sample,32333,0,"voxa03.ogg",70
Sample,32444,0,"perc17.ogg",70
Sample,32555,0,"perc18.ogg",70
Sample,32666,0,"perc19.ogg",70
Sample,32888,0,"perc20.ogg",70
Sample,33000,0,"perc21.ogg",70
Sample,33111,0,"perc22.ogg",70
Sample,33222,0,"perc23.ogg",70
Sample,33333,0,"perc24.ogg",70
Sample,33444,0,"perc25.ogg",70
Sample,33555,0,"perc26.ogg",70
Sample,33777,0,"perc01.ogg",70
Sample,33777,0,"rev_stab.ogg",70
Sample,33777,0,"voxa01.ogg",70
Sample,33888,0,"perc02.ogg",70
Sample,34000,0,"perc03.ogg",70
Sample,34000,0,"voxa02.ogg",70
Sample,34111,0,"voxa03.ogg",70
Sample,34111,0,"perc04.ogg",70
Sample,34222,0,"perc05.ogg",70
Sample,34333,0,"perc06.ogg",70
Sample,34444,0,"perc07.ogg",70
Sample,34444,0,"tt02.ogg",70
Sample,34666,0,"perc08.ogg",70
Sample,34888,0,"perc09.ogg",70
Sample,35000,0,"perc10.ogg",70
Sample,35111,0,"perc11.ogg",70
Sample,35333,0,"perc12.ogg",70
Sample,35555,0,"voxa01.ogg",70
Sample,35555,0,"perc13.ogg",70
Sample,35666,0,"perc14.ogg",70
Sample,35777,0,"voxa02.ogg",70
Sample,35777,0,"perc15.ogg",70
Sample,35888,0,"perc16.ogg",70
Sample,35888,0,"voxa03.ogg",70
Sample,36000,0,"perc17.ogg",70
Sample,36111,0,"perc18.ogg",70
Sample,36222,0,"perc19.ogg",70
Sample,36444,0,"sweep.ogg",70
Sample,36555,0,"voxb13.ogg",70
Sample,36555,0,"ten24.ogg",70
Sample,36666,0,"ten25.ogg",70
Sample,36777,0,"ten26.ogg",70
Sample,36888,0,"voxb14.ogg",70
Sample,36888,0,"ten27.ogg",70
Sample,36962,0,"voxb15.ogg",70
Sample,37111,0,"dd20.ogg",70
Sample,37111,0,"ten28.ogg",70
Sample,37111,0,"voxa14.ogg",70
Sample,37222,0,"ten29.ogg",70
Sample,37333,0,"f_b00.ogg",70
Sample,37333,0,"noise.ogg",70
Sample,37333,0,"monya.ogg",70
Sample,37333,0,"sita.ogg",70
Sample,44444,0,"sita2.ogg",70
Sample,48435,0,"f_b22.ogg",70
Sample,50666,0,"sweep.ogg",70
Sample,51555,0,"noise.ogg",70
Sample,51555,0,"wah.ogg",70
Sample,51555,0,"sita3.ogg",70
Sample,51555,0,"ston00.ogg",70
Sample,51944,0,"ston01.ogg",70
Sample,52277,0,"ston02.ogg",70
Sample,52444,0,"ston03.ogg",70
Sample,52666,0,"ston04.ogg",70
Sample,52888,0,"ston05.ogg",70
Sample,53333,0,"ston00.ogg",70
Sample,53722,0,"ston01.ogg",70
Sample,54055,0,"ston02.ogg",70
Sample,54222,0,"ston09.ogg",70
Sample,54444,0,"ston10.ogg",70
Sample,54666,0,"ston11.ogg",70
Sample,54888,0,"ston12.ogg",70
Sample,55111,0,"ston00.ogg",70
Sample,55500,0,"ston01.ogg",70
Sample,55833,0,"ston02.ogg",70
Sample,56000,0,"ston03.ogg",70
Sample,56222,0,"ston04.ogg",70
Sample,56444,0,"ston05.ogg",70
Sample,56888,0,"ston13.ogg",70
Sample,57277,0,"ston14.ogg",70
Sample,57611,0,"ston15.ogg",70
Sample,57777,0,"ston16.ogg",70
Sample,58000,0,"ston17.ogg",70
Sample,58222,0,"ston18.ogg",70
Sample,58444,0,"ston19.ogg",70
Sample,58666,0,"ston00.ogg",70
Sample,58666,0,"wah.ogg",70
Sample,59055,0,"ston01.ogg",70
Sample,59388,0,"ston02.ogg",70
Sample,59555,0,"ston03.ogg",70
Sample,59777,0,"ston04.ogg",70
Sample,60000,0,"ston05.ogg",70
Sample,60444,0,"ston00.ogg",70
Sample,60833,0,"ston01.ogg",70
Sample,61166,0,"ston02.ogg",70
Sample,61333,0,"ston09.ogg",70
Sample,61555,0,"ston10.ogg",70
Sample,61777,0,"ston11.ogg",70
Sample,62000,0,"stona2.ogg",70
Sample,62222,0,"ston00.ogg",70
Sample,62222,0,"sita5.ogg",70
Sample,62611,0,"ston01.ogg",70
Sample,62944,0,"ston02.ogg",70
Sample,63111,0,"ston03.ogg",70
Sample,63333,0,"ston04.ogg",70
Sample,63555,0,"ston05.ogg",70
Sample,64000,0,"ston13.ogg",70
Sample,64388,0,"ston14.ogg",70
Sample,64722,0,"ston15.ogg",70
Sample,64888,0,"ston16.ogg",70
Sample,64888,0,"sweep.ogg",70
Sample,65111,0,"ston14.ogg",70
Sample,65333,0,"ston16.ogg",70
Sample,65555,0,"ston00.ogg",70
Sample,65777,0,"upfilt.ogg",70
Sample,65777,0,"noise.ogg",70
Sample,65777,0,"waha08.ogg",70
Sample,65777,0,"ss00.ogg",70
Sample,66000,0,"ss01.ogg",70
Sample,66000,0,"waha09.ogg",70
Sample,66222,0,"waha10.ogg",70
Sample,66222,0,"ss02.ogg",70
Sample,66444,0,"ss03.ogg",70
Sample,66444,0,"waha11.ogg",70
Sample,66666,0,"waha12.ogg",70
Sample,66666,0,"ss04.ogg",70
Sample,66888,0,"ss05.ogg",70
Sample,66888,0,"waha13.ogg",70
Sample,67111,0,"waha14.ogg",70
Sample,67111,0,"ss06.ogg",70
Sample,67333,0,"ss07.ogg",70
Sample,67333,0,"waha15.ogg",70
Sample,67555,0,"waha16.ogg",70
Sample,67555,0,"ss08.ogg",70
Sample,67666,0,"ss09.ogg",70
Sample,67777,0,"waha17.ogg",70
Sample,67777,0,"ss10.ogg",70
Sample,67888,0,"ss11.ogg",70
Sample,68000,0,"waha18.ogg",70
Sample,68000,0,"ss12.ogg",70
Sample,68111,0,"ss13.ogg",70
Sample,68222,0,"waha19.ogg",70
Sample,68222,0,"ss14.ogg",70
Sample,68333,0,"ss15.ogg",70
Sample,68444,0,"ss16.ogg",70
Sample,68611,0,"ss17.ogg",70
Sample,68777,0,"ss18.ogg",70
Sample,68944,0,"ss19.ogg",70
Sample,69111,0,"ss20.ogg",70
Sample,69277,0,"ss21.ogg",70
Sample,69444,0,"ss22.ogg",70
Sample,69611,0,"ss23.ogg",70
Sample,69777,0,"ss24.ogg",70
Sample,70000,0,"ss25.ogg",70
Sample,70277,0,"ss26.ogg",70
Sample,70555,0,"ss27.ogg",70
Sample,70833,0,"ss28.ogg",70
Sample,72888,0,"ben01.ogg",70
Sample,72888,0,"perc01.ogg",70
Sample,73000,0,"perc02.ogg",70
Sample,73111,0,"ben02.ogg",70
Sample,73111,0,"perc03.ogg",70
Sample,73222,0,"perc04.ogg",70
Sample,73333,0,"ben03.ogg",70
Sample,73333,0,"perc05.ogg",70
Sample,73444,0,"perc06.ogg",70
Sample,73555,0,"ben04.ogg",70
Sample,73555,0,"perc07.ogg",70
Sample,73777,0,"perc08.ogg",70
Sample,74000,0,"ben05.ogg",70
Sample,74000,0,"perc09.ogg",70
Sample,74111,0,"perc10.ogg",70
Sample,74222,0,"ben06.ogg",70
Sample,74222,0,"perc11.ogg",70
Sample,74444,0,"perc12.ogg",70
Sample,74481,0,"ben07.ogg",70
Sample,74666,0,"ben08.ogg",70
Sample,74666,0,"rev_stab.ogg",70
Sample,74666,0,"perc13.ogg",70
Sample,74777,0,"perc14.ogg",70
Sample,74888,0,"ben09.ogg",70
Sample,74888,0,"perc15.ogg",70
Sample,75000,0,"perc16.ogg",70
Sample,75111,0,"ben10.ogg",70
Sample,75111,0,"perc17.ogg",70
Sample,75222,0,"perc18.ogg",70
Sample,75333,0,"ben11.ogg",70
Sample,75333,0,"perc19.ogg",70
Sample,75555,0,"perc20.ogg",70
Sample,75666,0,"perc21.ogg",70
Sample,75777,0,"perc22.ogg",70
Sample,75777,0,"ben12.ogg",70
Sample,75888,0,"perc23.ogg",70
Sample,76000,0,"perc24.ogg",70
Sample,76000,0,"ben13.ogg",70
Sample,76111,0,"perc25.ogg",70
Sample,76222,0,"perc26.ogg",70
Sample,76259,0,"ben14.ogg",70
Sample,76444,0,"ben01.ogg",70
Sample,76444,0,"voxa01.ogg",70
Sample,76444,0,"perc01.ogg",70
Sample,76555,0,"perc02.ogg",70
Sample,76666,0,"voxa02.ogg",70
Sample,76666,0,"ben02.ogg",70
Sample,76666,0,"perc03.ogg",70
Sample,76777,0,"perc04.ogg",70
Sample,76777,0,"voxa03.ogg",70
Sample,76888,0,"ben03.ogg",70
Sample,76888,0,"perc05.ogg",70
Sample,77000,0,"perc06.ogg",70
Sample,77111,0,"ben04.ogg",70
Sample,77111,0,"perc07.ogg",70
Sample,77333,0,"perc08.ogg",70
Sample,77555,0,"ben05.ogg",70
Sample,77555,0,"perc09.ogg",70
Sample,77666,0,"perc10.ogg",70
Sample,77777,0,"ben06.ogg",70
Sample,77777,0,"perc11.ogg",70
Sample,78000,0,"perc12.ogg",70
Sample,78037,0,"ben07.ogg",70
Sample,78222,0,"voxa01.ogg",70
Sample,78222,0,"ben08.ogg",70
Sample,78222,0,"perc13.ogg",70
Sample,78333,0,"perc14.ogg",70
Sample,78444,0,"ben09.ogg",70
Sample,78444,0,"voxa02.ogg",70
Sample,78444,0,"perc15.ogg",70
Sample,78555,0,"perc16.ogg",70
Sample,78555,0,"voxa03.ogg",70
Sample,78666,0,"ben10.ogg",70
Sample,78666,0,"perc17.ogg",70
Sample,78777,0,"perc18.ogg",70
Sample,78888,0,"ben11.ogg",70
Sample,78888,0,"perc19.ogg",70
Sample,79111,0,"perc20.ogg",70
Sample,79222,0,"perc21.ogg",70
Sample,79333,0,"perc22.ogg",70
Sample,79333,0,"ben12.ogg",70
Sample,79444,0,"perc23.ogg",70
Sample,79555,0,"perc24.ogg",70
Sample,79555,0,"ben13.ogg",70
Sample,79666,0,"perc25.ogg",70
Sample,79777,0,"perc26.ogg",70
Sample,79814,0,"ben08.ogg",70
Sample,80000,0,"perc01.ogg",70
Sample,80000,0,"voxa01.ogg",70
Sample,80111,0,"perc02.ogg",70
Sample,80222,0,"perc03.ogg",70
Sample,80222,0,"voxa02.ogg",70
Sample,80333,0,"voxa03.ogg",70
Sample,80333,0,"perc04.ogg",70
Sample,80444,0,"perc05.ogg",70
Sample,80555,0,"perc06.ogg",70
Sample,80666,0,"perc07.ogg",70
Sample,80888,0,"perc08.ogg",70
Sample,81111,0,"perc09.ogg",70
Sample,81222,0,"perc10.ogg",70
Sample,81333,0,"perc11.ogg",70
Sample,81555,0,"perc12.ogg",70
Sample,81777,0,"ben08.ogg",70
Sample,81777,0,"perc13.ogg",70
Sample,81888,0,"perc14.ogg",70
Sample,82000,0,"ben09.ogg",70
Sample,82000,0,"perc15.ogg",70
Sample,82111,0,"perc16.ogg",70
Sample,82222,0,"ben10.ogg",70
Sample,82222,0,"perc17.ogg",70
Sample,82333,0,"perc18.ogg",70
Sample,82444,0,"ben11.ogg",70
Sample,82444,0,"perc19.ogg",70
Sample,82666,0,"perc20.ogg",70
Sample,82777,0,"perc21.ogg",70
Sample,82888,0,"perc22.ogg",70
Sample,82888,0,"ben12.ogg",70
Sample,83000,0,"perc23.ogg",70
Sample,83111,0,"perc24.ogg",70
Sample,83111,0,"ben13.ogg",70
Sample,83222,0,"perc25.ogg",70
Sample,83333,0,"perc26.ogg",70
Sample,83370,0,"ben14.ogg",70
Sample,83555,0,"ben01.ogg",70
Sample,83555,0,"voxa01.ogg",70
Sample,83555,0,"perc01.ogg",70
Sample,83666,0,"perc02.ogg",70
Sample,83777,0,"ben02.ogg",70
Sample,83777,0,"voxa02.ogg",70
Sample,83777,0,"perc03.ogg",70
Sample,83888,0,"perc04.ogg",70
Sample,83888,0,"voxa03.ogg",70
Sample,84000,0,"ben03.ogg",70
Sample,84000,0,"perc05.ogg",70
Sample,84111,0,"perc06.ogg",70
Sample,84222,0,"ben04.ogg",70
Sample,84222,0,"perc07.ogg",70
Sample,84444,0,"perc08.ogg",70
Sample,84666,0,"ben05.ogg",70
Sample,84666,0,"perc09.ogg",70
Sample,84777,0,"perc10.ogg",70
Sample,84888,0,"ben06.ogg",70
Sample,84888,0,"perc11.ogg",70
Sample,85111,0,"perc12.ogg",70
Sample,85148,0,"ben07.ogg",70
Sample,85333,0,"ben08.ogg",70
Sample,85333,0,"perc13.ogg",70
Sample,85444,0,"perc14.ogg",70
Sample,85555,0,"ben09.ogg",70
Sample,85555,0,"perc15.ogg",70
Sample,85666,0,"perc16.ogg",70
Sample,85777,0,"ben10.ogg",70
Sample,85777,0,"perc17.ogg",70
Sample,85888,0,"perc18.ogg",70
Sample,86000,0,"ben11.ogg",70
Sample,86000,0,"perc19.ogg",70
Sample,86222,0,"perc20.ogg",70
Sample,86222,0,"scr_rev.ogg",70
Sample,86333,0,"perc21.ogg",70
Sample,86444,0,"perc22.ogg",70
Sample,86444,0,"ben12.ogg",70
Sample,86555,0,"perc23.ogg",70
Sample,86666,0,"perc24.ogg",70
Sample,86666,0,"ben13.ogg",70
Sample,86777,0,"perc25.ogg",70
Sample,86888,0,"perc26.ogg",70
Sample,86925,0,"ben08.ogg",70
Sample,87111,0,"perc01.ogg",70
Sample,87111,0,"ston20.ogg",70
Sample,87222,0,"perc02.ogg",70
Sample,87333,0,"perc03.ogg",70
Sample,87333,0,"ston21.ogg",70
Sample,87444,0,"perc04.ogg",70
Sample,87555,0,"perc05.ogg",70
Sample,87555,0,"ston22.ogg",70
Sample,87666,0,"perc06.ogg",70
Sample,87777,0,"perc07.ogg",70
Sample,87777,0,"ston23.ogg",70
Sample,88000,0,"perc08.ogg",70
Sample,88222,0,"perc09.ogg",70
Sample,88333,0,"perc10.ogg",70
Sample,88444,0,"perc11.ogg",70
Sample,88666,0,"ston24.ogg",70
Sample,88666,0,"perc12.ogg",70
Sample,88888,0,"ston25.ogg",70
Sample,88888,0,"rev_stab.ogg",70
Sample,88888,0,"perc13.ogg",70
Sample,89000,0,"perc14.ogg",70
Sample,89111,0,"ston26.ogg",70
Sample,89111,0,"perc15.ogg",70
Sample,89222,0,"perc16.ogg",70
Sample,89333,0,"ston27.ogg",70
Sample,89333,0,"perc17.ogg",70
Sample,89444,0,"perc18.ogg",70
Sample,89555,0,"ston28.ogg",70
Sample,89555,0,"perc19.ogg",70
Sample,89777,0,"perc20.ogg",70
Sample,89888,0,"perc21.ogg",70
Sample,90000,0,"perc22.ogg",70
Sample,90000,0,"ston29.ogg",70
Sample,90111,0,"perc23.ogg",70
Sample,90222,0,"perc24.ogg",70
Sample,90333,0,"perc25.ogg",70
Sample,90444,0,"perc26.ogg",70
Sample,90444,0,"ston30.ogg",70
Sample,90666,0,"perc01.ogg",70
Sample,90666,0,"ston20.ogg",70
Sample,90777,0,"perc02.ogg",70
Sample,90888,0,"perc03.ogg",70
Sample,90888,0,"ston21.ogg",70
Sample,91000,0,"perc04.ogg",70
Sample,91111,0,"perc05.ogg",70
Sample,91111,0,"ston22.ogg",70
Sample,91222,0,"perc06.ogg",70
Sample,91333,0,"perc07.ogg",70
Sample,91333,0,"ston23.ogg",70
Sample,91555,0,"perc08.ogg",70
Sample,91777,0,"perc09.ogg",70
Sample,91888,0,"perc10.ogg",70
Sample,92000,0,"perc11.ogg",70
Sample,92222,0,"ston24.ogg",70
Sample,92222,0,"perc12.ogg",70
Sample,92444,0,"perc13.ogg",70
Sample,92444,0,"ston25.ogg",70
Sample,92555,0,"perc14.ogg",70
Sample,92666,0,"perc15.ogg",70
Sample,92666,0,"ston26.ogg",70
Sample,92777,0,"perc16.ogg",70
Sample,92888,0,"perc17.ogg",70
Sample,92888,0,"ston27.ogg",70
Sample,93000,0,"perc18.ogg",70
Sample,93111,0,"perc19.ogg",70
Sample,93111,0,"ston39.ogg",70
Sample,93611,0,"ston40.ogg",70
Sample,93962,0,"ston41.ogg",70
Sample,94222,0,"cym.ogg",70
Sample,94222,0,"ston20.ogg",70
Sample,94222,0,"perc01.ogg",70
Sample,94333,0,"perc02.ogg",70
Sample,94444,0,"ston21.ogg",70
Sample,94444,0,"perc03.ogg",70
Sample,94555,0,"perc04.ogg",70
Sample,94666,0,"ston22.ogg",70
Sample,94666,0,"perc05.ogg",70
Sample,94777,0,"perc06.ogg",70
Sample,94888,0,"ston23.ogg",70
Sample,94888,0,"perc07.ogg",70
Sample,95111,0,"perc08.ogg",70
Sample,95333,0,"perc09.ogg",70
Sample,95444,0,"perc10.ogg",70
Sample,95555,0,"perc11.ogg",70
Sample,95777,0,"perc12.ogg",70
Sample,95777,0,"ston24.ogg",70
Sample,96000,0,"ston25.ogg",70
Sample,96000,0,"perc13.ogg",70
Sample,96111,0,"perc14.ogg",70
Sample,96222,0,"ston26.ogg",70
Sample,96222,0,"perc15.ogg",70
Sample,96333,0,"perc16.ogg",70
Sample,96444,0,"ston27.ogg",70
Sample,96444,0,"perc17.ogg",70
Sample,96555,0,"perc18.ogg",70
Sample,96666,0,"ston28.ogg",70
Sample,96666,0,"perc19.ogg",70
Sample,96888,0,"perc20.ogg",70
Sample,97000,0,"perc21.ogg",70
Sample,97111,0,"perc22.ogg",70
Sample,97111,0,"ston29.ogg",70
Sample,97222,0,"perc23.ogg",70
Sample,97333,0,"perc24.ogg",70
Sample,97444,0,"perc25.ogg",70
Sample,97555,0,"perc26.ogg",70
Sample,97555,0,"ston30.ogg",70
Sample,97777,0,"perc01.ogg",70
Sample,97777,0,"ston20.ogg",70
Sample,97888,0,"perc02.ogg",70
Sample,98000,0,"perc03.ogg",70
Sample,98000,0,"ston21.ogg",70
Sample,98111,0,"perc04.ogg",70
Sample,98222,0,"perc05.ogg",70
Sample,98222,0,"ston22.ogg",70
Sample,98333,0,"perc06.ogg",70
Sample,98444,0,"perc07.ogg",70
Sample,98444,0,"ston23.ogg",70
Sample,98666,0,"perc08.ogg",70
Sample,98888,0,"perc09.ogg",70
Sample,99000,0,"perc10.ogg",70
Sample,99111,0,"perc11.ogg",70
Sample,99333,0,"ston24.ogg",70
Sample,99333,0,"perc12.ogg",70
Sample,99555,0,"f_b62.ogg",70
Sample,99555,0,"voxa01.ogg",70
Sample,99555,0,"siren01.ogg",70
Sample,99555,0,"perc13.ogg",70
Sample,99666,0,"perc14.ogg",70
Sample,99740,0,"voxb10.ogg",70
Sample,99777,0,"voxa02.ogg",70
Sample,99777,0,"f_b63.ogg",70
Sample,99777,0,"perc15.ogg",70
Sample,99888,0,"perc16.ogg",70
Sample,99888,0,"voxa03.ogg",70
Sample,100000,0,"f_b64.ogg",70
Sample,100000,0,"perc17.ogg",70
Sample,100111,0,"perc18.ogg",70
Sample,100222,0,"voxb11.ogg",70
Sample,100222,0,"f_b65.ogg",70
Sample,100222,0,"perc19.ogg",70
Sample,100305,0,"voxb12.ogg",70
Sample,100333,0,"f_b66.ogg",70
Sample,100444,0,"f_b67.ogg",70
Sample,100444,0,"perc20.ogg",70
Sample,100444,0,"sweep.ogg",70
Sample,100444,0,"siren02.ogg",70
Sample,100500,0,"siren03.ogg",70
Sample,100555,0,"f_b68.ogg",70
Sample,100555,0,"voxb13.ogg",70
Sample,100555,0,"siren04.ogg",70
Sample,100555,0,"perc21.ogg",70
Sample,100611,0,"siren05.ogg",70
Sample,100666,0,"perc22.ogg",70
Sample,100666,0,"f_b69.ogg",70
Sample,100666,0,"siren06.ogg",70
Sample,100703,0,"voxa05.ogg",70
Sample,100722,0,"siren07.ogg",70
Sample,100777,0,"siren08.ogg",70
Sample,100777,0,"perc23.ogg",70
Sample,100833,0,"siren09.ogg",70
Sample,100888,0,"perc24.ogg",70
Sample,100888,0,"f_b70.ogg",70
Sample,100888,0,"siren10.ogg",70
Sample,100925,0,"voxa06.ogg",70
Sample,100944,0,"siren11.ogg",70
Sample,100962,0,"voxb15.ogg",70
Sample,101000,0,"siren12.ogg",70
Sample,101000,0,"perc25.ogg",70
Sample,101055,0,"siren13.ogg",70
Sample,101111,0,"siren14.ogg",70
Sample,101111,0,"perc26.ogg",70
Sample,101111,0,"f_b71.ogg",70
Sample,101111,0,"voxa14.ogg",70
Sample,101166,0,"siren15.ogg",70
Sample,101222,0,"siren16.ogg",70
Sample,101277,0,"siren17.ogg",70
Sample,101333,0,"cym.ogg",70
Sample,101333,0,"noise.ogg",70
Sample,101333,0,"falla.ogg",70
Sample,101333,0,"f_breaks00.ogg",70
Sample,101546,0,"f_breaks01.ogg",70
Sample,101768,0,"f_breaks02.ogg",70
Sample,101990,0,"f_breaks03.ogg",70
Sample,102101,0,"f_breaks04.ogg",70
Sample,102212,0,"f_breaks05.ogg",70
Sample,102222,0,"upfilt.ogg",70
Sample,102324,0,"f_breaks06.ogg",70
Sample,102435,0,"f_breaks07.ogg",70
Sample,102657,0,"f_breaks08.ogg",70
Sample,102879,0,"f_breaks09.ogg",70
Sample,103101,0,"f_breaks10.ogg",70
Sample,103324,0,"f_breaks11.ogg",70
Sample,103546,0,"f_breaks12.ogg",70
Sample,103768,0,"f_breaks13.ogg",70
Sample,103990,0,"f_breaks14.ogg",70
Sample,104101,0,"f_breaks15.ogg",70
Sample,104212,0,"f_breaks16.ogg",70
Sample,104324,0,"f_breaks17.ogg",70
Sample,104435,0,"f_breaks18.ogg",70
Sample,104657,0,"f_breaks19.ogg",70
Sample,104879,0,"f_breaks20.ogg",70
Sample,105101,0,"f_breaks21.ogg",70
Sample,105324,0,"f_breaks22.ogg",70
Sample,105546,0,"f_breaks23.ogg",70
Sample,105657,0,"f_breaks24.ogg",70
Sample,105768,0,"f_breaks25.ogg",70
Sample,105879,0,"f_breaks26.ogg",70
Sample,105990,0,"f_breaks27.ogg",70
Sample,106212,0,"f_breaks28.ogg",70
Sample,106435,0,"f_breaks29.ogg",70
Sample,106657,0,"f_breaks30.ogg",70
Sample,106666,0,"yeah.ogg",70
Sample,106879,0,"f_breaks31.ogg",70
Sample,107101,0,"f_breaks32.ogg",70
Sample,107314,0,"f_breaks33.ogg",70
Sample,107546,0,"f_breaks34.ogg",70
Sample,107657,0,"f_breaks35.ogg",70
Sample,107768,0,"f_breaks36.ogg",70
Sample,107879,0,"f_breaks37.ogg",70
Sample,107990,0,"f_breaks38.ogg",70
Sample,108101,0,"f_breaks39.ogg",70
Sample,108212,0,"f_breaks40.ogg",70
Sample,108324,0,"f_breaks41.ogg",70
Sample,108444,0,"ben01.ogg",70
Sample,108444,0,"voxa01.ogg",70
Sample,108444,0,"tt02.ogg",70
Sample,108444,0,"perc01.ogg",70
Sample,108555,0,"perc02.ogg",70
Sample,108666,0,"voxa02.ogg",70
Sample,108666,0,"ben02.ogg",70
Sample,108666,0,"perc03.ogg",70
Sample,108777,0,"perc04.ogg",70
Sample,108777,0,"voxa03.ogg",70
Sample,108888,0,"ben03.ogg",70
Sample,108888,0,"perc05.ogg",70
Sample,109000,0,"perc06.ogg",70
Sample,109111,0,"ben04.ogg",70
Sample,109111,0,"perc07.ogg",70
Sample,109333,0,"perc08.ogg",70
Sample,109555,0,"ben05.ogg",70
Sample,109555,0,"perc09.ogg",70
Sample,109666,0,"perc10.ogg",70
Sample,109777,0,"ben06.ogg",70
Sample,109777,0,"perc11.ogg",70
Sample,110000,0,"perc12.ogg",70
Sample,110037,0,"ben07.ogg",70
Sample,110222,0,"voxa01.ogg",70
Sample,110222,0,"perc13.ogg",70
Sample,110222,0,"ben08.ogg",70
Sample,110222,0,"rev_stab.ogg",70
Sample,110333,0,"perc14.ogg",70
Sample,110444,0,"perc15.ogg",70
Sample,110444,0,"ben09.ogg",70
Sample,110444,0,"voxa02.ogg",70
Sample,110555,0,"voxa03.ogg",70
Sample,110555,0,"perc16.ogg",70
Sample,110666,0,"perc17.ogg",70
Sample,110666,0,"ben10.ogg",70
Sample,110777,0,"perc18.ogg",70
Sample,110888,0,"perc19.ogg",70
Sample,110888,0,"ben11.ogg",70
Sample,111111,0,"perc20.ogg",70
Sample,111222,0,"perc21.ogg",70
Sample,111333,0,"ben12.ogg",70
Sample,111333,0,"perc22.ogg",70
Sample,111444,0,"perc23.ogg",70
Sample,111555,0,"ben13.ogg",70
Sample,111555,0,"perc24.ogg",70
Sample,111666,0,"perc25.ogg",70
Sample,111777,0,"perc26.ogg",70
Sample,111814,0,"ben14.ogg",70
Sample,112000,0,"perc01.ogg",70
Sample,112000,0,"voxa01.ogg",70
Sample,112000,0,"ben01.ogg",70
Sample,112111,0,"perc02.ogg",70
Sample,112222,0,"perc03.ogg",70
Sample,112222,0,"ben02.ogg",70
Sample,112222,0,"voxa02.ogg",70
Sample,112333,0,"voxa03.ogg",70
Sample,112333,0,"perc04.ogg",70
Sample,112444,0,"perc05.ogg",70
Sample,112444,0,"ben03.ogg",70
Sample,112555,0,"perc06.ogg",70
Sample,112666,0,"perc07.ogg",70
Sample,112666,0,"ben04.ogg",70
Sample,112888,0,"perc08.ogg",70
Sample,113111,0,"perc09.ogg",70
Sample,113111,0,"ben05.ogg",70
Sample,113222,0,"perc10.ogg",70
Sample,113333,0,"perc11.ogg",70
Sample,113333,0,"ben06.ogg",70
Sample,113555,0,"perc12.ogg",70
Sample,113592,0,"ben07.ogg",70
Sample,113777,0,"perc13.ogg",70
Sample,113777,0,"ben08.ogg",70
Sample,113777,0,"voxa01.ogg",70
Sample,113888,0,"perc14.ogg",70
Sample,114000,0,"perc15.ogg",70
Sample,114000,0,"voxa02.ogg",70
Sample,114000,0,"ben09.ogg",70
Sample,114111,0,"voxa03.ogg",70
Sample,114111,0,"perc16.ogg",70
Sample,114222,0,"perc17.ogg",70
Sample,114222,0,"ben10.ogg",70
Sample,114333,0,"perc18.ogg",70
Sample,114444,0,"perc19.ogg",70
Sample,114444,0,"ben11.ogg",70
Sample,114666,0,"perc20.ogg",70
Sample,114777,0,"perc21.ogg",70
Sample,114888,0,"ben12.ogg",70
Sample,114888,0,"perc22.ogg",70
Sample,115000,0,"perc23.ogg",70
Sample,115111,0,"ben13.ogg",70
Sample,115111,0,"perc24.ogg",70
Sample,115222,0,"perc25.ogg",70
Sample,115333,0,"perc26.ogg",70
Sample,115370,0,"ben08.ogg",70
Sample,115555,0,"ben01.ogg",70
Sample,115555,0,"voxa01.ogg",70
Sample,115555,0,"voxb09.ogg",70
Sample,115555,0,"perc01.ogg",70
Sample,115666,0,"perc02.ogg",70
Sample,115777,0,"voxa02.ogg",70
Sample,115777,0,"ben02.ogg",70
Sample,115777,0,"perc03.ogg",70
Sample,115888,0,"perc04.ogg",70
Sample,115888,0,"voxa03.ogg",70
Sample,116000,0,"ben03.ogg",70
Sample,116000,0,"perc05.ogg",70
Sample,116111,0,"perc06.ogg",70
Sample,116222,0,"ben04.ogg",70
Sample,116222,0,"perc07.ogg",70
Sample,116444,0,"perc08.ogg",70
Sample,116666,0,"ben05.ogg",70
Sample,116666,0,"perc09.ogg",70
Sample,116777,0,"perc10.ogg",70
Sample,116888,0,"ben06.ogg",70
Sample,116888,0,"perc11.ogg",70
Sample,117111,0,"perc12.ogg",70
Sample,117148,0,"ben07.ogg",70
Sample,117333,0,"perc13.ogg",70
Sample,117333,0,"voxa01.ogg",70
Sample,117333,0,"ben08.ogg",70
Sample,117444,0,"perc14.ogg",70
Sample,117555,0,"perc15.ogg",70
Sample,117555,0,"ben09.ogg",70
Sample,117555,0,"voxa02.ogg",70
Sample,117666,0,"voxa03.ogg",70
Sample,117666,0,"perc16.ogg",70
Sample,117777,0,"perc17.ogg",70
Sample,117777,0,"ben10.ogg",70
Sample,117888,0,"perc18.ogg",70
Sample,118000,0,"perc19.ogg",70
Sample,118000,0,"ben07.ogg",70
Sample,118222,0,"perc20.ogg",70
Sample,118333,0,"perc21.ogg",70
Sample,118444,0,"ben07.ogg",70
Sample,118444,0,"perc22.ogg",70
Sample,118555,0,"perc23.ogg",70
Sample,118666,0,"ben07.ogg",70
Sample,118666,0,"perc24.ogg",70
Sample,118740,0,"voxb15.ogg",70
Sample,118777,0,"perc25.ogg",70
Sample,118888,0,"perc26.ogg",70
Sample,118925,0,"ben08.ogg",70
Sample,119111,0,"perc01.ogg",70
Sample,119111,0,"voxa01.ogg",70
Sample,119111,0,"ben01.ogg",70
Sample,119222,0,"perc02.ogg",70
Sample,119333,0,"perc03.ogg",70
Sample,119333,0,"voxa02.ogg",70
Sample,119333,0,"ben02.ogg",70
Sample,119444,0,"voxa03.ogg",70
Sample,119444,0,"perc04.ogg",70
Sample,119555,0,"perc05.ogg",70
Sample,119555,0,"ben03.ogg",70
Sample,119666,0,"perc06.ogg",70
Sample,119777,0,"perc07.ogg",70
Sample,119777,0,"ben04.ogg",70
Sample,120000,0,"perc08.ogg",70
Sample,120222,0,"perc09.ogg",70
Sample,120222,0,"ben05.ogg",70
Sample,120333,0,"perc10.ogg",70
Sample,120444,0,"perc11.ogg",70
Sample,120444,0,"ben06.ogg",70
Sample,120666,0,"perc12.ogg",70
Sample,120703,0,"ben07.ogg",70
Sample,120888,0,"perc13.ogg",70
Sample,120888,0,"ben08.ogg",70
Sample,120888,0,"voxa01.ogg",70
Sample,121000,0,"perc14.ogg",70
Sample,121111,0,"perc15.ogg",70
Sample,121111,0,"ben09.ogg",70
Sample,121111,0,"voxa02.ogg",70
Sample,121222,0,"voxa03.ogg",70
Sample,121222,0,"perc16.ogg",70
Sample,121333,0,"perc17.ogg",70
Sample,121333,0,"ben10.ogg",70
Sample,121444,0,"perc18.ogg",70
Sample,121555,0,"perc19.ogg",70
Sample,121555,0,"ben11.ogg",70
Sample,121777,0,"perc20.ogg",70
Sample,121888,0,"perc21.ogg",70
Sample,122000,0,"ben12.ogg",70
Sample,122000,0,"perc22.ogg",70
Sample,122111,0,"perc23.ogg",70
Sample,122222,0,"ben13.ogg",70
Sample,122222,0,"perc24.ogg",70
Sample,122333,0,"perc25.ogg",70
Sample,122444,0,"perc26.ogg",70
Sample,122481,0,"ben08.ogg",70
Sample,122666,0,"noise.ogg",70
Sample,122666,0,"voxa01.ogg",70
Sample,122666,0,"ben01.ogg",70
Sample,122666,0,"percb00.ogg",70
Sample,122888,0,"ben02.ogg",70
Sample,122888,0,"voxa02.ogg",70
Sample,122888,0,"percb01.ogg",70
Sample,123000,0,"voxa03.ogg",70
Sample,123000,0,"percb02.ogg",70
Sample,123111,0,"ben03.ogg",70
Sample,123333,0,"ben04.ogg",70
Sample,123333,0,"percb03.ogg",70
Sample,123555,0,"percb04.ogg",70
Sample,123666,0,"voxb13.ogg",70
Sample,123777,0,"ben05.ogg",70
Sample,124000,0,"ben06.ogg",70
Sample,124000,0,"percb05.ogg",70
Sample,124222,0,"percb06.ogg",70
Sample,124259,0,"ben07.ogg",70
Sample,124444,0,"rev_stab.ogg",70
Sample,124444,0,"voxa01.ogg",70
Sample,124444,0,"ben08.ogg",70
Sample,124444,0,"percb00.ogg",70
Sample,124666,0,"ben09.ogg",70
Sample,124666,0,"voxa02.ogg",70
Sample,124666,0,"percb01.ogg",70
Sample,124777,0,"voxa03.ogg",70
Sample,124777,0,"percb02.ogg",70
Sample,124888,0,"ben10.ogg",70
Sample,125111,0,"ben11.ogg",70
Sample,125111,0,"percb03.ogg",70
Sample,125333,0,"percb04.ogg",70
Sample,125555,0,"ben12.ogg",70
Sample,125777,0,"ben13.ogg",70
Sample,125777,0,"percb05.ogg",70
Sample,126000,0,"percb06.ogg",70
Sample,126018,0,"ben14.ogg",70
Sample,126222,0,"ben01.ogg",70
Sample,126222,0,"voxa01.ogg",70
Sample,126444,0,"voxa02.ogg",70
Sample,126444,0,"ben02.ogg",70
Sample,126555,0,"voxa03.ogg",70
Sample,126666,0,"ben03.ogg",70
Sample,126888,0,"ben04.ogg",70
Sample,127333,0,"ben05.ogg",70
Sample,127555,0,"ben06.ogg",70
Sample,127814,0,"ben07.ogg",70
Sample,128000,0,"voxa01.ogg",70
Sample,128000,0,"rev_stab.ogg",70
Sample,128000,0,"ben08.ogg",70
Sample,128222,0,"ben09.ogg",70
Sample,128444,0,"ben10.ogg",70
Sample,128666,0,"ben11.ogg",70
Sample,128888,0,"scr_rev.ogg",70
Sample,129111,0,"ben12.ogg",70
Sample,129333,0,"ben13.ogg",70
Sample,129592,0,"ben01.ogg",70

[TimingPoints]
0,444.444444444444,4,2,0,0,1,0

[HitObjects]
329,192,1777,5,0,0:0:0:0:
36,192,1777,1,0,0:0:0:0:
109,192,1777,1,0,0:0:0:0:
475,192,1777,1,0,0:0:0:0:
256,192,1999,1,0,0:0:0:0:
402,192,2055,1,0,0:0:0:0:
36,192,2111,1,0,0:0:0:0:
182,192,2111,1,0,0:0:0:0:
329,192,2277,1,0,0:0:0:0:
475,192,2277,1,0,0:0:0:0:
109,192,2277,1,0,0:0:0:0:
256,192,2416,1,0,0:0:0:0:
36,192,2444,1,0,0:0:0:0:
182,192,2444,1,0,0:0:0:0:
402,192,2666,1,0,0:0:0:0:
329,192,2666,1,0,0:0:0:0:
109,192,2749,1,0,0:0:0:0:
182,192,2888,1,0,0:0:0:0:
475,192,2916,1,0,0:0:0:0:
256,192,2944,1,0,0:0:0:0:
36,192,2944,1,0,0:0:0:0:
329,192,3027,1,0,0:0:0:0:
402,192,3166,1,0,0:0:0:0:
475,192,3166,1,0,0:0:0:0:
182,192,3194,1,0,0:0:0:0:
36,192,3194,1,0,0:0:0:0:
256,192,3277,1,0,0:0:0:0:
329,192,3333,1,0,0:0:0:0:
36,192,3555,1,0,0:0:0:0:
109,192,3555,1,0,0:0:0:0:
182,192,3555,1,0,0:0:0:0:
329,192,3694,1,0,0:0:0:0:
256,192,3777,1,0,0:0:0:0:
402,192,3777,1,0,0:0:0:0:
182,192,3944,1,0,0:0:0:0:
329,192,3999,1,0,0:0:0:0:
475,192,3999,1,0,0:0:0:0:
36,192,4055,1,0,0:0:0:0:
109,192,4055,1,0,0:0:0:0:
256,192,4055,1,0,0:0:0:0:
402,192,4222,1,0,0:0:0:0:
329,192,4249,1,0,0:0:0:0:
182,192,4277,1,0,0:0:0:0:
109,192,4305,1,0,0:0:0:0:
256,192,4472,1,0,0:0:0:0:
329,192,4555,1,0,0:0:0:0:
475,192,4555,1,0,0:0:0:0:
36,192,4571,1,0,0:0:0:0:
109,192,4634,1,0,0:0:0:0:
182,192,4666,1,0,0:0:0:0:
256,192,4698,1,0,0:0:0:0:
402,192,4761,1,0,0:0:0:0:
182,192,4825,1,0,0:0:0:0:
256,192,4861,1,0,0:0:0:0:
329,192,4888,1,0,0:0:0:0:
475,192,4916,1,0,0:0:0:0:
36,192,4938,1,0,0:0:0:0:
109,192,4987,1,0,0:0:0:0:
256,192,5055,1,0,0:0:0:0:
329,192,5083,1,0,0:0:0:0:
402,192,5111,1,0,0:0:0:0:
475,192,5138,1,0,0:0:0:0:
109,192,5305,1,0,0:0:0:0:
36,192,5333,1,0,0:0:0:0:
475,192,5333,1,0,0:0:0:0:
329,192,5361,1,0,0:0:0:0:
256,192,5388,1,0,0:0:0:0:
182,192,5527,1,0,0:0:0:0:
402,192,5555,1,0,0:0:0:0:
109,192,5555,1,0,0:0:0:0:
256,192,5666,1,0,0:0:0:0:
109,192,5833,1,0,0:0:0:0:
36,192,5833,1,0,0:0:0:0:
329,192,5833,1,0,0:0:0:0:
475,192,5833,1,0,0:0:0:0:
256,192,5999,1,0,0:0:0:0:
182,192,6027,1,0,0:0:0:0:
402,192,6222,1,0,0:0:0:0:
36,192,6222,1,0,0:0:0:0:
109,192,6222,1,0,0:0:0:0:
256,192,6222,1,0,0:0:0:0:
182,192,6444,1,0,0:0:0:0:
475,192,6444,1,0,0:0:0:0:
329,192,6472,1,0,0:0:0:0:
36,192,6638,1,0,0:0:0:0:
256,192,6666,1,0,0:0:0:0:
402,192,6666,1,0,0:0:0:0:
475,192,6666,1,0,0:0:0:0:
109,192,6666,1,0,0:0:0:0:
109,192,6777,1,0,0:0:0:0:
182,192,6861,1,0,0:0:0:0:
329,192,6888,1,0,0:0:0:0:
402,192,6916,1,0,0:0:0:0:
475,192,7083,1,0,0:0:0:0:
36,192,7111,1,0,0:0:0:0:
109,192,7111,1,0,0:0:0:0:
256,192,7111,1,0,0:0:0:0:
329,192,7111,1,0,0:0:0:0:
329,192,7222,1,0,0:0:0:0:
182,192,7222,1,0,0:0:0:0:
256,192,7333,1,0,0:0:0:0:
475,192,7333,1,0,0:0:0:0:
402,192,7361,1,0,0:0:0:0:
182,192,7444,1,0,0:0:0:0:
329,192,7527,1,0,0:0:0:0:
36,192,7555,1,0,0:0:0:0:
109,192,7555,1,0,0:0:0:0:
475,192,7555,1,0,0:0:0:0:
182,192,7749,1,0,0:0:0:0:
256,192,7777,1,0,0:0:0:0:
402,192,7777,1,0,0:0:0:0:
36,192,7999,1,0,0:0:0:0:
109,192,7999,1,0,0:0:0:0:
182,192,7999,1,0,0:0:0:0:
329,192,7999,1,0,0:0:0:0:
402,192,7999,1,0,0:0:0:0:
475,192,7999,1,0,0:0:0:0:
36,192,8444,1,0,0:0:0:0:
109,192,8444,1,0,0:0:0:0:
182,192,8444,1,0,0:0:0:0:
329,192,8444,1,0,0:0:0:0:
402,192,8444,1,0,0:0:0:0:
475,192,8444,1,0,0:0:0:0:
329,192,8888,128,0,8999:0:0:0:0:
402,192,8888,128,0,9222:0:0:0:0:
475,192,8888,128,0,8999:0:0:0:0:
256,192,8888,128,0,8999:0:0:0:0:
36,192,8888,128,0,9222:0:0:0:0:
109,192,8888,1,0,0:0:0:0:
182,192,9055,128,0,9166:0:0:0:0:
256,192,9111,128,0,9222:0:0:0:0:
475,192,9111,128,0,9222:0:0:0:0:
329,192,9111,128,0,9444:0:0:0:0:
109,192,9111,128,0,9222:0:0:0:0:
109,192,9305,1,0,0:0:0:0:
475,192,9333,128,0,9444:0:0:0:0:
256,192,9333,128,0,9722:0:0:0:0:
402,192,9333,128,0,9444:0:0:0:0:
36,192,9333,1,0,0:0:0:0:
182,192,9333,128,0,9444:0:0:0:0:
36,192,9527,128,0,9611:0:0:0:0:
329,192,9555,128,0,9694:0:0:0:0:
402,192,9555,128,0,9666:0:0:0:0:
475,192,9555,128,0,9638:0:0:0:0:
182,192,9555,128,0,9638:0:0:0:0:
109,192,9749,1,0,0:0:0:0:
475,192,9777,128,0,10111:0:0:0:0:
182,192,9805,1,0,0:0:0:0:
256,192,9833,1,0,0:0:0:0:
402,192,9861,1,0,0:0:0:0:
109,192,9972,1,0,0:0:0:0:
182,192,9999,1,0,0:0:0:0:
402,192,9999,128,0,10111:0:0:0:0:
329,192,10027,128,0,10138:0:0:0:0:
36,192,10055,128,0,10166:0:0:0:0:
109,192,10166,1,0,0:0:0:0:
256,192,10166,1,0,0:0:0:0:
329,192,10222,1,0,0:0:0:0:
402,192,10222,1,0,0:0:0:0:
475,192,10222,1,0,0:0:0:0:
182,192,10222,1,0,0:0:0:0:
36,192,10333,1,0,0:0:0:0:
109,192,10388,1,0,0:0:0:0:
256,192,10416,128,0,10499:0:0:0:0:
329,192,10444,128,0,10527:0:0:0:0:
402,192,10472,128,0,10611:0:0:0:0:
475,192,10499,128,0,10999:0:0:0:0:
182,192,10499,1,0,0:0:0:0:
329,192,10638,1,0,0:0:0:0:
36,192,10666,128,0,10999:0:0:0:0:
109,192,10666,128,0,10777:0:0:0:0:
182,192,10666,128,0,10777:0:0:0:0:
256,192,10666,128,0,10777:0:0:0:0:
402,192,10694,128,0,10777:0:0:0:0:
329,192,10805,1,0,0:0:0:0:
256,192,10888,128,0,11222:0:0:0:0:
182,192,10888,128,0,10999:0:0:0:0:
109,192,10888,128,0,10999:0:0:0:0:
402,192,10888,128,0,10972:0:0:0:0:
329,192,11027,1,0,0:0:0:0:
36,192,11111,128,0,11499:0:0:0:0:
109,192,11111,128,0,11222:0:0:0:0:
182,192,11111,128,0,11222:0:0:0:0:
475,192,11111,1,0,0:0:0:0:
402,192,11111,128,0,11222:0:0:0:0:
329,192,11277,1,0,0:0:0:0:
402,192,11305,1,0,0:0:0:0:
182,192,11333,128,0,11444:0:0:0:0:
475,192,11333,128,0,11555:0:0:0:0:
256,192,11333,128,0,11416:0:0:0:0:
109,192,11333,128,0,11472:0:0:0:0:
329,192,11527,1,0,0:0:0:0:
182,192,11555,1,0,0:0:0:0:
109,192,11583,1,0,0:0:0:0:
36,192,11583,1,0,0:0:0:0:
256,192,11666,1,0,0:0:0:0:
475,192,11777,128,0,12111:0:0:0:0:
402,192,11777,128,0,11888:0:0:0:0:
109,192,11777,1,0,0:0:0:0:
329,192,11814,128,0,11925:0:0:0:0:
256,192,11851,128,0,11962:0:0:0:0:
182,192,11888,128,0,11999:0:0:0:0:
109,192,11925,128,0,12037:0:0:0:0:
36,192,11962,128,0,12074:0:0:0:0:
402,192,11999,128,0,12074:0:0:0:0:
329,192,12037,128,0,12111:0:0:0:0:
256,192,12074,128,0,12259:0:0:0:0:
109,192,12111,128,0,12185:0:0:0:0:
182,192,12148,128,0,12222:0:0:0:0:
329,192,12194,128,0,12277:0:0:0:0:
36,192,12222,128,0,12333:0:0:0:0:
475,192,12222,128,0,12444:0:0:0:0:
402,192,12222,128,0,12305:0:0:0:0:
36,192,12444,128,0,12777:0:0:0:0:
256,192,12444,128,0,12555:0:0:0:0:
402,192,12444,128,0,12777:0:0:0:0:
182,192,12444,128,0,12555:0:0:0:0:
109,192,12444,1,0,0:0:0:0:
329,192,12499,1,0,0:0:0:0:
475,192,12638,1,0,0:0:0:0:
109,192,12666,128,0,12999:0:0:0:0:
329,192,12666,128,0,12999:0:0:0:0:
256,192,12666,128,0,12777:0:0:0:0:
182,192,12666,128,0,12777:0:0:0:0:
475,192,12805,1,0,0:0:0:0:
182,192,12861,128,0,12972:0:0:0:0:
36,192,12888,128,0,13333:0:0:0:0:
402,192,12888,128,0,13194:0:0:0:0:
256,192,12888,128,0,12999:0:0:0:0:
475,192,13083,1,0,0:0:0:0:
109,192,13111,128,0,13305:0:0:0:0:
182,192,13111,128,0,13277:0:0:0:0:
256,192,13111,128,0,13249:0:0:0:0:
329,192,13111,128,0,13222:0:0:0:0:
475,192,13249,1,0,0:0:0:0:
329,192,13305,1,0,0:0:0:0:
256,192,13333,1,0,0:0:0:0:
402,192,13333,1,0,0:0:0:0:
182,192,13388,1,0,0:0:0:0:
402,192,13499,1,0,0:0:0:0:
109,192,13527,128,0,13638:0:0:0:0:
36,192,13527,128,0,13694:0:0:0:0:
182,192,13527,128,0,13611:0:0:0:0:
329,192,13555,128,0,13638:0:0:0:0:
256,192,13583,128,0,13666:0:0:0:0:
402,192,13611,1,0,0:0:0:0:
475,192,13638,1,0,0:0:0:0:
182,192,13694,1,0,0:0:0:0:
36,192,13777,1,0,0:0:0:0:
475,192,13777,1,0,0:0:0:0:
256,192,13777,128,0,14055:0:0:0:0:
109,192,13777,128,0,13888:0:0:0:0:
329,192,13777,128,0,13833:0:0:0:0:
182,192,13916,1,0,0:0:0:0:
329,192,13944,128,0,13999:0:0:0:0:
402,192,13972,128,0,14222:0:0:0:0:
36,192,13999,128,0,14111:0:0:0:0:
109,192,14027,128,0,14138:0:0:0:0:
475,192,14083,128,0,14222:0:0:0:0:
329,192,14194,1,0,0:0:0:0:
36,192,14222,128,0,14555:0:0:0:0:
256,192,14222,128,0,14333:0:0:0:0:
182,192,14222,128,0,14333:0:0:0:0:
109,192,14222,128,0,14333:0:0:0:0:
109,192,14388,1,0,0:0:0:0:
182,192,14416,1,0,0:0:0:0:
475,192,14444,128,0,14777:0:0:0:0:
402,192,14444,128,0,14555:0:0:0:0:
329,192,14444,128,0,14555:0:0:0:0:
256,192,14444,128,0,14555:0:0:0:0:
109,192,14527,1,0,0:0:0:0:
402,192,14638,1,0,0:0:0:0:
36,192,14666,128,0,15111:0:0:0:0:
109,192,14666,128,0,14777:0:0:0:0:
182,192,14666,128,0,14777:0:0:0:0:
256,192,14666,128,0,14777:0:0:0:0:
329,192,14666,1,0,0:0:0:0:
475,192,14888,128,0,14972:0:0:0:0:
402,192,14888,128,0,14999:0:0:0:0:
329,192,14888,128,0,15027:0:0:0:0:
256,192,14888,128,0,15055:0:0:0:0:
182,192,14888,128,0,15083:0:0:0:0:
109,192,14888,128,0,15111:0:0:0:0:
475,192,15055,1,0,0:0:0:0:
402,192,15083,1,0,0:0:0:0:
329,192,15111,1,0,0:0:0:0:
36,192,15194,1,0,0:0:0:0:
182,192,15222,1,0,0:0:0:0:
402,192,15305,1,0,0:0:0:0:
256,192,15333,1,0,0:0:0:0:
109,192,15333,128,0,15444:0:0:0:0:
475,192,15333,128,0,15555:0:0:0:0:
182,192,15388,128,0,15499:0:0:0:0:
36,192,15416,1,0,0:0:0:0:
329,192,15444,128,0,15555:0:0:0:0:
402,192,15472,1,0,0:0:0:0:
36,192,15555,1,0,0:0:0:0:
256,192,15555,128,0,15861:0:0:0:0:
109,192,15583,1,0,0:0:0:0:
402,192,15583,1,0,0:0:0:0:
182,192,15611,1,0,0:0:0:0:
475,192,15666,128,0,15749:0:0:0:0:
329,192,15694,128,0,15888:0:0:0:0:
36,192,15777,128,0,15916:0:0:0:0:
109,192,15777,128,0,15972:0:0:0:0:
182,192,15777,128,0,15833:0:0:0:0:
402,192,15916,1,0,0:0:0:0:
475,192,15916,1,0,0:0:0:0:
329,192,15972,1,0,0:0:0:0:
36,192,15999,128,0,16333:0:0:0:0:
182,192,15999,128,0,16111:0:0:0:0:
256,192,15999,128,0,16111:0:0:0:0:
475,192,16055,1,0,0:0:0:0:
402,192,16111,1,0,0:0:0:0:
182,192,16222,128,0,16555:0:0:0:0:
109,192,16222,128,0,16333:0:0:0:0:
329,192,16222,128,0,16333:0:0:0:0:
475,192,16249,1,0,0:0:0:0:
402,192,16277,1,0,0:0:0:0:
329,192,16416,1,0,0:0:0:0:
402,192,16444,128,0,16777:0:0:0:0:
256,192,16444,128,0,16555:0:0:0:0:
475,192,16444,128,0,16555:0:0:0:0:
36,192,16472,1,0,0:0:0:0:
109,192,16499,1,0,0:0:0:0:
256,192,16638,1,0,0:0:0:0:
109,192,16666,128,0,16999:0:0:0:0:
36,192,16666,128,0,16861:0:0:0:0:
329,192,16666,128,0,16805:0:0:0:0:
182,192,16666,128,0,16833:0:0:0:0:
475,192,16666,128,0,16749:0:0:0:0:
475,192,16861,1,0,0:0:0:0:
402,192,16888,1,0,0:0:0:0:
256,192,16888,1,0,0:0:0:0:
329,192,16888,1,0,0:0:0:0:
182,192,16972,1,0,0:0:0:0:
475,192,17055,128,0,17222:0:0:0:0:
36,192,17083,1,0,0:0:0:0:
182,192,17111,1,0,0:0:0:0:
402,192,17111,128,0,17277:0:0:0:0:
329,192,17166,128,0,17333:0:0:0:0:
256,192,17249,1,0,0:0:0:0:
109,192,17277,1,0,0:0:0:0:
36,192,17333,1,0,0:0:0:0:
475,192,17333,1,0,0:0:0:0:
182,192,17361,1,0,0:0:0:0:
109,192,17444,1,0,0:0:0:0:
329,192,17499,128,0,17666:0:0:0:0:
256,192,17527,128,0,17638:0:0:0:0:
182,192,17527,1,0,0:0:0:0:
402,192,17555,128,0,17722:0:0:0:0:
475,192,17611,128,0,17777:0:0:0:0:
36,192,17722,1,0,0:0:0:0:
256,192,17777,1,0,0:0:0:0:
109,192,17777,128,0,18111:0:0:0:0:
182,192,17777,128,0,17999:0:0:0:0:
329,192,17777,128,0,17888:0:0:0:0:
36,192,17944,1,0,0:0:0:0:
475,192,17999,128,0,18444:0:0:0:0:
402,192,17999,128,0,18222:0:0:0:0:
256,192,17999,128,0,18111:0:0:0:0:
329,192,17999,1,0,0:0:0:0:
256,192,18194,1,0,0:0:0:0:
36,192,18222,128,0,18666:0:0:0:0:
182,192,18222,128,0,18444:0:0:0:0:
329,192,18222,128,0,18333:0:0:0:0:
109,192,18249,1,0,0:0:0:0:
402,192,18444,128,0,18666:0:0:0:0:
109,192,18444,128,0,18555:0:0:0:0:
256,192,18444,128,0,18666:0:0:0:0:
329,192,18472,1,0,0:0:0:0:
182,192,18638,1,0,0:0:0:0:
109,192,18666,1,0,0:0:0:0:
329,192,18666,1,0,0:0:0:0:
475,192,18666,1,0,0:0:0:0:
182,192,18777,1,0,0:0:0:0:
36,192,18833,1,0,0:0:0:0:
256,192,18861,128,0,18944:0:0:0:0:
329,192,18888,128,0,18999:0:0:0:0:
109,192,18888,1,0,0:0:0:0:
402,192,18916,128,0,19055:0:0:0:0:
475,192,18944,128,0,19111:0:0:0:0:
182,192,18972,1,0,0:0:0:0:
36,192,19083,128,0,19166:0:0:0:0:
109,192,19111,128,0,19194:0:0:0:0:
329,192,19111,1,0,0:0:0:0:
182,192,19166,128,0,19249:0:0:0:0:
256,192,19166,128,0,19277:0:0:0:0:
402,192,19194,128,0,19305:0:0:0:0:
475,192,19222,128,0,19361:0:0:0:0:
329,192,19249,128,0,19333:0:0:0:0:
36,192,19249,1,0,0:0:0:0:
109,192,19361,128,0,19444:0:0:0:0:
36,192,19388,128,0,19527:0:0:0:0:
182,192,19416,128,0,19499:0:0:0:0:
256,192,19444,1,0,0:0:0:0:
475,192,19444,1,0,0:0:0:0:
329,192,19555,128,0,19888:0:0:0:0:
109,192,19555,128,0,19666:0:0:0:0:
402,192,19555,128,0,19666:0:0:0:0:
475,192,19555,128,0,19666:0:0:0:0:
256,192,19583,1,0,0:0:0:0:
182,192,19611,1,0,0:0:0:0:
36,192,19777,128,0,20111:0:0:0:0:
182,192,19777,128,0,19888:0:0:0:0:
256,192,19777,128,0,19888:0:0:0:0:
402,192,19777,128,0,19888:0:0:0:0:
475,192,19777,1,0,0:0:0:0:
109,192,19805,1,0,0:0:0:0:
182,192,19972,1,0,0:0:0:0:
475,192,19999,128,0,20305:0:0:0:0:
109,192,19999,128,0,20111:0:0:0:0:
256,192,19999,128,0,20111:0:0:0:0:
329,192,19999,128,0,20111:0:0:0:0:
402,192,20027,1,0,0:0:0:0:
182,192,20222,128,0,20444:0:0:0:0:
402,192,20222,128,0,20333:0:0:0:0:
329,192,20222,128,0,20361:0:0:0:0:
36,192,20222,128,0,20388:0:0:0:0:
109,192,20222,1,0,0:0:0:0:
256,192,20277,1,0,0:0:0:0:
475,192,20416,1,0,0:0:0:0:
402,192,20444,1,0,0:0:0:0:
256,192,20444,1,0,0:0:0:0:
109,192,20444,1,0,0:0:0:0:
329,192,20611,1,0,0:0:0:0:
475,192,20638,1,0,0:0:0:0:
36,192,20666,128,0,20777:0:0:0:0:
256,192,20666,1,0,0:0:0:0:
109,192,20722,128,0,20833:0:0:0:0:
402,192,20749,1,0,0:0:0:0:
182,192,20777,128,0,20888:0:0:0:0:
402,192,20888,128,0,21111:0:0:0:0:
475,192,20888,128,0,21111:0:0:0:0:
36,192,20888,1,0,0:0:0:0:
256,192,20888,1,0,0:0:0:0:
329,192,20888,1,0,0:0:0:0:
109,192,20944,1,0,0:0:0:0:
329,192,21055,1,0,0:0:0:0:
256,192,21083,128,0,21194:0:0:0:0:
182,192,21111,128,0,21222:0:0:0:0:
109,192,21138,128,0,21249:0:0:0:0:
36,192,21166,128,0,21305:0:0:0:0:
475,192,21222,1,0,0:0:0:0:
402,192,21249,1,0,0:0:0:0:
109,192,21333,128,0,21666:0:0:0:0:
182,192,21333,128,0,21444:0:0:0:0:
256,192,21333,128,0,21444:0:0:0:0:
329,192,21333,128,0,21444:0:0:0:0:
36,192,21388,1,0,0:0:0:0:
402,192,21555,128,0,21888:0:0:0:0:
475,192,21555,128,0,21666:0:0:0:0:
329,192,21555,128,0,21666:0:0:0:0:
36,192,21555,128,0,21666:0:0:0:0:
182,192,21555,1,0,0:0:0:0:
256,192,21611,1,0,0:0:0:0:
329,192,21749,1,0,0:0:0:0:
36,192,21777,128,0,22083:0:0:0:0:
109,192,21777,128,0,21888:0:0:0:0:
182,192,21777,128,0,21888:0:0:0:0:
256,192,21777,128,0,21888:0:0:0:0:
475,192,21777,1,0,0:0:0:0:
109,192,21972,1,0,0:0:0:0:
475,192,21999,128,0,22194:0:0:0:0:
182,192,21999,128,0,22111:0:0:0:0:
329,192,21999,128,0,22138:0:0:0:0:
402,192,21999,128,0,22166:0:0:0:0:
256,192,22027,1,0,0:0:0:0:
36,192,22166,1,0,0:0:0:0:
109,192,22194,1,0,0:0:0:0:
256,192,22222,1,0,0:0:0:0:
329,192,22277,1,0,0:0:0:0:
402,192,22277,1,0,0:0:0:0:
182,192,22305,1,0,0:0:0:0:
36,192,22361,1,0,0:0:0:0:
109,192,22361,1,0,0:0:0:0:
256,192,22388,1,0,0:0:0:0:
475,192,22416,1,0,0:0:0:0:
402,192,22472,128,0,22555:0:0:0:0:
329,192,22499,128,0,22611:0:0:0:0:
256,192,22527,128,0,22638:0:0:0:0:
182,192,22555,128,0,22666:0:0:0:0:
109,192,22583,128,0,22722:0:0:0:0:
36,192,22611,128,0,22833:0:0:0:0:
475,192,22638,1,0,0:0:0:0:
402,192,22666,1,0,0:0:0:0:
329,192,22694,1,0,0:0:0:0:
182,192,22777,1,0,0:0:0:0:
256,192,22833,1,0,0:0:0:0:
109,192,22861,128,0,22999:0:0:0:0:
475,192,22861,1,0,0:0:0:0:
182,192,22916,128,0,23027:0:0:0:0:
402,192,22916,1,0,0:0:0:0:
256,192,22972,128,0,23055:0:0:0:0:
329,192,22999,128,0,23111:0:0:0:0:
109,192,23111,1,0,0:0:0:0:
36,192,23111,1,0,0:0:0:0:
182,192,23111,1,0,0:0:0:0:
402,192,23111,128,0,23388:0:0:0:0:
475,192,23111,128,0,23388:0:0:0:0:
109,192,23333,1,0,0:0:0:0:
182,192,23333,1,0,0:0:0:0:
182,192,23444,1,0,0:0:0:0:
402,192,23444,1,0,0:0:0:0:
329,192,23444,1,0,0:0:0:0:
475,192,23444,1,0,0:0:0:0:
109,192,23444,128,0,23722:0:0:0:0:
36,192,23444,128,0,23722:0:0:0:0:
256,192,23666,1,0,0:0:0:0:
36,192,23777,1,0,0:0:0:0:
109,192,23777,1,0,0:0:0:0:
182,192,23777,1,0,0:0:0:0:
329,192,23777,1,0,0:0:0:0:
402,192,23777,128,0,23999:0:0:0:0:
475,192,23777,128,0,24222:0:0:0:0:
256,192,23888,1,0,0:0:0:0:
182,192,23999,1,0,0:0:0:0:
329,192,23999,1,0,0:0:0:0:
182,192,24111,1,0,0:0:0:0:
256,192,24194,1,0,0:0:0:0:
36,192,24222,1,0,0:0:0:0:
402,192,24222,1,0,0:0:0:0:
109,192,24249,1,0,0:0:0:0:
329,192,24333,1,0,0:0:0:0:
182,192,24444,1,0,0:0:0:0:
402,192,24444,1,0,0:0:0:0:
475,192,24444,1,0,0:0:0:0:
256,192,24444,1,0,0:0:0:0:
36,192,24472,1,0,0:0:0:0:
329,192,24555,1,0,0:0:0:0:
109,192,24555,1,0,0:0:0:0:
256,192,24611,1,0,0:0:0:0:
475,192,24638,1,0,0:0:0:0:
402,192,24666,1,0,0:0:0:0:
182,192,24694,1,0,0:0:0:0:
36,192,24694,1,0,0:0:0:0:
329,192,24777,1,0,0:0:0:0:
475,192,24777,1,0,0:0:0:0:
256,192,24861,1,0,0:0:0:0:
36,192,24888,128,0,25222:0:0:0:0:
109,192,24888,128,0,25027:0:0:0:0:
182,192,24888,128,0,24999:0:0:0:0:
402,192,24888,128,0,24972:0:0:0:0:
475,192,25083,1,0,0:0:0:0:
256,192,25111,128,0,25444:0:0:0:0:
182,192,25111,128,0,25194:0:0:0:0:
329,192,25111,128,0,25222:0:0:0:0:
402,192,25111,128,0,25249:0:0:0:0:
109,192,25194,1,0,0:0:0:0:
36,192,25305,1,0,0:0:0:0:
475,192,25333,128,0,25722:0:0:0:0:
329,192,25333,128,0,25416:0:0:0:0:
182,192,25333,128,0,25444:0:0:0:0:
109,192,25333,128,0,25472:0:0:0:0:
402,192,25361,1,0,0:0:0:0:
36,192,25555,128,0,25777:0:0:0:0:
256,192,25555,128,0,25638:0:0:0:0:
329,192,25555,128,0,25666:0:0:0:0:
402,192,25555,128,0,25694:0:0:0:0:
182,192,25555,1,0,0:0:0:0:
109,192,25611,1,0,0:0:0:0:
182,192,25722,1,0,0:0:0:0:
256,192,25777,1,0,0:0:0:0:
329,192,25777,1,0,0:0:0:0:
402,192,25777,1,0,0:0:0:0:
109,192,25777,1,0,0:0:0:0:
475,192,25916,1,0,0:0:0:0:
36,192,25972,1,0,0:0:0:0:
182,192,25999,128,0,26111:0:0:0:0:
109,192,25999,1,0,0:0:0:0:
256,192,26055,128,0,26166:0:0:0:0:
329,192,26083,1,0,0:0:0:0:
402,192,26111,128,0,26222:0:0:0:0:
475,192,26111,128,0,26611:0:0:0:0:
36,192,26138,128,0,26333:0:0:0:0:
109,192,26166,128,0,26305:0:0:0:0:
182,192,26194,128,0,26277:0:0:0:0:
329,192,26222,128,0,26333:0:0:0:0:
402,192,26296,128,0,26370:0:0:0:0:
256,192,26333,128,0,26407:0:0:0:0:
182,192,26370,128,0,26444:0:0:0:0:
109,192,26407,128,0,26481:0:0:0:0:
402,192,26444,128,0,26518:0:0:0:0:
329,192,26481,128,0,26555:0:0:0:0:
256,192,26518,128,0,26592:0:0:0:0:
36,192,26611,1,0,0:0:0:0:
475,192,26666,1,0,0:0:0:0:
402,192,26666,128,0,26999:0:0:0:0:
109,192,26666,128,0,26805:0:0:0:0:
182,192,26666,128,0,26777:0:0:0:0:
329,192,26666,128,0,26749:0:0:0:0:
256,192,26777,1,0,0:0:0:0:
329,192,26888,128,0,27222:0:0:0:0:
36,192,26888,128,0,26972:0:0:0:0:
109,192,26888,128,0,26999:0:0:0:0:
182,192,26888,128,0,27027:0:0:0:0:
475,192,26916,1,0,0:0:0:0:
256,192,26972,1,0,0:0:0:0:
402,192,27111,128,0,27416:0:0:0:0:
256,192,27111,128,0,27194:0:0:0:0:
182,192,27111,128,0,27222:0:0:0:0:
109,192,27111,128,0,27249:0:0:0:0:
36,192,27111,1,0,0:0:0:0:
475,192,27166,1,0,0:0:0:0:
36,192,27333,128,0,27555:0:0:0:0:
329,192,27333,128,0,27444:0:0:0:0:
256,192,27333,128,0,27472:0:0:0:0:
182,192,27333,128,0,27499:0:0:0:0:
109,192,27361,1,0,0:0:0:0:
475,192,27499,1,0,0:0:0:0:
402,192,27527,1,0,0:0:0:0:
329,192,27555,1,0,0:0:0:0:
109,192,27555,1,0,0:0:0:0:
256,192,27555,1,0,0:0:0:0:
256,192,27666,1,0,0:0:0:0:
182,192,27749,128,0,27861:0:0:0:0:
329,192,27777,128,0,27888:0:0:0:0:
36,192,27777,1,0,0:0:0:0:
109,192,27777,1,0,0:0:0:0:
475,192,27805,128,0,27944:0:0:0:0:
402,192,27833,1,0,0:0:0:0:
36,192,27888,1,0,0:0:0:0:
109,192,27972,1,0,0:0:0:0:
182,192,27999,1,0,0:0:0:0:
256,192,27999,1,0,0:0:0:0:
402,192,28027,1,0,0:0:0:0:
329,192,28111,1,0,0:0:0:0:
36,192,28166,128,0,28305:0:0:0:0:
109,192,28194,128,0,28333:0:0:0:0:
402,192,28194,1,0,0:0:0:0:
182,192,28222,128,0,28361:0:0:0:0:
475,192,28222,1,0,0:0:0:0:
256,192,28249,128,0,28388:0:0:0:0:
329,192,28333,1,0,0:0:0:0:
475,192,28444,1,0,0:0:0:0:
36,192,28444,128,0,28833:0:0:0:0:
109,192,28444,128,0,28583:0:0:0:0:
182,192,28444,128,0,28555:0:0:0:0:
402,192,28444,128,0,28527:0:0:0:0:
256,192,28472,1,0,0:0:0:0:
329,192,28555,1,0,0:0:0:0:
475,192,28666,128,0,28749:0:0:0:0:
402,192,28666,128,0,28777:0:0:0:0:
256,192,28666,128,0,28805:0:0:0:0:
182,192,28666,1,0,0:0:0:0:
109,192,28694,1,0,0:0:0:0:
475,192,28861,128,0,29027:0:0:0:0:
36,192,28888,128,0,29027:0:0:0:0:
109,192,28888,128,0,28999:0:0:0:0:
182,192,28888,128,0,28972:0:0:0:0:
256,192,28888,128,0,28944:0:0:0:0:
402,192,28972,128,0,29055:0:0:0:0:
329,192,28999,128,0,29083:0:0:0:0:
256,192,29027,128,0,29111:0:0:0:0:
182,192,29055,128,0,29138:0:0:0:0:
109,192,29083,128,0,29166:0:0:0:0:
36,192,29111,128,0,29194:0:0:0:0:
329,192,29138,1,0,0:0:0:0:
402,192,29166,1,0,0:0:0:0:
182,192,29249,1,0,0:0:0:0:
256,192,29333,128,0,29388:0:0:0:0:
329,192,29333,128,0,29416:0:0:0:0:
402,192,29333,128,0,29444:0:0:0:0:
475,192,29333,128,0,29472:0:0:0:0:
109,192,29416,128,0,29499:0:0:0:0:
182,192,29444,128,0,29527:0:0:0:0:
256,192,29472,128,0,29555:0:0:0:0:
329,192,29499,128,0,29583:0:0:0:0:
402,192,29527,128,0,29611:0:0:0:0:
475,192,29555,128,0,29638:0:0:0:0:
36,192,29555,128,0,29629:0:0:0:0:
109,192,29592,128,0,29666:0:0:0:0:
182,192,29629,128,0,29814:0:0:0:0:
329,192,29666,1,0,0:0:0:0:
36,192,29777,128,0,29833:0:0:0:0:
475,192,29777,128,0,29833:0:0:0:0:
256,192,29777,1,0,0:0:0:0:
109,192,29777,128,0,29851:0:0:0:0:
402,192,29777,128,0,29851:0:0:0:0:
182,192,29916,1,0,0:0:0:0:
329,192,29916,1,0,0:0:0:0:
36,192,29999,1,0,0:0:0:0:
109,192,29999,1,0,0:0:0:0:
256,192,29999,1,0,0:0:0:0:
402,192,29999,1,0,0:0:0:0:
475,192,29999,1,0,0:0:0:0:
36,192,30138,1,0,0:0:0:0:
109,192,30138,1,0,0:0:0:0:
256,192,30138,1,0,0:0:0:0:
402,192,30138,1,0,0:0:0:0:
475,192,30138,1,0,0:0:0:0:
36,192,30222,128,0,30499:0:0:0:0:
475,192,30222,128,0,30305:0:0:0:0:
402,192,30222,128,0,30333:0:0:0:0:
256,192,30222,128,0,30361:0:0:0:0:
109,192,30222,128,0,30388:0:0:0:0:
329,192,30222,1,0,0:0:0:0:
182,192,30277,1,0,0:0:0:0:
329,192,30444,128,0,30814:0:0:0:0:
182,192,30444,128,0,30527:0:0:0:0:
256,192,30444,128,0,30555:0:0:0:0:
402,192,30444,128,0,30583:0:0:0:0:
475,192,30444,128,0,30611:0:0:0:0:
109,192,30499,1,0,0:0:0:0:
182,192,30666,128,0,30999:0:0:0:0:
36,192,30666,128,0,30805:0:0:0:0:
109,192,30666,128,0,30777:0:0:0:0:
256,192,30666,128,0,30749:0:0:0:0:
402,192,30666,128,0,30740:0:0:0:0:
475,192,30666,1,0,0:0:0:0:
475,192,30888,128,0,31222:0:0:0:0:
109,192,30888,128,0,30972:0:0:0:0:
256,192,30888,128,0,31027:0:0:0:0:
329,192,30888,128,0,31055:0:0:0:0:
402,192,30888,128,0,31083:0:0:0:0:
36,192,30944,1,0,0:0:0:0:
109,192,31055,1,0,0:0:0:0:
36,192,31111,1,0,0:0:0:0:
182,192,31111,1,0,0:0:0:0:
256,192,31111,1,0,0:0:0:0:
329,192,31194,1,0,0:0:0:0:
402,192,31222,1,0,0:0:0:0:
109,192,31277,128,0,31388:0:0:0:0:
182,192,31305,128,0,31444:0:0:0:0:
475,192,31333,128,0,31444:0:0:0:0:
256,192,31333,128,0,31527:0:0:0:0:
329,192,31416,1,0,0:0:0:0:
402,192,31499,1,0,0:0:0:0:
36,192,31499,1,0,0:0:0:0:
182,192,31555,1,0,0:0:0:0:
475,192,31555,1,0,0:0:0:0:
109,192,31583,1,0,0:0:0:0:
329,192,31666,1,0,0:0:0:0:
402,192,31694,1,0,0:0:0:0:
256,192,31749,1,0,0:0:0:0:
36,192,31749,128,0,31833:0:0:0:0:
475,192,31777,128,0,31888:0:0:0:0:
109,192,31805,128,0,31861:0:0:0:0:
182,192,31805,128,0,31888:0:0:0:0:
329,192,31861,128,0,31944:0:0:0:0:
402,192,31888,1,0,0:0:0:0:
256,192,31999,128,0,32166:0:0:0:0:
36,192,31999,128,0,32083:0:0:0:0:
109,192,31999,128,0,32111:0:0:0:0:
182,192,31999,128,0,32138:0:0:0:0:
402,192,31999,128,0,32083:0:0:0:0:
475,192,31999,128,0,32055:0:0:0:0:
329,192,32055,1,0,0:0:0:0:
475,192,32138,1,0,0:0:0:0:
256,192,32222,128,0,32370:0:0:0:0:
36,192,32222,128,0,32296:0:0:0:0:
182,192,32222,128,0,32305:0:0:0:0:
109,192,32222,128,0,32277:0:0:0:0:
329,192,32222,128,0,32333:0:0:0:0:
402,192,32222,128,0,32361:0:0:0:0:
475,192,32249,1,0,0:0:0:0:
109,192,32361,1,0,0:0:0:0:
256,192,32444,128,0,32592:0:0:0:0:
36,192,32444,128,0,32518:0:0:0:0:
182,192,32444,128,0,32583:0:0:0:0:
329,192,32444,128,0,32555:0:0:0:0:
402,192,32444,128,0,32499:0:0:0:0:
475,192,32444,128,0,32527:0:0:0:0:
109,192,32472,1,0,0:0:0:0:
36,192,32638,128,0,32722:0:0:0:0:
475,192,32638,128,0,32694:0:0:0:0:
109,192,32666,128,0,32749:0:0:0:0:
402,192,32666,128,0,32740:0:0:0:0:
182,192,32694,128,0,32777:0:0:0:0:
329,192,32694,128,0,32777:0:0:0:0:
256,192,32698,128,0,32761:0:0:0:0:
475,192,32833,1,0,0:0:0:0:
402,192,32833,1,0,0:0:0:0:
329,192,32861,1,0,0:0:0:0:
36,192,32888,1,0,0:0:0:0:
109,192,32888,1,0,0:0:0:0:
182,192,32888,1,0,0:0:0:0:
256,192,32888,1,0,0:0:0:0:
475,192,32999,1,0,0:0:0:0:
402,192,33027,1,0,0:0:0:0:
36,192,33055,128,0,33111:0:0:0:0:
109,192,33083,128,0,33166:0:0:0:0:
256,192,33111,128,0,33222:0:0:0:0:
182,192,33138,128,0,33222:0:0:0:0:
329,192,33194,128,0,33527:0:0:0:0:
402,192,33222,1,0,0:0:0:0:
475,192,33249,1,0,0:0:0:0:
36,192,33361,1,0,0:0:0:0:
182,192,33361,1,0,0:0:0:0:
256,192,33361,1,0,0:0:0:0:
109,192,33388,1,0,0:0:0:0:
475,192,33499,128,0,33583:0:0:0:0:
36,192,33499,1,0,0:0:0:0:
402,192,33527,128,0,33611:0:0:0:0:
256,192,33555,128,0,33694:0:0:0:0:
182,192,33583,128,0,33666:0:0:0:0:
329,192,33611,1,0,0:0:0:0:
36,192,33638,128,0,33749:0:0:0:0:
109,192,33638,128,0,33722:0:0:0:0:
475,192,33722,1,0,0:0:0:0:
402,192,33749,128,0,33861:0:0:0:0:
182,192,33749,128,0,33861:0:0:0:0:
329,192,33777,128,0,33888:0:0:0:0:
256,192,33777,128,0,33925:0:0:0:0:
109,192,33805,128,0,33916:0:0:0:0:
36,192,33833,128,0,34055:0:0:0:0:
475,192,33999,128,0,34074:0:0:0:0:
109,192,33999,128,0,34083:0:0:0:0:
182,192,34027,128,0,34138:0:0:0:0:
402,192,34027,128,0,34111:0:0:0:0:
329,192,34037,128,0,34296:0:0:0:0:
256,192,34037,128,0,34148:0:0:0:0:
36,192,34185,128,0,34259:0:0:0:0:
109,192,34194,128,0,34277:0:0:0:0:
402,192,34194,128,0,34305:0:0:0:0:
182,192,34222,128,0,34481:0:0:0:0:
256,192,34222,128,0,34277:0:0:0:0:
475,192,34249,128,0,34333:0:0:0:0:
36,192,34388,128,0,34722:0:0:0:0:
109,192,34388,128,0,34499:0:0:0:0:
329,192,34388,128,0,34472:0:0:0:0:
402,192,34407,128,0,34518:0:0:0:0:
256,192,34416,128,0,34527:0:0:0:0:
475,192,34444,128,0,34555:0:0:0:0:
329,192,34583,1,0,0:0:0:0:
182,192,34638,1,0,0:0:0:0:
402,192,34638,1,0,0:0:0:0:
109,192,34666,1,0,0:0:0:0:
475,192,34666,1,0,0:0:0:0:
256,192,34666,1,0,0:0:0:0:
329,192,34805,128,0,34916:0:0:0:0:
182,192,34805,1,0,0:0:0:0:
402,192,34833,128,0,34944:0:0:0:0:
36,192,34833,1,0,0:0:0:0:
475,192,34861,128,0,34999:0:0:0:0:
109,192,34916,1,0,0:0:0:0:
256,192,34916,1,0,0:0:0:0:
329,192,34999,1,0,0:0:0:0:
36,192,35027,128,0,35111:0:0:0:0:
402,192,35027,1,0,0:0:0:0:
109,192,35055,128,0,35138:0:0:0:0:
182,192,35083,128,0,35194:0:0:0:0:
475,192,35083,1,0,0:0:0:0:
256,192,35111,128,0,35249:0:0:0:0:
329,192,35138,128,0,35305:0:0:0:0:
402,192,35166,128,0,35361:0:0:0:0:
475,192,35194,128,0,35416:0:0:0:0:
36,192,35194,128,0,35277:0:0:0:0:
109,192,35222,128,0,35333:0:0:0:0:
182,192,35277,128,0,35388:0:0:0:0:
256,192,35305,128,0,35444:0:0:0:0:
329,192,35361,128,0,35472:0:0:0:0:
402,192,35416,128,0,35555:0:0:0:0:
36,192,35416,1,0,0:0:0:0:
475,192,35472,128,0,35611:0:0:0:0:
109,192,35472,1,0,0:0:0:0:
36,192,35555,128,0,35703:0:0:0:0:
182,192,35555,128,0,35638:0:0:0:0:
256,192,35555,128,0,35666:0:0:0:0:
329,192,35555,128,0,35694:0:0:0:0:
402,192,35722,1,0,0:0:0:0:
36,192,35777,128,0,35851:0:0:0:0:
182,192,35777,128,0,35916:0:0:0:0:
256,192,35777,128,0,35888:0:0:0:0:
329,192,35777,128,0,35861:0:0:0:0:
475,192,35805,1,0,0:0:0:0:
402,192,35972,1,0,0:0:0:0:
329,192,35999,128,0,36074:0:0:0:0:
256,192,35999,128,0,36083:0:0:0:0:
182,192,35999,128,0,36111:0:0:0:0:
36,192,35999,128,0,36138:0:0:0:0:
475,192,36027,1,0,0:0:0:0:
36,192,36222,128,0,36361:0:0:0:0:
109,192,36222,128,0,36333:0:0:0:0:
182,192,36222,128,0,36305:0:0:0:0:
256,192,36222,128,0,36527:0:0:0:0:
402,192,36222,1,0,0:0:0:0:
329,192,36249,1,0,0:0:0:0:
475,192,36416,128,0,36527:0:0:0:0:
329,192,36527,128,0,36611:0:0:0:0:
475,192,36611,128,0,36694:0:0:0:0:
36,192,36666,128,0,36805:0:0:0:0:
109,192,36666,128,0,36777:0:0:0:0:
182,192,36666,128,0,36749:0:0:0:0:
256,192,36666,128,0,37138:0:0:0:0:
329,192,36722,128,0,36805:0:0:0:0:
475,192,36777,128,0,36861:0:0:0:0:
109,192,36888,128,0,37138:0:0:0:0:
36,192,36888,128,0,37083:0:0:0:0:
182,192,36888,128,0,37194:0:0:0:0:
329,192,36888,128,0,36972:0:0:0:0:
475,192,36944,128,0,37027:0:0:0:0:
329,192,37027,128,0,37111:0:0:0:0:
475,192,37083,128,0,37194:0:0:0:0:
402,192,37166,128,0,37249:0:0:0:0:
329,192,37222,128,0,37277:0:0:0:0:
256,192,37249,128,0,37305:0:0:0:0:
475,192,37333,1,0,0:0:0:0:
402,192,37333,1,0,0:0:0:0:
329,192,37333,1,0,0:0:0:0:
36,192,37333,128,0,37666:0:0:0:0:
109,192,37333,128,0,37666:0:0:0:0:
182,192,37333,128,0,37666:0:0:0:0:
256,192,37416,1,0,0:0:0:0:
329,192,37472,1,0,0:0:0:0:
402,192,37555,1,0,0:0:0:0:
475,192,37638,1,0,0:0:0:0:
402,192,37694,1,0,0:0:0:0:
36,192,37722,128,0,37999:0:0:0:0:
182,192,37722,128,0,37999:0:0:0:0:
109,192,37722,128,0,37999:0:0:0:0:
329,192,37777,1,0,0:0:0:0:
256,192,37861,1,0,0:0:0:0:
329,192,37916,1,0,0:0:0:0:
402,192,37999,1,0,0:0:0:0:
182,192,38055,128,0,38166:0:0:0:0:
109,192,38055,128,0,38166:0:0:0:0:
36,192,38055,128,0,38166:0:0:0:0:
475,192,38083,1,0,0:0:0:0:
402,192,38138,1,0,0:0:0:0:
109,192,38222,1,0,0:0:0:0:
182,192,38222,128,0,38388:0:0:0:0:
256,192,38222,128,0,38388:0:0:0:0:
329,192,38222,128,0,38388:0:0:0:0:
36,192,38277,1,0,0:0:0:0:
475,192,38333,1,0,0:0:0:0:
402,192,38388,1,0,0:0:0:0:
182,192,38444,128,0,38611:0:0:0:0:
256,192,38444,128,0,38611:0:0:0:0:
329,192,38444,128,0,38611:0:0:0:0:
36,192,38444,1,0,0:0:0:0:
109,192,38499,1,0,0:0:0:0:
402,192,38555,1,0,0:0:0:0:
475,192,38611,1,0,0:0:0:0:
36,192,38666,128,0,39055:0:0:0:0:
109,192,38666,128,0,39055:0:0:0:0:
256,192,38666,128,0,39055:0:0:0:0:
182,192,38666,128,0,39055:0:0:0:0:
329,192,38666,1,0,0:0:0:0:
402,192,38777,1,0,0:0:0:0:
475,192,38888,1,0,0:0:0:0:
475,192,39111,128,0,39666:0:0:0:0:
36,192,39111,128,0,39444:0:0:0:0:
109,192,39111,128,0,39444:0:0:0:0:
182,192,39111,128,0,39444:0:0:0:0:
402,192,39333,128,0,39888:0:0:0:0:
182,192,39499,128,0,39777:0:0:0:0:
109,192,39499,128,0,39777:0:0:0:0:
36,192,39499,128,0,39777:0:0:0:0:
329,192,39555,128,0,40111:0:0:0:0:
475,192,39777,128,0,40333:0:0:0:0:
182,192,39833,128,0,39944:0:0:0:0:
109,192,39833,128,0,39944:0:0:0:0:
36,192,39833,128,0,39944:0:0:0:0:
402,192,39999,128,0,40555:0:0:0:0:
256,192,39999,1,0,0:0:0:0:
36,192,39999,128,0,40111:0:0:0:0:
109,192,39999,128,0,40055:0:0:0:0:
182,192,40083,1,0,0:0:0:0:
109,192,40166,1,0,0:0:0:0:
329,192,40222,128,0,40611:0:0:0:0:
36,192,40222,128,0,40388:0:0:0:0:
256,192,40222,128,0,40611:0:0:0:0:
182,192,40333,128,0,40611:0:0:0:0:
36,192,40444,1,0,0:0:0:0:
109,192,40444,1,0,0:0:0:0:
475,192,40444,128,0,40833:0:0:0:0:
256,192,40666,128,0,40833:0:0:0:0:
329,192,40666,128,0,40833:0:0:0:0:
182,192,40666,128,0,40833:0:0:0:0:
402,192,40666,128,0,40833:0:0:0:0:
109,192,40666,1,0,0:0:0:0:
36,192,40888,128,0,41222:0:0:0:0:
109,192,40888,128,0,41222:0:0:0:0:
182,192,40888,128,0,41222:0:0:0:0:
329,192,40888,128,0,41444:0:0:0:0:
402,192,41111,128,0,41666:0:0:0:0:
182,192,41277,128,0,41555:0:0:0:0:
109,192,41277,128,0,41555:0:0:0:0:
36,192,41277,128,0,41555:0:0:0:0:
256,192,41305,1,0,0:0:0:0:
475,192,41333,128,0,41777:0:0:0:0:
329,192,41555,128,0,41888:0:0:0:0:
182,192,41611,128,0,41722:0:0:0:0:
109,192,41611,128,0,41722:0:0:0:0:
36,192,41611,128,0,41722:0:0:0:0:
402,192,41777,128,0,42111:0:0:0:0:
109,192,41777,128,0,41944:0:0:0:0:
182,192,41777,128,0,41944:0:0:0:0:
256,192,41805,1,0,0:0:0:0:
475,192,41888,128,0,42111:0:0:0:0:
36,192,41888,128,0,42055:0:0:0:0:
329,192,41999,128,0,42333:0:0:0:0:
109,192,41999,128,0,42166:0:0:0:0:
182,192,41999,128,0,42166:0:0:0:0:
402,192,42222,128,0,42555:0:0:0:0:
475,192,42222,128,0,42555:0:0:0:0:
36,192,42222,128,0,42611:0:0:0:0:
182,192,42222,128,0,42611:0:0:0:0:
256,192,42222,128,0,42388:0:0:0:0:
329,192,42444,128,0,42555:0:0:0:0:
109,192,42444,128,0,42611:0:0:0:0:
36,192,42666,128,0,42999:0:0:0:0:
109,192,42666,128,0,42999:0:0:0:0:
182,192,42666,128,0,42999:0:0:0:0:
475,192,42666,128,0,42999:0:0:0:0:
402,192,42888,128,0,43222:0:0:0:0:
256,192,42916,1,0,0:0:0:0:
182,192,43055,128,0,43333:0:0:0:0:
36,192,43055,128,0,43333:0:0:0:0:
109,192,43055,128,0,43333:0:0:0:0:
329,192,43111,128,0,43666:0:0:0:0:
475,192,43111,128,0,43444:0:0:0:0:
402,192,43333,128,0,43555:0:0:0:0:
109,192,43388,128,0,43499:0:0:0:0:
182,192,43388,128,0,43499:0:0:0:0:
36,192,43388,128,0,43499:0:0:0:0:
256,192,43527,1,0,0:0:0:0:
475,192,43555,128,0,43777:0:0:0:0:
36,192,43555,128,0,43722:0:0:0:0:
109,192,43555,128,0,43722:0:0:0:0:
402,192,43666,128,0,43888:0:0:0:0:
182,192,43666,128,0,43833:0:0:0:0:
256,192,43777,1,0,0:0:0:0:
329,192,43777,128,0,43999:0:0:0:0:
36,192,43777,128,0,44166:0:0:0:0:
109,192,43777,128,0,43944:0:0:0:0:
475,192,43888,128,0,44111:0:0:0:0:
182,192,43888,128,0,44166:0:0:0:0:
402,192,43999,128,0,44222:0:0:0:0:
109,192,43999,128,0,44166:0:0:0:0:
329,192,44111,128,0,44333:0:0:0:0:
475,192,44222,128,0,44333:0:0:0:0:
36,192,44222,128,0,44416:0:0:0:0:
109,192,44222,128,0,44388:0:0:0:0:
182,192,44222,128,0,44361:0:0:0:0:
256,192,44222,128,0,44333:0:0:0:0:
402,192,44333,1,0,0:0:0:0:
475,192,44444,128,0,44777:0:0:0:0:
182,192,44444,128,0,44777:0:0:0:0:
256,192,44444,128,0,44777:0:0:0:0:
329,192,44444,128,0,44777:0:0:0:0:
402,192,44444,128,0,44777:0:0:0:0:
36,192,44666,128,0,44722:0:0:0:0:
182,192,44833,128,0,45111:0:0:0:0:
256,192,44833,128,0,45111:0:0:0:0:
329,192,44833,128,0,45111:0:0:0:0:
475,192,44833,128,0,45111:0:0:0:0:
402,192,44833,128,0,45111:0:0:0:0:
36,192,44888,128,0,44944:0:0:0:0:
109,192,44888,128,0,44944:0:0:0:0:
109,192,45111,128,0,45166:0:0:0:0:
182,192,45166,128,0,45277:0:0:0:0:
256,192,45166,128,0,45277:0:0:0:0:
329,192,45166,128,0,45277:0:0:0:0:
402,192,45166,128,0,45277:0:0:0:0:
475,192,45166,128,0,45277:0:0:0:0:
109,192,45222,128,0,45277:0:0:0:0:
475,192,45333,128,0,45407:0:0:0:0:
36,192,45333,128,0,45416:0:0:0:0:
402,192,45361,128,0,45444:0:0:0:0:
109,192,45361,128,0,45444:0:0:0:0:
182,192,45370,128,0,45666:0:0:0:0:
329,192,45370,128,0,45481:0:0:0:0:
256,192,45388,128,0,45472:0:0:0:0:
36,192,45527,128,0,45611:0:0:0:0:
329,192,45555,128,0,45638:0:0:0:0:
109,192,45555,128,0,45629:0:0:0:0:
402,192,45583,128,0,45694:0:0:0:0:
256,192,45583,128,0,45833:0:0:0:0:
475,192,45592,128,0,45703:0:0:0:0:
329,192,45777,128,0,45861:0:0:0:0:
109,192,45777,128,0,45876:0:0:0:0:
182,192,45777,128,0,45851:0:0:0:0:
36,192,45805,128,0,45916:0:0:0:0:
402,192,45805,128,0,45888:0:0:0:0:
475,192,45814,128,0,45925:0:0:0:0:
475,192,45999,128,0,46222:0:0:0:0:
402,192,45999,128,0,46111:0:0:0:0:
329,192,45999,128,0,46055:0:0:0:0:
36,192,46222,128,0,46555:0:0:0:0:
329,192,46222,128,0,46555:0:0:0:0:
256,192,46222,128,0,46555:0:0:0:0:
182,192,46222,128,0,46555:0:0:0:0:
109,192,46222,128,0,46555:0:0:0:0:
402,192,46222,128,0,46277:0:0:0:0:
402,192,46444,128,0,46499:0:0:0:0:
256,192,46611,128,0,46888:0:0:0:0:
182,192,46611,128,0,46888:0:0:0:0:
36,192,46611,128,0,46888:0:0:0:0:
109,192,46611,128,0,46888:0:0:0:0:
402,192,46611,128,0,46916:0:0:0:0:
329,192,46666,128,0,46722:0:0:0:0:
475,192,46666,128,0,46722:0:0:0:0:
475,192,46888,128,0,46944:0:0:0:0:
329,192,46944,128,0,47027:0:0:0:0:
256,192,46944,128,0,47027:0:0:0:0:
182,192,46944,128,0,47027:0:0:0:0:
109,192,46944,128,0,47027:0:0:0:0:
36,192,46944,128,0,47027:0:0:0:0:
402,192,46972,128,0,47055:0:0:0:0:
36,192,47111,128,0,47466:0:0:0:0:
475,192,47111,128,0,47249:0:0:0:0:
329,192,47111,128,0,47209:0:0:0:0:
256,192,47111,128,0,47238:0:0:0:0:
109,192,47138,128,0,47194:0:0:0:0:
182,192,47148,128,0,47222:0:0:0:0:
402,192,47148,128,0,47259:0:0:0:0:
109,192,47333,128,0,47444:0:0:0:0:
182,192,47333,128,0,47416:0:0:0:0:
329,192,47358,128,0,47456:0:0:0:0:
402,192,47361,128,0,47472:0:0:0:0:
256,192,47361,128,0,47444:0:0:0:0:
475,192,47370,128,0,47703:0:0:0:0:
329,192,47555,128,0,47682:0:0:0:0:
402,192,47555,128,0,47654:0:0:0:0:
256,192,47583,128,0,47666:0:0:0:0:
109,192,47583,128,0,47694:0:0:0:0:
182,192,47592,128,0,47703:0:0:0:0:
36,192,47611,128,0,47722:0:0:0:0:
329,192,47777,128,0,47888:0:0:0:0:
256,192,47777,128,0,47916:0:0:0:0:
475,192,47777,1,0,0:0:0:0:
402,192,47777,128,0,47833:0:0:0:0:
36,192,47777,1,0,0:0:0:0:
109,192,47777,128,0,47833:0:0:0:0:
182,192,47777,128,0,47888:0:0:0:0:
36,192,47999,128,0,48333:0:0:0:0:
402,192,47999,128,0,48333:0:0:0:0:
329,192,47999,128,0,48333:0:0:0:0:
182,192,47999,128,0,48333:0:0:0:0:
109,192,47999,128,0,48333:0:0:0:0:
475,192,47999,128,0,48055:0:0:0:0:
256,192,48222,128,0,48277:0:0:0:0:
329,192,48388,128,0,48666:0:0:0:0:
182,192,48388,128,0,48666:0:0:0:0:
475,192,48388,128,0,48666:0:0:0:0:
109,192,48388,128,0,48666:0:0:0:0:
402,192,48388,128,0,48666:0:0:0:0:
256,192,48444,128,0,48499:0:0:0:0:
36,192,48444,128,0,48499:0:0:0:0:
36,192,48666,128,0,48722:0:0:0:0:
329,192,48722,128,0,48805:0:0:0:0:
256,192,48722,128,0,48805:0:0:0:0:
182,192,48722,128,0,48805:0:0:0:0:
109,192,48722,128,0,48805:0:0:0:0:
402,192,48722,128,0,48805:0:0:0:0:
475,192,48777,128,0,48833:0:0:0:0:
182,192,48888,128,0,48977:0:0:0:0:
329,192,48888,128,0,49222:0:0:0:0:
36,192,48888,128,0,49015:0:0:0:0:
475,192,48916,128,0,49027:0:0:0:0:
256,192,48916,128,0,49027:0:0:0:0:
109,192,48916,128,0,48999:0:0:0:0:
402,192,48925,128,0,49037:0:0:0:0:
36,192,49083,128,0,49222:0:0:0:0:
109,192,49086,128,0,49432:0:0:0:0:
475,192,49111,128,0,49259:0:0:0:0:
256,192,49111,128,0,49185:0:0:0:0:
182,192,49135,128,0,49234:0:0:0:0:
402,192,49138,128,0,49277:0:0:0:0:
329,192,49333,128,0,49460:0:0:0:0:
36,192,49333,128,0,49416:0:0:0:0:
475,192,49333,128,0,49416:0:0:0:0:
256,192,49361,128,0,49472:0:0:0:0:
402,192,49361,128,0,49444:0:0:0:0:
182,192,49370,128,0,49444:0:0:0:0:
182,192,49555,128,0,49666:0:0:0:0:
109,192,49555,128,0,49611:0:0:0:0:
329,192,49555,1,0,0:0:0:0:
256,192,49555,128,0,49611:0:0:0:0:
36,192,49555,1,0,0:0:0:0:
182,192,49777,128,0,50111:0:0:0:0:
109,192,49777,128,0,50111:0:0:0:0:
402,192,49777,128,0,49833:0:0:0:0:
36,192,49777,128,0,50111:0:0:0:0:
329,192,49777,128,0,50111:0:0:0:0:
475,192,49777,128,0,49833:0:0:0:0:
402,192,49999,128,0,50055:0:0:0:0:
256,192,49999,128,0,50055:0:0:0:0:
109,192,50166,128,0,50444:0:0:0:0:
402,192,50166,128,0,50499:0:0:0:0:
36,192,50166,128,0,50444:0:0:0:0:
182,192,50166,128,0,50444:0:0:0:0:
475,192,50222,128,0,50277:0:0:0:0:
329,192,50222,128,0,50277:0:0:0:0:
475,192,50444,128,0,50499:0:0:0:0:
256,192,50444,128,0,50499:0:0:0:0:
109,192,50499,128,0,50583:0:0:0:0:
36,192,50499,128,0,50583:0:0:0:0:
182,192,50499,128,0,50583:0:0:0:0:
329,192,50499,128,0,50583:0:0:0:0:
402,192,50555,128,0,50611:0:0:0:0:
36,192,50666,128,0,50805:0:0:0:0:
329,192,50666,128,0,50833:0:0:0:0:
475,192,50694,128,0,50833:0:0:0:0:
256,192,50694,128,0,50805:0:0:0:0:
109,192,50694,128,0,50833:0:0:0:0:
182,192,50703,128,0,50851:0:0:0:0:
402,192,50703,128,0,50851:0:0:0:0:
256,192,50888,128,0,50999:0:0:0:0:
36,192,50888,128,0,51027:0:0:0:0:
329,192,50913,128,0,51012:0:0:0:0:
475,192,50913,128,0,51012:0:0:0:0:
109,192,50916,128,0,51055:0:0:0:0:
402,192,50920,128,0,51047:0:0:0:0:
182,192,50925,128,0,51037:0:0:0:0:
256,192,51083,128,0,51249:0:0:0:0:
329,192,51111,128,0,51259:0:0:0:0:
36,192,51111,128,0,51238:0:0:0:0:
475,192,51111,128,0,51222:0:0:0:0:
182,192,51111,128,0,51259:0:0:0:0:
109,192,51138,128,0,51249:0:0:0:0:
402,192,51138,128,0,51249:0:0:0:0:
475,192,51305,128,0,51444:0:0:0:0:
36,192,51305,128,0,51444:0:0:0:0:
109,192,51308,128,0,51456:0:0:0:0:
256,192,51333,128,0,51499:0:0:0:0:
182,192,51333,128,0,51472:0:0:0:0:
402,192,51333,128,0,51481:0:0:0:0:
329,192,51358,128,0,51456:0:0:0:0:
402,192,51555,128,0,51833:0:0:0:0:
475,192,51555,128,0,51888:0:0:0:0:
182,192,51555,128,0,51777:0:0:0:0:
36,192,51555,1,0,0:0:0:0:
109,192,51555,1,0,0:0:0:0:
329,192,51555,1,0,0:0:0:0:
329,192,51749,1,0,0:0:0:0:
109,192,51777,1,0,0:0:0:0:
182,192,51888,1,0,0:0:0:0:
36,192,51916,1,0,0:0:0:0:
256,192,51944,128,0,52166:0:0:0:0:
402,192,51944,128,0,52166:0:0:0:0:
109,192,51999,1,0,0:0:0:0:
329,192,51999,128,0,52111:0:0:0:0:
36,192,51999,1,0,0:0:0:0:
475,192,51999,1,0,0:0:0:0:
475,192,52194,1,0,0:0:0:0:
329,192,52222,128,0,52388:0:0:0:0:
182,192,52222,128,0,52333:0:0:0:0:
36,192,52222,1,0,0:0:0:0:
402,192,52277,128,0,52388:0:0:0:0:
109,192,52277,1,0,0:0:0:0:
256,192,52333,1,0,0:0:0:0:
109,192,52444,128,0,52555:0:0:0:0:
329,192,52444,128,0,52722:0:0:0:0:
402,192,52444,128,0,52555:0:0:0:0:
182,192,52444,1,0,0:0:0:0:
36,192,52444,1,0,0:0:0:0:
475,192,52444,1,0,0:0:0:0:
256,192,52555,1,0,0:0:0:0:
182,192,52666,128,0,52833:0:0:0:0:
36,192,52666,128,0,52833:0:0:0:0:
402,192,52666,128,0,52833:0:0:0:0:
109,192,52666,1,0,0:0:0:0:
475,192,52666,1,0,0:0:0:0:
475,192,52888,128,0,53055:0:0:0:0:
109,192,52888,1,0,0:0:0:0:
256,192,52888,128,0,52972:0:0:0:0:
329,192,52944,128,0,53027:0:0:0:0:
36,192,52999,1,0,0:0:0:0:
182,192,52999,128,0,53083:0:0:0:0:
256,192,53055,128,0,53138:0:0:0:0:
402,192,53111,128,0,53166:0:0:0:0:
329,192,53111,1,0,0:0:0:0:
109,192,53111,128,0,53194:0:0:0:0:
182,192,53222,1,0,0:0:0:0:
256,192,53222,128,0,53333:0:0:0:0:
36,192,53333,128,0,53555:0:0:0:0:
109,192,53333,128,0,53444:0:0:0:0:
329,192,53333,128,0,53499:0:0:0:0:
475,192,53333,1,0,0:0:0:0:
402,192,53333,128,0,53444:0:0:0:0:
109,192,53555,1,0,0:0:0:0:
256,192,53555,1,0,0:0:0:0:
402,192,53555,1,0,0:0:0:0:
475,192,53666,128,0,53888:0:0:0:0:
182,192,53666,1,0,0:0:0:0:
402,192,53694,128,0,53861:0:0:0:0:
329,192,53722,128,0,53888:0:0:0:0:
109,192,53722,1,0,0:0:0:0:
256,192,53777,1,0,0:0:0:0:
36,192,53777,128,0,54111:0:0:0:0:
402,192,53972,1,0,0:0:0:0:
182,192,53999,128,0,54111:0:0:0:0:
256,192,53999,128,0,54222:0:0:0:0:
329,192,54055,128,0,54111:0:0:0:0:
109,192,54055,1,0,0:0:0:0:
475,192,54194,128,0,54277:0:0:0:0:
36,192,54222,128,0,54388:0:0:0:0:
109,192,54222,128,0,54333:0:0:0:0:
182,192,54222,128,0,54277:0:0:0:0:
402,192,54222,128,0,54305:0:0:0:0:
329,192,54249,128,0,54333:0:0:0:0:
256,192,54305,1,0,0:0:0:0:
36,192,54444,128,0,54499:0:0:0:0:
109,192,54444,128,0,54555:0:0:0:0:
182,192,54444,128,0,54611:0:0:0:0:
402,192,54444,128,0,54527:0:0:0:0:
475,192,54472,128,0,54555:0:0:0:0:
329,192,54555,128,0,54638:0:0:0:0:
402,192,54583,128,0,54666:0:0:0:0:
36,192,54666,128,0,54833:0:0:0:0:
475,192,54666,128,0,54749:0:0:0:0:
256,192,54666,128,0,54749:0:0:0:0:
182,192,54666,128,0,54805:0:0:0:0:
329,192,54694,128,0,54777:0:0:0:0:
402,192,54777,1,0,0:0:0:0:
256,192,54888,128,0,54999:0:0:0:0:
475,192,54888,128,0,54999:0:0:0:0:
36,192,54888,128,0,54962:0:0:0:0:
182,192,54888,128,0,55027:0:0:0:0:
329,192,54888,128,0,54972:0:0:0:0:
109,192,54888,128,0,54999:0:0:0:0:
402,192,54999,1,0,0:0:0:0:
109,192,55111,128,0,55222:0:0:0:0:
182,192,55111,128,0,55277:0:0:0:0:
256,192,55111,128,0,55333:0:0:0:0:
36,192,55111,1,0,0:0:0:0:
329,192,55111,128,0,55222:0:0:0:0:
475,192,55111,128,0,55277:0:0:0:0:
329,192,55333,128,0,55499:0:0:0:0:
36,192,55333,1,0,0:0:0:0:
109,192,55333,1,0,0:0:0:0:
402,192,55361,128,0,55472:0:0:0:0:
475,192,55370,128,0,55444:0:0:0:0:
182,192,55444,128,0,55611:0:0:0:0:
109,192,55472,128,0,55583:0:0:0:0:
36,192,55481,128,0,55555:0:0:0:0:
256,192,55499,1,0,0:0:0:0:
475,192,55555,128,0,55722:0:0:0:0:
402,192,55583,128,0,55694:0:0:0:0:
329,192,55592,128,0,55666:0:0:0:0:
36,192,55666,128,0,55861:0:0:0:0:
256,192,55666,1,0,0:0:0:0:
109,192,55694,128,0,55833:0:0:0:0:
182,192,55703,128,0,55814:0:0:0:0:
329,192,55777,128,0,55916:0:0:0:0:
402,192,55805,128,0,55888:0:0:0:0:
475,192,55814,128,0,55888:0:0:0:0:
182,192,55861,1,0,0:0:0:0:
182,192,55999,128,0,56166:0:0:0:0:
329,192,55999,128,0,56055:0:0:0:0:
402,192,55999,128,0,56083:0:0:0:0:
475,192,55999,128,0,56111:0:0:0:0:
256,192,55999,1,0,0:0:0:0:
109,192,56027,128,0,56138:0:0:0:0:
36,192,56037,128,0,56111:0:0:0:0:
256,192,56111,128,0,56277:0:0:0:0:
329,192,56138,128,0,56249:0:0:0:0:
402,192,56148,128,0,56222:0:0:0:0:
36,192,56222,128,0,56388:0:0:0:0:
475,192,56222,1,0,0:0:0:0:
109,192,56249,128,0,56361:0:0:0:0:
182,192,56259,128,0,56333:0:0:0:0:
475,192,56333,128,0,56499:0:0:0:0:
402,192,56361,128,0,56472:0:0:0:0:
329,192,56370,128,0,56444:0:0:0:0:
256,192,56444,128,0,56611:0:0:0:0:
36,192,56444,1,0,0:0:0:0:
182,192,56472,128,0,56583:0:0:0:0:
109,192,56481,128,0,56555:0:0:0:0:
329,192,56555,128,0,56722:0:0:0:0:
402,192,56583,128,0,56694:0:0:0:0:
475,192,56592,128,0,56666:0:0:0:0:
36,192,56666,128,0,56833:0:0:0:0:
256,192,56666,1,0,0:0:0:0:
109,192,56694,128,0,56805:0:0:0:0:
182,192,56703,128,0,56777:0:0:0:0:
475,192,56777,1,0,0:0:0:0:
402,192,56805,1,0,0:0:0:0:
329,192,56833,1,0,0:0:0:0:
256,192,56861,1,0,0:0:0:0:
182,192,56888,128,0,57055:0:0:0:0:
36,192,56888,128,0,56999:0:0:0:0:
475,192,56888,128,0,57111:0:0:0:0:
109,192,56888,128,0,57027:0:0:0:0:
329,192,57083,1,0,0:0:0:0:
36,192,57111,1,0,0:0:0:0:
109,192,57111,1,0,0:0:0:0:
256,192,57222,1,0,0:0:0:0:
329,192,57277,128,0,57444:0:0:0:0:
182,192,57277,1,0,0:0:0:0:
475,192,57333,128,0,57499:0:0:0:0:
36,192,57333,128,0,57499:0:0:0:0:
402,192,57333,1,0,0:0:0:0:
109,192,57444,1,0,0:0:0:0:
329,192,57527,1,0,0:0:0:0:
182,192,57555,128,0,57666:0:0:0:0:
256,192,57555,128,0,57611:0:0:0:0:
109,192,57611,128,0,57722:0:0:0:0:
475,192,57611,1,0,0:0:0:0:
402,192,57749,1,0,0:0:0:0:
256,192,57777,1,0,0:0:0:0:
475,192,57777,1,0,0:0:0:0:
36,192,57777,128,0,57944:0:0:0:0:
329,192,57777,128,0,57944:0:0:0:0:
109,192,57805,128,0,57916:0:0:0:0:
182,192,57814,128,0,57888:0:0:0:0:
256,192,57916,1,0,0:0:0:0:
36,192,57999,1,0,0:0:0:0:
109,192,57999,1,0,0:0:0:0:
182,192,57999,1,0,0:0:0:0:
475,192,57999,128,0,58166:0:0:0:0:
329,192,57999,128,0,58083:0:0:0:0:
402,192,58027,128,0,58111:0:0:0:0:
256,192,58111,128,0,58194:0:0:0:0:
109,192,58138,1,0,0:0:0:0:
329,192,58138,128,0,58222:0:0:0:0:
475,192,58222,1,0,0:0:0:0:
36,192,58222,1,0,0:0:0:0:
402,192,58222,128,0,58388:0:0:0:0:
182,192,58222,128,0,58305:0:0:0:0:
256,192,58249,128,0,58333:0:0:0:0:
109,192,58333,128,0,58416:0:0:0:0:
182,192,58361,128,0,58444:0:0:0:0:
36,192,58444,1,0,0:0:0:0:
329,192,58444,128,0,58611:0:0:0:0:
402,192,58472,128,0,58583:0:0:0:0:
475,192,58481,128,0,58555:0:0:0:0:
109,192,58555,1,0,0:0:0:0:
182,192,58555,1,0,0:0:0:0:
402,192,58666,128,0,58833:0:0:0:0:
475,192,58666,128,0,58777:0:0:0:0:
182,192,58666,128,0,58833:0:0:0:0:
109,192,58666,128,0,58805:0:0:0:0:
256,192,58666,1,0,0:0:0:0:
329,192,58666,1,0,0:0:0:0:
36,192,58666,128,0,58777:0:0:0:0:
256,192,58805,1,0,0:0:0:0:
109,192,58888,1,0,0:0:0:0:
329,192,58888,1,0,0:0:0:0:
475,192,58888,128,0,58999:0:0:0:0:
256,192,58916,1,0,0:0:0:0:
182,192,58999,1,0,0:0:0:0:
36,192,58999,1,0,0:0:0:0:
329,192,59027,1,0,0:0:0:0:
109,192,59111,128,0,59222:0:0:0:0:
402,192,59111,128,0,59249:0:0:0:0:
475,192,59111,128,0,59277:0:0:0:0:
256,192,59111,1,0,0:0:0:0:
182,192,59138,1,0,0:0:0:0:
256,192,59277,1,0,0:0:0:0:
329,192,59333,1,0,0:0:0:0:
36,192,59333,128,0,59499:0:0:0:0:
109,192,59333,128,0,59472:0:0:0:0:
402,192,59361,1,0,0:0:0:0:
475,192,59388,1,0,0:0:0:0:
182,192,59388,128,0,59444:0:0:0:0:
256,192,59444,128,0,59611:0:0:0:0:
36,192,59555,128,0,59722:0:0:0:0:
109,192,59555,128,0,59694:0:0:0:0:
475,192,59555,1,0,0:0:0:0:
402,192,59583,1,0,0:0:0:0:
329,192,59666,1,0,0:0:0:0:
256,192,59694,1,0,0:0:0:0:
475,192,59777,128,0,59888:0:0:0:0:
329,192,59777,128,0,59833:0:0:0:0:
36,192,59777,128,0,59888:0:0:0:0:
182,192,59777,1,0,0:0:0:0:
109,192,59805,1,0,0:0:0:0:
256,192,59888,1,0,0:0:0:0:
182,192,59916,1,0,0:0:0:0:
329,192,59972,1,0,0:0:0:0:
402,192,59999,128,0,60055:0:0:0:0:
475,192,59999,128,0,60083:0:0:0:0:
256,192,59999,128,0,60166:0:0:0:0:
36,192,59999,1,0,0:0:0:0:
109,192,60027,1,0,0:0:0:0:
329,192,60111,1,0,0:0:0:0:
402,192,60138,1,0,0:0:0:0:
36,192,60138,1,0,0:0:0:0:
182,192,60222,1,0,0:0:0:0:
256,192,60222,128,0,60388:0:0:0:0:
109,192,60249,1,0,0:0:0:0:
402,192,60333,1,0,0:0:0:0:
182,192,60444,1,0,0:0:0:0:
36,192,60444,128,0,60611:0:0:0:0:
109,192,60444,128,0,60638:0:0:0:0:
329,192,60444,128,0,60583:0:0:0:0:
256,192,60444,1,0,0:0:0:0:
475,192,60444,1,0,0:0:0:0:
402,192,60638,1,0,0:0:0:0:
475,192,60666,1,0,0:0:0:0:
256,192,60666,1,0,0:0:0:0:
182,192,60777,1,0,0:0:0:0:
329,192,60833,128,0,60999:0:0:0:0:
109,192,60833,1,0,0:0:0:0:
475,192,60861,128,0,61027:0:0:0:0:
402,192,60888,128,0,61055:0:0:0:0:
36,192,60888,1,0,0:0:0:0:
256,192,60888,1,0,0:0:0:0:
182,192,60999,1,0,0:0:0:0:
109,192,61111,1,0,0:0:0:0:
256,192,61138,1,0,0:0:0:0:
475,192,61166,128,0,61222:0:0:0:0:
329,192,61166,128,0,61277:0:0:0:0:
36,192,61166,128,0,61277:0:0:0:0:
182,192,61222,1,0,0:0:0:0:
402,192,61305,1,0,0:0:0:0:
256,192,61333,128,0,61472:0:0:0:0:
475,192,61333,128,0,61444:0:0:0:0:
36,192,61333,1,0,0:0:0:0:
109,192,61361,1,0,0:0:0:0:
329,192,61499,1,0,0:0:0:0:
36,192,61555,128,0,61694:0:0:0:0:
182,192,61555,128,0,61666:0:0:0:0:
109,192,61555,128,0,61611:0:0:0:0:
256,192,61555,1,0,0:0:0:0:
402,192,61555,1,0,0:0:0:0:
475,192,61583,1,0,0:0:0:0:
329,192,61666,1,0,0:0:0:0:
402,192,61694,1,0,0:0:0:0:
256,192,61777,128,0,61944:0:0:0:0:
36,192,61777,128,0,61861:0:0:0:0:
475,192,61777,1,0,0:0:0:0:
182,192,61805,1,0,0:0:0:0:
109,192,61833,1,0,0:0:0:0:
402,192,61888,1,0,0:0:0:0:
182,192,61916,1,0,0:0:0:0:
329,192,61999,128,0,62111:0:0:0:0:
402,192,61999,128,0,62138:0:0:0:0:
475,192,61999,128,0,62166:0:0:0:0:
36,192,61999,1,0,0:0:0:0:
109,192,61999,1,0,0:0:0:0:
256,192,61999,1,0,0:0:0:0:
109,192,62111,1,0,0:0:0:0:
36,192,62222,128,0,62361:0:0:0:0:
182,192,62222,128,0,62333:0:0:0:0:
256,192,62222,128,0,62388:0:0:0:0:
329,192,62222,1,0,0:0:0:0:
402,192,62249,1,0,0:0:0:0:
475,192,62259,1,0,0:0:0:0:
402,192,62444,1,0,0:0:0:0:
109,192,62444,1,0,0:0:0:0:
475,192,62444,1,0,0:0:0:0:
182,192,62472,1,0,0:0:0:0:
329,192,62555,1,0,0:0:0:0:
36,192,62583,1,0,0:0:0:0:
182,192,62611,1,0,0:0:0:0:
109,192,62666,128,0,62805:0:0:0:0:
402,192,62666,128,0,62805:0:0:0:0:
475,192,62666,128,0,62777:0:0:0:0:
256,192,62666,1,0,0:0:0:0:
329,192,62694,1,0,0:0:0:0:
182,192,62777,1,0,0:0:0:0:
256,192,62805,1,0,0:0:0:0:
36,192,62888,128,0,63027:0:0:0:0:
182,192,62888,128,0,63083:0:0:0:0:
475,192,62888,128,0,62999:0:0:0:0:
402,192,62888,1,0,0:0:0:0:
329,192,62916,1,0,0:0:0:0:
109,192,62944,1,0,0:0:0:0:
256,192,63083,1,0,0:0:0:0:
475,192,63111,128,0,63249:0:0:0:0:
329,192,63111,128,0,63194:0:0:0:0:
36,192,63111,1,0,0:0:0:0:
109,192,63138,1,0,0:0:0:0:
402,192,63222,1,0,0:0:0:0:
256,192,63222,128,0,63361:0:0:0:0:
329,192,63249,1,0,0:0:0:0:
36,192,63333,128,0,63472:0:0:0:0:
182,192,63333,128,0,63444:0:0:0:0:
475,192,63333,1,0,0:0:0:0:
402,192,63361,1,0,0:0:0:0:
329,192,63444,1,0,0:0:0:0:
256,192,63472,1,0,0:0:0:0:
36,192,63555,128,0,63638:0:0:0:0:
109,192,63555,128,0,63666:0:0:0:0:
182,192,63555,128,0,63694:0:0:0:0:
329,192,63555,128,0,63666:0:0:0:0:
475,192,63555,1,0,0:0:0:0:
402,192,63611,1,0,0:0:0:0:
256,192,63666,1,0,0:0:0:0:
475,192,63777,1,0,0:0:0:0:
36,192,63777,1,0,0:0:0:0:
182,192,63777,128,0,63944:0:0:0:0:
402,192,63805,1,0,0:0:0:0:
329,192,63814,1,0,0:0:0:0:
109,192,63888,1,0,0:0:0:0:
256,192,63916,1,0,0:0:0:0:
329,192,63925,1,0,0:0:0:0:
36,192,63999,1,0,0:0:0:0:
182,192,63999,1,0,0:0:0:0:
402,192,63999,1,0,0:0:0:0:
475,192,63999,1,0,0:0:0:0:
109,192,63999,1,0,0:0:0:0:
256,192,64194,1,0,0:0:0:0:
475,192,64222,1,0,0:0:0:0:
402,192,64333,1,0,0:0:0:0:
329,192,64388,1,0,0:0:0:0:
182,192,64388,1,0,0:0:0:0:
36,192,64416,1,0,0:0:0:0:
256,192,64444,1,0,0:0:0:0:
475,192,64444,1,0,0:0:0:0:
109,192,64444,1,0,0:0:0:0:
182,192,64638,1,0,0:0:0:0:
256,192,64666,1,0,0:0:0:0:
329,192,64722,1,0,0:0:0:0:
109,192,64722,1,0,0:0:0:0:
256,192,64888,1,0,0:0:0:0:
182,192,64888,1,0,0:0:0:0:
402,192,64888,1,0,0:0:0:0:
475,192,64888,1,0,0:0:0:0:
182,192,64999,1,0,0:0:0:0:
329,192,65111,1,0,0:0:0:0:
256,192,65111,1,0,0:0:0:0:
475,192,65111,1,0,0:0:0:0:
36,192,65111,1,0,0:0:0:0:
109,192,65222,1,0,0:0:0:0:
182,192,65333,1,0,0:0:0:0:
329,192,65333,1,0,0:0:0:0:
402,192,65333,1,0,0:0:0:0:
475,192,65333,1,0,0:0:0:0:
256,192,65388,1,0,0:0:0:0:
109,192,65444,1,0,0:0:0:0:
36,192,65499,1,0,0:0:0:0:
402,192,65499,1,0,0:0:0:0:
256,192,65527,1,0,0:0:0:0:
182,192,65555,1,0,0:0:0:0:
329,192,65555,1,0,0:0:0:0:
475,192,65555,1,0,0:0:0:0:
109,192,65611,1,0,0:0:0:0:
36,192,65638,1,0,0:0:0:0:
36,192,65777,128,0,66148:0:0:0:0:
109,192,65777,128,0,65888:0:0:0:0:
182,192,65777,128,0,65888:0:0:0:0:
329,192,65777,128,0,65888:0:0:0:0:
402,192,65777,128,0,65888:0:0:0:0:
475,192,65777,128,0,65888:0:0:0:0:
256,192,65777,128,0,65888:0:0:0:0:
109,192,65999,128,0,66111:0:0:0:0:
182,192,65999,128,0,66111:0:0:0:0:
329,192,65999,128,0,66111:0:0:0:0:
402,192,65999,128,0,66111:0:0:0:0:
475,192,65999,128,0,66370:0:0:0:0:
256,192,65999,128,0,66111:0:0:0:0:
109,192,66222,128,0,66592:0:0:0:0:
402,192,66222,128,0,66333:0:0:0:0:
329,192,66222,128,0,66333:0:0:0:0:
36,192,66222,128,0,66370:0:0:0:0:
256,192,66222,128,0,66333:0:0:0:0:
182,192,66222,128,0,66333:0:0:0:0:
36,192,66444,128,0,66592:0:0:0:0:
256,192,66444,128,0,66555:0:0:0:0:
475,192,66444,128,0,66592:0:0:0:0:
329,192,66444,128,0,66555:0:0:0:0:
182,192,66444,128,0,66555:0:0:0:0:
402,192,66444,128,0,66814:0:0:0:0:
329,192,66666,128,0,66777:0:0:0:0:
475,192,66666,128,0,66814:0:0:0:0:
36,192,66666,128,0,66814:0:0:0:0:
109,192,66666,128,0,66814:0:0:0:0:
182,192,66666,128,0,67037:0:0:0:0:
256,192,66666,128,0,66777:0:0:0:0:
475,192,66888,128,0,67037:0:0:0:0:
109,192,66888,128,0,67037:0:0:0:0:
36,192,66888,128,0,67037:0:0:0:0:
256,192,66888,128,0,66999:0:0:0:0:
329,192,66888,128,0,67259:0:0:0:0:
402,192,66888,128,0,67037:0:0:0:0:
109,192,67111,128,0,67259:0:0:0:0:
182,192,67111,128,0,67259:0:0:0:0:
36,192,67111,128,0,67259:0:0:0:0:
256,192,67111,128,0,67481:0:0:0:0:
402,192,67111,128,0,67259:0:0:0:0:
475,192,67111,128,0,67259:0:0:0:0:
36,192,67333,128,0,67481:0:0:0:0:
182,192,67333,128,0,67481:0:0:0:0:
402,192,67333,128,0,67481:0:0:0:0:
329,192,67333,128,0,67481:0:0:0:0:
109,192,67333,128,0,67481:0:0:0:0:
475,192,67333,128,0,67481:0:0:0:0:
402,192,67555,1,0,0:0:0:0:
109,192,67555,1,0,0:0:0:0:
256,192,67555,1,0,0:0:0:0:
36,192,67555,128,0,67611:0:0:0:0:
182,192,67555,128,0,67611:0:0:0:0:
329,192,67555,128,0,67611:0:0:0:0:
475,192,67555,128,0,67611:0:0:0:0:
329,192,67666,1,0,0:0:0:0:
475,192,67666,1,0,0:0:0:0:
36,192,67666,1,0,0:0:0:0:
182,192,67666,1,0,0:0:0:0:
109,192,67666,128,0,67722:0:0:0:0:
256,192,67666,128,0,67722:0:0:0:0:
402,192,67666,128,0,67722:0:0:0:0:
109,192,67777,1,0,0:0:0:0:
402,192,67777,1,0,0:0:0:0:
256,192,67777,1,0,0:0:0:0:
182,192,67777,128,0,67833:0:0:0:0:
329,192,67777,128,0,67833:0:0:0:0:
475,192,67777,128,0,67833:0:0:0:0:
36,192,67777,128,0,67833:0:0:0:0:
182,192,67888,1,0,0:0:0:0:
36,192,67888,1,0,0:0:0:0:
475,192,67888,1,0,0:0:0:0:
329,192,67888,1,0,0:0:0:0:
402,192,67888,128,0,67944:0:0:0:0:
256,192,67888,128,0,67944:0:0:0:0:
109,192,67888,128,0,67944:0:0:0:0:
402,192,67999,1,0,0:0:0:0:
109,192,67999,1,0,0:0:0:0:
256,192,67999,1,0,0:0:0:0:
329,192,67999,128,0,68055:0:0:0:0:
475,192,67999,128,0,68055:0:0:0:0:
182,192,67999,128,0,68055:0:0:0:0:
36,192,67999,128,0,68055:0:0:0:0:
329,192,68111,1,0,0:0:0:0:
475,192,68111,1,0,0:0:0:0:
36,192,68111,1,0,0:0:0:0:
182,192,68111,1,0,0:0:0:0:
109,192,68111,128,0,68166:0:0:0:0:
256,192,68111,128,0,68166:0:0:0:0:
402,192,68111,128,0,68166:0:0:0:0:
109,192,68222,1,0,0:0:0:0:
402,192,68222,1,0,0:0:0:0:
256,192,68222,1,0,0:0:0:0:
36,192,68222,128,0,68277:0:0:0:0:
182,192,68222,128,0,68277:0:0:0:0:
329,192,68222,128,0,68277:0:0:0:0:
475,192,68222,128,0,68277:0:0:0:0:
182,192,68333,1,0,0:0:0:0:
36,192,68333,1,0,0:0:0:0:
475,192,68333,1,0,0:0:0:0:
329,192,68333,1,0,0:0:0:0:
109,192,68333,128,0,68388:0:0:0:0:
256,192,68333,128,0,68388:0:0:0:0:
402,192,68333,128,0,68388:0:0:0:0:
36,192,68444,128,0,68527:0:0:0:0:
109,192,68444,128,0,68555:0:0:0:0:
182,192,68444,128,0,68527:0:0:0:0:
256,192,68444,128,0,68555:0:0:0:0:
329,192,68444,128,0,68527:0:0:0:0:
402,192,68444,128,0,68555:0:0:0:0:
475,192,68444,128,0,68527:0:0:0:0:
182,192,68583,128,0,68722:0:0:0:0:
329,192,68583,128,0,68722:0:0:0:0:
475,192,68592,128,0,68703:0:0:0:0:
36,192,68592,128,0,68703:0:0:0:0:
109,192,68611,128,0,68694:0:0:0:0:
256,192,68611,128,0,68694:0:0:0:0:
402,192,68611,128,0,68694:0:0:0:0:
256,192,68749,128,0,68888:0:0:0:0:
402,192,68761,128,0,68888:0:0:0:0:
109,192,68761,128,0,68888:0:0:0:0:
182,192,68777,128,0,68861:0:0:0:0:
329,192,68777,128,0,68861:0:0:0:0:
475,192,68777,128,0,68861:0:0:0:0:
36,192,68777,128,0,68861:0:0:0:0:
475,192,68925,128,0,69037:0:0:0:0:
36,192,68925,128,0,69037:0:0:0:0:
329,192,68938,128,0,69037:0:0:0:0:
182,192,68938,128,0,69037:0:0:0:0:
109,192,68944,128,0,69027:0:0:0:0:
402,192,68944,128,0,69027:0:0:0:0:
256,192,68944,128,0,69027:0:0:0:0:
256,192,69083,128,0,69222:0:0:0:0:
402,192,69083,128,0,69222:0:0:0:0:
109,192,69083,128,0,69222:0:0:0:0:
182,192,69111,128,0,69194:0:0:0:0:
36,192,69111,128,0,69194:0:0:0:0:
329,192,69111,128,0,69194:0:0:0:0:
475,192,69111,128,0,69194:0:0:0:0:
36,192,69249,128,0,69388:0:0:0:0:
475,192,69249,128,0,69388:0:0:0:0:
329,192,69259,128,0,69370:0:0:0:0:
182,192,69259,128,0,69370:0:0:0:0:
109,192,69277,128,0,69361:0:0:0:0:
402,192,69277,128,0,69361:0:0:0:0:
256,192,69277,128,0,69361:0:0:0:0:
109,192,69416,128,0,69555:0:0:0:0:
402,192,69416,128,0,69555:0:0:0:0:
256,192,69422,128,0,69511:0:0:0:0:
182,192,69432,128,0,69530:0:0:0:0:
329,192,69432,128,0,69530:0:0:0:0:
36,192,69444,128,0,69527:0:0:0:0:
475,192,69444,128,0,69527:0:0:0:0:
182,192,69583,128,0,69722:0:0:0:0:
329,192,69583,128,0,69722:0:0:0:0:
475,192,69592,128,0,69703:0:0:0:0:
36,192,69592,128,0,69703:0:0:0:0:
256,192,69599,128,0,69688:0:0:0:0:
402,192,69611,128,0,69694:0:0:0:0:
109,192,69611,128,0,69694:0:0:0:0:
109,192,69749,128,0,69944:0:0:0:0:
402,192,69749,128,0,69944:0:0:0:0:
256,192,69749,128,0,69944:0:0:0:0:
329,192,69777,128,0,69944:0:0:0:0:
475,192,69777,128,0,69944:0:0:0:0:
182,192,69777,128,0,69944:0:0:0:0:
36,192,69777,128,0,69944:0:0:0:0:
36,192,69999,128,0,70185:0:0:0:0:
109,192,69999,128,0,70185:0:0:0:0:
182,192,69999,128,0,70185:0:0:0:0:
256,192,69999,128,0,70185:0:0:0:0:
329,192,69999,128,0,70185:0:0:0:0:
402,192,69999,128,0,70185:0:0:0:0:
475,192,69999,128,0,70185:0:0:0:0:
36,192,70277,128,0,70416:0:0:0:0:
109,192,70277,128,0,70416:0:0:0:0:
182,192,70277,128,0,70416:0:0:0:0:
256,192,70277,128,0,70416:0:0:0:0:
329,192,70277,128,0,70416:0:0:0:0:
402,192,70277,128,0,70416:0:0:0:0:
475,192,70277,128,0,70416:0:0:0:0:
36,192,70555,128,0,70666:0:0:0:0:
109,192,70555,128,0,70666:0:0:0:0:
182,192,70555,128,0,70666:0:0:0:0:
256,192,70555,128,0,70666:0:0:0:0:
329,192,70555,128,0,70666:0:0:0:0:
402,192,70555,128,0,70666:0:0:0:0:
475,192,70555,128,0,70666:0:0:0:0:
36,192,70833,128,0,70916:0:0:0:0:
109,192,70833,128,0,70916:0:0:0:0:
182,192,70833,128,0,70916:0:0:0:0:
256,192,70833,128,0,70916:0:0:0:0:
329,192,70833,128,0,70916:0:0:0:0:
402,192,70833,128,0,70916:0:0:0:0:
475,192,70833,128,0,70916:0:0:0:0:
36,192,71111,128,0,72138:0:0:0:0:
182,192,71111,128,0,71888:0:0:0:0:
256,192,71111,128,0,71888:0:0:0:0:
329,192,71111,128,0,71888:0:0:0:0:
475,192,71111,128,0,72138:0:0:0:0:
109,192,71999,128,0,72111:0:0:0:0:
182,192,71999,128,0,72083:0:0:0:0:
256,192,71999,128,0,72055:0:0:0:0:
329,192,71999,128,0,72083:0:0:0:0:
402,192,71999,128,0,72111:0:0:0:0:
109,192,72444,128,0,72527:0:0:0:0:
182,192,72444,128,0,72555:0:0:0:0:
329,192,72444,128,0,72555:0:0:0:0:
402,192,72444,128,0,72527:0:0:0:0:
256,192,72444,128,0,72583:0:0:0:0:
36,192,72444,128,0,72499:0:0:0:0:
475,192,72444,128,0,72499:0:0:0:0:
36,192,72888,1,0,0:0:0:0:
109,192,72888,1,0,0:0:0:0:
256,192,72888,1,0,0:0:0:0:
475,192,72888,1,0,0:0:0:0:
402,192,72888,1,0,0:0:0:0:
182,192,72916,1,0,0:0:0:0:
329,192,72999,1,0,0:0:0:0:
182,192,73074,1,0,0:0:0:0:
109,192,73111,1,0,0:0:0:0:
256,192,73111,1,0,0:0:0:0:
402,192,73111,1,0,0:0:0:0:
36,192,73111,1,0,0:0:0:0:
329,192,73138,1,0,0:0:0:0:
475,192,73222,1,0,0:0:0:0:
256,192,73259,1,0,0:0:0:0:
402,192,73259,1,0,0:0:0:0:
182,192,73333,1,0,0:0:0:0:
329,192,73333,1,0,0:0:0:0:
36,192,73333,1,0,0:0:0:0:
109,192,73333,1,0,0:0:0:0:
402,192,73444,1,0,0:0:0:0:
36,192,73555,1,0,0:0:0:0:
402,192,73555,1,0,0:0:0:0:
475,192,73555,1,0,0:0:0:0:
182,192,73555,1,0,0:0:0:0:
256,192,73583,1,0,0:0:0:0:
109,192,73592,1,0,0:0:0:0:
329,192,73611,1,0,0:0:0:0:
109,192,73777,1,0,0:0:0:0:
182,192,73777,1,0,0:0:0:0:
329,192,73777,1,0,0:0:0:0:
402,192,73777,1,0,0:0:0:0:
256,192,73888,1,0,0:0:0:0:
109,192,73944,1,0,0:0:0:0:
475,192,73999,1,0,0:0:0:0:
402,192,73999,1,0,0:0:0:0:
36,192,73999,1,0,0:0:0:0:
182,192,74037,1,0,0:0:0:0:
109,192,74111,1,0,0:0:0:0:
329,192,74111,1,0,0:0:0:0:
182,192,74222,1,0,0:0:0:0:
402,192,74222,1,0,0:0:0:0:
475,192,74222,1,0,0:0:0:0:
36,192,74222,1,0,0:0:0:0:
256,192,74249,1,0,0:0:0:0:
329,192,74271,1,0,0:0:0:0:
182,192,74370,1,0,0:0:0:0:
109,192,74444,1,0,0:0:0:0:
329,192,74444,1,0,0:0:0:0:
402,192,74472,1,0,0:0:0:0:
475,192,74481,1,0,0:0:0:0:
402,192,74638,1,0,0:0:0:0:
182,192,74666,1,0,0:0:0:0:
36,192,74666,1,0,0:0:0:0:
329,192,74666,1,0,0:0:0:0:
256,192,74666,1,0,0:0:0:0:
182,192,74777,1,0,0:0:0:0:
109,192,74793,1,0,0:0:0:0:
329,192,74833,1,0,0:0:0:0:
402,192,74888,1,0,0:0:0:0:
475,192,74888,1,0,0:0:0:0:
256,192,74888,1,0,0:0:0:0:
36,192,74888,1,0,0:0:0:0:
182,192,74999,1,0,0:0:0:0:
329,192,74999,1,0,0:0:0:0:
109,192,75027,1,0,0:0:0:0:
256,192,75083,1,0,0:0:0:0:
402,192,75111,1,0,0:0:0:0:
475,192,75111,1,0,0:0:0:0:
36,192,75111,1,0,0:0:0:0:
182,192,75111,1,0,0:0:0:0:
329,192,75222,1,0,0:0:0:0:
256,192,75305,1,0,0:0:0:0:
402,192,75333,1,0,0:0:0:0:
475,192,75333,1,0,0:0:0:0:
182,192,75333,1,0,0:0:0:0:
109,192,75361,1,0,0:0:0:0:
36,192,75370,1,0,0:0:0:0:
256,192,75428,1,0,0:0:0:0:
329,192,75444,1,0,0:0:0:0:
182,192,75555,1,0,0:0:0:0:
109,192,75555,1,0,0:0:0:0:
329,192,75666,1,0,0:0:0:0:
182,192,75666,1,0,0:0:0:0:
402,192,75703,1,0,0:0:0:0:
475,192,75722,1,0,0:0:0:0:
36,192,75777,1,0,0:0:0:0:
256,192,75777,1,0,0:0:0:0:
329,192,75814,1,0,0:0:0:0:
402,192,75833,1,0,0:0:0:0:
182,192,75888,1,0,0:0:0:0:
256,192,75944,1,0,0:0:0:0:
329,192,75999,1,0,0:0:0:1:
402,192,75999,1,0,0:0:0:0:
475,192,75999,1,0,0:0:0:0:
36,192,75999,1,0,0:0:0:0:
109,192,76037,1,0,0:0:0:0:
182,192,76074,1,0,0:0:0:0:
256,192,76111,1,0,0:0:0:0:
402,192,76148,1,0,0:0:0:0:
329,192,76185,1,0,0:0:0:0:
475,192,76222,1,0,0:0:0:0:
36,192,76222,1,0,0:0:0:0:
109,192,76222,1,0,0:0:0:0:
182,192,76222,1,0,0:0:0:0:
256,192,76249,1,0,0:0:0:0:
182,192,76444,1,0,0:0:0:0:
329,192,76444,1,0,0:0:0:0:
402,192,76444,1,0,0:0:0:0:
475,192,76444,1,0,0:0:0:0:
36,192,76444,1,0,0:0:0:0:
109,192,76518,1,0,0:0:0:0:
329,192,76555,1,0,0:0:0:0:
256,192,76666,1,0,0:0:0:0:
402,192,76666,1,0,0:0:0:0:
36,192,76666,1,0,0:0:0:0:
182,192,76666,1,0,0:0:0:0:
475,192,76740,1,0,0:0:0:0:
109,192,76777,1,0,0:0:0:0:
182,192,76777,1,0,0:0:0:0:
402,192,76814,1,0,0:0:0:0:
36,192,76888,1,0,0:0:0:0:
109,192,76888,1,0,0:0:0:0:
256,192,76888,1,0,0:0:0:0:
329,192,76888,1,0,0:0:0:0:
329,192,76999,1,0,0:0:0:0:
475,192,77083,1,0,0:0:0:0:
402,192,77111,1,0,0:0:0:0:
256,192,77111,1,0,0:0:0:0:
182,192,77138,1,0,0:0:0:0:
109,192,77148,1,0,0:0:0:0:
36,192,77166,1,0,0:0:0:0:
36,192,77333,1,0,0:0:0:0:
256,192,77333,1,0,0:0:0:0:
182,192,77333,1,0,0:0:0:0:
329,192,77333,1,0,0:0:0:0:
402,192,77396,1,0,0:0:0:0:
329,192,77499,1,0,0:0:0:0:
475,192,77555,1,0,0:0:0:0:
36,192,77555,1,0,0:0:0:0:
109,192,77555,1,0,0:0:0:0:
402,192,77555,1,0,0:0:0:0:
182,192,77592,1,0,0:0:0:0:
256,192,77666,1,0,0:0:0:0:
329,192,77777,1,0,0:0:0:1:
182,192,77777,1,0,0:0:0:0:
475,192,77777,1,0,0:0:0:0:
109,192,77777,1,0,0:0:0:0:
402,192,77814,1,0,0:0:0:0:
36,192,77814,1,0,0:0:0:0:
109,192,77925,1,0,0:0:0:0:
182,192,77962,1,0,0:0:0:0:
329,192,77962,1,0,0:0:0:0:
256,192,77999,1,0,0:0:0:0:
475,192,77999,1,0,0:0:0:0:
402,192,78037,1,0,0:0:0:0:
36,192,78222,1,0,0:0:0:0:
182,192,78222,1,0,0:0:0:0:
256,192,78222,1,0,0:0:0:0:
329,192,78222,1,0,0:0:0:0:
475,192,78222,1,0,0:0:0:0:
402,192,78333,1,0,0:0:0:0:
329,192,78370,1,0,0:0:0:0:
256,192,78407,1,0,0:0:0:0:
109,192,78444,1,0,0:0:0:0:
182,192,78444,1,0,0:0:0:0:
475,192,78444,1,0,0:0:0:0:
182,192,78555,1,0,0:0:0:0:
329,192,78555,1,0,0:0:0:0:
402,192,78592,1,0,0:0:0:0:
329,192,78666,1,0,0:0:0:0:
475,192,78666,1,0,0:0:0:0:
109,192,78666,1,0,0:0:0:0:
256,192,78666,1,0,0:0:0:0:
36,192,78666,1,0,0:0:0:0:
256,192,78777,1,0,0:0:0:0:
475,192,78888,1,0,0:0:0:0:
402,192,78888,1,0,0:0:0:0:
109,192,78888,1,0,0:0:0:0:
36,192,78888,1,0,0:0:0:0:
182,192,78920,1,0,0:0:0:0:
256,192,78944,1,0,0:0:0:0:
329,192,78962,1,0,0:0:0:0:
36,192,79111,1,0,0:0:0:0:
109,192,79111,1,0,0:0:0:0:
256,192,79111,1,0,0:0:0:0:
402,192,79111,1,0,0:0:0:0:
475,192,79111,1,0,0:0:0:0:
109,192,79222,1,0,0:0:0:0:
182,192,79249,1,0,0:0:0:0:
329,192,79277,1,0,0:0:0:0:
402,192,79305,1,0,0:0:0:0:
475,192,79333,1,0,0:0:0:0:
36,192,79333,1,0,0:0:0:0:
256,192,79370,1,0,0:0:0:0:
182,192,79444,1,0,0:0:0:0:
329,192,79499,1,0,0:0:0:0:
256,192,79555,1,0,0:0:0:0:
402,192,79555,1,0,0:0:0:0:
109,192,79555,1,0,0:0:0:0:
36,192,79555,1,0,0:0:0:0:
475,192,79592,1,0,0:0:0:0:
182,192,79592,1,0,0:0:0:0:
329,192,79666,1,0,0:0:0:0:
402,192,79740,1,0,0:0:0:0:
109,192,79777,1,0,0:0:0:1:
256,192,79777,1,0,0:0:0:0:
182,192,79805,1,0,0:0:0:0:
475,192,79814,1,0,0:0:0:0:
402,192,79888,1,0,0:0:0:1:
36,192,79888,1,0,0:0:0:0:
109,192,79944,1,0,0:0:0:0:
256,192,79999,128,0,80111:0:0:0:0:
36,192,79999,128,0,80444:0:0:0:0:
182,192,79999,1,0,0:0:0:0:
329,192,79999,1,0,0:0:0:0:
475,192,79999,1,0,0:0:0:0:
475,192,80138,1,0,0:0:0:0:
109,192,80166,1,0,0:0:0:0:
402,192,80194,128,0,80277:0:0:0:0:
256,192,80222,128,0,80333:0:0:0:0:
329,192,80222,128,0,80305:0:0:0:0:
475,192,80361,1,0,0:0:0:0:
402,192,80416,128,0,80499:0:0:0:0:
256,192,80444,128,0,80555:0:0:0:0:
329,192,80444,128,0,80527:0:0:0:0:
36,192,80583,128,0,80666:0:0:0:0:
475,192,80611,1,0,0:0:0:0:
402,192,80638,1,0,0:0:0:0:
109,192,80638,128,0,80722:0:0:0:0:
182,192,80666,128,0,80777:0:0:0:0:
256,192,80666,128,0,80777:0:0:0:0:
329,192,80749,1,0,0:0:0:0:
475,192,80805,1,0,0:0:0:0:
36,192,80861,128,0,80944:0:0:0:0:
109,192,80888,128,0,80972:0:0:0:0:
182,192,80888,128,0,80999:0:0:0:0:
256,192,80888,1,0,0:0:0:0:
402,192,80888,1,0,0:0:0:0:
402,192,81027,1,0,0:0:0:0:
36,192,81083,128,0,81166:0:0:0:0:
182,192,81111,128,0,81222:0:0:0:0:
109,192,81111,128,0,81194:0:0:0:0:
329,192,81138,1,0,0:0:0:0:
182,192,81333,128,0,81666:0:0:0:0:
329,192,81361,1,0,0:0:0:0:
402,192,81416,1,0,0:0:0:0:
256,192,81555,128,0,81777:0:0:0:0:
36,192,81555,128,0,81666:0:0:0:0:
475,192,81555,1,0,0:0:0:0:
109,192,81555,1,0,0:0:0:0:
402,192,81583,1,0,0:0:0:0:
36,192,81777,128,0,82111:0:0:0:0:
182,192,81777,128,0,81999:0:0:0:0:
475,192,81777,128,0,81888:0:0:0:0:
402,192,81777,128,0,81888:0:0:0:0:
329,192,81777,128,0,81888:0:0:0:0:
256,192,81916,1,0,0:0:0:0:
402,192,81972,1,0,0:0:0:0:
109,192,81999,128,0,82111:0:0:0:0:
329,192,81999,128,0,82333:0:0:0:0:
475,192,81999,128,0,82111:0:0:0:0:
256,192,82111,1,0,0:0:0:0:
182,192,82166,1,0,0:0:0:0:
36,192,82222,128,0,82555:0:0:0:0:
109,192,82222,128,0,82333:0:0:0:0:
475,192,82222,128,0,82333:0:0:0:0:
256,192,82222,128,0,82333:0:0:0:0:
402,192,82222,1,0,0:0:0:0:
182,192,82444,128,0,82777:0:0:0:0:
329,192,82444,128,0,82777:0:0:0:0:
475,192,82444,128,0,82666:0:0:0:0:
256,192,82472,1,0,0:0:0:0:
402,192,82472,1,0,0:0:0:0:
109,192,82499,1,0,0:0:0:0:
36,192,82666,128,0,82999:0:0:0:0:
256,192,82749,1,0,0:0:0:0:
475,192,82805,1,0,0:0:0:0:
182,192,82888,128,0,83222:0:0:0:0:
402,192,82888,128,0,82999:0:0:0:0:
329,192,82916,1,0,0:0:0:0:
109,192,83083,1,0,0:0:0:0:
36,192,83111,128,0,83444:0:0:0:0:
329,192,83111,128,0,83222:0:0:0:0:
256,192,83111,1,0,0:0:0:0:
402,192,83138,1,0,0:0:0:0:
475,192,83166,1,0,0:0:0:0:
109,192,83249,1,0,0:0:0:0:
329,192,83305,1,0,0:0:0:0:
182,192,83333,128,0,83666:0:0:0:0:
402,192,83333,128,0,83666:0:0:0:0:
256,192,83527,1,0,0:0:0:0:
475,192,83555,128,0,83666:0:0:0:0:
329,192,83555,128,0,83777:0:0:0:0:
109,192,83555,128,0,83777:0:0:0:0:
36,192,83555,128,0,83888:0:0:0:0:
256,192,83666,1,0,0:0:0:0:
182,192,83777,128,0,84111:0:0:0:0:
475,192,83777,128,0,83888:0:0:0:0:
402,192,83833,1,0,0:0:0:0:
109,192,83861,1,0,0:0:0:0:
329,192,83888,128,0,84111:0:0:0:0:
256,192,83972,1,0,0:0:0:0:
36,192,83999,128,0,84333:0:0:0:0:
475,192,83999,128,0,84444:0:0:0:0:
329,192,84194,1,0,0:0:0:0:
182,192,84222,1,0,0:0:0:0:
402,192,84222,1,0,0:0:0:0:
109,192,84249,1,0,0:0:0:0:
36,192,84444,128,0,84777:0:0:0:0:
109,192,84444,128,0,84555:0:0:0:0:
329,192,84444,1,0,0:0:0:0:
475,192,84527,1,0,0:0:0:0:
402,192,84611,1,0,0:0:0:0:
256,192,84638,1,0,0:0:0:0:
109,192,84666,128,0,84777:0:0:0:0:
182,192,84666,128,0,84999:0:0:0:0:
329,192,84694,1,0,0:0:0:0:
36,192,84888,128,0,85222:0:0:0:0:
109,192,84888,128,0,85666:0:0:0:0:
475,192,84888,1,0,0:0:0:0:
402,192,84888,1,0,0:0:0:0:
329,192,84916,1,0,0:0:0:0:
475,192,85083,1,0,0:0:0:0:
182,192,85111,128,0,85444:0:0:0:0:
402,192,85111,1,0,0:0:0:0:
329,192,85111,1,0,0:0:0:0:
256,192,85138,1,0,0:0:0:0:
36,192,85333,128,0,85444:0:0:0:0:
329,192,85333,128,0,85444:0:0:0:0:
402,192,85333,128,0,85666:0:0:0:0:
475,192,85333,128,0,85444:0:0:0:0:
256,192,85472,1,0,0:0:0:0:
36,192,85527,1,0,0:0:0:0:
182,192,85555,128,0,85888:0:0:0:0:
329,192,85555,1,0,0:0:0:0:
475,192,85555,1,0,0:0:0:0:
329,192,85666,128,0,85888:0:0:0:0:
256,192,85694,1,0,0:0:0:0:
402,192,85749,1,0,0:0:0:0:
109,192,85749,1,0,0:0:0:0:
475,192,85777,128,0,86555:0:0:0:0:
36,192,85777,1,0,0:0:0:0:
402,192,85999,128,0,86083:0:0:0:0:
36,192,85999,1,0,0:0:0:0:
329,192,86027,128,0,86111:0:0:0:0:
182,192,86074,128,0,86185:0:0:0:0:
109,192,86111,128,0,86259:0:0:0:0:
36,192,86148,128,0,86333:0:0:0:0:
402,192,86185,128,0,86296:0:0:0:0:
329,192,86222,128,0,86333:0:0:0:0:
256,192,86259,128,0,86370:0:0:0:0:
182,192,86305,128,0,86388:0:0:0:0:
109,192,86333,128,0,86416:0:0:0:0:
402,192,86444,128,0,86777:0:0:0:0:
109,192,86472,1,0,0:0:0:0:
329,192,86583,1,0,0:0:0:0:
475,192,86666,128,0,86777:0:0:0:0:
256,192,86666,1,0,0:0:0:0:
182,192,86666,1,0,0:0:0:0:
109,192,86694,1,0,0:0:0:0:
36,192,86749,1,0,0:0:0:0:
182,192,86777,1,0,0:0:0:1:
329,192,86833,1,0,0:0:0:0:
109,192,86888,128,0,87111:0:0:0:0:
402,192,86888,128,0,86999:0:0:0:0:
475,192,86888,128,0,86999:0:0:0:0:
256,192,86888,128,0,87111:0:0:0:0:
182,192,87111,1,0,0:0:0:0:
329,192,87111,128,0,87249:0:0:0:0:
402,192,87111,128,0,87277:0:0:0:0:
475,192,87111,128,0,87305:0:0:0:0:
36,192,87111,128,0,87333:0:0:0:0:
109,192,87222,1,0,0:0:0:0:
182,192,87296,1,0,0:0:0:0:
256,192,87305,1,0,0:0:0:0:
329,192,87333,1,0,0:0:0:0:
402,192,87407,1,0,0:0:0:0:
475,192,87444,1,0,0:0:0:0:
36,192,87444,1,0,0:0:0:0:
109,192,87444,128,0,87666:0:0:0:0:
182,192,87481,1,0,0:0:0:0:
329,192,87555,1,0,0:0:0:0:
256,192,87555,128,0,87722:0:0:0:0:
182,192,87666,1,0,0:0:0:0:
329,192,87749,1,0,0:0:0:0:
402,192,87777,1,0,0:0:0:0:
36,192,87777,128,0,88111:0:0:0:0:
109,192,87777,128,0,87888:0:0:0:0:
475,192,87805,1,0,0:0:0:0:
256,192,87833,1,0,0:0:0:0:
329,192,87999,1,0,0:0:0:0:
182,192,87999,128,0,88111:0:0:0:0:
329,192,88111,1,0,0:0:0:0:
402,192,88148,1,0,0:0:0:0:
475,192,88222,1,0,0:0:0:0:
256,192,88222,1,0,0:0:0:0:
36,192,88222,1,0,0:0:0:0:
109,192,88222,128,0,88333:0:0:0:0:
402,192,88296,1,0,0:0:0:0:
329,192,88333,1,0,0:0:0:0:
475,192,88444,1,0,0:0:0:0:
256,192,88444,1,0,0:0:0:0:
182,192,88444,1,0,0:0:0:0:
36,192,88444,1,0,0:0:0:0:
109,192,88481,1,0,0:0:0:0:
329,192,88518,1,0,0:0:0:0:
256,192,88592,1,0,0:0:0:0:
402,192,88592,1,0,0:0:0:0:
182,192,88666,1,0,0:0:0:0:
109,192,88666,1,0,0:0:0:0:
329,192,88666,128,0,88833:0:0:0:0:
475,192,88666,128,0,88777:0:0:0:0:
182,192,88814,1,0,0:0:0:0:
109,192,88888,1,0,0:0:0:0:
256,192,88888,1,0,0:0:0:0:
475,192,88888,1,0,0:0:0:0:
402,192,88888,1,0,0:0:0:0:
36,192,88888,128,0,89222:0:0:0:0:
329,192,88999,1,0,0:0:0:0:
402,192,89037,1,0,0:0:0:0:
475,192,89074,1,0,0:0:0:0:
256,192,89111,1,0,0:0:0:0:
109,192,89111,128,0,89444:0:0:0:0:
182,192,89138,1,0,0:0:0:0:
329,192,89222,1,0,0:0:0:0:
402,192,89222,1,0,0:0:0:0:
256,192,89259,1,0,0:0:0:0:
182,192,89333,1,0,0:0:0:0:
402,192,89333,1,0,0:0:0:0:
475,192,89333,1,0,0:0:0:0:
36,192,89333,128,0,89666:0:0:0:0:
182,192,89444,1,0,0:0:0:0:
256,192,89555,1,0,0:0:0:0:
109,192,89555,1,0,0:0:0:0:
329,192,89555,128,0,89888:0:0:0:0:
402,192,89583,1,0,0:0:0:0:
475,192,89592,1,0,0:0:0:0:
182,192,89638,1,0,0:0:0:0:
256,192,89777,1,0,0:0:0:0:
36,192,89777,1,0,0:0:0:0:
109,192,89777,1,0,0:0:0:0:
402,192,89888,1,0,0:0:0:0:
182,192,89888,1,0,0:0:0:0:
256,192,89925,1,0,0:0:0:0:
475,192,89999,1,0,0:0:0:0:
36,192,89999,128,0,90138:0:0:0:0:
109,192,89999,128,0,90166:0:0:0:0:
182,192,90037,1,0,0:0:0:0:
329,192,90111,1,0,0:0:0:0:
402,192,90148,1,0,0:0:0:0:
256,192,90222,1,0,0:0:0:0:
475,192,90222,1,0,0:0:0:0:
36,192,90222,1,0,0:0:0:0:
109,192,90249,1,0,0:0:0:0:
182,192,90259,1,0,0:0:0:0:
329,192,90333,1,0,0:0:0:0:
402,192,90370,1,0,0:0:0:0:
475,192,90388,1,0,0:0:0:0:
329,192,90444,128,0,90555:0:0:0:0:
256,192,90444,128,0,90583:0:0:0:0:
109,192,90444,128,0,90555:0:0:0:0:
36,192,90444,128,0,90527:0:0:0:0:
109,192,90666,1,0,0:0:0:0:
475,192,90666,1,0,0:0:0:0:
36,192,90666,1,0,0:0:0:0:
329,192,90666,128,0,90777:0:0:0:0:
402,192,90666,128,0,90805:0:0:0:0:
182,192,90740,1,0,0:0:0:0:
256,192,90777,1,0,0:0:0:0:
475,192,90861,1,0,0:0:0:0:
109,192,90861,1,0,0:0:0:0:
329,192,90888,1,0,0:0:0:0:
182,192,90888,1,0,0:0:0:0:
36,192,90962,1,0,0:0:0:0:
109,192,90999,1,0,0:0:0:0:
256,192,90999,1,0,0:0:0:0:
402,192,90999,1,0,0:0:0:0:
475,192,91027,1,0,0:0:0:0:
329,192,91111,1,0,0:0:0:0:
36,192,91111,128,0,91277:0:0:0:0:
182,192,91111,128,0,91249:0:0:0:0:
329,192,91222,1,0,0:0:0:0:
36,192,91333,1,0,0:0:0:0:
182,192,91333,1,0,0:0:0:0:
402,192,91333,128,0,91444:0:0:0:0:
475,192,91333,128,0,91666:0:0:0:0:
256,192,91361,1,0,0:0:0:0:
109,192,91555,1,0,0:0:0:0:
182,192,91555,1,0,0:0:0:0:
402,192,91555,1,0,0:0:0:0:
329,192,91555,128,0,91777:0:0:0:0:
36,192,91619,1,0,0:0:0:0:
182,192,91703,1,0,0:0:0:0:
475,192,91777,1,0,0:0:0:0:
256,192,91777,128,0,92055:0:0:0:0:
109,192,91777,128,0,91944:0:0:0:0:
402,192,91805,1,0,0:0:0:0:
329,192,91888,1,0,0:0:0:0:
402,192,91999,1,0,0:0:0:0:
475,192,91999,1,0,0:0:0:0:
182,192,91999,1,0,0:0:0:0:
109,192,92027,1,0,0:0:0:0:
36,192,92037,1,0,0:0:0:0:
402,192,92111,1,0,0:0:0:0:
329,192,92138,1,0,0:0:0:0:
256,192,92148,1,0,0:0:0:0:
475,192,92222,1,0,0:0:0:0:
109,192,92222,128,0,92444:0:0:0:0:
182,192,92222,128,0,92333:0:0:0:0:
256,192,92444,1,0,0:0:0:0:
329,192,92444,1,0,0:0:0:0:
475,192,92444,1,0,0:0:0:0:
182,192,92444,1,0,0:0:0:0:
36,192,92444,128,0,92666:0:0:0:0:
109,192,92555,1,0,0:0:0:0:
329,192,92592,1,0,0:0:0:0:
402,192,92629,1,0,0:0:0:0:
182,192,92666,128,0,92833:0:0:0:0:
256,192,92666,128,0,92805:0:0:0:0:
475,192,92694,1,0,0:0:0:0:
109,192,92777,1,0,0:0:0:0:
36,192,92805,1,0,0:0:0:0:
475,192,92861,128,0,92972:0:0:0:0:
402,192,92888,128,0,92999:0:0:0:0:
329,192,92916,128,0,93027:0:0:0:0:
256,192,92944,128,0,93055:0:0:0:0:
182,192,92972,128,0,93083:0:0:0:0:
109,192,92999,128,0,93111:0:0:0:0:
36,192,93027,128,0,93305:0:0:0:0:
329,192,93111,128,0,93222:0:0:0:0:
475,192,93111,128,0,93277:0:0:0:0:
402,192,93166,1,0,0:0:0:0:
182,192,93194,1,0,0:0:0:0:
329,192,93333,1,0,0:0:0:0:
475,192,93333,1,0,0:0:0:0:
256,192,93333,1,0,0:0:0:0:
36,192,93388,128,0,93472:0:0:0:0:
109,192,93416,128,0,93499:0:0:0:0:
182,192,93444,128,0,93527:0:0:0:0:
256,192,93472,128,0,93555:0:0:0:0:
329,192,93499,128,0,93583:0:0:0:0:
402,192,93527,128,0,93611:0:0:0:0:
36,192,93555,1,0,0:0:0:0:
475,192,93555,128,0,93694:0:0:0:0:
109,192,93666,1,0,0:0:0:0:
36,192,93777,128,0,93833:0:0:0:0:
182,192,93777,128,0,93833:0:0:0:0:
256,192,93777,128,0,93833:0:0:0:0:
402,192,93777,128,0,93833:0:0:0:0:
475,192,93777,128,0,93833:0:0:0:0:
329,192,93833,1,0,0:0:0:0:
109,192,93944,128,0,94027:0:0:0:0:
182,192,93972,128,0,94055:0:0:0:0:
402,192,93999,128,0,94083:0:0:0:0:
475,192,94027,128,0,94111:0:0:0:0:
109,192,94194,1,0,0:0:0:0:
182,192,94222,128,0,94388:0:0:0:0:
256,192,94222,128,0,94388:0:0:0:0:
329,192,94222,128,0,94388:0:0:0:0:
402,192,94222,1,0,0:0:0:0:
475,192,94277,1,0,0:0:0:0:
36,192,94333,1,0,0:0:0:0:
109,192,94388,1,0,0:0:0:0:
182,192,94444,128,0,94611:0:0:0:0:
256,192,94444,128,0,94611:0:0:0:0:
329,192,94444,128,0,94611:0:0:0:0:
475,192,94444,1,0,0:0:0:0:
402,192,94499,1,0,0:0:0:0:
36,192,94555,1,0,0:0:0:0:
109,192,94611,1,0,0:0:0:0:
256,192,94666,128,0,94833:0:0:0:0:
329,192,94666,128,0,94833:0:0:0:0:
475,192,94666,1,0,0:0:0:0:
182,192,94666,128,0,94833:0:0:0:0:
402,192,94722,1,0,0:0:0:0:
109,192,94777,1,0,0:0:0:0:
36,192,94833,1,0,0:0:0:0:
329,192,94888,128,0,95055:0:0:0:0:
402,192,94888,128,0,95055:0:0:0:0:
475,192,94888,128,0,95055:0:0:0:0:
256,192,94888,1,0,0:0:0:0:
182,192,94944,1,0,0:0:0:0:
109,192,94999,1,0,0:0:0:0:
36,192,95055,1,0,0:0:0:0:
329,192,95111,128,0,95277:0:0:0:0:
402,192,95111,128,0,95277:0:0:0:0:
475,192,95111,128,0,95277:0:0:0:0:
256,192,95111,1,0,0:0:0:0:
182,192,95166,1,0,0:0:0:0:
109,192,95222,1,0,0:0:0:0:
256,192,95277,1,0,0:0:0:0:
329,192,95333,128,0,95499:0:0:0:0:
402,192,95333,128,0,95499:0:0:0:0:
475,192,95333,128,0,95499:0:0:0:0:
36,192,95333,1,0,0:0:0:0:
109,192,95388,1,0,0:0:0:0:
182,192,95444,1,0,0:0:0:0:
256,192,95499,1,0,0:0:0:0:
329,192,95555,1,0,0:0:0:0:
402,192,95555,1,0,0:0:0:0:
475,192,95555,1,0,0:0:0:0:
36,192,95611,1,0,0:0:0:0:
182,192,95666,1,0,0:0:0:0:
329,192,95722,1,0,0:0:0:0:
256,192,95777,128,0,95916:0:0:0:0:
402,192,95777,1,0,0:0:0:0:
475,192,95777,1,0,0:0:0:0:
182,192,95805,128,0,95944:0:0:0:0:
109,192,95833,128,0,95972:0:0:0:0:
36,192,95861,128,0,95999:0:0:0:0:
256,192,95999,128,0,96138:0:0:0:0:
329,192,95999,128,0,96111:0:0:0:0:
402,192,95999,128,0,96083:0:0:0:0:
475,192,95999,128,0,96111:0:0:0:0:
109,192,96148,1,0,0:0:0:0:
402,192,96185,1,0,0:0:0:0:
329,192,96194,1,0,0:0:0:0:
36,192,96222,128,0,96361:0:0:0:0:
475,192,96222,128,0,96555:0:0:0:0:
256,192,96222,1,0,0:0:0:0:
182,192,96333,128,0,96527:0:0:0:0:
329,192,96370,1,0,0:0:0:0:
256,192,96444,128,0,96638:0:0:0:0:
402,192,96444,128,0,96527:0:0:0:0:
109,192,96444,128,0,96611:0:0:0:0:
36,192,96444,1,0,0:0:0:0:
402,192,96638,1,0,0:0:0:0:
329,192,96666,128,0,96999:0:0:0:0:
36,192,96666,128,0,96749:0:0:0:0:
182,192,96666,128,0,96777:0:0:0:0:
109,192,96703,1,0,0:0:0:0:
475,192,96749,1,0,0:0:0:0:
402,192,96777,128,0,96944:0:0:0:0:
256,192,96777,128,0,96888:0:0:0:0:
36,192,96888,128,0,97166:0:0:0:0:
182,192,96888,128,0,96944:0:0:0:0:
475,192,96999,128,0,97222:0:0:0:0:
256,192,97037,1,0,0:0:0:0:
402,192,97111,128,0,97305:0:0:0:0:
329,192,97111,128,0,97222:0:0:0:0:
182,192,97111,128,0,97194:0:0:0:0:
109,192,97148,1,0,0:0:0:0:
256,192,97259,1,0,0:0:0:0:
329,192,97333,128,0,97638:0:0:0:0:
475,192,97333,128,0,97388:0:0:0:0:
182,192,97333,128,0,97444:0:0:0:0:
36,192,97333,1,0,0:0:0:0:
109,192,97370,1,0,0:0:0:0:
402,192,97416,1,0,0:0:0:0:
475,192,97499,1,0,0:0:0:0:
182,192,97555,1,0,0:0:0:0:
36,192,97555,1,0,0:0:0:0:
256,192,97555,128,0,97638:0:0:0:0:
402,192,97555,128,0,97722:0:0:0:0:
182,192,97666,1,0,0:0:0:0:
475,192,97777,128,0,98027:0:0:0:0:
109,192,97777,128,0,98027:0:0:0:0:
256,192,97777,128,0,97916:0:0:0:0:
36,192,97777,128,0,97861:0:0:0:0:
329,192,97777,1,0,0:0:0:0:
402,192,97851,1,0,0:0:0:0:
182,192,97972,1,0,0:0:0:0:
36,192,97999,1,0,0:0:0:0:
256,192,97999,1,0,0:0:0:0:
329,192,98027,1,0,0:0:0:0:
402,192,98083,1,0,0:0:0:0:
475,192,98111,1,0,0:0:0:0:
109,192,98138,1,0,0:0:0:0:
329,192,98222,1,0,0:0:0:0:
256,192,98222,128,0,98583:0:0:0:0:
36,192,98222,128,0,98527:0:0:0:0:
182,192,98222,1,0,0:0:0:0:
475,192,98333,128,0,98527:0:0:0:0:
182,192,98444,128,0,98555:0:0:0:0:
329,192,98444,1,0,0:0:0:0:
402,192,98472,1,0,0:0:0:0:
109,192,98481,1,0,0:0:0:0:
329,192,98555,1,0,0:0:0:1:
256,192,98666,1,0,0:0:0:0:
36,192,98666,128,0,98972:0:0:0:0:
182,192,98666,128,0,98749:0:0:0:0:
475,192,98666,128,0,98777:0:0:0:0:
402,192,98740,1,0,0:0:0:0:
256,192,98814,1,0,0:0:0:0:
475,192,98888,1,0,0:0:0:0:
329,192,98888,128,0,99027:0:0:0:0:
182,192,98888,1,0,0:0:0:0:
109,192,98925,1,0,0:0:0:0:
402,192,98999,128,0,99194:0:0:0:0:
329,192,99111,1,0,0:0:0:0:
256,192,99111,128,0,99194:0:0:0:0:
36,192,99111,128,0,99416:0:0:0:0:
182,192,99111,1,0,0:0:0:0:
475,192,99148,1,0,0:0:0:0:
182,192,99222,128,0,99333:0:0:0:0:
329,192,99259,1,0,0:0:0:0:
109,192,99259,1,0,0:0:0:0:
475,192,99305,1,0,0:0:0:0:
402,192,99333,128,0,99444:0:0:0:0:
256,192,99333,128,0,99555:0:0:0:0:
182,192,99444,1,0,0:0:0:0:
36,192,99555,128,0,99833:0:0:0:0:
109,192,99555,128,0,99777:0:0:0:0:
182,192,99555,128,0,99722:0:0:0:0:
329,192,99555,128,0,99666:0:0:0:0:
402,192,99555,128,0,99611:0:0:0:0:
475,192,99555,1,0,0:0:0:0:
402,192,99666,1,0,0:0:0:0:
329,192,99722,1,0,0:0:0:0:
182,192,99777,1,0,0:0:0:0:
109,192,99833,1,0,0:0:0:0:
36,192,99888,1,0,0:0:0:0:
475,192,99916,128,0,100166:0:0:0:0:
402,192,99944,128,0,100166:0:0:0:0:
329,192,99972,128,0,100166:0:0:0:0:
256,192,99999,128,0,100166:0:0:0:0:
182,192,100027,128,0,100166:0:0:0:0:
109,192,100055,128,0,100166:0:0:0:0:
36,192,100083,128,0,100166:0:0:0:0:
109,192,100222,128,0,100277:0:0:0:0:
182,192,100222,128,0,100333:0:0:0:0:
329,192,100222,128,0,100388:0:0:0:0:
402,192,100222,128,0,100444:0:0:0:0:
475,192,100222,128,0,100499:0:0:0:0:
36,192,100222,1,0,0:0:0:0:
109,192,100333,1,0,0:0:0:0:
182,192,100388,1,0,0:0:0:0:
329,192,100444,1,0,0:0:0:0:
402,192,100499,1,0,0:0:0:0:
475,192,100555,1,0,0:0:0:0:
36,192,100583,128,0,100833:0:0:0:0:
109,192,100611,128,0,100833:0:0:0:0:
182,192,100638,128,0,100833:0:0:0:0:
256,192,100666,128,0,100833:0:0:0:0:
329,192,100694,128,0,100833:0:0:0:0:
402,192,100722,128,0,100833:0:0:0:0:
475,192,100749,128,0,100833:0:0:0:0:
402,192,100888,128,0,100944:0:0:0:0:
329,192,100888,128,0,100999:0:0:0:0:
182,192,100888,128,0,101055:0:0:0:0:
109,192,100888,128,0,101111:0:0:0:0:
36,192,100888,128,0,101166:0:0:0:0:
475,192,100888,1,0,0:0:0:0:
402,192,100999,1,0,0:0:0:0:
329,192,101055,1,0,0:0:0:0:
182,192,101111,1,0,0:0:0:0:
109,192,101166,1,0,0:0:0:0:
182,192,101333,128,0,101499:0:0:0:0:
256,192,101333,128,0,101499:0:0:0:0:
329,192,101333,128,0,101499:0:0:0:0:
402,192,101333,128,0,101499:0:0:0:0:
36,192,101333,128,0,104444:0:0:0:0:
109,192,101333,128,0,101499:0:0:0:0:
475,192,101333,1,0,0:0:0:0:
182,192,101555,128,0,101722:0:0:0:0:
256,192,101555,128,0,101722:0:0:0:0:
402,192,101555,128,0,101722:0:0:0:0:
475,192,101555,128,0,101722:0:0:0:0:
329,192,101555,128,0,101722:0:0:0:0:
109,192,101555,1,0,0:0:0:0:
329,192,101777,128,0,101916:0:0:0:0:
402,192,101777,128,0,101916:0:0:0:0:
182,192,101777,128,0,101916:0:0:0:0:
256,192,101777,128,0,101916:0:0:0:0:
109,192,101777,128,0,101916:0:0:0:0:
475,192,101777,1,0,0:0:0:0:
182,192,101999,128,0,102138:0:0:0:0:
256,192,101999,128,0,102138:0:0:0:0:
402,192,101999,128,0,102138:0:0:0:0:
475,192,101999,128,0,102138:0:0:0:0:
329,192,101999,128,0,102138:0:0:0:0:
109,192,101999,1,0,0:0:0:0:
182,192,102222,128,0,102333:0:0:0:0:
256,192,102222,128,0,102333:0:0:0:0:
329,192,102222,128,0,102333:0:0:0:0:
402,192,102222,128,0,102333:0:0:0:0:
109,192,102222,128,0,102333:0:0:0:0:
475,192,102222,1,0,0:0:0:0:
475,192,102444,128,0,102555:0:0:0:0:
256,192,102444,128,0,102555:0:0:0:0:
329,192,102444,128,0,102555:0:0:0:0:
402,192,102444,128,0,102555:0:0:0:0:
182,192,102444,128,0,102555:0:0:0:0:
109,192,102444,1,0,0:0:0:0:
182,192,102666,128,0,102722:0:0:0:0:
329,192,102666,128,0,102722:0:0:0:0:
256,192,102666,128,0,102722:0:0:0:0:
402,192,102666,128,0,102722:0:0:0:0:
109,192,102666,128,0,102722:0:0:0:0:
475,192,102666,1,0,0:0:0:0:
182,192,102888,128,0,102944:0:0:0:0:
256,192,102888,128,0,102944:0:0:0:0:
329,192,102888,128,0,102944:0:0:0:0:
402,192,102888,128,0,102944:0:0:0:0:
475,192,102888,128,0,102944:0:0:0:0:
109,192,102888,1,0,0:0:0:0:
182,192,103111,128,0,103166:0:0:0:0:
329,192,103111,128,0,103166:0:0:0:0:
402,192,103111,128,0,103166:0:0:0:0:
256,192,103111,128,0,103166:0:0:0:0:
109,192,103111,128,0,103166:0:0:0:0:
475,192,103111,1,0,0:0:0:0:
256,192,103333,128,0,103388:0:0:0:0:
475,192,103333,128,0,103388:0:0:0:0:
329,192,103333,128,0,103388:0:0:0:0:
182,192,103333,128,0,103388:0:0:0:0:
402,192,103333,128,0,103388:0:0:0:0:
109,192,103333,1,0,0:0:0:0:
256,192,103555,128,0,103611:0:0:0:0:
182,192,103555,128,0,103611:0:0:0:0:
329,192,103555,128,0,103611:0:0:0:0:
109,192,103555,128,0,103611:0:0:0:0:
402,192,103555,1,0,0:0:0:0:
182,192,103777,128,0,103833:0:0:0:0:
402,192,103777,128,0,103833:0:0:0:0:
329,192,103777,128,0,103833:0:0:0:0:
256,192,103777,128,0,103833:0:0:0:0:
109,192,103777,1,0,0:0:0:0:
182,192,103999,128,0,104055:0:0:0:0:
329,192,103999,128,0,104055:0:0:0:0:
256,192,103999,128,0,104055:0:0:0:0:
475,192,103999,1,0,0:0:0:0:
109,192,103999,128,0,104055:0:0:0:0:
402,192,104111,1,0,0:0:0:0:
256,192,104222,128,0,104277:0:0:0:0:
182,192,104222,128,0,104277:0:0:0:0:
475,192,104222,1,0,0:0:0:0:
329,192,104222,1,0,0:0:0:0:
109,192,104222,1,0,0:0:0:0:
402,192,104333,1,0,0:0:0:0:
182,192,104444,128,0,104499:0:0:0:0:
329,192,104444,1,0,0:0:0:0:
475,192,104444,1,0,0:0:0:0:
109,192,104444,128,0,104499:0:0:0:0:
109,192,104666,1,0,0:0:0:0:
36,192,104888,128,0,105444:0:0:0:0:
109,192,104888,128,0,104999:0:0:0:0:
182,192,104888,128,0,104999:0:0:0:0:
256,192,104888,128,0,104999:0:0:0:0:
329,192,104888,128,0,104999:0:0:0:0:
109,192,105111,128,0,105444:0:0:0:0:
182,192,105111,128,0,105222:0:0:0:0:
256,192,105111,128,0,105222:0:0:0:0:
329,192,105111,128,0,105222:0:0:0:0:
402,192,105111,128,0,105222:0:0:0:0:
182,192,105333,128,0,105444:0:0:0:0:
256,192,105333,128,0,105444:0:0:0:0:
329,192,105333,128,0,105444:0:0:0:0:
402,192,105333,128,0,105666:0:0:0:0:
475,192,105333,128,0,105888:0:0:0:0:
36,192,105555,128,0,106111:0:0:0:0:
109,192,105555,128,0,105666:0:0:0:0:
182,192,105555,128,0,105666:0:0:0:0:
256,192,105555,128,0,105666:0:0:0:0:
329,192,105555,128,0,105666:0:0:0:0:
109,192,105777,128,0,106111:0:0:0:0:
182,192,105777,128,0,105888:0:0:0:0:
256,192,105777,128,0,105888:0:0:0:0:
329,192,105777,128,0,105888:0:0:0:0:
402,192,105777,128,0,105888:0:0:0:0:
182,192,105999,128,0,106111:0:0:0:0:
256,192,105999,128,0,106111:0:0:0:0:
329,192,105999,128,0,106111:0:0:0:0:
402,192,105999,128,0,106333:0:0:0:0:
475,192,105999,128,0,106555:0:0:0:0:
36,192,106222,128,0,106999:0:0:0:0:
109,192,106222,128,0,106333:0:0:0:0:
182,192,106222,128,0,106333:0:0:0:0:
256,192,106222,128,0,106333:0:0:0:0:
329,192,106222,128,0,106333:0:0:0:0:
109,192,106444,128,0,106666:0:0:0:0:
182,192,106444,128,0,106555:0:0:0:0:
256,192,106444,128,0,106555:0:0:0:0:
329,192,106444,128,0,106555:0:0:0:0:
402,192,106444,128,0,106555:0:0:0:0:
182,192,106666,1,0,0:0:0:0:
256,192,106666,1,0,0:0:0:0:
329,192,106666,1,0,0:0:0:0:
402,192,106666,1,0,0:0:0:0:
475,192,106666,128,0,106833:0:0:0:0:
182,192,106814,1,0,0:0:0:0:
256,192,106814,1,0,0:0:0:0:
329,192,106814,1,0,0:0:0:0:
402,192,106814,1,0,0:0:0:0:
109,192,106814,128,0,106999:0:0:0:0:
182,192,106962,1,0,0:0:0:0:
256,192,106962,1,0,0:0:0:0:
329,192,106962,1,0,0:0:0:0:
475,192,106962,128,0,107444:0:0:0:0:
402,192,106962,128,0,107148:0:0:0:0:
109,192,107111,1,0,0:0:0:0:
182,192,107111,1,0,0:0:0:0:
256,192,107111,1,0,0:0:0:0:
329,192,107111,1,0,0:0:0:0:
36,192,107111,128,0,107296:0:0:0:0:
109,192,107259,1,0,0:0:0:0:
182,192,107259,1,0,0:0:0:0:
256,192,107259,1,0,0:0:0:0:
329,192,107259,1,0,0:0:0:0:
402,192,107259,128,0,107444:0:0:0:0:
329,192,107407,1,0,0:0:0:0:
256,192,107407,1,0,0:0:0:0:
182,192,107407,1,0,0:0:0:0:
109,192,107407,1,0,0:0:0:0:
36,192,107407,1,0,0:0:0:0:
182,192,107555,1,0,0:0:0:0:
329,192,107555,1,0,0:0:0:0:
402,192,107555,1,0,0:0:0:0:
475,192,107555,1,0,0:0:0:0:
109,192,107555,1,0,0:0:0:0:
36,192,107555,1,0,0:0:0:0:
36,192,107999,1,0,0:0:0:0:
109,192,107999,1,0,0:0:0:0:
182,192,107999,1,0,0:0:0:0:
329,192,107999,1,0,0:0:0:0:
402,192,107999,1,0,0:0:0:0:
475,192,107999,1,0,0:0:0:0:
36,192,108444,1,0,0:0:0:0:
109,192,108444,1,0,0:0:0:0:
256,192,108444,1,0,0:0:0:0:
402,192,108444,1,0,0:0:0:0:
475,192,108444,1,0,0:0:0:0:
182,192,108518,1,0,0:0:0:0:
329,192,108555,1,0,0:0:0:0:
109,192,108592,1,0,0:0:0:0:
256,192,108666,1,0,0:0:0:0:
402,192,108666,1,0,0:0:0:0:
475,192,108666,1,0,0:0:0:0:
36,192,108666,1,0,0:0:0:0:
182,192,108740,1,0,0:0:0:0:
109,192,108777,1,0,0:0:0:0:
329,192,108777,1,0,0:0:0:0:
402,192,108814,1,0,0:0:0:0:
182,192,108888,1,0,0:0:0:0:
256,192,108888,1,0,0:0:0:0:
475,192,108888,1,0,0:0:0:0:
36,192,108888,1,0,0:0:0:0:
329,192,108962,1,0,0:0:0:0:
109,192,108999,1,0,0:0:0:0:
256,192,109037,1,0,0:0:0:0:
329,192,109111,1,0,0:0:0:0:
402,192,109111,1,0,0:0:0:0:
475,192,109111,1,0,0:0:0:0:
36,192,109111,1,0,0:0:0:0:
109,192,109185,1,0,0:0:0:0:
182,192,109222,1,0,0:0:0:0:
329,192,109259,1,0,0:0:0:0:
256,192,109333,1,0,0:0:0:0:
475,192,109333,1,0,0:0:0:0:
109,192,109333,1,0,0:0:0:0:
36,192,109333,1,0,0:0:0:0:
402,192,109333,1,0,0:0:0:0:
329,192,109407,1,0,0:0:0:0:
182,192,109444,1,0,0:0:0:0:
109,192,109481,1,0,0:0:0:0:
402,192,109555,1,0,0:0:0:0:
475,192,109555,1,0,0:0:0:0:
36,192,109555,1,0,0:0:0:0:
256,192,109555,1,0,0:0:0:0:
329,192,109629,1,0,0:0:0:0:
109,192,109666,1,0,0:0:0:0:
182,192,109666,1,0,0:0:0:0:
402,192,109703,1,0,0:0:0:0:
329,192,109777,1,0,0:0:0:0:
475,192,109777,1,0,0:0:0:0:
36,192,109777,1,0,0:0:0:0:
256,192,109777,1,0,0:0:0:0:
109,192,109851,1,0,0:0:0:0:
182,192,109888,1,0,0:0:0:0:
256,192,109925,1,0,0:0:0:0:
109,192,109999,1,0,0:0:0:0:
475,192,109999,1,0,0:0:0:0:
36,192,109999,1,0,0:0:0:0:
402,192,109999,1,0,0:0:0:0:
256,192,110074,1,0,0:0:0:0:
182,192,110111,1,0,0:0:0:0:
36,192,110148,1,0,0:0:0:0:
109,192,110222,128,0,110333:0:0:0:0:
329,192,110222,128,0,110333:0:0:0:0:
402,192,110222,128,0,110277:0:0:0:0:
475,192,110222,1,0,0:0:0:0:
256,192,110349,1,0,0:0:0:0:
402,192,110370,1,0,0:0:0:0:
36,192,110388,1,0,0:0:0:0:
182,192,110416,1,0,0:0:0:0:
329,192,110444,128,0,110555:0:0:0:0:
475,192,110444,128,0,110583:0:0:0:0:
109,192,110444,1,0,0:0:0:0:
256,192,110555,1,0,0:0:0:0:
402,192,110592,1,0,0:0:0:0:
182,192,110666,128,0,110888:0:0:0:0:
36,192,110666,128,0,110833:0:0:0:0:
329,192,110666,1,0,0:0:0:0:
475,192,110666,1,0,0:0:0:0:
109,192,110703,1,0,0:0:0:0:
256,192,110777,128,0,110888:0:0:0:0:
402,192,110777,1,0,0:0:0:0:
109,192,110861,1,0,0:0:0:0:
475,192,110888,128,0,111222:0:0:0:0:
329,192,110888,1,0,0:0:0:0:
36,192,110916,1,0,0:0:0:0:
402,192,110925,1,0,0:0:0:0:
256,192,110962,1,0,0:0:0:0:
182,192,110999,128,0,111222:0:0:0:0:
36,192,111111,128,0,111444:0:0:0:0:
329,192,111111,128,0,111166:0:0:0:0:
402,192,111194,1,0,0:0:0:0:
109,192,111222,1,0,0:0:0:0:
329,192,111259,1,0,0:0:0:0:
256,192,111277,128,0,111444:0:0:0:0:
475,192,111333,128,0,111499:0:0:0:0:
182,192,111333,1,0,0:0:0:0:
402,192,111361,1,0,0:0:0:0:
109,192,111416,1,0,0:0:0:0:
329,192,111472,1,0,0:0:0:0:
182,192,111527,1,0,0:0:0:0:
36,192,111555,128,0,111666:0:0:0:0:
109,192,111555,128,0,111611:0:0:0:0:
256,192,111555,1,0,0:0:0:0:
402,192,111592,1,0,0:0:0:0:
475,192,111611,128,0,111722:0:0:0:0:
109,192,111694,1,0,0:0:0:0:
329,192,111740,1,0,0:0:0:0:
182,192,111777,128,0,111888:0:0:0:0:
475,192,111777,128,0,111944:0:0:0:0:
36,192,111777,1,0,0:0:0:0:
402,192,111805,1,0,0:0:0:0:
256,192,111888,128,0,111944:0:0:0:0:
36,192,111999,1,0,0:0:0:0:
109,192,111999,1,0,0:0:0:0:
256,192,111999,1,0,0:0:0:0:
402,192,111999,1,0,0:0:0:0:
475,192,111999,1,0,0:0:0:0:
329,192,112074,1,0,0:0:0:0:
182,192,112111,1,0,0:0:0:0:
402,192,112111,1,0,0:0:0:0:
109,192,112148,1,0,0:0:0:0:
256,192,112222,1,0,0:0:0:0:
329,192,112222,1,0,0:0:0:0:
475,192,112222,1,0,0:0:0:0:
36,192,112222,1,0,0:0:0:0:
109,192,112296,1,0,0:0:0:0:
182,192,112333,1,0,0:0:0:0:
402,192,112333,1,0,0:0:0:0:
329,192,112370,1,0,0:0:0:0:
109,192,112444,1,0,0:0:0:0:
256,192,112444,1,0,0:0:0:0:
475,192,112444,1,0,0:0:0:0:
36,192,112444,1,0,0:0:0:0:
182,192,112518,1,0,0:0:0:0:
402,192,112555,1,0,0:0:0:0:
329,192,112555,1,0,0:0:0:0:
109,192,112592,1,0,0:0:0:0:
256,192,112666,1,0,0:0:0:0:
182,192,112666,1,0,0:0:0:0:
475,192,112666,1,0,0:0:0:0:
36,192,112666,1,0,0:0:0:0:
329,192,112740,1,0,0:0:0:0:
402,192,112777,1,0,0:0:0:0:
109,192,112777,1,0,0:0:0:0:
182,192,112814,1,0,0:0:0:0:
256,192,112888,1,0,0:0:0:0:
475,192,112888,1,0,0:0:0:0:
109,192,112888,1,0,0:0:0:0:
36,192,112888,1,0,0:0:0:0:
329,192,112888,1,0,0:0:0:0:
402,192,112962,1,0,0:0:0:0:
182,192,112999,1,0,0:0:0:0:
329,192,112999,1,0,0:0:0:0:
109,192,113037,1,0,0:0:0:0:
402,192,113111,1,0,0:0:0:0:
475,192,113111,1,0,0:0:0:0:
36,192,113111,1,0,0:0:0:0:
256,192,113111,1,0,0:0:0:0:
182,192,113185,1,0,0:0:0:0:
109,192,113222,1,0,0:0:0:0:
329,192,113222,1,0,0:0:0:0:
402,192,113259,1,0,0:0:0:0:
182,192,113333,1,0,0:0:0:0:
475,192,113333,1,0,0:0:0:0:
36,192,113333,1,0,0:0:0:0:
256,192,113333,1,0,0:0:0:0:
329,192,113407,1,0,0:0:0:0:
402,192,113444,1,0,0:0:0:0:
109,192,113444,1,0,0:0:0:0:
256,192,113481,1,0,0:0:0:0:
182,192,113555,1,0,0:0:0:0:
475,192,113555,1,0,0:0:0:0:
36,192,113555,1,0,0:0:0:0:
329,192,113555,1,0,0:0:0:0:
256,192,113629,1,0,0:0:0:0:
402,192,113666,1,0,0:0:0:0:
109,192,113666,1,0,0:0:0:0:
182,192,113703,1,0,0:0:0:0:
36,192,113777,128,0,113888:0:0:0:0:
256,192,113777,128,0,113888:0:0:0:0:
329,192,113777,128,0,113888:0:0:0:0:
475,192,113777,128,0,113888:0:0:0:0:
109,192,113888,128,0,114111:0:0:0:0:
402,192,113925,1,0,0:0:0:0:
256,192,113999,128,0,114111:0:0:0:0:
329,192,113999,128,0,114111:0:0:0:0:
475,192,113999,128,0,114111:0:0:0:0:
36,192,113999,1,0,0:0:0:0:
182,192,114111,128,0,114222:0:0:0:0:
402,192,114148,1,0,0:0:0:0:
329,192,114194,1,0,0:0:0:0:
36,192,114222,128,0,114333:0:0:0:0:
109,192,114222,128,0,114444:0:0:0:0:
256,192,114222,1,0,0:0:0:0:
475,192,114249,1,0,0:0:0:0:
182,192,114333,128,0,114444:0:0:0:0:
36,192,114444,128,0,114555:0:0:0:0:
475,192,114444,128,0,114777:0:0:0:0:
256,192,114444,128,0,114666:0:0:0:0:
329,192,114444,1,0,0:0:0:0:
402,192,114481,1,0,0:0:0:0:
182,192,114527,1,0,0:0:0:0:
109,192,114555,1,0,0:0:0:0:
182,192,114666,128,0,114777:0:0:0:0:
36,192,114666,128,0,114999:0:0:0:0:
402,192,114740,1,0,0:0:0:0:
329,192,114793,1,0,0:0:0:0:
109,192,114814,1,0,0:0:0:0:
256,192,114833,1,0,0:0:0:0:
182,192,114888,128,0,114999:0:0:0:0:
475,192,114888,128,0,114999:0:0:0:0:
402,192,114920,1,0,0:0:0:0:
256,192,115027,1,0,0:0:0:0:
475,192,115055,1,0,0:0:0:0:
36,192,115111,128,0,115333:0:0:0:0:
182,192,115111,128,0,115222:0:0:0:0:
109,192,115111,1,0,0:0:0:0:
256,192,115138,1,0,0:0:0:0:
402,192,115148,1,0,0:0:0:0:
329,192,115185,1,0,0:0:0:0:
109,192,115305,1,0,0:0:0:0:
402,192,115305,1,0,0:0:0:0:
475,192,115333,128,0,115444:0:0:0:0:
182,192,115333,128,0,115444:0:0:0:0:
256,192,115333,1,0,0:0:0:0:
329,192,115361,1,0,0:0:0:0:
256,192,115444,128,0,115499:0:0:0:0:
36,192,115481,1,0,0:0:0:0:
329,192,115555,1,0,0:0:0:0:
109,192,115555,1,0,0:0:0:0:
402,192,115555,128,0,115666:0:0:0:0:
475,192,115555,128,0,115722:0:0:0:0:
182,192,115611,1,0,0:0:0:0:
256,192,115666,1,0,0:0:0:0:
329,192,115722,1,0,0:0:0:0:
402,192,115777,1,0,0:0:0:0:
475,192,115777,1,0,0:0:0:0:
182,192,115777,1,0,0:0:0:0:
109,192,115777,128,0,115888:0:0:0:0:
36,192,115777,128,0,115944:0:0:0:0:
329,192,115833,1,0,0:0:0:0:
256,192,115888,1,0,0:0:0:0:
182,192,115944,1,0,0:0:0:0:
109,192,115999,1,0,0:0:0:0:
36,192,115999,1,0,0:0:0:0:
329,192,115999,1,0,0:0:0:0:
402,192,115999,128,0,116111:0:0:0:0:
475,192,115999,128,0,116166:0:0:0:0:
256,192,116055,1,0,0:0:0:0:
182,192,116111,1,0,0:0:0:0:
109,192,116166,1,0,0:0:0:0:
36,192,116222,1,0,0:0:0:0:
256,192,116222,1,0,0:0:0:0:
475,192,116222,1,0,0:0:0:0:
329,192,116222,128,0,116333:0:0:0:0:
402,192,116222,128,0,116388:0:0:0:0:
109,192,116277,1,0,0:0:0:0:
182,192,116333,1,0,0:0:0:0:
256,192,116388,1,0,0:0:0:0:
329,192,116444,1,0,0:0:0:0:
402,192,116444,1,0,0:0:0:0:
475,192,116444,1,0,0:0:0:0:
36,192,116444,128,0,116611:0:0:0:0:
109,192,116444,128,0,116555:0:0:0:0:
182,192,116499,1,0,0:0:0:0:
256,192,116555,1,0,0:0:0:0:
329,192,116611,1,0,0:0:0:0:
402,192,116666,1,0,0:0:0:0:
475,192,116666,1,0,0:0:0:0:
182,192,116666,1,0,0:0:0:0:
36,192,116666,128,0,116833:0:0:0:0:
109,192,116666,128,0,116777:0:0:0:0:
256,192,116722,1,0,0:0:0:0:
329,192,116777,1,0,0:0:0:0:
402,192,116833,1,0,0:0:0:0:
475,192,116888,1,0,0:0:0:0:
182,192,116888,1,0,0:0:0:0:
256,192,116944,1,0,0:0:0:0:
329,192,116944,1,0,0:0:0:0:
109,192,116999,1,0,0:0:0:0:
182,192,117083,1,0,0:0:0:0:
329,192,117111,1,0,0:0:0:0:
402,192,117111,1,0,0:0:0:0:
36,192,117111,128,0,117222:0:0:0:0:
475,192,117111,128,0,117277:0:0:0:0:
109,192,117166,128,0,117277:0:0:0:0:
256,192,117222,128,0,117333:0:0:0:0:
109,192,117333,1,0,0:0:0:0:
329,192,117333,128,0,117444:0:0:0:0:
475,192,117333,128,0,117444:0:0:0:0:
36,192,117333,128,0,117444:0:0:0:0:
182,192,117361,1,0,0:0:0:0:
256,192,117422,1,0,0:0:0:0:
402,192,117481,1,0,0:0:0:0:
109,192,117511,1,0,0:0:0:0:
182,192,117555,128,0,117666:0:0:0:0:
36,192,117555,128,0,117666:0:0:0:0:
329,192,117555,128,0,117666:0:0:0:0:
475,192,117555,128,0,117666:0:0:0:0:
256,192,117694,1,0,0:0:0:0:
402,192,117694,1,0,0:0:0:0:
475,192,117777,128,0,117888:0:0:0:0:
182,192,117777,128,0,117888:0:0:0:0:
36,192,117777,128,0,117888:0:0:0:0:
109,192,117777,1,0,0:0:0:0:
329,192,117777,1,0,0:0:0:0:
256,192,117888,1,0,0:0:0:0:
329,192,117999,128,0,118222:0:0:0:0:
475,192,117999,128,0,118111:0:0:0:0:
109,192,117999,128,0,118111:0:0:0:0:
402,192,117999,1,0,0:0:0:0:
36,192,118055,1,0,0:0:0:0:
182,192,118055,1,0,0:0:0:0:
256,192,118083,1,0,0:0:0:0:
402,192,118138,1,0,0:0:0:0:
109,192,118222,128,0,118333:0:0:0:0:
182,192,118222,128,0,118361:0:0:0:0:
36,192,118222,128,0,118305:0:0:0:0:
475,192,118222,1,0,0:0:0:0:
256,192,118305,1,0,0:0:0:0:
329,192,118333,1,0,0:0:0:0:
402,192,118370,1,0,0:0:0:0:
475,192,118388,128,0,118555:0:0:0:0:
36,192,118407,1,0,0:0:0:0:
109,192,118416,1,0,0:0:0:0:
182,192,118444,1,0,0:0:0:0:
256,192,118481,1,0,0:0:0:0:
329,192,118555,1,0,0:0:0:0:
256,192,118666,128,0,118777:0:0:0:0:
36,192,118666,128,0,118777:0:0:0:0:
109,192,118666,128,0,118777:0:0:0:0:
402,192,118666,1,0,0:0:0:0:
475,192,118666,1,0,0:0:0:0:
182,192,118703,1,0,0:0:0:0:
329,192,118749,1,0,0:0:0:0:
182,192,118861,1,0,0:0:0:0:
475,192,118888,128,0,118999:0:0:0:0:
36,192,118888,128,0,118999:0:0:0:0:
109,192,118888,1,0,0:0:0:0:
402,192,118888,1,0,0:0:0:0:
256,192,118916,1,0,0:0:0:0:
329,192,118999,1,0,0:0:0:0:
182,192,119083,1,0,0:0:0:0:
36,192,119111,1,0,0:0:0:0:
109,192,119111,1,0,0:0:0:0:
256,192,119111,1,0,0:0:0:0:
402,192,119111,1,0,0:0:0:0:
475,192,119111,1,0,0:0:0:0:
329,192,119185,1,0,0:0:0:0:
182,192,119222,1,0,0:0:0:0:
402,192,119222,1,0,0:0:0:0:
109,192,119259,1,0,0:0:0:0:
256,192,119333,1,0,0:0:0:0:
329,192,119333,1,0,0:0:0:0:
475,192,119333,1,0,0:0:0:0:
36,192,119333,1,0,0:0:0:0:
109,192,119407,1,0,0:0:0:0:
182,192,119444,1,0,0:0:0:0:
402,192,119444,1,0,0:0:0:0:
475,192,119481,1,0,0:0:0:0:
109,192,119555,1,0,0:0:0:0:
256,192,119555,1,0,0:0:0:0:
329,192,119555,1,0,0:0:0:0:
36,192,119555,1,0,0:0:0:0:
475,192,119629,1,0,0:0:0:0:
402,192,119666,1,0,0:0:0:0:
182,192,119666,1,0,0:0:0:0:
329,192,119703,1,0,0:0:0:0:
256,192,119777,1,0,0:0:0:0:
109,192,119777,1,0,0:0:0:0:
475,192,119777,1,0,0:0:0:0:
36,192,119777,1,0,0:0:0:0:
182,192,119851,1,0,0:0:0:0:
402,192,119888,1,0,0:0:0:0:
329,192,119888,1,0,0:0:0:0:
109,192,119925,1,0,0:0:0:0:
256,192,119999,1,0,0:0:0:0:
475,192,119999,1,0,0:0:0:0:
182,192,119999,1,0,0:0:0:0:
36,192,119999,1,0,0:0:0:0:
329,192,120074,1,0,0:0:0:0:
109,192,120111,1,0,0:0:0:0:
402,192,120111,1,0,0:0:0:0:
256,192,120148,1,0,0:0:0:0:
402,192,120222,1,0,0:0:0:0:
475,192,120222,1,0,0:0:0:0:
36,192,120222,1,0,0:0:0:0:
182,192,120222,1,0,0:0:0:0:
329,192,120296,1,0,0:0:0:0:
109,192,120333,1,0,0:0:0:0:
256,192,120333,1,0,0:0:0:0:
475,192,120370,1,0,0:0:0:0:
182,192,120444,1,0,0:0:0:0:
402,192,120444,1,0,0:0:0:0:
36,192,120444,1,0,0:0:0:0:
329,192,120444,1,0,0:0:0:0:
256,192,120518,1,0,0:0:0:0:
475,192,120555,1,0,0:0:0:0:
109,192,120555,1,0,0:0:0:0:
36,192,120592,1,0,0:0:0:0:
182,192,120666,1,0,0:0:0:0:
475,192,120666,1,0,0:0:0:0:
402,192,120666,1,0,0:0:0:0:
329,192,120666,1,0,0:0:0:0:
36,192,120740,1,0,0:0:0:0:
109,192,120777,1,0,0:0:0:0:
256,192,120777,1,0,0:0:0:0:
329,192,120814,1,0,0:0:0:0:
182,192,120888,128,0,121111:0:0:0:0:
402,192,120888,128,0,121027:0:0:0:0:
475,192,120888,128,0,120999:0:0:0:0:
36,192,120888,1,0,0:0:0:0:
109,192,120999,128,0,121222:0:0:0:0:
36,192,121055,1,0,0:0:0:0:
256,192,121074,1,0,0:0:0:0:
475,192,121111,128,0,121222:0:0:0:0:
329,192,121111,1,0,0:0:0:0:
402,192,121138,1,0,0:0:0:0:
256,192,121222,128,0,121333:0:0:0:0:
182,192,121259,1,0,0:0:0:0:
402,192,121305,1,0,0:0:0:0:
36,192,121333,128,0,121666:0:0:0:0:
475,192,121333,128,0,121555:0:0:0:0:
109,192,121333,1,0,0:0:0:0:
329,192,121361,1,0,0:0:0:0:
256,192,121444,1,0,0:0:0:0:
329,192,121527,1,0,0:0:0:0:
402,192,121555,128,0,121666:0:0:0:0:
182,192,121555,1,0,0:0:0:0:
256,192,121583,1,0,0:0:0:0:
109,192,121592,1,0,0:0:0:0:
329,192,121666,128,0,121777:0:0:0:0:
475,192,121666,1,0,0:0:0:0:
36,192,121777,128,0,122111:0:0:0:0:
182,192,121777,1,0,0:0:0:0:
256,192,121888,128,0,122055:0:0:0:0:
329,192,121888,128,0,121999:0:0:0:0:
109,192,121916,1,0,0:0:0:0:
475,192,121944,1,0,0:0:0:0:
402,192,121999,128,0,122111:0:0:0:0:
182,192,122027,1,0,0:0:0:0:
109,192,122055,1,0,0:0:0:0:
329,192,122138,1,0,0:0:0:0:
256,192,122148,1,0,0:0:0:0:
36,192,122222,128,0,122444:0:0:0:0:
182,192,122222,128,0,122333:0:0:0:0:
402,192,122222,128,0,122333:0:0:0:0:
475,192,122222,1,0,0:0:0:0:
109,192,122259,1,0,0:0:0:0:
256,192,122296,1,0,0:0:0:0:
329,192,122370,1,0,0:0:0:0:
475,192,122407,1,0,0:0:0:0:
256,192,122416,1,0,0:0:0:0:
109,192,122444,128,0,122611:0:0:0:0:
402,192,122444,1,0,0:0:0:0:
182,192,122472,1,0,0:0:0:0:
329,192,122555,1,0,0:0:0:0:
256,192,122611,1,0,0:0:0:0:
182,192,122666,1,0,0:0:0:0:
402,192,122666,1,0,0:0:0:0:
109,192,122666,128,0,122777:0:0:0:0:
36,192,122666,1,0,0:0:0:0:
329,192,122722,1,0,0:0:0:0:
256,192,122777,1,0,0:0:0:0:
182,192,122833,1,0,0:0:0:0:
109,192,122888,1,0,0:0:0:0:
36,192,122888,1,0,0:0:0:0:
329,192,122888,1,0,0:0:0:0:
402,192,122888,128,0,122999:0:0:0:0:
475,192,122888,1,0,0:0:0:0:
182,192,122944,1,0,0:0:0:0:
256,192,122999,1,0,0:0:0:0:
329,192,123055,1,0,0:0:0:0:
402,192,123111,1,0,0:0:0:0:
475,192,123111,1,0,0:0:0:0:
182,192,123111,1,0,0:0:0:0:
36,192,123111,1,0,0:0:0:0:
109,192,123111,1,0,0:0:0:0:
256,192,123166,1,0,0:0:0:0:
329,192,123222,1,0,0:0:0:0:
402,192,123277,1,0,0:0:0:0:
475,192,123333,1,0,0:0:0:0:
256,192,123333,1,0,0:0:0:0:
36,192,123333,1,0,0:0:0:0:
109,192,123333,128,0,123499:0:0:0:0:
182,192,123333,1,0,0:0:0:0:
402,192,123388,1,0,0:0:0:0:
329,192,123444,1,0,0:0:0:0:
256,192,123499,1,0,0:0:0:0:
182,192,123555,1,0,0:0:0:0:
109,192,123555,1,0,0:0:0:0:
36,192,123555,1,0,0:0:0:0:
402,192,123555,128,0,123666:0:0:0:0:
475,192,123555,1,0,0:0:0:0:
329,192,123611,1,0,0:0:0:0:
256,192,123666,1,0,0:0:0:0:
182,192,123722,1,0,0:0:0:0:
109,192,123777,1,0,0:0:0:0:
36,192,123777,1,0,0:0:0:0:
329,192,123777,1,0,0:0:0:0:
402,192,123777,128,0,123888:0:0:0:0:
475,192,123777,1,0,0:0:0:0:
256,192,123833,1,0,0:0:0:0:
182,192,123888,1,0,0:0:0:0:
109,192,123944,1,0,0:0:0:0:
36,192,123999,1,0,0:0:0:0:
402,192,123999,1,0,0:0:0:0:
475,192,123999,1,0,0:0:0:0:
329,192,123999,128,0,124083:0:0:0:0:
182,192,124055,128,0,124138:0:0:0:0:
256,192,124111,128,0,124222:0:0:0:0:
109,192,124166,128,0,124222:0:0:0:0:
329,192,124222,128,0,124333:0:0:0:0:
182,192,124333,128,0,124444:0:0:0:0:
36,192,124444,1,0,0:0:0:0:
109,192,124444,1,0,0:0:0:0:
256,192,124444,1,0,0:0:0:0:
475,192,124444,1,0,0:0:0:0:
402,192,124444,128,0,124611:0:0:0:0:
182,192,124555,1,0,0:0:0:0:
402,192,124666,128,0,124833:0:0:0:0:
329,192,124666,1,0,0:0:0:0:
36,192,124666,1,0,0:0:0:0:
256,192,124666,1,0,0:0:0:0:
109,192,124777,1,0,0:0:0:0:
402,192,124888,128,0,125055:0:0:0:0:
182,192,124888,1,0,0:0:0:0:
329,192,124888,1,0,0:0:0:0:
475,192,124888,1,0,0:0:0:0:
36,192,124888,1,0,0:0:0:0:
109,192,124999,1,0,0:0:0:0:
256,192,125111,128,0,125333:0:0:0:0:
182,192,125111,1,0,0:0:0:0:
329,192,125111,1,0,0:0:0:0:
475,192,125111,1,0,0:0:0:0:
109,192,125222,1,0,0:0:0:0:
36,192,125333,1,0,0:0:0:0:
402,192,125333,1,0,0:0:0:0:
475,192,125333,1,0,0:0:0:0:
329,192,125444,1,0,0:0:0:0:
182,192,125444,1,0,0:0:0:0:
256,192,125555,128,0,125777:0:0:0:0:
36,192,125555,1,0,0:0:0:0:
109,192,125555,1,0,0:0:0:0:
402,192,125555,1,0,0:0:0:0:
475,192,125555,1,0,0:0:0:0:
109,192,125666,1,0,0:0:0:0:
402,192,125666,1,0,0:0:0:0:
182,192,125777,1,0,0:0:0:0:
329,192,125777,1,0,0:0:0:0:
109,192,125999,128,0,126222:0:0:0:0:
36,192,125999,1,0,0:0:0:0:
402,192,125999,1,0,0:0:0:0:
475,192,125999,1,0,0:0:0:0:
256,192,125999,1,0,0:0:0:0:
329,192,126222,128,0,126388:0:0:0:0:
256,192,126222,1,0,0:0:0:0:
475,192,126222,1,0,0:0:0:0:
36,192,126222,1,0,0:0:0:0:
182,192,126222,1,0,0:0:0:0:
402,192,126222,1,0,0:0:0:0:
109,192,126333,1,0,0:0:0:0:
36,192,126361,1,0,0:0:0:0:
329,192,126444,128,0,126611:0:0:0:0:
182,192,126444,1,0,0:0:0:0:
402,192,126527,1,0,0:0:0:0:
109,192,126555,1,0,0:0:0:0:
475,192,126555,1,0,0:0:0:0:
329,192,126666,128,0,126833:0:0:0:0:
256,192,126666,1,0,0:0:0:0:
36,192,126666,1,0,0:0:0:0:
182,192,126666,1,0,0:0:0:0:
475,192,126749,1,0,0:0:0:0:
402,192,126777,1,0,0:0:0:0:
182,192,126888,128,0,127111:0:0:0:0:
329,192,126888,1,0,0:0:0:0:
109,192,126888,1,0,0:0:0:0:
402,192,126999,1,0,0:0:0:0:
36,192,126999,1,0,0:0:0:0:
109,192,127027,1,0,0:0:0:0:
256,192,127111,1,0,0:0:0:0:
475,192,127111,1,0,0:0:0:0:
402,192,127222,1,0,0:0:0:0:
36,192,127222,1,0,0:0:0:0:
109,192,127249,1,0,0:0:0:0:
182,192,127333,128,0,127555:0:0:0:0:
256,192,127333,1,0,0:0:0:0:
475,192,127333,1,0,0:0:0:0:
329,192,127333,1,0,0:0:0:0:
109,192,127444,1,0,0:0:0:0:
402,192,127444,1,0,0:0:0:0:
36,192,127472,1,0,0:0:0:0:
256,192,127555,128,0,127611:0:0:0:0:
329,192,127583,128,0,127638:0:0:0:0:
402,192,127592,128,0,127666:0:0:0:0:
475,192,127611,128,0,127694:0:0:0:0:
109,192,127666,1,0,0:0:0:0:
182,192,127694,1,0,0:0:0:0:
329,192,127777,128,0,127999:0:0:0:0:
36,192,127777,1,0,0:0:0:0:
256,192,127777,1,0,0:0:0:0:
475,192,127777,1,0,0:0:0:0:
402,192,127861,1,0,0:0:0:0:
182,192,127888,1,0,0:0:0:0:
256,192,127999,128,0,128166:0:0:0:0:
475,192,127999,1,0,0:0:0:0:
36,192,127999,1,0,0:0:0:0:
402,192,128088,1,0,0:0:0:0:
109,192,128111,1,0,0:0:0:0:
182,192,128177,1,0,0:0:0:0:
256,192,128222,128,0,128388:0:0:0:0:
402,192,128222,1,0,0:0:0:0:
36,192,128266,1,0,0:0:0:0:
329,192,128266,1,0,0:0:0:0:
109,192,128333,1,0,0:0:0:0:
475,192,128355,1,0,0:0:0:0:
256,192,128444,128,0,128611:0:0:0:0:
329,192,128444,1,0,0:0:0:0:
402,192,128444,1,0,0:0:0:0:
109,192,128555,1,0,0:0:0:0:
182,192,128666,128,0,128888:0:0:0:0:
36,192,128666,1,0,0:0:0:0:
329,192,128666,1,0,0:0:0:0:
36,192,128888,128,0,128944:0:0:0:0:
109,192,128888,128,0,128944:0:0:0:0:
256,192,128888,128,0,128944:0:0:0:0:
402,192,128888,128,0,128944:0:0:0:0:
475,192,128888,128,0,128944:0:0:0:0:
182,192,129111,128,0,129333:0:0:0:0:
329,192,129111,1,0,0:0:0:0:
329,192,129333,128,0,129527:0:0:0:0:
256,192,129333,128,0,129388:0:0:0:0:
109,192,129333,128,0,129388:0:0:0:0:
36,192,129333,128,0,129388:0:0:0:0:
402,192,129333,128,0,129388:0:0:0:0:
475,192,129333,128,0,129388:0:0:0:0:
182,192,129555,1,0,0:0:0:0:
182,192,129666,1,0,0:0:0:0:
329,192,129666,1,0,0:0:0:0:
256,192,129777,128,0,131555:0:0:0:0:
36,192,129777,128,0,130222:0:0:0:0:
109,192,129777,128,0,130666:0:0:0:0:
402,192,129777,128,0,130666:0:0:0:0:
475,192,129777,128,0,130222:0:0:0:0:
182,192,129777,128,0,131111:0:0:0:0:
329,192,129777,128,0,131111:0:0:0:0:
