osu file format v14

[General]
AudioFilename: jjj.mp3
AudioLeadIn: 0
PreviewTime: 63439
Countdown: 0
SampleSet: Normal
StackLeniency: 0.3
Mode: 0
LetterboxInBreaks: 0
WidescreenStoryboard: 0

[Editor]
Bookmarks: 439,6221,34662,38551,52773,63439,77662,91884,106106,120328,134550,141662,148773,154995,162995
DistanceSpacing: 1
BeatDivisor: 4
GridSize: 4
TimelineZoom: 2.4

[Metadata]
Title:SLOTcore Is Dead
TitleUnicode:SLOTcore Is Dead
Artist:sHimaU
ArtistUnicode:sHimaU
Creator:Arphimigon
Version:TWO
Source:
Tags:Hula breakcore miracle dodo naruto da CloudSplash16 Voli diraimur Irreversible astrosexy
BeatmapID:3248796
BeatmapSetID:306012

[Difficulty]
HPDrainRate:4
CircleSize:3
OverallDifficulty:5
ApproachRate:5.5
SliderMultiplier:0.899999999999999
SliderTickRate:1

[Events]
//Background and Video events
0,0,"kek.jpg",0,0
//Break Periods
2,3355,5096
2,52973,62314
2,106306,119203
//Storyboard Layer 0 (Background)
//Storyboard Layer 1 (Fail)
//Storyboard Layer 2 (Pass)
//Storyboard Layer 3 (Foreground)
//Storyboard Layer 4 (Overlay)
//Storyboard Sound Samples

[TimingPoints]
439,226.415094339623,4,1,2,65,1,0
6221,222.222222222222,4,1,2,65,1,0
34662,327.868852459016,4,1,2,65,1,0
38551,222.222222222222,4,1,2,65,1,0
77662,-100,4,1,2,65,0,1
91884,-100,4,1,2,65,0,0
92328,-100,4,1,2,65,0,1
106106,-100,4,1,2,65,0,0
163050,-125,4,1,2,35,0,0
163884,-125,4,1,2,25,0,0
164773,-125,4,1,2,15,0,0
164995,-125,4,1,2,10,0,0
165217,-125,4,1,2,5,0,0

[Colours]
Combo1 : 230,0,0
Combo2 : 230,230,230
Combo3 : 180,180,180
Combo4 : 106,106,106
Combo5 : 255,0,255
Combo6 : 255,128,255
Combo7 : 255,0,0

[HitObjects]
256,122,439,6,0,L|256:313,2,180,0|0|0,0:0|0:0|0:0,0:0:0:0:
303,45,1571,2,0,L|407:45,2,89.9999999999999,0|0|0,0:0|0:0|0:0,0:0:0:0:
209,45,2250,2,0,L|105:45,1,89.9999999999999,0|0,0:0|0:0,0:0:0:0:
77,125,2703,2,0,L|181:125,1,89.9999999999999,0|0,0:0|0:0,0:0:0:0:
256,122,3155,5,0,0:0:0:0:
90,228,6221,86,0,L|83:134,1,89.9999999999999,8|8,0:3|0:0,0:0:0:0:
144,73,6665,2,0,P|176:91|234:83,1,89.9999999999999,4|8,0:3|0:0,0:0:0:0:
259,55,6998,2,0,L|360:65,1,89.9999999999999,8|0,0:2|0:0,0:0:0:0:
392,73,7332,1,2,0:2:0:0:
436,152,7554,1,0,3:0:0:0:
400,235,7776,1,2,3:2:0:0:
313,260,7998,6,0,L|252:256,2,45,4|4|8,0:3|0:3|0:1,0:0:0:0:
277,343,8443,1,4,0:3:0:0:
187,350,8665,1,8,0:0:0:0:
122,289,8887,2,0,L|119:192,1,89.9999999999999,4|4,0:3|0:3,0:0:0:0:
115,62,9443,70,0,L|212:58,1,89.9999999999999,8|4,0:1|0:2,0:0:0:0:
236,91,9776,2,0,P|283:98|326:87,1,89.9999999999999,8|0,0:1|0:0,0:0:0:0:
399,136,10220,6,0,L|409:226,1,89.9999999999999,4|0,0:3|0:0,0:0:0:0:
380,310,10665,1,2,0:2:0:0:
292,328,10887,1,2,0:2:0:0:
212,284,11109,6,0,L|151:281,1,45,0|0,0:0|0:0,0:0:0:0:
57,202,11554,2,0,L|64:109,1,89.9999999999999,0|12,0:0|0:3,0:0:0:0:
147,79,11998,2,0,L|153:168,1,89.9999999999999,4|4,0:3|0:3,0:0:0:0:
239,194,12443,1,8,0:3:0:0:
322,158,12665,1,4,0:3:0:0:
311,248,12887,1,2,0:2:0:0:
394,216,13109,1,8,0:2:0:0:
383,306,13332,6,0,P|339:336|286:338,1,89.9999999999999,4|2,0:0|0:2,0:0:0:0:
224,299,13776,2,0,P|188:271|145:263,1,89.9999999999999,8|8,0:3|0:3,0:0:0:0:
60,231,14220,2,0,L|51:124,1,89.9999999999999,2|8,0:3|0:1,0:0:0:0:
118,79,14665,2,0,L|207:71,1,89.9999999999999,2|8,0:2|0:2,0:0:0:0:
291,105,15109,70,0,L|341:95,2,45,8|0|8,3:2|3:2|3:2,0:0:0:0:
227,168,15554,2,0,P|217:217|228:255,1,89.9999999999999,8|2,0:0|0:2,0:0:0:0:
302,303,15998,1,4,0:3:0:0:
375,251,16220,2,0,L|389:152,2,89.9999999999999,8|4|2,0:0|0:3|0:2,0:0:0:0:
302,303,16887,6,0,B|247:271|223:321|170:289,1,135,8|8,0:2|0:1,0:0:0:0:
111,169,17554,1,4,0:3:0:0:
176,108,17776,2,0,L|270:105,1,89.9999999999999,4|8,0:3|0:0,0:0:0:0:
288,192,18220,2,0,L|194:194,1,89.9999999999999,8|8,0:0|0:3,0:0:0:0:
134,258,18665,5,4,0:3:0:0:
197,322,18887,2,0,L|291:330,1,89.9999999999999,8|4,0:0|0:3,0:0:0:0:
374,307,19332,1,0,0:0:0:0:
428,235,19554,2,0,P|439:199|427:142,1,89.9999999999999,8|0,0:2|0:0,0:0:0:0:
307,93,20109,70,0,B|224:128|224:128|120:112,1,180,4|4,0:0|0:3,0:0:0:0:
60,228,20776,1,4,0:3:0:0:
76,364,21109,2,0,P|144:324|216:340,1,135,0|0,0:0|0:0,0:0:0:0:
324,380,21776,1,8,0:3:0:0:
404,220,22220,6,0,L|384:72,1,135,2|0,0:2|0:0,0:0:0:0:
256,120,22887,2,0,L|276:268,1,135,8|0,0:2|0:0,0:0:0:0:
148,300,23554,1,4,0:0:0:0:
104,220,23776,1,4,0:0:0:0:
144,140,23998,6,0,P|176:84|176:48,1,89.9999999999999,0|0,0:0|0:0,0:0:0:0:
152,24,24332,2,0,L|248:16,1,89.9999999999999,0|0,0:0|0:0,0:0:0:0:
288,12,24665,1,4,0:3:0:0:
372,44,24887,53,4,0:0:0:0:
402,175,25220,1,4,0:0:0:0:
272,135,25554,1,4,0:0:0:0:
221,209,25776,6,0,L|216:265,1,45,8|8,0:0|0:0,0:0:0:0:
143,305,26109,1,8,0:0:0:0:
80,240,26332,2,0,L|85:184,1,45,8|4,0:0|0:0,0:0:0:0:
49,112,26665,6,0,P|107:92|147:93,1,89.9999999999999,4|8,0:3|0:3,0:0:0:0:
223,109,27109,2,0,P|266:121|310:119,1,89.9999999999999,0|4,0:0|0:3,0:0:0:0:
390,76,27554,2,0,L|420:37,2,45,4|8|4,0:3|0:3|0:3,0:0:0:0:
386,165,27998,1,2,0:2:0:0:
364,252,28220,85,8,0:2:0:0:
294,309,28443,2,0,B|210:341|210:341|184:255|184:255|98:284,1,270,2|4,0:2|0:3,0:0:0:0:
30,224,29332,22,0,L|21:169,2,45,2|2|2,0:3|0:3|0:3,0:0:0:0:
159,104,29998,1,8,0:0:0:0:
236,58,30220,86,0,L|378:54,1,135,4|4,0:3|0:3,0:0:0:0:
456,159,30887,1,0,0:0:0:0:
397,227,31109,5,2,0:2:0:0:
266,262,31443,1,2,0:2:0:0:
135,296,31776,2,0,P|82:226|71:163,1,135,2|4,0:2|3:3,0:0:0:0:
159,78,32443,2,0,L|151:20,2,45,2|2|2,3:2|3:2|3:2,0:0:0:0:
233,128,32887,70,0,P|278:132|320:108,1,89.9999999999999,4|0,0:3|0:0,0:0:0:0:
341,74,33220,2,0,L|349:169,1,89.9999999999999,8|8,3:0|3:3,0:0:0:0:
352,207,33554,2,0,P|312:225|290:321,1,135,8|8,3:0|0:3,0:0:0:0:
108,340,34332,2,0,L|90:245,1,89.9999999999999,4|4,0:3|0:3,0:0:0:0:
85,199,34662,38,0,P|117:144|224:151,1,180,4|4,0:3|0:3,0:0:0:0:
428,254,35973,6,0,P|396:199|289:206,1,180,4|0,0:3|0:0,0:0:0:0:
238,320,37284,86,0,B|139:292|155:341|56:310,1,180,4|4,0:3|0:3,0:0:0:0:
68,122,38551,70,0,L|174:119,1,89.9999999999999,4|4,0:3|0:3,0:0:0:0:
192,36,38995,2,0,L|210:222,1,180,8|4,0:3|0:3,0:0:0:0:
363,309,39884,1,8,0:2:0:0:
459,157,40328,6,0,P|453:105|429:67,1,89.9999999999999,4|8,0:3|0:3,0:0:0:0:
344,75,40773,2,0,P|322:114|319:158,1,89.9999999999999,4|8,0:3|0:3,0:0:0:0:
349,243,41217,2,0,P|351:286|253:218,1,270,4|8,0:3|0:3,0:0:0:0:
223,136,42106,54,0,L|216:72,2,45,2|2|2,0:2|0:2|0:2,0:0:0:0:
186,161,42439,6,0,P|147:176|90:168,1,89.9999999999999,4|4,0:3|0:3,0:0:0:0:
57,155,42773,1,4,0:3:0:0:
27,239,42995,5,2,0:2:0:0:
61,322,43217,1,4,0:3:0:0:
147,345,43439,1,8,0:3:0:0:
231,313,43662,1,2,0:2:0:0:
263,229,43884,6,0,P|317:202|432:229,1,180,0|0,0:0|0:0,0:0:0:0:
421,46,44773,2,0,P|371:58|318:50,1,89.9999999999999,0|0,0:0|0:0,0:0:0:0:
243,51,45217,2,0,P|193:39|140:47,1,89.9999999999999,0|0,0:0|0:0,0:0:0:0:
84,107,45662,70,0,L|69:202,1,89.9999999999999,4|4,0:3|0:3,0:0:0:0:
158,211,46106,2,0,L|173:306,1,89.9999999999999,0|4,0:0|0:3,0:0:0:0:
257,328,46550,2,0,P|308:310|437:305,1,180,8|4,0:3|0:3,0:0:0:0:
462,126,47439,2,0,L|422:39,1,89.9999999999999,4|4,0:3|0:3,0:0:0:0:
336,22,47884,1,8,0:3:0:0:
262,74,48106,1,4,0:3:0:0:
187,23,48328,6,0,L|83:16,1,89.9999999999999,8|8,0:0|0:0,0:0:0:0:
20,64,48773,2,0,P|22:134|78:168,1,135,4|8,0:3|0:3,0:0:0:0:
116,173,49217,6,0,L|136:313,2,135,2|8|4,0:2|0:0|0:3,0:0:0:0:
189,120,50106,2,0,P|237:128|288:113,1,89.9999999999999,4|4,0:3|0:3,0:0:0:0:
359,153,50550,2,0,P|351:201|366:252,1,89.9999999999999,4|4,0:3|0:3,0:0:0:0:
434,291,50995,70,0,B|341:249|352:315|259:286,1,180,8|0,0:3|0:0,0:0:0:0:
103,195,51884,2,0,L|6:188,2,89.9999999999999,8|8|8,0:3|0:3|0:2,0:0:0:0:
256,99,52773,5,4,0:1:0:0:
412,365,63439,6,0,P|390:309|384:186,1,180,4|0,0:3|0:0,0:0:0:0:
429,35,64328,2,0,P|373:57|250:63,1,180,8|8,0:3|0:3,0:0:0:0:
99,18,65217,2,0,P|121:74|127:197,1,180,4|8,0:3|0:3,0:0:0:0:
82,348,66106,2,0,P|138:326|261:320,1,180,4|4,0:3|0:3,0:0:0:0:
429,267,66995,69,4,0:3:0:0:
361,100,67439,2,0,L|264:87,1,89.9999999999999,4|8,0:3|0:3,0:0:0:0:
221,12,67884,2,0,P|238:92|165:166,1,180,8|8,0:3|0:3,0:0:0:0:
90,319,68773,5,8,0:3:0:0:
256,251,69217,1,8,0:3:0:0:
422,319,69662,2,0,B|473:244|473:244|461:145,1,180,8|8,0:3|0:3,0:0:0:0:
323,42,70550,5,4,0:3:0:0:
65,124,71217,1,4,0:3:0:0:
125,190,71439,2,0,L|104:288,1,89.9999999999999,4|0,0:3|0:0,0:0:0:0:
169,344,71884,1,4,0:3:0:0:
347,319,72328,70,0,L|358:176,1,135,4|8,0:3|0:3,0:0:0:0:
256,93,72995,1,8,0:3:0:0:
173,128,73217,2,0,P|113:132|76:122,1,89.9999999999999,4|0,0:3|0:0,0:0:0:0:
5,80,73662,1,0,0:0:0:0:
26,258,74106,6,0,L|209:282,1,180,4|4,0:3|0:3,0:0:0:0:
256,207,74773,1,8,0:3:0:0:
307,281,74995,2,0,L|486:258,1,180,8|4,0:3|0:3,0:0:0:0:
486,167,75662,1,8,0:3:0:0:
486,77,75884,6,0,P|424:48|359:68,2,135,0|8|0,0:3|0:3|0:0,0:0:0:0:
63,232,77662,38,0,L|52:90,2,135,4|4|4,0:3|0:3|0:3,0:0:0:0:
118,302,78550,1,4,0:3:0:0:
202,270,78773,1,4,0:3:0:0:
284,305,78995,2,0,P|336:307|376:296,1,89.9999999999999,8|8,0:3|0:3,0:0:0:0:
376,207,79439,6,0,P|360:139|362:116,1,89.9999999999999,8|8,0:2|0:2,0:0:0:0:
374,76,79773,2,0,L|280:67,1,89.9999999999999,8|8,0:2|0:3,0:0:0:0:
238,63,80106,1,8,0:2:0:0:
176,126,80328,2,0,L|174:225,1,89.9999999999999,4|8,0:3|0:3,0:0:0:0:
170,306,80773,2,0,P|147:317|89:314,2,67.4999999999999,8|8|8,0:0|0:0|0:0,0:0:0:0:
213,293,81217,86,0,L|309:302,1,89.9999999999999,4|4,0:3|0:3,0:0:0:0:
381,258,81662,1,8,0:3:0:0:
405,171,81884,1,8,0:3:0:0:
346,102,82106,2,0,L|243:94,1,89.9999999999999,8|8,0:3|0:3,0:0:0:0:
176,54,82550,2,0,L|168:4,2,45,8|8|4,0:3|0:3|0:3,0:0:0:0:
117,122,82995,5,8,0:2:0:0:
164,198,83217,1,8,0:3:0:0:
110,269,83439,2,0,L|105:366,1,89.9999999999999,8|4,0:3|0:3,0:0:0:0:
196,376,83884,2,0,P|264:352|296:356,1,89.9999999999999,4|4,0:3|0:3,0:0:0:0:
372,356,84328,85,8,0:0:0:0:
420,280,84550,1,8,0:0:0:0:
376,200,84773,6,0,L|376:100,1,89.9999999999999,4|4,0:3|0:3,0:0:0:0:
312,48,85217,1,4,0:3:0:0:
228,84,85439,1,4,0:3:0:0:
148,40,85662,2,0,P|92:32|52:48,1,89.9999999999999,4|8,0:3|0:3,0:0:0:0:
60,132,86106,2,0,P|116:140|156:124,1,89.9999999999999,8|4,0:3|0:3,0:0:0:0:
228,84,86550,86,0,L|332:88,1,89.9999999999999,8|8,0:2|0:2,0:0:0:0:
352,116,86884,2,0,L|348:220,1,89.9999999999999,8|8,0:2|0:3,0:0:0:0:
348,252,87217,1,8,0:2:0:0:
268,292,87439,6,0,L|220:300,1,45,2|2,0:2|0:2,0:0:0:0:
180,304,87662,1,8,0:3:0:0:
104,256,87884,2,0,L|96:172,2,67.4999999999999,8|8|8,0:0|0:0|0:0,0:0:0:0:
64,276,88328,86,0,L|54:176,1,89.9999999999999,4|8,0:3|0:3,0:0:0:0:
80,100,88773,1,4,0:3:0:0:
168,88,88995,1,8,0:3:0:0:
236,148,89217,2,0,P|276:140|320:96,1,89.9999999999999,4|4,0:3|0:3,0:0:0:0:
400,128,89662,2,0,P|408:168|452:212,1,89.9999999999999,8|4,0:3|0:3,0:0:0:0:
424,292,90106,6,0,L|316:284,1,89.9999999999999,4|8,0:3|0:3,0:0:0:0:
256,244,90550,1,8,0:3:0:0:
178,285,90773,1,4,0:3:0:0:
100,240,90995,2,0,L|88:140,1,89.9999999999999,8|0,0:0|0:0,0:0:0:0:
144,80,91439,2,0,L|244:68,1,89.9999999999999,2|2,3:0|3:0,0:0:0:0:
320,96,91884,86,0,P|352:84|364:72,2,45,8|8|8,0:0|0:0|0:0,0:0:0:0:
252,156,92328,6,0,L|240:248,1,89.9999999999999,4|4,0:3|0:3,0:0:0:0:
176,308,92773,2,0,P|120:320|80:312,1,89.9999999999999,8|4,0:3|0:3,0:0:0:0:
36,244,93217,1,8,0:3:0:0:
76,164,93439,1,8,0:3:0:0:
24,88,93662,86,0,P|56:16|104:12,1,135,8|8,0:2|0:2,0:0:0:0:
168,132,94328,1,8,0:2:0:0:
244,80,94550,2,0,L|336:76,1,89.9999999999999,8|4,0:2|0:3,0:0:0:0:
408,128,94995,1,4,0:3:0:0:
372,208,95217,1,4,0:3:0:0:
420,284,95439,6,0,P|364:297|324:284,1,89.9999999999999,4|8,0:3|0:3,0:0:0:0:
248,264,95884,1,8,0:3:0:0:
163,295,96106,1,8,0:3:0:0:
78,261,96328,2,0,L|72:165,1,89.9999999999999,4|8,0:3|0:3,0:0:0:0:
118,93,96773,1,8,0:3:0:0:
201,125,96995,1,8,0:3:0:0:
276,76,97217,86,0,L|425:68,2,135,8|4|4,0:2|0:3|0:3,0:0:0:0:
201,125,98106,2,0,L|192:232,1,89.9999999999999,4|4,0:3|0:3,0:0:0:0:
142,288,98550,1,8,0:0:0:0:
231,298,98773,1,8,0:0:0:0:
304,245,98995,6,0,P|354:237|418:304,2,135,4|4|4,0:3|0:3|0:3,0:0:0:0:
231,298,99884,2,0,L|130:301,1,89.9999999999999,4|8,0:3|0:3,0:0:0:0:
78,236,100328,2,0,L|75:135,1,89.9999999999999,8|4,0:3|0:3,0:0:0:0:
112,64,100773,86,0,P|140:72|204:60,1,89.9999999999999,8|8,0:2|0:2,0:0:0:0:
240,44,101106,2,0,L|340:40,1,89.9999999999999,8|8,0:2|0:3,0:0:0:0:
376,36,101439,1,8,0:2:0:0:
436,104,101662,2,0,L|440:196,1,89.9999999999999,4|4,0:3|0:3,0:0:0:0:
384,264,102106,2,0,P|392:312|400:336,2,67.4999999999999,8|8|8,0:0|0:0|0:0,0:0:0:0:
348,236,102550,6,0,L|256:232,1,89.9999999999999,4|4,0:3|0:3,0:0:0:0:
180,276,102995,1,4,0:3:0:0:
180,188,103217,1,8,0:3:0:0:
136,108,103439,2,0,P|88:96|36:108,1,89.9999999999999,4|4,0:3|0:3,0:0:0:0:
4,180,103884,2,0,P|17:227|54:266,1,89.9999999999999,8|8,0:3|0:3,0:0:0:0:
128,288,104328,86,0,L|232:284,1,89.9999999999999,8|8,0:2|0:2,0:0:0:0:
300,324,104773,1,8,0:3:0:0:
388,312,104995,1,8,0:2:0:0:
440,236,105217,2,0,P|444:172|432:140,1,89.9999999999999,4|4,0:3|0:3,0:0:0:0:
367,89,105662,2,0,L|287:76,2,67.4999999999999,8|8|8,0:0|0:0|0:0,0:0:0:0:
406,67,106106,53,0,0:0:0:0:
103,284,120328,70,0,L|96:184,1,89.9999999999999,4|8,0:3|0:0,0:0:0:0:
93,148,120662,2,0,L|193:141,1,89.9999999999999,4|8,0:3|0:0,0:0:0:0:
227,136,120995,1,4,0:3:0:0:
312,162,121217,6,0,P|324:214|307:298,2,135,4|4|4,0:3|0:3|0:3,0:0:0:0:
288,74,122106,6,0,L|285:9,2,45,4|4|4,0:3|0:3|0:3,0:0:0:0:
251,99,122439,2,0,P|199:116|151:102,1,89.9999999999999,4|4,0:3|0:3,0:0:0:0:
123,93,122773,1,4,0:3:0:0:
72,167,122995,69,4,0:3:0:0:
393,328,123884,6,0,L|391:181,1,135,4|4,0:3|0:3,0:0:0:0:
387,58,124550,1,4,0:3:0:0:
308,103,124773,6,0,L|212:108,1,89.9999999999999,8|4,0:3|0:3,0:0:0:0:
183,79,125106,2,0,L|87:84,1,89.9999999999999,8|4,0:3|0:3,0:0:0:0:
54,59,125439,1,8,0:3:0:0:
11,138,125662,70,0,P|11:190|40:280,2,135,8|8|8,0:3|0:3|0:3,0:0:0:0:
54,59,126550,5,4,0:3:0:0:
410,108,127439,6,0,L|420:211,1,89.9999999999999,4|8,0:3|0:0,0:0:0:0:
436,239,127773,2,0,P|390:229|342:243,1,89.9999999999999,4|4,0:3|0:3,0:0:0:0:
306,254,128106,1,8,0:0:0:0:
222,220,128328,70,0,P|208:169|220:85,2,135,4|4|4,0:3|0:3|0:3,0:0:0:0:
195,306,129217,5,4,0:3:0:0:
105,315,129439,2,0,L|57:305,1,45,4|4,0:3|0:3,0:0:0:0:
54,215,129773,2,0,L|102:205,1,45,4|4,0:3|0:3,0:0:0:0:
183,176,130106,5,4,0:3:0:0:
499,247,130995,70,0,L|505:101,2,135,2|0|8,0:0|0:0|0:2,0:0:0:0:
451,323,131884,6,0,P|391:332|360:316,1,89.9999999999999,4|4,0:3|0:3,0:0:0:0:
330,292,132217,2,0,L|231:287,1,89.9999999999999,8|8,0:3|0:3,0:0:0:0:
194,285,132550,1,4,0:3:0:0:
118,235,132773,6,0,P|98:178|109:104,2,135,4|4|4,0:3|0:3|0:3,0:0:0:0:
195,284,133662,69,4,0:3:0:0:
448,29,134550,6,0,L|349:45,1,89.9999999999999,4|4,0:3|0:3,0:0:0:0:
316,29,134884,2,0,L|217:45,1,89.9999999999999,4|4,0:3|0:3,0:0:0:0:
183,34,135217,1,4,0:3:0:0:
115,92,135439,6,0,P|99:143|104:186,1,89.9999999999999,8|4,0:3|0:3,0:0:0:0:
143,197,135773,2,0,P|145:241|130:283,1,89.9999999999999,8|4,0:3|0:3,0:0:0:0:
95,313,136106,1,8,0:3:0:0:
170,361,136328,70,0,L|273:345,1,89.9999999999999,4|4,0:3|0:3,0:0:0:0:
304,349,136662,2,0,P|312:310|345:273,1,89.9999999999999,4|4,0:3|0:3,0:0:0:0:
387,259,136995,1,8,0:3:0:0:
427,178,137217,5,4,0:3:0:0:
93,42,138106,6,0,P|53:81|74:198,1,180,4|4,0:3|0:3,0:0:0:0:
231,274,138995,70,0,L|373:254,2,135,4|4|4,0:3|0:3|0:3,0:0:0:0:
152,229,139884,6,0,P|151:163|167:127,1,89.9999999999999,4|4,0:3|0:3,0:0:0:0:
187,106,140217,2,0,L|279:98,1,89.9999999999999,4|4,0:3|0:3,0:0:0:0:
321,93,140550,1,4,0:3:0:0:
404,128,140773,5,4,0:3:0:0:
118,347,141662,70,0,B|153:319|153:319|140:276|140:276|176:243|176:243|164:203|164:203|200:176|200:176|190:128,1,270,0|4,0:3|0:3,0:0:0:0:
129,66,142550,6,0,P|74:62|18:120,2,135,4|4|4,0:3|0:3|0:3,0:0:0:0:
218,52,143439,5,8,0:3:0:0:
307,37,143662,2,0,L|371:48,1,45,8|8,0:3|0:3,0:0:0:0:
396,122,143995,2,0,L|385:186,1,45,8|4,0:3|0:3,0:0:0:0:
369,254,144328,69,4,0:3:0:0:
21,347,145217,6,0,L|25:245,1,89.9999999999999,8|4,0:2|0:3,0:0:0:0:
54,223,145550,2,0,L|58:121,1,89.9999999999999,4|4,0:3|0:3,0:0:0:0:
86,97,145884,1,4,0:3:0:0:
164,53,146106,6,0,P|229:52|256:67,1,89.9999999999999,8|4,0:3|0:3,0:0:0:0:
259,106,146439,2,0,P|266:149|293:185,1,89.9999999999999,8|4,0:3|0:3,0:0:0:0:
336,200,146773,1,4,0:3:0:0:
422,175,146995,70,0,L|442:33,2,135,4|4|4,0:3|0:3|0:3,0:0:0:0:
403,263,147884,5,2,0:2:0:0:
54,354,148773,6,0,L|47:254,1,89.9999999999999,4|8,0:3|0:0,0:0:0:0:
93,186,149217,1,4,0:3:0:0:
45,109,149439,1,8,0:0:0:0:
115,52,149662,2,0,L|123:0,2,45,4|8|8,0:3|0:3|0:0,0:0:0:0:
200,80,150106,2,0,L|208:28,2,45,0|4|8,0:0|0:3|0:0,0:0:0:0:
284,111,150550,70,0,P|330:112|378:148,1,89.9999999999999,4|2,0:3|0:2,0:0:0:0:
395,169,150884,2,0,L|400:264,1,89.9999999999999,4|4,0:3|0:3,0:0:0:0:
403,303,151217,1,2,0:2:0:0:
333,360,151439,2,0,L|238:368,1,89.9999999999999,4|0,0:3|0:0,0:0:0:0:
158,335,151884,2,0,L|104:330,2,45,8|8|8,0:0|0:0|0:0,0:0:0:0:
216,266,152328,6,0,L|223:158,1,89.9999999999999,8|8,0:2|0:3,0:0:0:0:
203,134,152662,2,0,L|95:127,2,89.9999999999999,4|8|8,0:3|0:3|0:3,0:0:0:0:
243,114,153217,1,8,0:2:0:0:
322,71,153439,2,0,L|326:20,2,45,8|8|8,0:0|0:3|0:3,0:0:0:0:
389,135,153884,1,8,0:0:0:0:
328,201,154106,6,0,B|324:308,1,89.9999999999999,4|8,0:3|0:0,0:0:0:0:
249,339,154550,2,0,B|142:335,1,89.9999999999999,8|8,0:3|0:3,0:0:0:0:
41,49,155884,37,8,0:2:0:0:
127,24,156106,1,4,0:3:0:0:
210,58,156328,2,0,L|255:52,2,45,8|8|8,0:2|0:2|0:2,0:0:0:0:
234,144,156773,2,0,L|279:138,2,45,8|8|8,0:3|0:2|0:3,0:0:0:0:
253,231,157217,2,0,L|298:225,2,45,4|8|8,0:3|0:2|0:3,0:0:0:0:
180,284,157662,6,0,P|122:289|86:285,1,89.9999999999999,0|8,0:0|0:0,0:0:0:0:
28,220,158106,2,0,P|23:162|27:126,1,89.9999999999999,4|8,0:3|0:0,0:0:0:0:
74,54,158550,1,4,0:3:0:0:
154,93,158773,1,8,0:3:0:0:
233,51,158995,1,8,0:2:0:0:
311,94,159217,1,8,0:2:0:0:
388,47,159439,86,0,P|433:54|473:86,1,89.9999999999999,8|8,0:3|0:3,0:0:0:0:
449,168,159884,2,0,P|422:204|416:248,1,89.9999999999999,8|8,0:3|0:3,0:0:0:0:
432,336,160328,1,0,0:0:0:0:
348,368,160550,2,0,L|294:378,2,45,8|0|0,0:0|0:0|0:0,0:0:0:0:
331,279,160995,1,8,0:1:0:0:
242,292,161217,6,0,P|176:269|143:211,2,135,8|8|4,0:3|0:3|0:3,0:0:0:0:
331,279,162106,2,0,L|335:185,1,89.9999999999999,4|4,0:3|0:3,0:0:0:0:
300,106,162550,1,4,0:3:0:0:
216,71,162773,1,8,0:3:0:0:
134,109,162995,5,4,0:0:0:0:
256,192,163217,12,0,165217,0:0:0:0:
