osu file format v14

[General]
AudioFilename: jjj.mp3
AudioLeadIn: 0
PreviewTime: 63439
Countdown: 0
SampleSet: Normal
StackLeniency: 0.3
Mode: 0
LetterboxInBreaks: 0
WidescreenStoryboard: 0

[Editor]
Bookmarks: 439,6221,34662,38551,52773,63439,77662,91884,106106,120328,134550,141662,148773,154995,162995
DistanceSpacing: 1
BeatDivisor: 4
GridSize: 4
TimelineZoom: 2.4

[Metadata]
Title:SLOTcore Is Dead
TitleUnicode:SLOTcore Is Dead
Artist:sHimaU
ArtistUnicode:sHimaU
Creator:Arphimigon
Version:SIX
Source:
Tags:electronic breakcore japanese Miracle High Tension dodo naruto da astrosexy spaced streams high bpm fullscreen jumps
BeatmapID:933686
BeatmapSetID:306012

[Difficulty]
HPDrainRate:4
CircleSize:3.5
OverallDifficulty:8.7
ApproachRate:9.5
SliderMultiplier:1.6
SliderTickRate:1

[Events]
//Background and Video events
0,0,"kek.jpg",0,0
//Break Periods
2,3355,5696
2,52973,62914
2,106306,119803
//Storyboard Layer 0 (Background)
//Storyboard Layer 1 (Fail)
//Storyboard Layer 2 (Pass)
//Storyboard Layer 3 (Foreground)
//Storyboard Layer 4 (Overlay)
//Storyboard Sound Samples

[TimingPoints]
439,226.415094339623,4,1,2,65,1,0
6221,222.222222222222,4,1,2,65,1,0
9443,-66.6666666666667,4,1,2,65,0,0
9776,-80,4,1,2,65,0,0
10109,-100,4,1,2,65,0,0
17220,-83.3333333333333,4,1,2,65,0,0
21998,-133.333333333333,4,1,2,65,0,0
22220,-100,4,1,2,65,0,0
26443,-66.6666666666667,4,1,2,65,0,0
26665,-100,4,1,2,65,0,0
28220,-133.333333333333,4,1,2,65,0,0
28443,-76.9230769230769,4,1,2,65,0,0
32887,-100,4,1,2,65,0,0
34662,327.868852459016,4,1,2,65,1,0
38551,222.222222222222,4,1,2,65,1,0
40328,-90.9090909090909,4,1,2,65,0,0
42995,-66.6666666666667,4,1,2,65,0,0
43884,-83.3333333333333,4,1,2,65,0,0
45662,-100,4,1,2,65,0,0
47439,-83.3333333333333,4,1,2,65,0,0
52328,-133.333333333333,4,1,2,65,0,0
63439,-200,4,1,2,65,0,0
77662,-66.6666666666667,4,1,2,65,0,1
80106,-57.1428571428571,4,1,2,65,0,1
80328,-66.6666666666667,4,1,2,65,0,1
87217,-57.1428571428571,4,1,2,65,0,1
87439,-66.6666666666667,4,1,2,65,0,1
91884,-66.6666666666667,4,1,2,65,0,0
92328,-66.6666666666667,4,1,2,65,0,1
101439,-50,4,1,2,65,0,1
101662,-66.6666666666667,4,1,2,65,0,1
104995,-57.1428571428571,4,1,2,65,0,1
105217,-66.6666666666667,4,1,2,65,0,1
106106,-66.6666666666667,4,1,2,65,0,0
120328,-100,4,1,2,65,0,0
148773,-76.9230769230769,4,1,2,65,0,0
155662,-66.6666666666667,4,1,2,5,0,0
155884,-66.6666666666667,4,1,2,65,0,0
162106,-80,4,1,2,65,0,0
162328,-100,4,1,2,65,0,0
162550,-125,4,1,2,65,0,0
163050,-125,4,1,2,35,0,0
163884,-125,4,1,2,25,0,0
164773,-125,4,1,2,15,0,0
164995,-125,4,1,2,10,0,0
165217,-125,4,1,2,5,0,0

[Colours]
Combo1 : 230,0,0
Combo2 : 230,230,230
Combo3 : 180,180,180
Combo4 : 106,106,106
Combo5 : 255,0,255
Combo6 : 255,128,255
Combo7 : 255,0,0

[HitObjects]
256,84,439,5,0,0:0:0:0:
256,300,891,1,0,0:0:0:0:
256,84,1344,1,0,0:0:0:0:
256,192,1571,2,0,L|300:192,4,40,0|0|0|0|0,0:0|0:0|0:0|0:0|0:0,0:0:0:0:
124,317,2023,2,0,L|204:317,1,80,0|0,0:0|0:0,0:0:0:0:
312,296,2250,1,0,0:0:0:0:
180,226,2476,1,0,0:0:0:0:
369,154,2703,1,0,0:0:0:0:
141,92,2929,1,0,0:0:0:0:
411,40,3155,5,0,0:0:0:0:
89,190,6221,86,0,L|81:94,2,80,8|4|8,0:3|0:3|0:0,0:0:0:0:
210,262,6554,1,4,0:3:0:0:
210,262,6609,1,4,0:3:0:0:
210,262,6665,2,0,P|224:187|220:170,1,80,4|0,0:3|0:0,0:0:0:0:
102,277,6887,1,8,0:0:0:0:
252,349,6998,6,0,P|315:342|384:276,1,160,8|0,0:2|0:0,0:0:0:0:
411,151,7332,2,0,L|407:59,1,80,2|4,0:2|0:3,0:0:0:0:
256,63,7554,1,0,3:0:0:0:
209,127,7665,1,0,3:0:0:0:
130,139,7776,1,2,3:2:0:0:
59,102,7887,1,8,0:2:0:0:
148,14,7998,5,4,0:3:0:0:
209,127,8109,2,0,L|210:167,2,40,4|4|8,0:3|0:3|0:1,0:0:0:0:
90,211,8332,1,4,0:3:0:0:
90,211,8387,1,4,0:3:0:0:
90,211,8443,2,0,L|80:302,1,80,4|4,0:3|0:3,0:0:0:0:
219,265,8665,2,0,L|229:356,1,80,8|0,0:0|0:0,0:0:0:0:
364,264,8887,69,4,0:3:0:0:
472,284,8998,1,0,0:0:0:0:
341,257,9109,2,0,P|319:195|322:172,1,80,4|8,0:3|0:3,0:0:0:0:
360,96,9332,1,4,0:3:0:0:
252,40,9443,86,0,L|118:54,1,120.000004577637,8|0,0:1|0:0,0:0:0:0:
396,84,9665,1,4,0:2:0:0:
232,14,9776,86,0,L|31:34,1,200,8|0,0:1|0:0,0:0:0:0:
39,156,10109,21,0,0:0:0:0:
39,156,10165,1,0,0:0:0:0:
39,156,10220,2,0,L|33:213,3,40,4|4|4|4,0:3|0:3|0:3|0:3,0:0:0:0:
68,219,10443,2,0,L|59:304,1,80,0|0,0:0|0:0,0:0:0:0:
195,278,10665,5,2,0:2:0:0:
182,357,10776,1,8,0:3:0:0:
316,229,10887,5,2,0:2:0:0:
335,347,10998,1,8,0:3:0:0:
456,235,11109,70,0,L|459:184,4,40,0|0|0|4|0,0:3|0:3|0:3|0:3|0:3,0:0:0:0:
256,45,11443,5,0,0:0:0:0:
197,145,11554,1,0,0:0:0:0:
315,145,11665,2,0,L|364:145,2,40,8|8|12,0:3|0:3|0:3,0:0:0:0:
197,145,11887,1,12,0:3:0:0:
331,277,11998,6,0,L|340:372,1,80,4|8,0:3|0:3,0:0:0:0:
173,356,12220,2,0,L|180:276,1,80,4|4,0:3|0:3,0:0:0:0:
355,274,12443,2,0,L|364:369,1,80,8|4,0:3|0:3,0:0:0:0:
149,353,12665,2,0,L|156:273,1,80,4|4,0:3|0:3,0:0:0:0:
256,93,12887,1,2,0:2:0:0:
141,44,12998,53,8,0:2:0:0:
64,142,13109,1,8,0:2:0:0:
176,196,13220,1,4,0:3:0:0:
277,79,13332,2,0,P|321:76|394:172,1,160,4|0,0:0|0:0,0:0:0:0:
375,246,13665,5,0,0:0:0:0:
341,328,13776,2,0,P|314:343|311:304,1,80,8|4,0:3|0:3,0:0:0:0:
153,290,13998,5,4,0:3:0:0:
153,290,14109,1,4,0:3:0:0:
163,160,14220,85,8,0:3:0:0:
44,209,14332,1,2,0:3:0:0:
62,82,14443,2,0,P|84:49|119:30,1,80,8|8,0:1|0:3,0:0:0:0:
286,113,14665,5,2,0:2:0:0:
163,160,14776,1,4,0:3:0:0:
291,25,14887,2,0,P|329:36|358:63,1,80,8|8,0:2|0:2,0:0:0:0:
367,201,15109,85,8,3:2:0:0:
367,201,15165,1,0,3:0:0:0:
367,201,15220,1,0,3:2:0:0:
299,297,15332,2,0,L|302:346,2,40,8|0|0,3:2|3:0|3:2,0:0:0:0:
207,186,15554,6,0,P|164:174|122:180,1,80,8|0,0:0|0:0,0:0:0:0:
68,296,15776,1,2,0:2:0:0:
158,270,15887,1,2,0:2:0:0:
28,210,15998,6,0,B|16:128|16:128|34:81,1,120,4|0,0:3|0:0,0:0:0:0:
45,56,16220,1,8,0:0:0:0:
198,119,16332,2,0,P|199:63|180:29,1,80,4|4,0:3|0:3,0:0:0:0:
151,192,16554,53,2,0:2:0:0:
272,267,16665,1,2,0:2:0:0:
385,181,16776,1,2,0:2:0:0:
227,164,16887,2,0,L|246:333,1,160,8|0,0:2|0:0,0:0:0:0:
361,192,17220,6,0,L|338:-10,1,191.999994140625,8|0,0:1|0:0,0:0:0:0:
137,78,17554,1,4,0:3:0:0:
141,117,17609,1,4,0:3:0:0:
145,157,17665,1,4,0:3:0:0:
150,197,17720,1,4,0:3:0:0:
154,236,17776,6,0,P|158:288|150:334,1,95.9999970703126,4|0,0:3|0:0,0:0:0:0:
44,241,17998,2,0,P|40:189|48:143,1,95.9999970703126,8|0,0:0|0:0,0:0:0:0:
157,51,18220,2,0,L|221:44,2,47.9999985351563,8|4|8,0:0|0:3|0:3,0:0:0:0:
213,168,18443,2,0,L|310:158,1,95.9999970703126,8|4,0:3|0:3,0:0:0:0:
460,112,18665,5,4,0:3:0:0:
364,48,18776,1,4,0:3:0:0:
408,208,18887,1,8,0:0:0:0:
280,295,18998,2,0,L|232:288,4,47.9999985351563,4|8|4|4|0,0:3|0:3|0:3|0:3|0:0,0:0:0:0:
130,222,19332,1,0,0:0:0:0:
37,250,19443,1,0,0:0:0:0:
93,360,19554,70,0,L|193:364,1,95.9999970703126,8|0,0:2|0:0,0:0:0:0:
419,360,19776,1,4,0:3:0:0:
323,363,19887,1,0,0:0:0:0:
323,363,19943,1,4,0:3:0:0:
323,363,19998,1,4,0:3:0:0:
176,255,20109,6,0,B|169:203|182:209|176:160,1,95.9999970703126,4|0,0:0|0:0,0:0:0:0:
256,364,20443,5,4,0:3:0:0:
336,255,20554,2,0,B|343:203|330:209|336:160,1,95.9999970703126,4|0,0:3|0:0,0:0:0:0:
418,64,20776,1,4,0:3:0:0:
418,64,20887,2,0,B|411:116|424:110|418:159,1,95.9999970703126,4|0,0:3|0:0,0:0:0:0:
271,63,21109,2,0,P|200:54|122:152,1,191.999994140625,0|0,0:0|0:0,0:0:0:0:
369,346,21554,70,0,L|381:285,3,47.9999985351563,4|4|4|4,0:3|0:3|0:3|0:3,0:0:0:0:
441,249,21776,2,0,L|429:188,3,47.9999985351563,8|4|4|4,0:3|0:3|0:3|0:3,0:0:0:0:
362,156,21998,2,0,L|382:60,1,90.0000034332277,0|0,0:0|0:0,0:0:0:0:
307,36,22220,86,0,P|228:85|155:79,1,160,2|4,0:2|0:3,0:0:0:0:
95,225,22554,2,0,P|177:269|208:335,1,160,0|4,0:0|0:3,0:0:0:0:
365,314,22887,2,0,P|362:221|404:161,1,160,8|4,0:2|0:3,0:0:0:0:
493,226,23220,2,0,L|476:304,2,80,0|0|4,0:0|0:0|0:3,0:0:0:0:
441,79,23554,5,4,0:0:0:0:
71,305,23776,1,4,0:0:0:0:
370,331,23998,6,0,P|362:283|337:245,1,80,0|0,0:0|0:0,0:0:0:0:
256,325,24220,1,0,0:0:0:0:
467,343,24332,2,0,P|481:248|457:182,1,160,0|0,0:0|0:0,0:0:0:0:
256,103,24665,1,4,0:3:0:0:
256,132,24720,1,4,0:3:0:0:
256,162,24776,1,4,0:3:0:0:
256,325,24887,53,4,0:0:0:0:
420,109,25109,1,0,0:0:0:0:
388,11,25220,1,4,0:0:0:0:
124,11,25443,1,0,0:0:0:0:
92,109,25554,2,0,L|96:199,1,80,4|0,0:0|0:0,0:0:0:0:
27,45,25776,21,8,0:0:0:0:
176,114,25887,2,0,P|242:109|267:94,1,80,8|0,0:0|0:0,0:0:0:0:
397,44,26109,2,0,P|358:42|320:55,1,80,8|0,0:0|0:0,0:0:0:0:
349,240,26332,1,8,0:0:0:0:
478,156,26443,86,0,P|434:136|464:181,1,120.000004577637,4|0,0:0|0:0,0:0:0:0:
482,303,26665,21,4,0:3:0:0:
367,330,26776,1,4,0:3:0:0:
367,330,26832,1,4,0:3:0:0:
367,330,26887,6,0,L|312:315,3,40,8|8|8|8,0:3|0:3|0:3|0:3,0:0:0:0:
292,344,27109,2,0,P|288:292|272:264,1,80,0|0,0:0|0:0,0:0:0:0:
156,212,27332,1,4,0:3:0:0:
154,192,27387,1,4,0:3:0:0:
156,172,27443,1,4,0:3:0:0:
162,153,27498,1,4,0:3:0:0:
172,136,27554,69,4,0:3:0:0:
268,72,27665,2,0,P|320:72|352:84,1,80,8|4,0:3|0:3,0:0:0:0:
292,220,27887,5,2,0:2:0:0:
424,208,27998,1,2,0:2:0:0:
280,264,28109,1,2,0:2:0:0:
444,252,28220,86,0,L|452:156,1,90.0000034332277,8|0,0:2|0:0,0:0:0:0:
488,124,28443,6,0,B|220:64|344:176|80:124,1,415.999980957032,2|4,0:2|0:3,0:0:0:0:
160,24,28998,1,4,0:3:0:0:
160,24,29054,1,4,0:3:0:0:
160,24,29109,2,0,L|220:16,2,51.999997619629,4|4|4,0:3|0:3|0:3,0:0:0:0:
40,96,29332,5,2,0:3:0:0:
160,192,29443,1,2,0:3:0:0:
80,20,29554,1,2,0:3:0:0:
16,180,29665,2,0,B|28:232|20:284|20:284|64:312|88:364,1,207.999990478516,4|4,0:2|0:3,0:0:0:0:
239,289,29998,1,8,0:0:0:0:
162,254,30109,1,8,0:0:0:0:
172,360,30220,69,4,0:3:0:0:
318,316,30332,2,0,L|369:333,2,51.999997619629,4|4|4,0:3|0:3|0:3,0:0:0:0:
239,289,30554,1,4,0:3:0:0:
236,136,30776,21,0,0:0:0:0:
344,72,30887,1,0,0:0:0:0:
204,44,30998,1,0,0:0:0:0:
400,4,31109,86,0,P|440:48|444:196,1,207.999990478516,2|0,0:2|0:0,0:0:0:0:
288,152,31443,2,0,P|248:196|244:344,1,207.999990478516,2|0,0:2|0:0,0:0:0:0:
376,352,31776,5,2,0:2:0:0:
136,32,32109,1,4,3:3:0:0:
136,356,32443,70,0,L|152:244,1,103.999995239258,2|2,3:2|3:2,0:0:0:0:
266,312,32665,2,0,L|254:196,1,103.999995239258,2|2,3:2|3:2,0:0:0:0:
368,224,32887,6,0,L|344:136,2,80,4|4|0,0:3|0:3|0:0,0:0:0:0:
288,80,33220,2,0,L|200:104,2,80,8|4|8,3:0|3:3|3:3,0:0:0:0:
144,160,33554,2,0,L|168:248,2,80,8|4|0,3:0|0:3|0:0,0:0:0:0:
224,304,33887,2,0,L|312:280,2,80,8|4|4,0:3|0:3|0:3,0:0:0:0:
112,340,34220,5,8,0:3:0:0:
40,196,34332,1,4,0:3:0:0:
40,196,34387,1,4,0:3:0:0:
40,196,34443,2,0,L|44:144,3,40,4|4|4|4,0:3|0:3|0:3|0:3,0:0:0:0:
45,118,34662,6,0,P|83:109|123:107,1,80,4|0,0:3|0:0,0:0:0:0:
202,96,34989,2,0,P|163:105|123:107,1,80,4|0,0:3|0:0,0:0:0:0:
46,264,35317,6,0,P|84:273|124:275,1,80,4|0,0:3|0:0,0:0:0:0:
203,286,35645,2,0,P|164:276|124:274,1,80,4|0,0:3|0:0,0:0:0:0:
279,147,35973,86,0,P|328:134|352:106,1,80,4|0,0:3|0:0,0:0:0:0:
440,155,36301,2,0,P|453:204|481:228,1,80,4|0,0:3|0:0,0:0:0:0:
442,318,36629,2,0,P|393:331|369:359,1,80,0|0,0:0|0:0,0:0:0:0:
281,310,36957,2,0,P|268:261|240:237,1,80,0|0,0:0|0:0,0:0:0:0:
152,188,37284,6,0,P|118:247|139:351,1,160,4|0,0:3|0:0,0:0:0:0:
360,200,37940,86,0,P|394:141|373:37,1,160,4|0,0:3|0:0,0:0:0:0:
144,108,38551,70,0,L|56:100,1,80,4|8,0:3|0:3,0:0:0:0:
208,40,38773,1,4,0:3:0:0:
160,204,38995,1,8,0:3:0:0:
140,202,39050,1,4,0:3:0:0:
120,200,39106,1,8,0:3:0:0:
100,198,39161,1,4,0:3:0:0:
80,196,39217,1,4,0:3:0:0:
344,124,39439,6,0,P|357:161|360:204,1,80,4|4,0:3|0:3,0:0:0:0:
237,143,39662,2,0,P|239:103|253:65,1,80,8|4,0:0|0:3,0:0:0:0:
477,156,39884,2,0,P|474:195|460:233,1,80,8|4,0:2|0:3,0:0:0:0:
315,356,40106,2,0,P|301:318|299:276,1,80,8|4,0:2|0:3,0:0:0:0:
144,148,40328,70,0,P|113:202|146:309,1,176.000005371094,4|8,0:3|0:3,0:0:0:0:
368,235,40773,2,0,P|399:181|366:74,1,176.000005371094,4|8,0:3|0:3,0:0:0:0:
228,346,41217,70,0,L|282:337,3,44.0000013427735,4|8|8|8,0:3|0:3|0:3|0:3,0:0:0:0:
313,354,41439,2,0,L|367:345,3,44.0000013427735,4|8|8|8,0:3|0:3|0:3|0:3,0:0:0:0:
400,360,41662,5,4,0:3:0:0:
431,329,41717,1,8,0:3:0:0:
445,288,41773,1,4,0:3:0:0:
439,245,41828,1,8,0:3:0:0:
414,209,41884,1,8,0:3:0:0:
177,183,42106,85,2,0:2:0:0:
231,19,42217,1,2,0:2:0:0:
177,183,42328,1,2,0:2:0:0:
231,19,42439,22,0,P|303:23|329:119,1,176.000005371094,4|4,0:3|0:3,0:0:0:0:
139,94,42773,2,0,L|139:2,1,88.000002685547,4|0,0:3|0:0,0:0:0:0:
47,176,42995,70,0,L|32:300,1,120.000004577637,2|0,0:2|0:0,0:0:0:0:
225,346,43217,2,0,L|210:226,1,120.000004577637,4|4,0:3|0:3,0:0:0:0:
124,344,43439,1,8,0:3:0:0:
305,275,43550,1,8,0:3:0:0:
133,250,43662,1,2,0:2:0:0:
426,346,43884,22,0,L|439:244,1,95.9999970703126,0|0,0:0|0:0,0:0:0:0:
344,226,44106,2,0,L|331:124,1,95.9999970703126,0|0,0:0|0:0,0:0:0:0:
152,65,44328,5,0,0:0:0:0:
121,150,44439,1,0,0:0:0:0:
242,220,44550,1,0,0:0:0:0:
211,135,44661,1,0,0:0:0:0:
95,250,44773,5,0,0:0:0:0:
62,81,44884,2,0,P|152:65|211:135,1,191.999994140625,0|0,0:0|0:0,0:0:0:0:
417,250,45217,69,0,0:0:0:0:
450,82,45328,2,0,P|359:65|300:134,1,191.999994140625,0|0,0:0|0:0,0:0:0:0:
304,356,45662,6,0,L|388:344,1,80,4|0,0:3|0:0,0:0:0:0:
208,356,45884,2,0,L|124:344,1,80,4|0,0:3|0:0,0:0:0:0:
316,252,46106,6,0,L|400:240,1,80,4|0,0:3|0:0,0:0:0:0:
196,252,46328,2,0,L|112:240,1,80,4|0,0:3|0:0,0:0:0:0:
32,80,46550,69,8,0:3:0:0:
56,63,46605,1,8,0:3:0:0:
85,55,46661,1,4,0:3:0:0:
115,56,46716,1,4,0:3:0:0:
143,66,46773,2,0,P|200:84|232:80,1,80,8|8,0:3|0:3,0:0:0:0:
405,84,46995,2,0,P|348:66|316:70,1,80,4|4,0:3|0:3,0:0:0:0:
210,166,47217,1,8,0:3:0:0:
345,173,47328,1,0,0:0:0:0:
211,280,47439,6,0,L|203:377,1,95.9999970703126,4|8,0:3|0:3,0:0:0:0:
103,277,47662,2,0,L|47:357,1,95.9999970703126,4|4,0:3|0:3,0:0:0:0:
3,166,47884,5,8,0:3:0:0:
49,83,47995,1,4,0:3:0:0:
137,50,48106,1,4,0:3:0:0:
226,83,48217,1,8,0:3:0:0:
138,192,48328,53,8,0:0:0:0:
374,192,48550,1,8,0:0:0:0:
138,192,48773,1,4,0:3:0:0:
170,206,48828,1,4,0:3:0:0:
193,233,48884,1,8,0:3:0:0:
202,268,48939,1,4,0:3:0:0:
196,303,48995,2,0,L|186:354,3,47.9999985351563,4|4|8|8,0:3|0:3|0:3|0:3,0:0:0:0:
236,271,49217,6,0,B|267:267|267:267|298:278|298:278|333:273,2,95.9999970703126,2|2|2,0:2|0:2|0:2,0:0:0:0:
366,349,49550,2,0,P|407:310|365:197,1,191.999994140625,8|8,0:0|0:0,0:0:0:0:
235,181,49884,2,0,P|202:123|200:86,1,95.9999970703126,4|4,0:3|0:3,0:0:0:0:
397,40,50106,6,0,L|404:93,4,47.9999985351563,4|4|4|4|4,0:3|0:3|0:3|0:3|0:3,0:0:0:0:
199,94,50550,1,4,0:3:0:0:
115,40,50662,2,0,L|108:93,2,47.9999985351563,0|0|4,0:0|0:0|0:3,0:0:0:0:
209,285,50995,5,8,0:3:0:0:
115,304,51106,1,4,0:3:0:0:
180,196,51217,1,8,3:3:0:0:
274,215,51328,1,4,3:3:0:0:
393,336,51439,70,0,L|445:341,3,47.9999985351563,0|0|0|0,0:0|0:0|0:0|0:0,0:0:0:0:
443,300,51662,2,0,L|495:295,3,47.9999985351563,0|4|4|4,0:0|0:3|0:3|0:3,0:0:0:0:
475,259,51884,6,0,P|466:237|462:214,7,47.9999985351563,8|8|8|8|8|8|8|8,0:3|0:3|0:3|0:3|0:3|0:3|0:3|0:3,0:0:0:0:
476,179,52328,70,0,P|478:134|469:100,1,60.0000022888184,8|0,0:2|0:0,0:0:0:0:
37,265,52773,5,4,0:1:0:0:
72,64,63439,6,0,L|40:240,1,160,4|0,0:3|0:0,0:0:0:0:
440,64,64328,2,0,L|472:240,1,160,8|8,0:3|0:3,0:0:0:0:
156,344,65217,6,0,P|136:272|148:180,1,160,4|8,0:3|0:3,0:0:0:0:
356,343,66106,2,0,P|376:267|366:188,1,160,4|4,0:3|0:3,0:0:0:0:
88,64,66995,70,0,L|72:148,1,80,4|0,0:3|0:0,0:0:0:0:
188,216,67439,2,0,L|173:137,1,80,4|8,0:3|0:3,0:0:0:0:
252,80,67884,2,0,B|328:104|328:104|416:88,1,160,8|8,0:3|0:3,0:0:0:0:
161,251,68773,6,0,B|143:173|143:173|91:112,1,160,8|8,0:3|0:3,0:0:0:0:
354,244,69662,2,0,B|296:298|296:298|269:373,1,160,8|8,0:3|0:3,0:0:0:0:
468,208,70550,6,0,L|448:72,2,120,4|4|4,0:3|0:3|0:3,0:0:0:0:
256,128,71439,2,0,L|256:32,2,80,4|0|4,0:3|0:0|0:3,0:0:0:0:
44,208,72328,70,0,L|64:72,2,120,4|8|8,0:3|0:3|0:3,0:0:0:0:
128,356,73217,2,0,L|208:344,1,80,4|0,0:3|0:0,0:0:0:0:
384,356,73662,2,0,L|304:344,1,80,0|0,0:0|0:0,0:0:0:0:
328,48,74106,6,0,P|360:160|336:212,1,160,4|4,0:3|0:3,0:0:0:0:
256,232,74773,1,8,0:3:0:0:
165,196,74995,2,0,P|150:119|184:48,1,160,8|4,0:3|0:3,0:0:0:0:
256,4,75662,1,8,0:3:0:0:
256,112,75884,6,0,L|256:240,2,120,0|8|0,0:3|0:3|0:0,0:0:0:0:
188,179,77662,38,0,P|160:275|252:371,1,240.000009155274,4|8,0:3|0:3,0:0:0:0:
300,141,77995,2,0,P|230:69|101:101,1,240.000009155274,4|8,0:3|0:3,0:0:0:0:
276,253,78328,2,0,P|374:229|411:170,1,120.000004577637,4|4,0:3|0:3,0:0:0:0:
404,48,78550,5,4,0:3:0:0:
300,141,78662,1,4,0:3:0:0:
475,244,78773,2,0,L|464:121,1,120.000004577637,4|4,0:3|0:3,0:0:0:0:
311,22,78995,2,0,L|300:141,1,120.000004577637,8|4,0:3|0:3,0:0:0:0:
123,304,79217,1,8,0:3:0:0:
103,263,79272,1,8,0:3:0:0:
95,219,79328,1,8,0:3:0:0:
99,174,79383,1,8,0:3:0:0:
114,132,79439,85,8,0:2:0:0:
238,30,79550,1,8,0:2:0:0:
79,105,79662,1,8,0:2:0:0:
248,158,79773,2,0,P|276:220|204:165,1,240.000009155274,8|8,0:2|0:3,0:0:0:0:
360,193,80106,6,0,P|352:255|302:313,1,140.000001335144,8|4,0:2|0:3,0:0:0:0:
61,327,80328,86,0,L|43:161,1,120.000004577637,4|8,0:3|0:3,0:0:0:0:
119,77,80550,1,8,0:3:0:0:
119,77,80606,1,8,0:3:0:0:
119,77,80662,1,8,0:3:0:0:
265,147,80773,6,0,B|324:140|324:140|362:94|362:94|425:89,2,180.000006866455,8|8|8,0:0|0:0|0:0,0:0:0:0:
235,353,81217,86,0,P|301:340|343:299,1,120.000004577637,4|0,0:3|0:0,0:0:0:0:
144,213,81439,1,4,0:3:0:0:
127,329,81550,1,4,0:3:0:0:
238,220,81662,2,0,P|218:145|164:116,1,120.000004577637,8|0,0:3|0:0,0:0:0:0:
42,205,81884,2,0,P|62:280|116:309,1,120.000004577637,8|0,0:3|0:0,0:0:0:0:
215,15,82106,6,0,L|79:27,1,120.000004577637,8|0,0:3|0:0,0:0:0:0:
238,109,82328,1,8,0:3:0:0:
379,45,82439,1,8,0:3:0:0:
469,185,82550,1,8,0:3:0:0:
469,185,82606,1,0,0:0:0:0:
469,185,82662,1,8,0:3:0:0:
327,256,82773,2,0,L|334:323,2,60.0000022888184,4|4|4,0:3|0:3|0:3,0:0:0:0:
177,219,82995,86,0,L|169:346,1,120.000004577637,8|8,0:2|0:2,0:0:0:0:
31,212,83217,1,8,0:3:0:0:
20,168,83272,1,4,0:3:0:0:
29,124,83328,1,8,0:3:0:0:
55,89,83383,1,4,0:3:0:0:
95,68,83439,2,0,L|162:60,3,60.0000022888184,8|4|8|4,0:3|0:3|0:3|0:3,0:0:0:0:
170,35,83662,2,0,P|244:50|304:34,1,120.000004577637,4|0,0:3|0:3,0:0:0:0:
457,8,83884,6,0,L|443:140,1,120.000004577637,4|8,0:3|0:3,0:0:0:0:
365,323,84106,2,0,L|351:191,1,120.000004577637,4|4,0:3|0:3,0:0:0:0:
220,53,84328,85,8,0:0:0:0:
196,201,84439,1,8,0:0:0:0:
129,66,84550,1,8,0:0:0:0:
261,134,84662,1,8,0:0:0:0:
112,158,84773,6,0,P|102:236|112:305,1,120.000004577637,4|4,0:3|0:3,0:0:0:0:
204,352,84995,1,4,0:3:0:0:
287,223,85106,1,4,0:3:0:0:
401,352,85217,2,0,P|404:292|394:233,1,120.000004577637,4|4,0:3|0:3,0:0:0:0:
280,104,85439,2,0,P|277:163|287:223,1,120.000004577637,4|4,0:3|0:3,0:0:0:0:
458,51,85662,86,0,P|395:21|334:21,1,120.000004577637,4|4,0:3|0:3,0:0:0:0:
161,113,85884,1,8,0:3:0:0:
182,0,85995,1,4,0:3:0:0:
280,104,86106,1,8,0:3:0:0:
140,206,86217,1,8,0:3:0:0:
303,256,86328,1,4,0:3:0:0:
320,295,86383,1,4,0:3:0:0:
298,333,86439,1,4,0:3:0:0:
255,337,86494,1,4,0:3:0:0:
226,305,86550,6,0,P|155:298|98:334,2,120.000004577637,8|8|8,0:2|0:2|0:2,0:0:0:0:
29,367,86884,2,0,L|49:116,1,240.000009155274,8|8,0:2|0:3,0:0:0:0:
74,254,87217,86,0,L|84:111,1,140.000001335144,8|4,0:2|0:3,0:0:0:0:
280,25,87439,5,2,0:2:0:0:
218,205,87550,1,2,0:2:0:0:
173,39,87662,1,8,0:3:0:0:
173,39,87717,1,4,0:3:0:0:
173,39,87773,1,8,0:3:0:0:
342,130,87884,86,0,P|397:123|468:3,2,180.000006866455,8|8|8,0:0|0:0|0:0,0:0:0:0:
154,221,88328,6,0,L|165:348,1,120.000004577637,4|4,0:3|0:3,0:0:0:0:
347,340,88550,2,0,L|358:221,1,120.000004577637,8|8,0:3|0:3,0:0:0:0:
256,32,88773,1,4,0:3:0:0:
176,121,88884,1,4,0:3:0:0:
336,121,88995,1,8,0:3:0:0:
51,20,89217,86,0,L|39:145,1,120.000004577637,4|8,0:3|0:3,0:0:0:0:
102,304,89439,1,4,0:3:0:0:
245,209,89550,5,8,0:3:0:0:
294,213,89605,1,8,0:3:0:0:
344,218,89661,1,8,0:3:0:0:
395,222,89716,1,8,0:3:0:0:
444,227,89772,1,8,0:3:0:0:
359,334,89884,86,0,L|287:330,2,60.0000022888184,4|4|4,0:3|0:3|0:3,0:0:0:0:
385,121,90106,6,0,L|389:-7,2,120.000004577637,4|4|8,0:3|0:3|0:3,0:0:0:0:
244,88,90439,1,4,0:3:0:0:
244,88,90495,1,8,0:3:0:0:
244,88,90550,2,0,L|256:216,1,120.000004577637,8|4,0:3|0:3,0:0:0:0:
492,224,90773,2,0,L|480:96,1,120.000004577637,4|0,0:3|0:0,0:0:0:0:
340,260,90995,85,8,0:0:0:0:
472,324,91106,1,8,0:0:0:0:
276,376,91217,1,0,0:0:0:0:
232,378,91272,1,0,0:0:0:0:
190,362,91328,1,0,0:0:0:0:
158,331,91383,1,0,0:0:0:0:
142,289,91439,6,0,B|164:256|160:220|160:220|132:100|24:144|48:256|160:220|160:220|202:181|208:144,1,420.000016021729,2|0,3:0|3:0,0:0:0:0:
216,104,91884,85,8,0:0:0:0:
376,76,91995,1,8,0:0:0:0:
228,96,92106,1,8,0:0:0:0:
388,68,92217,1,8,0:0:0:0:
298,242,92328,6,0,P|294:306|309:367,1,120.000004577637,4|8,0:3|0:3,0:0:0:0:
492,340,92550,1,4,0:3:0:0:
413,181,92662,2,0,L|343:172,2,60.0000022888184,4|0|0,0:3|0:0|0:0,0:0:0:0:
490,53,92884,85,4,0:3:0:0:
490,53,92939,1,4,0:3:0:0:
490,53,92995,2,0,L|357:37,1,120.000004577637,4|4,0:3|0:3,0:0:0:0:
202,149,93217,2,0,L|321:134,1,120.000004577637,8|8,0:3|0:3,0:0:0:0:
136,53,93439,1,8,0:3:0:0:
102,82,93494,1,4,0:3:0:0:
83,122,93550,1,8,0:3:0:0:
82,167,93605,1,4,0:3:0:0:
99,209,93662,5,8,0:2:0:0:
229,301,93773,1,8,0:2:0:0:
58,353,93884,1,8,0:2:0:0:
233,269,93995,2,0,P|333:268|290:359,1,240.000009155274,8|8,0:2|0:2,0:0:0:0:
135,320,94328,2,0,L|140:197,1,120.000004577637,8|8,0:2|0:3,0:0:0:0:
292,88,94550,86,0,L|287:207,1,120.000004577637,8|0,0:2|0:0,0:0:0:0:
75,142,94773,2,0,L|80:19,1,120.000004577637,4|4,0:3|0:3,0:0:0:0:
295,1,94995,1,4,0:3:0:0:
197,99,95106,1,8,0:3:0:0:
392,59,95217,1,4,0:3:0:0:
402,235,95328,1,4,0:3:0:0:
402,235,95383,1,4,0:3:0:0:
402,235,95439,6,0,L|410:366,1,120.000004577637,4|0,0:3|0:0,0:0:0:0:
499,235,95662,1,8,0:3:0:0:
304,242,95773,1,8,0:3:0:0:
382,88,95884,1,8,0:3:0:0:
402,235,95995,1,8,0:3:0:0:
275,119,96106,2,0,P|276:54|309:4,1,120.000004577637,8|0,0:3|0:0,0:0:0:0:
304,242,96328,86,0,P|224:238|180:205,1,120.000004577637,4|8,0:3|0:3,0:0:0:0:
103,92,96550,1,8,0:3:0:0:
70,256,96662,1,4,0:3:0:0:
188,132,96773,1,8,0:3:0:0:
24,134,96884,1,4,0:3:0:0:
150,285,96995,2,0,L|155:352,2,60.0000022888184,8|4|4,0:3|0:3|0:3,0:0:0:0:
299,204,97217,6,0,L|438:214,1,120.000004577637,8|8,0:2|0:2,0:0:0:0:
486,56,97439,1,4,0:3:0:0:
441,47,97494,1,4,0:3:0:0:
396,47,97550,1,4,0:3:0:0:
352,56,97605,1,4,0:3:0:0:
311,72,97662,2,0,P|269:80|246:77,3,60.0000022888184,8|0|0|0,0:3|0:0|0:0|0:0,0:0:0:0:
214,37,97884,2,0,P|188:83|180:165,1,120.000004577637,4|0,0:3|0:0,0:0:0:0:
192,360,98106,86,0,L|64:352,1,120.000004577637,4|8,0:3|0:3,0:0:0:0:
160,256,98328,2,0,L|32:248,1,120.000004577637,4|8,0:3|0:3,0:0:0:0:
315,236,98550,5,8,0:0:0:0:
346,350,98661,1,8,0:0:0:0:
459,319,98772,1,8,0:0:0:0:
430,205,98883,1,8,0:0:0:0:
266,258,98995,86,0,P|170:286|74:194,1,240.000009155274,4|8,0:3|0:3,0:0:0:0:
303,147,99328,2,0,P|375:217|343:346,1,240.000009155274,4|8,0:3|0:3,0:0:0:0:
192,172,99661,2,0,P|216:74|275:37,1,120.000004577637,4|4,0:3|0:3,0:0:0:0:
421,46,99884,5,4,0:3:0:0:
303,147,99995,1,8,0:3:0:0:
489,243,100106,2,0,P|488:161|471:122,1,120.000004577637,8|4,0:3|0:3,0:0:0:0:
340,292,100328,1,8,0:3:0:0:
458,325,100439,1,8,0:3:0:0:
382,170,100550,2,0,L|380:111,2,60.0000022888184,4|4|4,0:3|0:3|0:3,0:0:0:0:
327,340,100773,85,8,0:2:0:0:
186,264,100884,1,8,0:2:0:0:
277,129,100995,1,8,0:2:0:0:
228,353,101106,2,0,B|192:366|166:360|166:360|133:340|86:341|86:341|92:291|68:233,1,240.000009155274,8|8,0:2|0:3,0:0:0:0:
49,345,101439,6,0,B|63:279|22:252|44:183,1,160,8|4,0:2|0:3,0:0:0:0:
38,41,101662,85,4,0:3:0:0:
226,79,101773,1,4,0:3:0:0:
134,61,101884,1,4,0:3:0:0:
134,61,101939,1,4,0:3:0:0:
134,61,101995,1,4,0:3:0:0:
306,24,102106,6,0,B|398:39|398:39|322:109,2,180.000006866455,8|8|8,0:0|0:0|0:0,0:0:0:0:
356,270,102550,86,0,P|416:241|446:158,1,120.000004577637,4|0,0:3|0:0,0:0:0:0:
155,114,102773,2,0,P|101:137|69:187,1,120.000004577637,4|4,0:3|0:3,0:0:0:0:
255,365,102995,2,0,L|255:245,1,120.000004577637,4|0,0:3|0:0,0:0:0:0:
255,18,103217,2,0,L|255:139,1,120.000004577637,8|0,0:3|0:0,0:0:0:0:
115,328,103439,5,4,0:3:0:0:
134,218,103550,1,4,0:3:0:0:
184,283,103662,85,4,0:3:0:0:
64,262,103773,1,0,0:0:0:0:
122,184,103884,5,8,0:3:0:0:
125,360,103995,1,4,0:3:0:0:
208,173,104106,86,0,L|200:109,2,60.0000022888184,8|4|4,0:3|0:3|0:3,0:0:0:0:
344,210,104328,6,0,L|358:87,1,120.000004577637,8|8,0:2|0:2,0:0:0:0:
491,168,104550,1,8,0:2:0:0:
412,336,104662,1,8,0:2:0:0:
370,352,104717,1,4,0:3:0:0:
322,355,104773,2,0,L|257:345,3,60.0000022888184,8|0|8|8,0:3|0:0|0:3|0:3,0:0:0:0:
236,337,104995,86,0,P|190:312|244:310,1,140.000001335144,8|4,0:2|0:3,0:0:0:0:
233,92,105217,6,0,L|108:79,1,120.000004577637,4|8,0:3|0:3,0:0:0:0:
248,201,105439,1,4,0:3:0:0:
292,196,105494,1,4,0:3:0:0:
337,191,105550,1,4,0:3:0:0:
382,187,105605,1,4,0:3:0:0:
427,182,105662,86,0,P|443:101|359:104,2,180.000006866455,8|8|8,0:0|0:0|0:0,0:0:0:0:
256,337,106106,21,0,0:0:0:0:
95,203,120328,102,0,L|107:113,2,80,4|8|8,0:3|0:3|0:0,0:0:0:0:
202,134,120662,2,0,L|182:45,2,80,4|8|8,0:3|0:3|0:0,0:0:0:0:
297,197,120995,2,0,L|309:107,1,80,4|8,0:3|0:3,0:0:0:0:
482,287,121217,6,0,P|397:306|317:296,1,160,4|0,0:3|0:0,0:0:0:0:
186,298,121550,2,0,P|107:305|30:287,1,160,4|0,0:3|0:0,0:0:0:0:
75,190,121884,2,0,P|114:200|154:200,1,80,4|0,0:3|0:0,0:0:0:0:
256,32,122106,5,4,0:3:0:0:
162,101,122217,2,0,L|98:87,2,40,4|0|4,0:3|0:0|0:3,0:0:0:0:
256,32,122439,1,4,0:3:0:0:
350,101,122550,2,0,L|414:87,2,40,4|0|4,0:3|0:0|0:3,0:0:0:0:
256,32,122773,2,0,L|256:125,1,80,4|4,0:3|0:3,0:0:0:0:
182,248,122995,69,4,0:3:0:0:
330,248,123106,1,4,0:3:0:0:
204,276,123217,5,4,0:3:0:0:
307,276,123328,1,4,0:3:0:0:
74,326,123884,85,4,0:3:0:0:
46,200,123995,1,4,0:3:0:0:
50,180,124050,1,4,0:3:0:0:
53,161,124106,1,4,0:3:0:0:
136,80,124217,2,0,L|312:60,1,160,4|0,0:3|0:0,0:0:0:0:
147,158,124550,2,0,P|136:119|135:79,1,80,4|4,0:3|0:3,0:0:0:0:
240,208,124773,22,0,L|232:288,2,80,8|0|4,0:3|0:0|0:3,0:0:0:0:
344,236,125106,2,0,L|336:156,2,80,8|0|4,0:3|0:0|0:3,0:0:0:0:
448,208,125439,2,0,L|440:288,1,80,8|0,0:3|0:0,0:0:0:0:
300,352,125662,69,8,0:3:0:0:
220,344,125773,1,8,0:3:0:0:
140,336,125884,1,4,0:3:0:0:
76,224,125995,2,0,P|108:132|92:60,1,160,8|4,0:3|0:3,0:0:0:0:
184,16,126328,2,0,P|224:48|264:48,1,80,8|4,0:3|0:3,0:0:0:0:
396,36,126550,5,4,0:3:0:0:
399,55,126605,1,0,0:0:0:0:
403,75,126661,1,4,0:3:0:0:
406,95,126716,1,4,0:3:0:0:
410,114,126772,1,8,0:3:0:0:
423,196,126884,1,8,0:3:0:0:
180,180,127439,5,4,0:3:0:0:
60,220,127550,1,8,0:3:0:0:
184,259,127662,2,0,P|186:219|179:180,1,80,8|4,0:0|0:3,0:0:0:0:
60,220,127884,69,8,0:3:0:0:
104,336,127995,1,4,0:3:0:0:
60,220,128106,2,0,L|72:108,1,80,8|0,0:0|0:0,0:0:0:0:
36,16,128328,6,0,L|196:68,1,160,4|4,0:3|0:3,0:0:0:0:
323,65,128662,2,0,L|476:16,1,160,4|4,0:3|0:3,0:0:0:0:
472,132,128995,2,0,P|456:208|460:244,1,80,4|0,0:3|0:0,0:0:0:0:
468,372,129217,5,4,0:3:0:0:
368,276,129328,2,0,L|312:268,2,40,4|4|4,0:3|0:3|0:3,0:0:0:0:
240,340,129550,2,0,L|72:320,1,160,4|4,0:3|0:3,0:0:0:0:
36,208,129884,1,4,0:3:0:0:
328,93,130106,69,4,0:3:0:0:
184,93,130217,1,4,0:3:0:0:
308,64,130328,5,4,0:3:0:0:
207,64,130439,1,4,0:3:0:0:
76,112,130995,85,2,0:0:0:0:
168,96,131106,2,0,L|228:88,2,40,8|4|4,0:3|0:3|0:3,0:0:0:0:
76,112,131328,2,0,B|65:164|65:164|81:216|81:216|70:273,1,160,0|8,0:0|0:2,0:0:0:0:
44,352,131662,1,8,0:2:0:0:
44,352,131717,1,8,0:2:0:0:
44,352,131773,1,8,0:2:0:0:
216,260,131884,6,0,L|296:252,2,80,4|0|4,0:3|0:0|0:3,0:0:0:0:
396,240,132217,2,0,L|349:174,2,80,8|0|8,0:3|0:0|0:3,0:0:0:0:
288,88,132550,2,0,L|254:161,1,80,4|0,0:3|0:0,0:0:0:0:
421,57,132773,5,4,0:3:0:0:
467,121,132884,1,4,0:3:0:0:
482,199,132995,1,8,0:0:0:0:
426,328,133106,2,0,P|331:315|256:346,1,160,4|8,0:3|0:0,0:0:0:0:
171,363,133439,2,0,P|102:350|83:330,1,80,4|4,0:3|0:3,0:0:0:0:
55,202,133662,85,4,0:3:0:0:
57,182,133717,1,0,0:0:0:0:
60,162,133773,1,4,0:3:0:0:
62,142,133828,1,0,0:0:0:0:
65,122,133884,1,4,0:3:0:0:
75,43,133995,1,4,0:3:0:0:
161,151,134106,5,2,2:2:0:0:
348,134,134550,70,0,L|435:126,1,80,4|8,0:3|0:3,0:0:0:0:
493,80,134773,1,4,0:3:0:0:
324,62,134884,2,0,B|309:181|309:181|317:220,1,160,4|4,0:3|0:3,0:0:0:0:
271,154,135217,2,0,L|283:57,1,80,4|8,0:3|0:3,0:0:0:0:
133,74,135439,6,0,P|69:90|41:82,1,80,8|8,0:3|0:3,0:0:0:0:
81,2,135662,1,4,0:3:0:0:
188,151,135773,2,0,P|115:181|36:178,1,160,8|4,0:3|0:3,0:0:0:0:
38,276,136106,2,0,P|104:272|127:277,1,80,8|8,0:3|0:3,0:0:0:0:
256,348,136328,5,4,0:3:0:0:
351,282,136439,1,8,0:3:0:0:
351,282,136495,1,8,0:3:0:0:
351,282,136550,2,0,L|357:190,1,80,4|4,0:3|0:3,0:0:0:0:
215,147,136773,1,4,0:3:0:0:
215,147,136829,1,4,0:3:0:0:
215,147,136884,2,0,L|221:239,2,80,4|8|4,0:3|0:3|0:3,0:0:0:0:
59,60,137217,69,4,0:3:0:0:
35,136,137328,1,4,0:3:0:0:
144,95,137439,5,4,0:3:0:0:
140,15,137550,1,4,0:3:0:0:
75,339,138106,6,0,B|153:352|153:352|231:324,1,160,4|4,0:3|0:3,0:0:0:0:
85,104,138550,1,4,0:3:0:0:
36,220,138662,1,8,0:3:0:0:
36,220,138717,1,8,0:3:0:0:
36,220,138773,2,0,L|42:272,2,40,8|8|4,0:3|0:3|0:3,0:0:0:0:
140,32,138995,70,0,L|316:41,1,160,4|4,0:3|0:3,0:0:0:0:
421,135,139328,2,0,L|245:144,1,160,4|4,0:3|0:3,0:0:0:0:
329,275,139662,2,0,L|418:282,1,80,4|0,0:3|0:0,0:0:0:0:
196,242,139884,6,0,P|165:280|158:331,1,80,4|4,0:3|0:3,0:0:0:0:
249,316,140106,1,4,0:3:0:0:
138,183,140217,2,0,B|72:179|24:219|24:219|11:174,1,160,4|4,0:3|0:3,0:0:0:0:
102,92,140550,2,0,P|171:92|208:105,1,80,4|4,0:3|0:3,0:0:0:0:
331,158,140773,5,4,0:3:0:0:
332,138,140828,1,0,0:0:0:0:
333,118,140884,1,4,0:3:0:0:
335,98,140939,1,4,0:3:0:0:
336,78,140995,1,8,0:3:0:0:
391,20,141106,1,8,0:3:0:0:
499,128,141217,69,2,2:2:0:0:
149,310,141662,6,0,L|147:254,3,40,0|0|8|8,0:3|0:0|0:3|0:3,0:0:0:0:
176,239,141884,2,0,L|178:183,3,40,8|8|4|0,0:3|0:3|0:3|0:0,0:0:0:0:
149,172,142106,1,8,0:3:0:0:
148,152,142161,1,0,0:0:0:0:
147,132,142217,1,8,0:3:0:0:
146,112,142272,1,0,0:0:0:0:
147,90,142328,2,0,P|83:69|54:82,1,80,4|4,0:3|0:3,0:0:0:0:
254,152,142550,6,0,P|292:109|297:5,1,160,4|4,0:3|0:3,0:0:0:0:
396,108,142884,2,0,P|394:186|440:249,1,160,4|4,0:3|0:3,0:0:0:0:
363,329,143217,2,0,P|293:316|268:321,1,80,4|0,0:3|0:0,0:0:0:0:
111,356,143439,69,8,0:3:0:0:
185,274,143550,2,0,L|187:223,2,40,4|4|8,0:3|0:3|0:3,0:0:0:0:
111,356,143773,1,8,0:3:0:0:
37,235,143884,2,0,L|35:184,2,40,4|4|8,0:3|0:3|0:3,0:0:0:0:
162,111,144106,2,0,P|168:71|162:31,1,80,4|0,0:3|0:0,0:0:0:0:
29,111,144328,5,4,0:3:0:0:
154,226,144439,1,4,0:3:0:0:
56,104,144550,5,4,0:3:0:0:
155,196,144661,1,4,0:3:0:0:
449,36,145217,86,0,L|458:146,1,80,8|4,0:2|0:3,0:0:0:0:
327,90,145439,2,0,L|318:200,1,80,4|4,0:3|0:3,0:0:0:0:
468,219,145662,2,0,L|477:329,1,80,4|4,0:3|0:3,0:0:0:0:
313,269,145884,2,0,L|304:379,1,80,4|4,0:3|0:3,0:0:0:0:
198,196,146106,86,0,P|134:188|28:229,1,160,8|4,0:3|0:3,0:0:0:0:
42,341,146439,1,8,0:3:0:0:
154,289,146550,1,8,0:3:0:0:
262,348,146662,1,4,0:3:0:0:
262,348,146717,1,4,0:3:0:0:
262,348,146773,2,0,L|309:338,2,40,4|4|4,0:3|0:3|0:3,0:0:0:0:
422,326,146995,6,0,P|429:268|427:239,2,80,4|4|8,0:3|0:3|0:3,0:0:0:0:
309,225,147328,2,0,P|302:167|304:138,2,80,4|4|8,0:3|0:3|0:3,0:0:0:0:
424,129,147662,2,0,P|425:86|416:38,1,80,4|4,0:3|0:3,0:0:0:0:
271,10,147884,5,2,0:2:0:0:
251,12,147939,1,0,0:0:0:0:
231,15,147995,1,4,0:3:0:0:
211,17,148050,1,0,0:0:0:0:
191,20,148106,1,8,0:3:0:0:
122,60,148217,1,4,0:3:0:0:
108,194,148328,69,2,0:2:0:0:
459,284,148773,6,0,P|460:214|442:172,1,103.999995239258,4|0,0:3|0:0,0:0:0:0:
266,209,148995,2,0,P|265:279|283:321,1,103.999995239258,8|0,0:0|0:0,0:0:0:0:
468,287,149217,6,0,P|469:210|449:164,1,103.999995239258,4|4,0:3|0:3,0:0:0:0:
256,205,149439,2,0,P|255:282|275:328,1,103.999995239258,8|4,0:0|0:3,0:0:0:0:
374,129,149662,69,4,0:3:0:0:
212,59,149773,1,8,0:3:0:0:
96,187,149884,1,8,0:0:0:0:
98,41,149995,1,0,0:0:0:0:
98,41,150050,1,0,0:0:0:0:
98,41,150106,2,0,L|226:24,1,103.999995239258,0|4,0:0|0:3,0:0:0:0:
416,187,150328,1,8,0:0:0:0:
414,41,150439,1,4,0:3:0:0:
414,41,150494,1,4,0:3:0:0:
414,41,150550,6,0,L|286:24,1,103.999995239258,4|0,0:3|0:0,0:0:0:0:
210,155,150773,2,0,L|219:221,3,51.999997619629,2|0|4|8,0:2|0:0|0:3|0:3,0:0:0:0:
257,227,150995,2,0,L|248:293,3,51.999997619629,4|4|4|0,0:3|0:3|0:3|0:0,0:0:0:0:
273,322,151217,2,0,P|214:311|162:329,1,103.999995239258,2|0,0:2|0:0,0:0:0:0:
37,241,151439,5,4,0:3:0:0:
148,152,151550,1,4,0:3:0:0:
148,152,151606,1,4,0:3:0:0:
148,152,151662,2,0,L|158:40,1,103.999995239258,0|0,0:0|0:0,0:0:0:0:
300,22,151884,69,8,0:0:0:0:
455,57,151995,1,8,0:0:0:0:
298,35,152106,1,8,0:0:0:0:
456,43,152217,1,8,0:0:0:0:
309,145,152328,6,0,P|298:216|307:261,1,103.999995239258,8|0,0:2|0:0,0:0:0:0:
388,357,152550,5,8,0:3:0:0:
441,229,152662,1,4,0:3:0:0:
303,247,152773,1,4,0:3:0:0:
451,308,152884,69,8,0:3:0:0:
368,198,152995,1,4,0:3:0:0:
313,325,153107,1,8,0:3:0:0:
198,204,153217,6,0,P|138:202|92:216,1,103.999995239258,8|0,0:2|0:0,0:0:0:0:
156,292,153439,1,8,0:0:0:0:
186,116,153550,1,8,0:3:0:0:
186,116,153606,1,8,0:3:0:0:
186,116,153662,2,0,L|191:4,1,103.999995239258,8|0,0:3|0:0,0:0:0:0:
14,119,153884,2,0,L|18:222,1,103.999995239258,8|0,0:0|0:0,0:0:0:0:
164,338,154106,5,4,0:3:0:0:
267,331,154217,1,8,0:3:0:0:
370,325,154328,1,8,0:0:0:0:
473,319,154439,1,4,0:3:0:0:
441,189,154550,69,8,0:3:0:0:
340,236,154661,1,8,0:3:0:0:
235,176,154772,1,8,0:3:0:0:
134,224,154883,1,8,0:3:0:0:
438,247,155884,70,0,P|444:170|427:112,1,120.000004577637,8|0,0:2|0:0,0:0:0:0:
229,141,156106,1,4,0:3:0:0:
290,275,156217,1,4,0:3:0:0:
340,125,156328,2,0,L|345:3,1,120.000004577637,8|8,0:2|0:2,0:0:0:0:
105,127,156550,2,0,L|109:246,1,120.000004577637,8|8,0:2|0:2,0:0:0:0:
229,76,156773,5,8,0:3:0:0:
76,35,156884,1,8,0:2:0:0:
253,93,156995,1,8,0:3:0:0:
85,157,157106,1,4,0:3:0:0:
268,115,157217,2,0,P|294:202|288:252,1,120.000004577637,4|8,0:3|0:2,0:0:0:0:
147,311,157439,2,0,P|149:251|171:195,1,120.000004577637,8|8,0:3|0:2,0:0:0:0:
346,343,157662,86,0,L|222:360,1,120.000004577637,0|0,0:0|0:0,0:0:0:0:
337,216,157884,2,0,L|455:232,1,120.000004577637,8|8,0:0|0:3,0:0:0:0:
487,53,158106,1,4,0:3:0:0:
321,30,158217,1,8,0:3:0:0:
231,154,158328,2,0,P|151:176|100:160,1,120.000004577637,8|4,0:0|0:3,0:0:0:0:
237,36,158550,5,4,0:3:0:0:
431,152,158662,1,8,0:3:0:0:
423,210,158717,1,8,0:3:0:0:
385,257,158773,2,0,L|264:246,1,120.000004577637,8|0,0:3|0:0,0:0:0:0:
93,334,158995,85,8,0:2:0:0:
152,206,159106,1,8,0:2:0:0:
228,346,159217,1,8,0:2:0:0:
155,164,159328,1,8,0:2:0:0:
37,353,159439,6,0,P|27:270|40:218,1,120.000004577637,8|4,0:3|0:3,0:0:0:0:
166,49,159662,2,0,L|179:184,1,120.000004577637,8|4,0:3|0:3,0:0:0:0:
475,353,159884,2,0,P|485:270|472:218,1,120.000004577637,8|4,0:3|0:3,0:0:0:0:
346,49,160107,2,0,L|333:184,1,120.000004577637,8|4,0:3|0:3,0:0:0:0:
231,341,160328,86,0,P|167:331|105:343,1,120.000004577637,0|8,0:0|0:3,0:0:0:0:
18,222,160550,1,8,0:0:0:0:
226,239,160662,1,0,0:0:0:0:
284,236,160717,1,0,0:0:0:0:
328,197,160773,2,0,L|338:65,1,120.000004577637,0|0,0:0|0:0,0:0:0:0:
143,143,160995,2,0,L|151:262,1,120.000004577637,8|0,0:1|0:0,0:0:0:0:
405,326,161217,5,8,0:3:0:0:
411,230,161328,1,4,0:3:0:0:
418,133,161439,1,8,0:0:0:0:
263,88,161550,85,8,0:3:0:0:
270,184,161661,1,4,0:3:0:0:
276,280,161772,1,8,0:0:0:0:
363,113,161884,6,0,L|367:47,3,60.0000022888184,4|4|4|4,0:3|0:3|0:3|0:3,0:0:0:0:
400,154,162106,86,0,L|291:168,1,100,4|8,0:3|0:3,0:0:0:0:
247,280,162328,6,0,L|143:264,1,80,4|0,0:3|0:0,0:0:0:0:
43,148,162550,86,0,P|28:210|32:283,1,128,4|8,0:3|0:3,0:0:0:0:
158,32,162995,21,4,0:0:0:0:
256,192,163050,12,0,165217,0:0:0:0:
