osu file format v14

[General]
AudioFilename: jjj.mp3
AudioLeadIn: 0
PreviewTime: 63439
Countdown: 0
SampleSet: Normal
StackLeniency: 0.3
Mode: 0
LetterboxInBreaks: 0
WidescreenStoryboard: 0

[Editor]
Bookmarks: 439,6221,34662,38551,52773,63439,77662,91884,106106,120328,134550,141662,148773,154995,162995
DistanceSpacing: 1
BeatDivisor: 4
GridSize: 4
TimelineZoom: 2.4

[Metadata]
Title:SLOTcore Is Dead
TitleUnicode:SLOTcore Is Dead
Artist:sHimaU
ArtistUnicode:sHimaU
Creator:Arphimigon
Version:FIVE
Source:
Tags:electronic breakcore japanese Miracle High Tension dodo naruto da astrosexy spaced streams high bpm fullscreen jumps
BeatmapID:938413
BeatmapSetID:306012

[Difficulty]
HPDrainRate:4
CircleSize:3.5
OverallDifficulty:8
ApproachRate:9.2
SliderMultiplier:1.5
SliderTickRate:1

[Events]
//Background and Video events
0,0,"kek.jpg",0,0
//Break Periods
2,3355,5651
2,52973,62869
2,106306,119758
//Storyboard Layer 0 (Background)
//Storyboard Layer 1 (Fail)
//Storyboard Layer 2 (Pass)
//Storyboard Layer 3 (Foreground)
//Storyboard Layer 4 (Overlay)
//Storyboard Sound Samples

[TimingPoints]
439,226.415094339623,4,1,2,65,1,0
6221,222.222222222222,4,1,2,65,1,0
9443,-83.3333333333333,4,1,2,65,0,0
9776,-90.9090909090909,4,1,2,65,0,0
10109,-100,4,1,2,65,0,0
21998,-133.333333333333,4,1,2,65,0,0
22220,-100,4,1,2,65,0,0
24887,-83.3333333333333,4,1,2,65,0,0
25776,-100,4,1,2,65,0,0
26443,-83.3333333333333,4,1,2,65,0,0
26665,-100,4,1,2,65,0,0
28220,-133.333333333333,4,1,2,65,0,0
28443,-76.9230769230769,4,1,2,65,0,0
29332,-100,4,1,2,65,0,0
34662,327.868852459016,4,1,2,65,1,0
38551,222.222222222222,4,1,2,65,1,0
40328,-90.9090909090909,4,1,2,65,0,0
41217,-100,4,1,2,65,0,0
42995,-83.3333333333333,4,1,2,65,0,0
43884,-100,4,1,2,65,0,0
45662,-133.333333333333,4,1,2,65,0,0
46550,-100,4,1,2,65,0,0
52328,-133.333333333333,4,1,2,65,0,0
63439,-200,4,1,2,65,0,0
77662,-66.6666666666667,4,1,2,65,0,1
80106,-57.1428571428571,4,1,2,65,0,1
80328,-66.6666666666667,4,1,2,65,0,1
87217,-57.1428571428571,4,1,2,65,0,1
87439,-66.6666666666667,4,1,2,65,0,1
91884,-66.6666666666667,4,1,2,65,0,0
92328,-66.6666666666667,4,1,2,65,0,1
101439,-50,4,1,2,65,0,1
101662,-66.6666666666667,4,1,2,65,0,1
104995,-57.1428571428571,4,1,2,65,0,1
105217,-66.6666666666667,4,1,2,65,0,1
106106,-66.6666666666667,4,1,2,65,0,0
120328,-100,4,1,2,65,0,0
148773,-76.9230769230769,4,1,2,65,0,0
155662,-66.6666666666667,4,1,2,5,0,0
155884,-66.6666666666667,4,1,2,65,0,0
162106,-80,4,1,2,65,0,0
162328,-100,4,1,2,65,0,0
162550,-125,4,1,2,65,0,0
163050,-125,4,1,2,35,0,0
163884,-125,4,1,2,25,0,0
164773,-125,4,1,2,15,0,0
164995,-125,4,1,2,10,0,0
165217,-125,4,1,2,5,0,0

[Colours]
Combo1 : 230,0,0
Combo2 : 230,230,230
Combo3 : 180,180,180
Combo4 : 106,106,106
Combo5 : 255,0,255
Combo6 : 255,128,255
Combo7 : 255,0,0

[HitObjects]
256,93,439,5,0,0:0:0:0:
256,291,891,1,0,0:0:0:0:
256,93,1344,1,0,0:0:0:0:
165,192,1571,2,0,L|109:192,4,37.5,0|0|0|0|0,0:0|0:0|0:0|0:0|0:0,0:0:0:0:
347,192,2023,1,0,0:0:0:0:
205,278,2250,1,0,0:0:0:0:
306,105,2476,1,0,0:0:0:0:
311,287,2703,1,0,0:0:0:0:
200,96,2929,1,0,0:0:0:0:
256,357,3155,5,0,0:0:0:0:
85,136,6221,86,0,L|82:36,2,75,8|4|8,0:3|0:3|0:0,0:0:0:0:
176,151,6554,1,4,0:3:0:0:
176,151,6609,1,4,0:3:0:0:
176,151,6665,2,0,L|187:51,2,75,4|0|8,0:3|0:0|0:0,0:0:0:0:
278,241,6998,6,0,P|328:248|442:232,1,150,8|0,0:2|0:0,0:0:0:0:
493,171,7332,2,0,P|500:117|492:82,1,75,2|4,0:2|0:3,0:0:0:0:
420,273,7554,2,0,P|412:310|416:347,1,75,0|0,3:0|3:0,0:0:0:0:
380,129,7776,2,0,P|359:78|334:52,1,75,2|8,3:2|0:2,0:0:0:0:
185,117,7998,5,4,0:3:0:0:
99,89,8109,2,0,L|91:40,2,37.5,4|4|8,0:3|0:3|0:1,0:0:0:0:
31,177,8332,1,4,0:3:0:0:
31,177,8387,1,4,0:3:0:0:
31,177,8443,2,0,L|20:263,1,75,4|4,0:3|0:3,0:0:0:0:
124,228,8665,2,0,L|135:314,1,75,8|0,0:0|0:0,0:0:0:0:
253,299,8887,69,4,0:3:0:0:
327,291,8998,1,0,0:0:0:0:
373,232,9109,2,0,P|375:165|303:87,1,150,4|4,0:3|0:3,0:0:0:0:
342,212,9443,70,0,P|339:167|313:131,1,89.9999972534181,8|0,0:1|0:0,0:0:0:0:
213,95,9665,1,4,0:2:0:0:
87,205,9776,6,0,L|98:31,1,165.000005035401,8|0,0:1|0:0,0:0:0:0:
208,11,10109,5,0,0:0:0:0:
274,46,10220,2,0,L|316:43,3,37.5,4|4|4|4,0:3|0:3|0:3|0:3,0:0:0:0:
345,25,10443,2,0,P|384:22|425:30,1,75,0|0,0:0|0:0,0:0:0:0:
465,162,10665,2,0,L|391:167,1,75,2|8,0:2|0:3,0:0:0:0:
214,156,10887,2,0,L|288:151,1,75,2|8,0:2|0:3,0:0:0:0:
385,312,11109,5,0,0:0:0:0:
488,244,11220,1,0,0:0:0:0:
296,284,11443,1,0,0:0:0:0:
385,312,11554,6,0,P|426:320|480:316,2,75,0|8|12,0:0|0:3|0:3,0:0:0:0:
296,284,11887,1,12,0:3:0:0:
235,146,11998,70,0,P|227:90|230:55,1,75,4|8,0:3|0:3,0:0:0:0:
363,32,12220,2,0,P|362:69|355:106,1,75,4|4,0:3|0:3,0:0:0:0:
201,118,12443,2,0,P|201:80|208:43,1,75,8|4,0:3|0:3,0:0:0:0:
388,56,12665,2,0,P|395:92|395:130,1,75,4|4,0:3|0:3,0:0:0:0:
354,269,12887,5,2,0:2:0:0:
239,212,12998,69,8,0:2:0:0:
225,285,13109,1,8,0:2:0:0:
212,358,13220,1,4,0:3:0:0:
122,237,13332,5,4,0:0:0:0:
253,45,13554,1,2,0:2:0:0:
253,45,13665,1,2,0:2:0:0:
169,18,13776,1,8,0:3:0:0:
40,200,13998,1,8,0:3:0:0:
40,200,14109,1,0,0:3:0:0:
59,274,14220,6,0,L|142:277,1,75,2|8,0:3|0:3,0:0:0:0:
241,356,14443,2,0,L|158:359,1,75,8|8,0:1|0:3,0:0:0:0:
256,242,14665,2,0,L|339:245,1,75,2|4,0:2|0:3,0:0:0:0:
256,117,14887,1,8,0:2:0:0:
256,117,14998,1,8,0:2:0:0:
182,36,15109,6,0,L|142:49,2,37.5,8|0|0,3:2|3:0|3:2,0:0:0:0:
330,36,15332,2,0,L|370:49,2,37.5,8|0|0,3:2|3:0|3:2,0:0:0:0:
256,118,15554,2,0,L|256:195,1,75,8|0,0:0|0:0,0:0:0:0:
215,308,15776,1,2,0:2:0:0:
297,308,15887,1,2,0:2:0:0:
170,233,15998,70,0,P|128:293|146:363,1,150,4|8,0:3|0:0,0:0:0:0:
365,363,16332,2,0,P|383:293|341:233,1,150,4|2,0:3|0:2,0:0:0:0:
256,281,16665,2,0,L|255:359,1,75,2|2,0:2|0:2,0:0:0:0:
360,112,16887,6,0,P|296:84|256:140,1,150,8|0,0:2|0:0,0:0:0:0:
152,112,17220,2,0,P|216:84|256:140,1,150,8|0,0:1|0:0,0:0:0:0:
172,240,17554,1,4,0:3:0:0:
172,240,17609,1,4,0:3:0:0:
172,240,17665,1,4,0:3:0:0:
60,196,17776,6,0,L|68:352,1,150,4|8,0:3|0:0,0:0:0:0:
140,368,18109,1,0,0:0:0:0:
208,336,18220,2,0,L|256:345,4,37.5,8|4|8|0|0,0:0|0:3|0:3|0:0|0:0,0:0:0:0:
324,326,18554,1,0,0:3:0:0:
498,192,18665,69,4,0:3:0:0:
423,199,18776,1,4,0:3:0:0:
348,207,18887,1,8,0:0:0:0:
399,116,18998,2,0,L|459:110,4,37.5,4|8|4|4|4,0:3|0:3|0:3|0:3|0:3,0:0:0:0:
378,32,19332,2,0,L|273:39,1,75,0|0,0:0|0:0,0:0:0:0:
208,122,19554,6,0,P|131:103|153:170,1,150,8|0,0:2|0:0,0:0:0:0:
201,231,19887,2,0,L|212:268,2,37.5,4|4|4,0:3|0:3|0:3,0:0:0:0:
241,354,20109,69,4,0:0:0:0:
241,354,20443,5,4,0:3:0:0:
339,299,20554,1,4,0:3:0:0:
339,299,20665,2,0,L|446:310,1,75,0|4,0:0|0:3,0:0:0:0:
499,192,20887,2,0,L|392:203,1,75,4|0,0:3|0:0,0:0:0:0:
373,94,21109,6,0,P|276:74|236:123,1,150,0|0,0:0|0:0,0:0:0:0:
246,200,21443,1,0,0:0:0:0:
166,233,21554,2,0,L|118:201,3,37.5,4|4|4|4,0:3|0:3|0:3|0:3,0:0:0:0:
97,212,21776,2,0,L|80:156,3,37.5,8|4|4|4,0:3|0:3|0:3|0:3,0:0:0:0:
105,154,21998,2,0,B|58:142|54:159|16:146,1,84.3750032186509,0|0,0:0|0:0,0:0:0:0:
6,116,22220,6,0,P|44:74|164:72,1,150,2|4,0:2|0:3,0:0:0:0:
256,118,22554,2,0,L|256:268,1,150,0|4,0:0|0:3,0:0:0:0:
379,325,22887,2,0,P|452:318|506:268,1,150,8|4,0:2|0:3,0:0:0:0:
441,123,23220,2,0,L|454:37,2,75,0|0|4,0:0|0:0|0:3,0:0:0:0:
414,229,23554,69,4,0:0:0:0:
98,155,23776,1,4,0:0:0:0:
335,15,23998,6,0,L|342:122,1,75,0|0,0:0|0:0,0:0:0:0:
319,161,24220,1,0,0:0:0:0:
243,157,24332,2,0,P|155:156|104:207,1,150,0|0,0:0|0:0,0:0:0:0:
101,268,24665,2,0,L|106:310,2,37.5,4|4|4,0:3|0:3|0:3,0:0:0:0:
61,65,24887,54,0,P|167:61|187:142,1,179.999994506836,4|0,0:0|0:0,0:0:0:0:
320,116,25220,2,0,P|368:46|451:65,1,179.999994506836,4|0,0:0|0:0,0:0:0:0:
505,155,25554,1,4,0:0:0:0:
181,329,25776,5,8,0:0:0:0:
118,259,25887,1,8,0:0:0:0:
256,31,26109,1,8,0:0:0:0:
331,329,26332,1,8,0:0:0:0:
394,259,26443,2,0,P|432:258|400:291,1,89.9999972534181,4|0,0:0|0:0,0:0:0:0:
229,340,26665,6,0,L|248:241,1,75,4|4,0:3|0:3,0:0:0:0:
338,193,26887,2,0,L|334:152,3,37.5,8|8|8|8,0:3|0:3|0:3|0:3,0:0:0:0:
299,139,27109,2,0,L|303:98,3,37.5,0|0|0|0,0:0|0:0|0:0|0:0,0:0:0:0:
331,76,27332,2,0,L|327:35,3,37.5,4|4|4|4,0:3|0:3|0:3|0:3,0:0:0:0:
298,12,27554,6,0,P|262:8|226:20,1,75,4|8,0:3|0:3,0:0:0:0:
174,74,27776,1,4,0:3:0:0:
233,180,27887,69,2,0:2:0:0:
207,249,27998,1,2,0:2:0:0:
159,192,28109,1,2,0:2:0:0:
282,242,28220,6,0,P|295:292|277:343,1,84.3750032186509,8|0,0:2|0:0,0:0:0:0:
246,350,28443,6,0,B|440:361|440:361|457:161,1,389.999982147218,2|4,0:2|0:3,0:0:0:0:
464,68,28998,85,4,0:3:0:0:
377,111,29109,2,0,L|321:115,3,48.7499977684022,4|4|4|4,0:3|0:3|0:3|0:3,0:0:0:0:
293,99,29332,85,2,0:3:0:0:
272,171,29443,1,2,0:3:0:0:
252,243,29554,1,2,0:3:0:0:
128,194,29665,6,0,L|166:342,1,150,4|4,0:2|0:3,0:0:0:0:
39,210,29998,1,8,0:0:0:0:
39,210,30109,1,8,0:0:0:0:
118,82,30220,5,4,0:3:0:0:
197,102,30332,2,0,L|200:164,2,37.5,4|4|4,0:3|0:3|0:3,0:0:0:0:
264,58,30554,2,0,P|343:74|421:58,1,150,4|0,0:3|0:0,0:0:0:0:
470,106,30887,2,0,P|460:179|464:214,1,75,0|0,0:0|0:0,0:0:0:0:
474,283,31109,6,0,L|312:316,1,150,2|0,0:2|0:0,0:0:0:0:
270,362,31443,2,0,L|108:329,1,150,2|0,0:2|0:0,0:0:0:0:
53,304,31776,1,2,0:2:0:0:
256,65,32109,1,4,3:3:0:0:
459,304,32443,2,0,L|360:321,1,75,2|2,3:2|3:2,0:0:0:0:
236,225,32665,2,0,L|335:242,1,75,2|2,3:2|3:2,0:0:0:0:
168,345,32887,70,0,P|108:353|93:350,2,75,4|4|0,0:3|0:3|0:0,0:0:0:0:
125,257,33220,2,0,P|116:192|158:87,1,150,8|8,3:0|3:3,0:0:0:0:
219,53,33554,2,0,P|289:76|363:67,1,150,8|0,3:0|0:0,0:0:0:0:
460,105,33887,2,0,L|472:192,2,75,8|4|4,0:3|0:3|0:3,0:0:0:0:
371,205,34220,5,8,0:3:0:0:
344,285,34332,1,4,0:3:0:0:
344,285,34387,1,4,0:3:0:0:
344,285,34443,2,0,L|349:327,2,37.5,4|4|4,0:3|0:3|0:3,0:0:0:0:
371,205,34662,38,0,L|379:121,1,75,4|0,0:3|0:0,0:0:0:0:
268,136,34989,2,0,L|276:52,1,75,4|0,0:3|0:0,0:0:0:0:
62,178,35317,86,0,L|54:94,1,75,4|0,0:3|0:0,0:0:0:0:
165,109,35644,2,0,L|157:25,1,75,4|0,0:3|0:0,0:0:0:0:
133,279,35973,6,0,L|140:353,1,75,4|0,0:3|0:0,0:0:0:0:
236,210,36300,2,0,L|243:284,1,75,4|0,0:3|0:0,0:0:0:0:
472,235,36629,86,0,L|464:309,1,75,0|0,0:0|0:0,0:0:0:0:
369,166,36956,2,0,L|361:240,1,75,0|0,0:0|0:0,0:0:0:0:
246,333,37284,6,0,P|230:261|256:192,1,150,4|0,0:3|0:0,0:0:0:0:
265,50,37940,86,0,P|281:122|256:192,1,150,4|0,0:3|0:0,0:0:0:0:
127,127,38551,86,0,L|42:119,1,75,4|8,0:3|0:3,0:0:0:0:
180,194,38773,1,4,0:3:0:0:
339,185,38995,2,0,L|411:178,4,37.5,8|4|8|4|4,0:3|0:3|0:3|0:3|0:3,0:0:0:0:
122,285,39439,70,0,L|121:373,1,75,4|4,0:3|0:3,0:0:0:0:
277,366,39662,2,0,L|276:291,1,75,8|4,0:0|0:3,0:0:0:0:
104,254,39884,2,0,L|98:342,1,75,8|4,0:2|0:3,0:0:0:0:
305,346,40106,2,0,L|299:271,1,75,8|4,0:2|0:3,0:0:0:0:
324,57,40328,6,0,P|357:149|322:200,1,165.000005035401,4|8,0:3|0:3,0:0:0:0:
188,57,40773,2,0,P|155:149|190:200,1,165.000005035401,4|8,0:3|0:3,0:0:0:0:
389,328,41217,70,0,L|394:272,3,37.5,4|8|8|8,0:3|0:3|0:3|0:3,0:0:0:0:
395,252,41439,2,0,L|390:196,3,37.5,4|8|8|8,0:3|0:3|0:3|0:3,0:0:0:0:
377,171,41662,2,0,L|382:115,3,37.5,4|8|4|8,0:3|0:3|0:3|0:3,0:0:0:0:
394,55,41884,1,8,0:3:0:0:
242,228,42106,85,2,0:2:0:0:
133,232,42217,1,2,0:2:0:0:
187,140,42328,1,2,0:2:0:0:
189,316,42439,22,0,P|124:332|52:290,1,150,4|4,0:3|0:3,0:0:0:0:
104,164,42773,2,0,P|128:193|135:230,1,75,4|0,0:3|0:0,0:0:0:0:
23,134,42995,70,0,L|25:44,1,89.9999972534181,2|0,0:2|0:0,0:0:0:0:
268,15,43217,1,4,0:3:0:0:
159,38,43328,1,4,0:3:0:0:
298,29,43439,2,0,L|305:138,1,89.9999972534181,8|8,0:3|0:3,0:0:0:0:
368,219,43662,1,2,0:2:0:0:
165,222,43884,54,0,P|152:285|162:323,1,75,0|0,0:0|0:0,0:0:0:0:
255,313,44106,2,0,P|268:250|258:212,1,75,0|0,0:0|0:0,0:0:0:0:
153,138,44328,69,0,0:0:0:0:
116,72,44439,1,0,0:0:0:0:
190,72,44550,1,0,0:0:0:0:
153,138,44662,1,0,0:0:0:0:
99,57,44773,69,0,0:0:0:0:
206,57,44884,2,0,L|382:57,1,150,0|0,0:0|0:0,0:0:0:0:
461,182,45217,1,0,0:0:0:0:
354,182,45328,2,0,L|204:182,1,150,0|0,0:0|0:0,0:0:0:0:
47,253,45662,22,0,P|40:287|50:323,1,56.2500021457673,4|0,0:3|0:0,0:0:0:0:
157,311,45884,2,0,P|164:276|153:240,1,56.2500021457673,4|0,0:3|0:3,0:0:0:0:
36,252,46106,6,0,P|29:287|40:322,1,56.2500021457673,4|0,0:3|0:3,0:0:0:0:
168,312,46328,2,0,P|175:277|164:241,1,56.2500021457673,4|0,0:3|0:0,0:0:0:0:
142,111,46550,6,0,L|147:54,3,37.5,8|8|4|4,0:3|0:3|0:3|0:3,0:0:0:0:
125,40,46773,2,0,L|207:30,1,75,8|8,0:3|0:3,0:0:0:0:
249,102,46995,2,0,L|331:92,1,75,4|4,0:3|0:3,0:0:0:0:
438,45,47217,1,8,0:3:0:0:
401,148,47328,1,0,0:0:0:0:
469,232,47439,70,0,P|481:290|475:327,1,75,4|8,0:3|0:3,0:0:0:0:
339,354,47662,2,0,P|327:296|333:259,1,75,4|4,0:3|0:3,0:0:0:0:
232,167,47884,1,8,0:3:0:0:
161,140,47995,1,4,0:3:0:0:
96,177,48106,2,0,P|89:238|96:265,1,75,4|8,0:3|0:3,0:0:0:0:
232,167,48328,5,8,0:0:0:0:
232,167,48550,1,8,0:0:0:0:
362,70,48773,54,0,L|412:76,3,37.5,4|4|8|4,0:3|0:3|0:3|0:3,0:0:0:0:
426,101,48995,2,0,L|476:107,3,37.5,4|4|8|8,0:3|0:3|0:3|0:3,0:0:0:0:
498,93,49217,21,2,0:2:0:0:
487,167,49328,1,2,0:2:0:0:
476,241,49439,1,2,0:2:0:0:
356,268,49550,6,0,P|288:240|220:268,1,150,8|8,0:0|0:0,0:0:0:0:
288,337,49884,2,0,P|292:282|281:251,1,75,4|4,0:3|0:3,0:0:0:0:
179,164,50106,6,0,L|122:158,4,37.5,4|4|4|4|4,0:3|0:3|0:3|0:3|0:3,0:0:0:0:
333,164,50550,1,4,0:3:0:0:
333,164,50662,2,0,L|390:158,2,37.5,0|0|4,0:0|0:0|0:3,0:0:0:0:
75,41,50995,70,0,P|59:74|63:123,1,75,8|4,0:3|0:3,0:0:0:0:
132,188,51217,2,0,P|147:221|144:270,1,75,8|4,3:3|3:3,0:0:0:0:
32,354,51439,6,0,L|25:283,3,37.5,0|0|0|0,0:0|0:0|0:0|0:0,0:0:0:0:
59,294,51662,2,0,L|66:223,3,37.5,0|4|4|4,0:0|0:3|0:3|0:3,0:0:0:0:
41,225,51884,6,0,L|34:154,7,37.5,8|8|8|8|8|8|8|8,0:3|0:3|0:3|0:3|0:3|0:3|0:3|0:3,0:0:0:0:
56,166,52328,54,0,L|64:90,1,56.2500021457673,8|0,0:2|0:0,0:0:0:0:
256,343,52773,5,4,0:1:0:0:
96,72,63439,6,0,L|76:236,1,150,4|0,0:3|0:0,0:0:0:0:
196,128,64328,2,0,L|207:278,1,150,8|8,0:3|0:3,0:0:0:0:
314,172,65217,6,0,P|380:187|451:143,1,150,4|8,0:3|0:3,0:0:0:0:
347,35,66106,2,0,P|281:20|210:64,1,150,4|4,0:3|0:3,0:0:0:0:
177,205,66995,70,0,L|93:210,1,75,4|0,0:3|0:0,0:0:0:0:
56,268,67439,2,0,L|61:352,1,75,4|8,0:3|0:3,0:0:0:0:
128,375,67884,2,0,B|195:343|206:392|274:357,1,150,8|8,0:3|0:3,0:0:0:0:
387,259,68773,6,0,P|363:190|382:102,1,150,8|8,0:3|0:3,0:0:0:0:
228,81,69662,2,0,P|240:154|216:224,1,150,8|8,0:3|0:3,0:0:0:0:
134,350,70550,6,0,P|89:343|58:284,2,112.5,4|4|4,0:3|0:3|0:3,0:0:0:0:
203,321,71439,1,4,0:3:0:0:
256,180,71884,1,4,0:3:0:0:
378,350,72328,70,0,P|423:343|454:284,2,112.5,4|8|8,0:3|0:3|0:3,0:0:0:0:
309,321,73217,1,4,0:3:0:0:
256,180,73662,2,0,L|256:98,1,75,0|0,0:0|0:0,0:0:0:0:
219,39,74106,6,0,P|143:30|80:78,1,150,4|4,0:3|0:3,0:0:0:0:
123,215,74995,2,0,P|132:291|84:354,1,150,8|4,0:3|0:3,0:0:0:0:
317,342,75884,2,0,L|443:324,2,112.5,0|8|0,0:3|0:3|0:0,0:0:0:0:
256,104,77662,54,0,L|243:335,1,225.000008583069,4|8,0:3|0:3,0:0:0:0:
378,288,77995,2,0,L|365:63,1,225.000008583069,4|8,0:3|0:3,0:0:0:0:
208,24,78328,1,4,0:3:0:0:
80,344,78550,5,4,0:3:0:0:
192,332,78662,1,4,0:3:0:0:
128,239,78773,2,0,L|8:231,1,112.500004291535,4|4,0:3|0:3,0:0:0:0:
174,145,78995,2,0,L|294:137,1,112.500004291535,8|4,0:3|0:3,0:0:0:0:
100,36,79217,2,0,L|37:29,3,56.2500021457673,8|8|8|8,0:3|0:3|0:3|0:3,0:0:0:0:
136,29,79439,85,8,0:2:0:0:
247,45,79550,1,8,0:2:0:0:
359,29,79662,1,8,0:2:0:0:
472,109,79773,6,0,B|464:165|464:165|476:219|476:219|442:263|442:263|432:334,1,225.000008583069,8|8,0:2|0:3,0:0:0:0:
337,348,80106,86,0,L|356:207,1,131.250001251698,8|4,0:2|0:3,0:0:0:0:
231,299,80328,6,0,P|152:293|119:154,1,225.000008583069,4|8,0:3|0:3,0:0:0:0:
177,77,80662,1,8,0:3:0:0:
289,165,80773,86,0,B|347:170|347:170|394:139|394:139|448:142,2,168.750006437302,8|8|8,0:0|0:0|0:0,0:0:0:0:
440,30,81217,6,0,L|458:267,1,225.000008583069,4|4,0:3|0:3,0:0:0:0:
381,338,81550,1,4,0:3:0:0:
285,277,81662,2,0,L|289:165,1,112.500004291535,8|0,0:3|0:0,0:0:0:0:
132,69,81884,2,0,L|135:181,1,112.500004291535,8|0,0:3|0:0,0:0:0:0:
299,288,82106,86,0,L|303:173,1,112.500004291535,8|0,0:3|0:0,0:0:0:0:
444,25,82328,1,8,0:3:0:0:
458,136,82439,1,8,0:3:0:0:
354,92,82550,2,0,P|289:85|222:114,1,112.500004291535,8|8,0:3|0:3,0:0:0:0:
187,181,82773,1,4,0:3:0:0:
187,181,82828,1,4,0:3:0:0:
187,181,82884,1,4,0:3:0:0:
65,85,82995,6,0,L|59:209,1,112.500004291535,8|8,0:2|0:2,0:0:0:0:
136,348,83217,2,0,L|194:343,3,56.2500021457673,8|4|8|4,0:3|0:3|0:3|0:3,0:0:0:0:
227,357,83439,2,0,L|285:352,3,56.2500021457673,8|4|8|4,0:3|0:3|0:3|0:3,0:0:0:0:
320,362,83662,2,0,P|333:306|378:263,1,112.500004291535,4|0,0:3|0:3,0:0:0:0:
484,163,83884,86,0,L|476:28,1,112.500004291535,4|8,0:3|0:3,0:0:0:0:
311,62,84106,2,0,L|319:197,1,112.500004291535,4|4,0:3|0:3,0:0:0:0:
160,241,84328,5,8,0:0:0:0:
195,132,84439,1,8,0:0:0:0:
162,258,84550,2,0,L|174:378,1,112.500004291535,8|8,0:0|0:0,0:0:0:0:
53,170,84773,86,0,P|105:90|166:170,1,225.000008583069,4|4,0:3|0:3,0:0:0:0:
243,248,85106,1,4,0:3:0:0:
266,137,85217,2,0,P|255:83|222:34,1,112.500004291535,4|4,0:3|0:3,0:0:0:0:
243,248,85439,2,0,P|297:237|346:204,1,112.500004291535,4|4,0:3|0:3,0:0:0:0:
396,47,85662,5,4,0:3:0:0:
487,112,85773,1,4,0:3:0:0:
430,209,85884,2,0,B|421:265|421:265|434:323,1,112.500004291535,8|4,0:3|0:3,0:0:0:0:
304,331,86106,2,0,B|313:275|313:275|300:217,1,112.500004291535,8|8,0:3|0:3,0:0:0:0:
229,120,86328,1,4,0:3:0:0:
229,120,86384,1,4,0:3:0:0:
229,120,86439,1,4,0:3:0:0:
73,242,86550,85,8,0:2:0:0:
96,131,86662,1,8,0:2:0:0:
89,19,86773,1,8,0:2:0:0:
218,141,86884,6,0,P|297:142|379:29,1,225.000008583069,8|8,0:2|0:3,0:0:0:0:
242,113,87217,86,0,P|302:105|342:50,1,131.250001251698,8|4,0:2|0:3,0:0:0:0:
123,59,87439,5,2,0:2:0:0:
88,165,87550,1,2,0:2:0:0:
163,249,87662,2,0,L|170:366,1,112.500004291535,8|8,0:3|0:3,0:0:0:0:
60,281,87884,86,0,L|74:81,2,168.750006437302,8|8|8,0:0|0:0|0:0,0:0:0:0:
286,144,88328,6,0,P|282:73|148:35,1,225.000008583069,4|8,0:3|0:3,0:0:0:0:
71,112,88662,1,8,0:3:0:0:
139,206,88773,2,0,P|179:167|197:114,2,112.500004291535,4|4|8,0:3|0:3|0:3,0:0:0:0:
47,360,89217,86,0,L|173:342,1,112.500004291535,4|8,0:3|0:3,0:0:0:0:
268,365,89439,1,4,0:3:0:0:
368,314,89550,1,8,0:3:0:0:
368,314,89606,1,8,0:3:0:0:
368,314,89662,2,0,L|385:376,3,56.2500021457673,8|0|0|0,0:3|0:0|0:0|0:0,0:0:0:0:
382,285,89884,2,0,P|388:233|358:168,1,112.500004291535,4|4,0:3|0:3,0:0:0:0:
245,128,90106,5,4,0:3:0:0:
133,115,90217,1,4,0:3:0:0:
196,22,90328,1,8,0:3:0:0:
180,207,90439,2,0,L|191:270,5,56.2500021457673,4|8|8|0|4|8,0:3|0:3|0:3|0:0|0:3|0:3,0:0:0:0:
223,308,90773,2,0,P|147:303|108:318,1,112.500004291535,4|0,0:3|0:0,0:0:0:0:
316,340,90995,86,0,P|392:345|431:330,1,112.500004291535,8|8,0:0|0:0,0:0:0:0:
478,244,91217,1,0,0:0:0:0:
478,244,91273,1,0,0:0:0:0:
478,244,91328,1,0,0:0:0:0:
322,162,91439,6,0,P|337:62|381:185,1,337.500012874604,2|0,3:0|0:0,0:0:0:0:
243,300,91884,85,8,0:0:0:0:
213,191,91995,1,8,0:0:0:0:
322,162,92106,1,8,0:0:0:0:
351,270,92217,1,8,0:0:0:0:
213,191,92328,6,0,P|182:153|282:42,1,225.000008583069,4|4,0:3|0:3,0:0:0:0:
383,61,92662,1,4,0:3:0:0:
468,134,92773,2,0,P|499:172|399:283,1,225.000008583069,8|4,0:3|0:3,0:0:0:0:
296,280,93106,1,4,0:3:0:0:
186,305,93217,2,0,P|109:310|75:296,1,112.500004291535,8|8,0:3|0:3,0:0:0:0:
13,204,93439,2,0,P|8:127|22:93,1,112.500004291535,8|8,0:3|0:3,0:0:0:0:
190,21,93662,85,8,0:2:0:0:
226,128,93773,1,8,0:2:0:0:
230,240,93884,1,8,0:2:0:0:
371,192,93995,6,0,B|384:138|365:80|365:80|426:106|473:93,1,225.000008583069,8|8,0:2|0:2,0:0:0:0:
315,7,94328,2,0,P|281:50|283:105,1,112.500004291535,8|8,0:2|0:3,0:0:0:0:
366,315,94550,86,0,B|258:284|258:284|146:335,1,225.000008583069,8|4,0:2|0:3,0:0:0:0:
58,272,94884,1,4,0:3:0:0:
141,197,94995,2,0,P|152:147|145:73,1,112.500004291535,4|8,0:3|0:3,0:0:0:0:
51,28,95217,1,4,0:3:0:0:
237,102,95328,5,4,0:3:0:0:
237,102,95384,1,4,0:3:0:0:
237,102,95439,2,0,P|308:97|375:57,1,112.500004291535,4|0,0:3|0:0,0:0:0:0:
446,30,95662,1,8,0:3:0:0:
494,131,95773,1,8,0:3:0:0:
419,215,95884,2,0,L|411:335,2,112.500004291535,8|8|8,0:3|0:3|0:3,0:0:0:0:
248,232,96328,86,0,L|256:352,1,112.500004291535,4|8,0:3|0:3,0:0:0:0:
323,149,96550,1,8,0:3:0:0:
343,37,96662,1,4,0:3:0:0:
234,67,96773,2,0,P|156:64|127:47,1,112.500004291535,8|4,0:3|0:3,0:0:0:0:
31,93,96995,1,8,0:3:0:0:
31,93,97050,1,4,0:3:0:0:
31,93,97106,1,4,0:3:0:0:
160,198,97217,6,0,L|166:321,1,112.500004291535,8|8,0:2|0:2,0:0:0:0:
299,302,97439,2,0,L|304:236,3,56.2500021457673,4|4|4|4,0:3|0:3|0:3|0:3,0:0:0:0:
330,224,97662,2,0,L|335:158,3,56.2500021457673,8|0|0|0,0:3|0:0|0:0|0:0,0:0:0:0:
359,139,97884,2,0,L|230:128,1,112.500004291535,4|0,0:3|0:0,0:0:0:0:
42,54,98106,86,0,L|168:45,1,112.500004291535,4|8,0:3|0:3,0:0:0:0:
29,137,98328,2,0,L|155:128,1,112.500004291535,4|8,0:3|0:3,0:0:0:0:
369,74,98550,5,8,0:0:0:0:
260,32,98662,1,8,0:0:0:0:
388,80,98773,2,0,P|457:75|503:51,1,112.500004291535,8|8,0:0|0:0,0:0:0:0:
508,192,98995,86,0,B|497:309|497:309|452:342|395:334,1,225.000008583069,4|8,0:3|0:3,0:0:0:0:
377,165,99328,2,0,B|320:157|275:190|275:190|264:307,1,225.000008583069,4|8,0:3|0:3,0:0:0:0:
133,348,99662,1,4,0:3:0:0:
17,75,99884,5,4,0:3:0:0:
120,31,99995,1,8,0:3:0:0:
214,91,100106,2,0,P|304:95|349:76,1,112.500004291535,8|4,0:3|0:3,0:0:0:0:
502,33,100328,2,0,P|446:24|391:35,1,112.500004291535,8|8,0:3|0:3,0:0:0:0:
381,185,100550,2,0,L|373:240,3,56.2500021457673,4|4|4|4,0:3|0:3|0:3|0:3,0:0:0:0:
387,282,100773,85,8,0:2:0:0:
281,320,100884,1,8,0:2:0:0:
174,288,100995,1,8,0:2:0:0:
29,311,101106,6,0,B|36:239|36:239|70:177|70:177|78:95,1,225.000008583069,8|8,0:2|0:3,0:0:0:0:
209,21,101439,86,0,L|195:173,1,150,8|4,0:2|0:3,0:0:0:0:
321,74,101662,6,0,P|425:83|344:136,1,225.000008583069,4|4,0:3|0:3,0:0:0:0:
326,240,101995,1,4,0:3:0:0:
383,337,102106,86,0,B|493:346|493:346|511:290,2,168.750006437302,8|8|8,0:0|0:0|0:0,0:0:0:0:
244,259,102550,6,0,P|152:255|144:374,1,225.000008583069,4|4,0:3|0:3,0:0:0:0:
251,370,102884,1,4,0:3:0:0:
244,259,102995,2,0,L|229:25,1,225.000008583069,4|8,0:3|0:3,0:0:0:0:
37,151,103439,85,4,0:3:0:0:
59,261,103550,1,4,0:3:0:0:
82,372,103662,2,0,P|162:369|202:327,1,112.500004291535,4|0,0:3|0:0,0:0:0:0:
224,218,103884,2,0,P|279:213|327:239,1,112.500004291535,8|4,0:3|0:3,0:0:0:0:
411,327,104106,2,0,L|423:387,2,56.2500021457673,8|4|4,0:3|0:3|0:3,0:3:0:0:
493,234,104328,5,8,0:2:0:0:
481,122,104439,1,8,0:2:0:0:
390,188,104550,1,8,0:2:0:0:
382,74,104662,1,8,0:2:0:0:
382,74,104717,1,4,0:3:0:0:
382,74,104773,2,0,L|376:16,3,56.2500021457673,8|0|8|8,0:3|0:0|0:3|0:3,0:0:0:0:
417,103,104995,86,0,P|342:107|324:158,1,131.250001251698,8|4,0:2|0:3,0:0:0:0:
334,328,105217,5,4,0:3:0:0:
256,247,105328,1,8,0:3:0:0:
178,328,105439,2,0,L|107:341,2,56.2500021457673,4|4|4,0:3|0:3|0:3,0:0:0:0:
256,247,105662,86,0,L|256:74,2,168.750006437302,8|8|8,0:0|0:0|0:0,0:0:0:0:
157,123,106106,53,0,0:0:0:0:
44,320,120328,69,4,0:3:0:0:
92,100,120662,1,4,0:3:0:0:
188,304,120995,1,4,0:3:0:0:
468,64,121217,5,4,0:3:0:0:
420,284,121551,1,4,0:3:0:0:
324,80,121884,1,4,0:3:0:0:
44,64,122106,5,4,0:3:0:0:
92,284,122440,1,4,0:3:0:0:
188,80,122773,1,4,0:3:0:0:
468,320,122995,69,4,0:3:0:0:
132,128,123884,6,0,L|36:136,2,75,4|4|4,0:3|0:3|0:3,0:0:0:0:
189,79,124217,2,0,P|265:91|337:63,1,150,4|0,0:3|0:0,0:0:0:0:
405,49,124550,2,0,L|489:57,1,75,4|4,0:3|0:3,0:0:0:0:
512,194,124773,6,0,L|502:288,2,75,8|0|4,0:3|0:0|0:3,0:0:0:0:
418,241,125106,2,0,L|408:335,2,75,8|0|4,0:3|0:0|0:3,0:0:0:0:
323,345,125439,1,8,0:3:0:0:
87,130,125662,69,8,0:3:0:0:
95,204,125773,1,8,0:3:0:0:
105,278,125884,1,4,0:3:0:0:
226,215,125995,6,0,P|226:134|172:61,1,150,8|4,0:3|0:3,0:0:0:0:
178,296,126328,2,0,P|234:309|269:299,1,75,8|4,0:3|0:3,0:0:0:0:
368,179,126550,6,0,L|359:125,4,37.5,4|0|4|4|8,0:3|0:0|0:3|0:3|0:3,0:0:0:0:
380,252,126884,1,8,0:3:0:0:
63,50,127439,70,0,L|170:41,1,75,4|8,0:3|0:3,0:0:0:0:
135,156,127662,2,0,L|242:147,1,75,8|4,0:0|0:3,0:0:0:0:
244,56,127884,2,0,L|351:47,1,75,8|4,0:3|0:3,0:0:0:0:
316,162,128107,2,0,L|423:153,1,75,8|0,0:0|0:0,0:0:0:0:
468,86,128328,6,0,P|429:180|442:239,1,150,4|4,0:3|0:3,0:0:0:0:
343,291,128662,2,0,P|249:252|190:265,1,150,4|4,0:3|0:3,0:0:0:0:
152,354,128995,2,0,P|206:356|238:336,1,75,4|0,0:3|0:0,0:0:0:0:
82,195,129217,6,0,L|72:274,1,75,4|4,0:3|0:3,0:0:0:0:
61,343,129439,1,4,0:3:0:0:
179,243,129550,2,0,L|174:68,1,150,4|4,0:3|0:3,0:0:0:0:
49,47,129884,1,4,0:3:0:0:
337,112,130106,69,4,0:3:0:0:
140,304,130995,6,0,L|133:202,2,75,2|8|4,0:0|0:3|0:3,0:0:0:0:
95,364,131328,2,0,P|189:333|255:345,1,150,0|8,0:0|0:2,0:0:0:0:
308,365,131662,2,0,L|367:359,2,37.5,8|0|0,0:2|0:0|0:0,0:0:0:0:
244,213,131884,6,0,L|250:134,2,75,4|0|4,0:3|0:0|0:3,0:0:0:0:
359,177,132217,2,0,L|353:98,2,75,8|0|8,0:3|0:0|0:3,0:0:0:0:
222,158,132550,2,0,L|228:79,1,75,4|0,0:3|0:0,0:0:0:0:
66,30,132773,70,0,L|78:195,1,150,4|8,0:3|0:0,0:0:0:0:
141,216,133106,2,0,L|129:381,1,150,4|8,0:3|0:0,0:0:0:0:
56,379,133439,1,4,0:3:0:0:
256,192,133662,6,0,L|256:112,1,75,4|4,0:3|0:3,0:0:0:0:
347,88,133884,2,0,L|347:163,1,75,4|4,0:3|0:3,0:0:0:0:
347,256,134106,5,2,2:2:0:0:
136,64,134550,70,0,L|128:156,1,75,4|8,0:3|0:3,0:0:0:0:
87,201,134773,1,4,0:3:0:0:
206,168,134884,2,0,P|278:179|319:252,1,150,4|4,0:3|0:3,0:0:0:0:
311,317,135217,2,0,L|227:327,1,75,4|8,0:3|0:3,0:0:0:0:
93,361,135439,6,0,P|108:311|110:272,1,75,8|8,0:3|0:3,0:0:0:0:
107,212,135662,1,4,0:3:0:0:
147,71,135773,2,0,P|246:50|296:72,1,150,8|4,0:3|0:3,0:0:0:0:
371,139,136106,2,0,L|375:225,1,75,8|8,0:3|0:3,0:0:0:0:
295,288,136328,5,4,0:3:0:0:
242,230,136439,2,0,L|247:181,2,37.5,8|8|4,0:3|0:3|0:3,0:0:0:0:
194,288,136662,1,4,0:3:0:0:
121,314,136773,2,0,L|126:363,2,37.5,4|4|4,0:3|0:3|0:3,0:0:0:0:
72,256,136995,2,0,L|77:207,3,37.5,8|8|4|4,0:3|0:3|0:3|0:3,0:0:0:0:
82,181,137217,70,0,L|91:105,1,75,4|4,0:3|0:3,0:0:0:0:
162,165,137439,2,0,L|171:89,1,75,4|4,0:3|0:3,0:0:0:0:
468,222,138106,6,0,P|438:274|427:216,1,150,4|4,0:3|0:3,0:0:0:0:
427,68,138550,1,4,0:3:0:0:
363,108,138662,2,0,L|318:106,4,37.5,8|8|8|8|4,0:3|0:3|0:3|0:3|0:3,0:0:0:0:
236,47,138995,6,0,L|150:58,1,75,4|0,0:3|0:0,0:0:0:0:
122,120,139217,1,4,0:3:0:0:
252,162,139328,2,0,L|166:173,1,75,4|0,0:3|0:0,0:0:0:0:
138,235,139550,1,4,0:3:0:0:
269,281,139662,2,0,L|183:292,1,75,4|0,0:3|0:0,0:0:0:0:
339,207,139884,70,0,L|414:217,2,75,4|4|4,0:3|0:3|0:3,0:0:0:0:
408,296,140217,2,0,P|465:278|490:194,1,150,4|4,0:3|0:3,0:0:0:0:
442,130,140550,2,0,P|440:85|450:39,1,75,4|4,0:3|0:3,0:0:0:0:
338,25,140773,2,0,L|291:34,3,37.5,4|0|4|4,0:3|0:0|0:3|0:3,0:0:0:0:
289,67,140995,2,0,L|184:56,1,75,8|8,0:3|0:3,0:0:0:0:
100,43,141217,5,2,2:2:0:0:
123,325,141662,6,0,L|116:268,3,37.5,0|0|8|8,0:3|0:0|0:3|0:3,0:0:0:0:
156,289,141884,2,0,L|163:232,3,37.5,8|8|4|0,0:3|0:3|0:3|0:0,0:0:0:0:
198,255,142106,2,0,L|191:198,3,37.5,8|0|8|0,0:3|0:0|0:3|0:0,0:0:0:0:
231,219,142328,2,0,L|238:162,3,37.5,4|0|4|0,0:3|0:0|0:3|0:0,0:0:0:0:
270,198,142550,70,0,P|320:156|310:74,1,150,4|4,0:3|0:3,0:0:0:0:
228,47,142884,2,0,P|178:89|188:171,1,150,4|4,0:3|0:3,0:0:0:0:
249,123,143217,1,4,0:3:0:0:
440,325,143439,6,0,L|414:174,1,150,8|8,0:3|0:3,0:0:0:0:
327,121,143773,2,0,L|301:272,1,150,8|8,0:3|0:3,0:0:0:0:
236,332,144106,1,4,0:3:0:0:
154,60,144328,5,4,0:3:0:0:
478,47,145217,70,0,L|467:127,1,75,8|4,0:2|0:3,0:0:0:0:
362,96,145439,2,0,L|351:176,1,75,4|4,0:3|0:3,0:0:0:0:
261,237,145662,2,0,L|272:317,1,75,4|4,0:3|0:3,0:0:0:0:
377,286,145884,2,0,L|388:366,1,75,4|4,0:3|0:3,0:0:0:0:
484,227,146106,6,0,P|479:134|442:86,1,150,8|4,0:3|0:3,0:0:0:0:
374,109,146439,1,8,0:3:0:0:
304,82,146550,2,0,P|239:75|209:82,1,75,8|4,0:3|0:3,0:0:0:0:
165,115,146773,2,0,L|169:161,2,37.5,4|4|4,0:3|0:3|0:3,0:0:0:0:
56,254,146995,6,0,P|50:301|37:332,2,75,4|4|8,0:3|0:3|0:3,0:0:0:0:
157,287,147328,2,0,P|163:334|176:365,2,75,4|4|8,0:3|0:3|0:3,0:0:0:0:
249,223,147662,2,0,L|327:218,1,75,4|4,0:3|0:3,0:0:0:0:
463,282,147884,70,0,L|469:329,4,37.5,2|0|4|0|8,0:2|0:0|0:3|0:0|0:3,0:0:0:0:
448,208,148217,1,4,0:3:0:0:
433,134,148328,1,2,0:2:0:0:
105,172,148773,6,0,L|95:269,1,97.4999955368044,4|0,0:3|0:0,0:0:0:0:
224,128,148995,2,0,L|214:225,1,97.4999955368044,8|0,0:0|0:0,0:0:0:0:
4,60,149217,6,0,L|14:157,1,97.4999955368044,4|4,0:3|0:3,0:0:0:0:
214,31,149439,2,0,L|224:128,1,97.4999955368044,8|4,0:0|0:3,0:0:0:0:
77,359,149662,69,4,0:3:0:0:
165,315,149773,1,8,0:3:0:0:
273,347,149884,1,8,0:0:0:0:
375,310,149995,1,0,0:0:0:0:
375,310,150050,1,0,0:0:0:0:
375,310,150106,2,0,L|483:298,1,97.4999955368044,0|4,0:0|0:3,0:0:0:0:
488,169,150328,2,0,L|380:181,1,97.4999955368044,8|4,0:0|0:3,0:0:0:0:
256,256,150550,6,0,B|224:152|292:168|256:56,1,194.999991073609,4|2,0:3|0:2,0:0:0:0:
124,108,150884,1,4,0:3:0:0:
124,108,150939,1,8,0:3:0:0:
124,108,150995,2,0,L|176:112,2,48.7499977684022,4|4|4,0:3|0:3|0:3,0:0:0:0:
21,65,151217,2,0,L|24:174,1,97.4999955368044,2|0,0:2|0:0,0:0:0:0:
27,307,151439,5,4,0:3:0:0:
124,248,151550,1,4,0:3:0:0:
124,248,151606,1,4,0:3:0:0:
124,248,151662,2,0,P|176:264|224:260,1,97.4999955368044,0|0,0:0|0:0,0:0:0:0:
344,220,151884,69,8,0:0:0:0:
440,236,151995,1,8,0:0:0:0:
348,180,152106,1,8,0:0:0:0:
440,148,152217,1,8,0:0:0:0:
324,80,152328,6,0,P|248:84|208:116,1,97.4999955368044,8|0,0:2|0:0,0:0:0:0:
196,272,152550,6,0,L|208:176,1,97.4999955368044,8|4,0:3|0:3,0:0:0:0:
32,248,152773,2,0,L|109:306,1,97.4999955368044,4|8,0:3|0:3,0:0:0:0:
140,120,152995,2,0,L|50:157,1,97.4999955368044,4|8,0:3|0:3,0:0:0:0:
224,84,153217,70,0,P|288:80|384:172,1,194.999991073609,8|8,0:2|0:0,0:0:0:0:
392,264,153550,1,8,0:3:0:0:
392,264,153606,1,8,0:3:0:0:
392,264,153662,2,0,L|500:248,1,97.4999955368044,8|0,0:3|0:0,0:0:0:0:
380,356,153884,2,0,L|272:340,1,97.4999955368044,8|0,0:0|0:0,0:0:0:0:
156,208,154106,6,0,L|264:192,1,97.4999955368044,4|8,0:3|0:3,0:0:0:0:
120,312,154328,2,0,L|12:296,1,97.4999955368044,8|4,0:0|0:3,0:0:0:0:
56,136,154550,1,8,0:3:0:0:
60,132,154606,1,0,0:3:0:0:
64,128,154662,1,8,0:3:0:0:
68,124,154717,1,0,0:3:0:0:
72,120,154773,2,0,L|68:64,3,48.7499977684022,8|8|8|8,0:3|0:3|0:3|0:3,0:0:0:0:
400,48,155884,70,0,L|412:160,1,112.500004291535,8|0,0:2|0:0,0:0:0:0:
192,322,156106,85,4,0:3:0:0:
320,322,156217,1,4,0:3:0:0:
183,159,156328,2,0,L|194:38,1,112.500004291535,8|8,0:2|0:2,0:0:0:0:
329,159,156550,2,0,L|318:38,1,112.500004291535,8|8,0:2|0:2,0:0:0:0:
110,243,156773,6,0,L|102:363,1,112.500004291535,8|8,0:3|0:2,0:0:0:0:
409,355,156995,2,0,L|402:243,1,112.500004291535,8|4,0:3|0:3,0:0:0:0:
93,176,157217,2,0,L|85:296,1,112.500004291535,4|8,0:3|0:2,0:0:0:0:
426,288,157439,2,0,L|419:176,1,112.500004291535,8|8,0:3|0:2,0:0:0:0:
176,56,157662,85,0,0:0:0:0:
176,56,157773,2,0,L|168:180,2,112.500004291535,0|8|8,0:0|0:0|0:3,0:0:0:0:
252,248,158106,2,0,P|184:284|144:284,1,112.500004291535,4|8,0:3|0:3,0:0:0:0:
256,156,158328,2,0,P|324:120|364:120,1,112.500004291535,8|4,0:0|0:3,0:0:0:0:
476,208,158550,5,4,0:3:0:0:
348,248,158662,1,8,0:3:0:0:
348,248,158717,1,8,0:3:0:0:
348,248,158773,2,0,L|364:368,1,112.500004291535,8|0,0:3|0:0,0:0:0:0:
455,91,158995,85,8,0:2:0:0:
379,7,159106,1,8,0:2:0:0:
331,107,159217,1,8,0:2:0:0:
256,23,159328,1,8,0:2:0:0:
156,152,159439,6,0,P|156:224|140:268,1,112.500004291535,8|4,0:3|0:3,0:0:0:0:
256,360,159662,2,0,L|256:248,1,112.500004291535,8|4,0:3|0:3,0:0:0:0:
355,152,159884,2,0,P|353:207|368:261,1,112.500004291535,8|4,0:3|0:3,0:0:0:0:
256,136,160106,2,0,L|256:24,1,112.500004291535,8|4,0:3|0:3,0:0:0:0:
72,28,160328,86,0,P|40:112|92:240,1,225.000008583069,0|8,0:0|0:0,0:0:0:0:
216,212,160662,1,0,0:0:0:0:
216,212,160717,1,0,0:0:0:0:
216,212,160773,2,0,L|332:216,1,112.500004291535,0|0,0:0|0:0,0:0:0:0:
412,328,160995,2,0,L|296:324,1,112.500004291535,8|0,0:1|0:0,0:0:0:0:
172,140,161217,6,0,L|184:24,1,112.500004291535,8|4,0:3|0:3,0:0:0:0:
284,0,161439,1,8,0:0:0:0:
356,168,161550,2,0,L|368:52,1,112.500004291535,8|4,0:3|0:3,0:0:0:0:
468,28,161772,1,8,0:0:0:0:
472,204,161884,2,0,L|484:296,3,56.2500021457673,4|4|4|4,0:3|0:3|0:3|0:3,0:0:0:0:
476,292,162106,86,0,P|416:304|376:300,1,93.75,4|8,0:3|0:3,0:0:0:0:
272,228,162328,6,0,P|212:216|176:224,1,75,4|8,0:3|0:3,0:0:0:0:
76,320,162550,86,0,P|104:248|96:192,1,120,4|8,0:3|0:3,0:0:0:0:
32,28,162995,21,4,0:0:0:0:
256,192,163050,12,0,165217,0:0:0:0:
