osu file format v14

[General]
AudioFilename: jjj.mp3
AudioLeadIn: 0
PreviewTime: 63439
Countdown: 0
SampleSet: Normal
StackLeniency: 0.3
Mode: 0
LetterboxInBreaks: 0
WidescreenStoryboard: 1

[Editor]
Bookmarks: 439,6221,34662,38551,52773,63439,77662,91884,106106,120328,134550,141662,148773,154995,162995
DistanceSpacing: 1
BeatDivisor: 4
GridSize: 32
TimelineZoom: 3.5

[Metadata]
Title:SLOTcore Is Dead
TitleUnicode:SLOTcore Is Dead
Artist:sHimaU
ArtistUnicode:sHimaU
Creator:Arphimigon
Version:EIGHT
Source:
Tags:electronic breakcore japanese Miracle High Tension dodo naruto da astrosexy spaced streams high bpm fullscreen jumps
BeatmapID:2442176
BeatmapSetID:306012

[Difficulty]
HPDrainRate:5
CircleSize:3.5
OverallDifficulty:10
ApproachRate:10
SliderMultiplier:2
SliderTickRate:1

[Events]
//Background and Video events
0,0,"kek.jpg",0,0
//Break Periods
2,3355,4967
2,52973,62989
2,106306,119878
//Storyboard Layer 0 (Background)
//Storyboard Layer 1 (Fail)
//Storyboard Layer 2 (Pass)
//Storyboard Layer 3 (Foreground)
//Storyboard Layer 4 (Overlay)
//Storyboard Sound Samples

[TimingPoints]
439,226.415094339623,4,1,2,65,1,0
439,-66.6666666666667,4,1,2,65,0,0
665,-66.6666666666667,4,1,2,65,0,0
891,-100,4,1,2,65,0,0
1118,-100,4,1,2,65,0,0
1344,-66.6666666666667,4,1,2,65,0,0
1457,-66.6666666666667,4,1,2,65,0,0
1571,-100,4,1,2,65,0,0
6221,222.222222222222,4,1,2,65,1,0
9443,-66.6666666666667,4,1,0,65,0,0
9665,-66.6666666666667,4,1,0,65,0,0
9776,-80,4,1,2,65,0,0
9998,-80,4,1,2,45,0,0
10109,-100,4,1,2,65,0,0
12887,-100,4,1,0,65,0,0
12998,-83.3333333333333,4,1,2,65,0,0
13332,-100,4,1,2,65,0,0
13554,-100,4,1,0,65,0,0
15109,-100,4,3,2,65,0,0
15776,-100,4,1,0,65,0,0
15998,-100,4,1,2,65,0,0
16554,-76.9230769230769,4,1,2,65,0,0
16887,-100,4,1,2,65,0,0
17220,-83.3333333333333,4,1,2,65,0,0
21998,-133.333333333333,4,1,2,65,0,0
22220,-100,4,1,2,65,0,0
26443,-66.6666666666667,4,1,2,65,0,0
26665,-100,4,1,2,65,0,0
27887,-100,4,1,0,65,0,0
27943,-100,4,1,0,25,0,0
27998,-100,4,1,0,65,0,0
28054,-100,4,1,0,25,0,0
28109,-100,4,1,0,65,0,0
28165,-100,4,1,0,25,0,0
28220,-133.333333333333,4,1,2,65,0,0
28443,-76.9230769230769,4,1,2,15,0,0
28609,-76.9230769230769,4,1,2,15,0,0
28665,-76.9230769230769,4,1,2,65,0,0
30054,-76.9230769230769,4,1,2,5,0,0
30109,-76.9230769230769,4,1,2,65,0,0
30165,-76.9230769230769,4,1,2,5,0,0
30220,-76.9230769230769,4,1,2,65,0,0
31109,-76.9230769230769,4,1,0,65,0,0
32887,-100,4,1,2,65,0,0
34662,327.868852459016,4,1,2,65,1,0
38551,222.222222222222,4,1,2,65,1,0
39328,-100,4,1,2,35,0,0
39439,-100,4,1,2,65,0,0
40328,-90.9090909090909,4,1,2,65,0,0
41439,-83.3333333333333,4,1,2,65,0,0
42106,-90.9090909090909,4,1,2,65,0,0
42884,-90.9090909090909,4,1,2,35,0,0
42995,-66.6666666666667,4,1,2,65,0,0
43884,-83.3333333333333,4,1,0,65,0,0
44773,-66.6666666666667,4,3,2,65,0,0
44884,-100,4,3,2,45,0,0
45106,-66.6666666666667,4,3,2,35,0,0
45217,-100,4,3,2,65,0,0
45550,-66.6666666666667,4,3,2,35,0,0
45662,-100,4,1,2,65,0,0
47439,-83.3333333333333,4,1,2,65,0,0
48439,-83.3333333333333,4,1,2,15,0,0
48550,-83.3333333333333,4,1,2,65,0,0
48662,-83.3333333333333,4,1,2,15,0,0
48773,-83.3333333333333,4,1,2,65,0,0
49217,-66.6666666666667,4,1,2,65,0,0
49550,-100,4,1,2,65,0,0
50328,-83.3333333333333,4,1,2,65,0,0
50995,-83.3333333333333,4,1,2,65,0,0
52328,-133.333333333333,4,1,2,65,0,0
63439,-200,4,1,2,65,0,0
66106,-100,4,1,2,65,0,0
66439,-200,4,1,2,65,0,0
66995,-100,4,1,2,65,0,0
67439,-200,4,1,2,65,0,0
69662,-100,4,1,2,65,0,0
69995,-200,4,1,2,65,0,0
70550,-100,4,1,2,65,0,0
70884,-200,4,1,2,65,0,0
73217,-100,4,1,2,65,0,0
73662,-200,4,1,2,65,0,0
74106,-100,4,1,2,65,0,0
74550,-200,4,1,2,65,0,0
76773,-250,4,1,2,25,0,0
77356,-153.846153846153,4,1,2,25,0,0
77550,-133.333333333333,4,1,2,5,0,0
77662,-66.6666666666667,4,1,2,65,0,1
80106,-57.1428571428571,4,1,2,65,0,1
80328,-66.6666666666667,4,1,2,65,0,1
87217,-57.1428571428571,4,1,2,65,0,1
87439,-50,4,1,2,65,0,1
87662,-66.6666666666667,4,1,2,65,0,1
89550,-60.6060606060606,4,1,2,65,0,1
90106,-66.6666666666667,4,1,2,65,0,1
90773,-83.3333333333333,4,1,2,65,0,1
90995,-66.6666666666667,4,1,2,65,0,1
91606,-66.6666666666667,4,1,2,35,0,1
91662,-57.1428571428571,4,1,2,65,0,1
91828,-57.1428571428571,4,1,2,35,0,1
91884,-55.5555555555556,4,1,2,65,0,0
91939,-55.5555555555556,4,1,2,35,0,0
91995,-55.5555555555556,4,1,2,65,0,0
92050,-55.5555555555556,4,1,2,35,0,0
92106,-55.5555555555556,4,1,2,65,0,0
92161,-55.5555555555556,4,1,2,35,0,0
92217,-55.5555555555556,4,1,2,65,0,0
92272,-55.5555555555556,4,1,2,35,0,0
92328,-66.6666666666667,4,1,2,65,0,1
101439,-50,4,1,2,65,0,1
101662,-66.6666666666667,4,1,2,65,0,1
104995,-57.1428571428571,4,1,2,65,0,1
105217,-66.6666666666667,4,1,2,65,0,1
106106,-100,4,1,2,50,0,0
120328,-100,4,1,2,50,0,0
123439,-133.333333333333,4,1,2,65,0,0
123884,-100,4,1,2,65,0,0
126995,-133.333333333333,4,1,2,65,0,0
127439,-100,4,1,2,65,0,0
130550,-133.333333333333,4,1,2,65,0,0
130995,-100,4,1,2,65,0,0
131439,-100,4,1,2,45,0,0
131550,-100,4,1,2,65,0,0
134106,-133.333333333333,4,1,2,65,0,0
134550,-100,4,1,2,65,0,0
137662,-133.333333333333,4,1,2,65,0,0
138106,-100,4,1,2,65,0,0
141217,-133.333333333333,4,1,0,65,0,0
141662,-100,4,1,2,65,0,0
148328,-100,4,1,2,65,0,0
148773,-66.6666666666667,4,1,2,65,0,0
155578,-133.333333333333,4,1,2,35,0,0
155856,-66.6666666666667,4,1,2,5,0,0
155884,-66.6666666666667,4,1,2,75,0,0
162106,-83.3333333333333,4,1,2,75,0,0
162550,-125,4,1,2,65,0,0
163328,-125,4,1,2,35,0,0
163884,-125,4,1,2,25,0,0
164773,-125,4,1,2,15,0,0
164995,-125,4,1,2,10,0,0
165217,-125,4,1,2,5,0,0

[Colours]
Combo1 : 230,0,0
Combo2 : 230,230,230
Combo3 : 180,180,180
Combo4 : 106,106,106
Combo5 : 255,0,255
Combo6 : 255,128,255
Combo7 : 255,0,0

[HitObjects]
177,110,439,6,0,P|60:75|99:192,1,300.000011444092
356,114,891,22,0,P|437:90|410:171,1,200
143,116,1344,70,0,P|85:98|103:156,1,150.000005722046
256,298,1571,6,0,L|256:353,4,50
393,219,2023,2,0,L|393:116,1,100
339,312,2250,1,0,0:0:0:0:
166,235,2476,1,0,0:0:0:0:
393,169,2703,1,0,0:0:0:0:
117,84,2929,1,0,0:0:0:0:
458,21,3155,5,0,0:0:0:0:
353,75,6221,69,8,0:3:0:0:
340,270,6332,1,4,0:3:0:0:
237,106,6443,1,8,0:0:0:0:
417,178,6554,1,4,0:3:0:0:
425,180,6609,1,4,0:3:0:0:
433,182,6665,1,4,0:3:0:0:
229,230,6776,1,0,0:0:0:0:
364,57,6887,1,8,0:0:0:0:
279,320,6998,6,0,P|219:333|126:231,1,200,8|0,0:2|0:0,0:0:0:0:
237,106,7332,2,0,L|247:229,1,100,2|4,0:2|0:3,0:0:0:0:
81,132,7554,1,0,3:0:0:0:
237,106,7665,1,0,3:0:0:0:
41,37,7776,1,2,3:2:0:0:
24,263,7887,1,8,0:2:0:0:
154,74,7998,5,4,0:3:0:0:
169,273,8109,2,0,L|173:328,2,50,4|4|8,0:3|0:3|0:1,0:0:0:0:
277,141,8332,1,4,0:3:0:0:
320,142,8387,1,4,0:3:0:0:
354,155,8443,1,4,0:3:0:0:
375,174,8498,1,4,0:3:0:0:
384,194,8554,1,4,0:3:0:0:
261,363,8665,1,8,0:0:0:0:
467,291,8776,1,0,0:0:0:0:
218,176,8887,69,4,0:3:0:0:
366,327,8998,1,0,0:0:0:0:
336,179,9109,2,0,L|345:122,2,50,4|4|8,0:3|0:3|0:3,0:0:0:0:
143,330,9332,69,4,0:3:0:0:
143,330,9387,1,4,0:3:0:0:
143,330,9443,2,0,L|134:162,1,150.000005722046,8|0,0:1|0:0,0:0:0:0:
128,58,9665,1,4,0:2:0:0:
336,179,9776,6,0,P|347:133|395:223,1,250,8|0,0:1|0:0,0:0:0:0:
286,325,10109,5,0,0:0:0:0:
278,333,10165,1,0,0:0:0:0:
268,343,10220,1,4,0:3:0:0:
220,357,10275,1,4,0:3:0:0:
171,350,10331,1,4,0:3:0:0:
130,322,10386,1,4,0:3:0:0:
105,279,10443,2,0,L|111:213,1,50,0|0,0:0|0:0,0:0:0:0:
190,196,10554,2,0,L|184:129,1,50,0|0,0:0|0:0,0:0:0:0:
95,42,10665,5,2,0:2:0:0:
239,84,10776,1,8,0:3:0:0:
63,155,10887,1,2,0:2:0:0:
269,72,10998,1,8,0:3:0:0:
322,249,11109,86,0,L|322:321,4,50,0|0|0|0|0,0:0|0:0|0:0|0:0|0:0,0:0:0:0:
245,339,11443,1,0,0:0:0:0:
411,228,11554,1,0,0:0:0:0:
199,173,11665,1,8,0:3:0:0:
162,181,11720,1,8,0:3:0:0:
132,188,11776,1,12,0:3:0:0:
111,195,11832,1,8,0:3:0:0:
97,199,11887,1,12,0:3:0:0:
256,334,11998,6,0,L|256:261,2,50,4|4|8,0:3|0:3|0:3,0:0:0:0:
125,344,12220,5,4,0:3:0:0:
125,344,12332,1,4,0:3:0:0:
199,173,12443,1,8,0:3:0:0:
387,344,12554,1,4,0:3:0:0:
387,344,12666,1,4,0:3:0:0:
313,173,12776,1,4,0:3:0:0:
256,365,12887,69,2,0:2:0:0:
199,173,12998,70,0,P|169:167|140:172,1,59.9999981689454,8|0,0:2|0:0,0:0:0:0:
313,173,13109,2,0,P|342:167|371:172,1,59.9999981689454,8|0,0:2|0:0,0:0:0:0:
256,22,13220,1,4,0:3:0:0:
256,22,13276,1,4,0:3:0:0:
256,22,13332,2,0,L|256:128,1,100,4|0,0:0|0:0,0:0:0:0:
301,346,13554,22,0,L|365:339,1,50,2|0,0:2|0:0,0:0:0:0:
387,265,13665,2,0,L|451:258,1,50,2|0,0:2|0:0,0:0:0:0:
496,190,13776,1,8,0:3:0:0:
351,123,13887,2,0,L|340:68,2,50,4|4|8,0:3|0:3|0:3,0:0:0:0:
255,252,14109,1,0,0:3:0:0:
137,40,14220,5,2,0:3:0:0:
38,139,14332,1,8,0:3:0:0:
137,238,14443,1,8,0:1:0:0:
235,139,14554,1,8,0:3:0:0:
67,69,14665,1,2,0:2:0:0:
207,209,14777,1,4,0:3:0:0:
67,209,14888,1,8,0:2:0:0:
206,70,14999,1,8,0:2:0:0:
338,282,15109,6,0,L|343:351,2,50,8|0|0,3:2|3:0|3:2,0:0:0:0:
174,282,15332,2,0,L|169:351,2,50,8|0|0,3:2|3:0|3:2,0:0:0:0:
256,133,15554,2,0,B|244:72|268:92|256:35,1,100,8|0,0:0|0:0,0:0:0:0:
353,109,15776,2,0,L|402:102,1,50,2|0,0:2|0:0,0:0:0:0:
159,95,15887,2,0,L|110:102,1,50,2|0,0:2|0:0,0:0:0:0:
174,282,15998,70,0,L|170:337,3,50,4|0|0|0,0:3|0:0|0:0|0:0,0:0:0:0:
179,200,16220,1,8,0:0:0:0:
338,282,16332,2,0,L|342:337,3,50,4|8|4|4,0:3|0:3|0:3|0:3,0:0:0:0:
332,199,16554,70,0,P|363:204|392:220,1,64.9999970245363,2|0,0:2|0:0,0:0:0:0:
226,122,16665,2,0,P|214:92|213:60,1,64.9999970245363,2|0,0:2|0:0,0:0:0:0:
210,252,16776,2,0,P|190:277|162:294,1,64.9999970245363,2|0,0:2|0:0,0:0:0:0:
304,82,16887,6,0,P|383:38|436:113,1,200,8|0,0:2|0:0,0:0:0:0:
255,249,17220,6,0,P|318:338|414:285,1,239.999992675781,8|0,0:1|0:0,0:0:0:0:
188,91,17554,1,4,0:3:0:0:
173,93,17609,1,4,0:3:0:0:
158,95,17665,1,4,0:3:0:0:
143,97,17720,1,4,0:3:0:0:
128,100,17776,6,0,L|111:218,1,119.999996337891,4|0,0:3|0:0,0:0:0:0:
261,251,17998,1,8,0:0:0:0:
76,328,18109,1,0,0:0:0:0:
296,345,18220,2,0,L|366:346,4,59.9999981689454,8|4|8|4|8,0:0|0:3|0:3|0:3|0:3,0:0:0:0:
157,371,18554,1,4,0:3:0:0:
157,371,18609,1,4,0:3:0:0:
157,371,18665,6,0,L|171:239,1,119.999996337891,4|4,0:3|0:3,0:0:0:0:
301,141,18887,1,8,0:0:0:0:
121,95,18998,1,4,0:3:0:0:
95,112,19053,1,8,0:3:0:0:
105,140,19109,1,4,0:3:0:0:
135,140,19164,1,4,0:3:0:0:
144,112,19220,1,0,0:0:0:0:
36,237,19332,1,0,0:0:0:0:
288,206,19443,1,0,0:0:0:0:
160,359,19554,70,0,P|141:304|150:245,1,119.999996337891,8|0,0:2|0:0,0:0:0:0:
266,37,19776,1,0,0:0:0:0:
405,195,19887,1,4,0:3:0:0:
399,239,19942,1,4,0:3:0:0:
394,284,19998,1,4,0:3:0:0:
388,329,20053,1,4,0:3:0:0:
383,373,20109,6,0,L|254:355,1,119.999996337891,4|0,0:0|0:0,0:0:0:0:
86,228,20443,1,4,0:3:0:0:
141,148,20554,2,0,L|270:130,1,119.999996337891,4|0,0:3|0:0,0:0:0:0:
455,141,20776,1,4,0:3:0:0:
400,61,20887,2,0,L|271:43,1,119.999996337891,4|0,0:3|0:0,0:0:0:0:
244,253,21109,6,0,P|274:255|303:248,2,59.9999981689454,0|0|0,0:0|0:0|0:0,0:0:0:0:
163,151,21332,2,0,L|38:158,1,119.999996337891,0|0,0:0|0:0,0:0:0:0:
170,347,21554,1,4,0:3:0:0:
215,342,21609,1,4,0:3:0:0:
260,337,21665,1,4,0:3:0:0:
305,332,21720,1,4,0:3:0:0:
349,327,21776,2,0,L|357:266,3,59.9999981689454,8|4|4|4,0:3|0:3|0:3|0:3,0:0:0:0:
361,229,21998,2,0,P|303:208|282:133,1,112.500004291535,0|0,0:0|0:0,0:0:0:0:
272,119,22220,38,0,L|391:112,1,100,2|0,0:2|0:0,0:0:0:0:
476,105,22443,1,4,0:3:0:0:
250,86,22554,2,0,L|369:79,1,100,0|4,0:0|0:0,0:0:0:0:
452,72,22777,1,4,0:3:0:0:
240,265,22887,6,0,L|121:272,1,100,8|0,0:2|0:0,0:0:0:0:
36,279,23110,1,4,0:3:0:0:
262,298,23221,2,0,L|143:305,1,100,0|0,0:0|0:0,0:0:0:0:
60,312,23444,1,4,0:3:0:0:
188,43,23554,85,4,0:0:0:0:
323,341,23776,1,4,0:0:0:0:
319,42,23998,22,0,P|337:78|339:145,1,100,0|0,0:0|0:0,0:0:0:0:
226,115,24220,1,0,0:0:0:0:
491,72,24332,2,0,P|495:111|474:175,1,100,0|0,0:0|0:0,0:0:0:0:
418,279,24554,1,0,0:0:0:0:
183,190,24665,1,4,0:3:0:0:
183,190,24720,1,4,0:3:0:0:
183,190,24776,1,4,0:3:0:0:
352,352,24887,70,0,L|344:252,1,100,4|0,0:0|0:0,0:0:0:0:
336,152,25109,1,0,0:0:0:0:
69,195,25220,2,0,L|160:238,1,100,4|0,0:0|0:0,0:0:0:0:
249,280,25443,1,0,0:0:0:0:
346,28,25554,2,0,L|263:85,1,100,4|0,0:0|0:0,0:0:0:0:
256,360,25776,21,8,0:0:0:0:
364,254,25887,2,0,P|367:203|343:160,1,100,8|0,0:0|0:0,0:0:0:0:
148,254,26109,2,0,P|144:203|168:160,1,100,8|0,0:0|0:0,0:0:0:0:
256,66,26332,1,8,0:0:0:0:
256,360,26443,86,0,P|236:309|279:350,1,150.000005722046,4|0,0:0|0:0,0:0:0:0:
425,304,26665,5,4,0:3:0:0:
438,164,26776,1,4,0:3:0:0:
436,156,26832,1,4,0:3:0:0:
434,148,26887,1,8,0:3:0:0:
417,129,26942,1,8,0:3:0:0:
396,117,26998,1,8,0:3:0:0:
371,113,27053,1,8,0:3:0:0:
348,118,27109,2,0,B|322:129|322:129|298:207,1,100
107,297,27332,1,4,0:3:0:0:
63,273,27387,1,4,0:3:0:0:
33,233,27443,1,4,0:3:0:0:
22,185,27498,1,4,0:3:0:0:
31,136,27554,5,4,0:3:0:0:
149,32,27665,1,8,0:3:0:0:
256,148,27776,1,4,0:3:0:0:
362,31,27887,70,0,P|370:55|384:76,1,50,2|0,0:2|0:2,0:0:0:0:
256,148,27998,2,0,P|248:171|234:192,1,50,2|0,0:2|0:2,0:0:0:0:
149,32,28109,2,0,P|156:55|170:76,1,50,2|0,0:2|0:2,0:0:0:0:
155,275,28220,6,0,B|118:263|118:263|81:283|18:267,1,112.500004291535,8|0,0:2|0:0,0:0:0:0:
125,348,28443,6,0,P|214:327|223:236,1,194.999991073609,2|0,0:2|0:0,0:0:0:0:
162,162,28665,2,0,L|91:153,1,64.9999970245363,0|0,0:0|0:0,0:0:0:0:
129,39,28776,1,4,0:3:0:0:
137,47,28832,1,4,0:3:0:0:
145,55,28887,1,4,0:3:0:0:
177,53,28942,1,4,0:3:0:0:
209,52,28998,1,4,0:3:0:0:
242,50,29053,1,4,0:3:0:0:
276,51,29109,2,0,L|355:48,1,64.9999970245363,8|8,0:3|0:3,0:0:0:0:
249,137,29220,2,0,L|328:134,1,64.9999970245363,8|8,0:3|0:3,0:0:0:0:
212,232,29331,69,2,0:3:0:0:
379,197,29443,1,2,0:3:0:0:
102,161,29554,1,2,0:3:0:0:
276,51,29665,6,0,L|293:330,1,259.999988098145,4|4,0:2|0:3,0:0:0:0:
109,276,29998,2,0,L|112:211,1,64.9999970245363,8|0,0:0|0:0,0:0:0:0:
74,261,30109,2,0,L|77:196,1,64.9999970245363,8|0,0:0|0:0,0:0:0:0:
103,39,30220,5,4,0:3:0:0:
278,89,30332,1,4,0:3:0:0:
310,87,30387,1,4,0:3:0:0:
342,84,30443,1,4,0:3:0:0:
375,81,30498,1,4,0:3:0:0:
407,79,30554,85,4,0:3:0:0:
407,79,30776,2,0,L|388:148,1,64.9999970245363,0|0,0:3|0:0,0:0:0:0:
440,236,30887,2,0,L|422:298,1,64.9999970245363,0|0,0:3|0:0,0:0:0:0:
301,351,30998,2,0,L|319:289,1,64.9999970245363,0|0,0:3|0:0,0:0:0:0:
165,364,31109,6,0,P|158:256|28:167,1,259.999988098145,2|0,0:2|0:0,0:0:0:0:
347,20,31443,2,0,P|353:127|483:216,1,259.999988098145,2|0,0:2|0:0,0:0:0:0:
149,32,31776,1,2,0:2:0:0:
363,352,32109,1,4,3:3:0:0:
266,95,32443,5,2,3:2:0:0:
246,285,32554,1,2,3:2:0:0:
313,112,32665,1,2,3:2:0:0:
201,268,32776,1,2,3:2:0:0:
177,34,32887,70,0,L|65:49,2,100,4|4|0,0:3|0:3|0:0,0:0:0:0:
320,79,33220,2,0,L|432:94,2,100,8|4|8,3:0|3:3|3:3,0:0:0:0:
171,161,33554,1,8,3:0:0:0:
321,197,33665,2,0,P|303:282|368:375,1,200,4|8,0:3|0:3,0:0:0:0:
428,264,33998,1,4,0:3:0:0:
270,114,34109,1,4,0:3:0:0:
199,311,34220,1,8,0:3:0:0:
96,193,34332,1,4,0:3:0:0:
96,193,34387,1,4,0:3:0:0:
96,193,34443,2,0,L|27:197,1,50,4|4,0:3|0:3,0:0:0:0:
74,101,34554,2,0,L|18:87,1,50,4|4,0:3|0:3,0:0:0:0:
125,34,34662,38,0,P|179:50|213:96,1,100
386,87,34989,2,0,P|332:103|298:149,1,100,4|0,0:3|0:0,0:0:0:0:
129,197,35317,2,0,P|183:213|217:259,1,100,4|0,0:3|0:0,0:0:0:0:
382,271,35645,2,0,P|328:287|294:333,1,100,4|0,0:3|0:0,0:0:0:0:
62,349,35973,6,0,P|79:299|81:233,1,100,4|0,0:3|0:0,0:0:0:0:
202,105,36301,2,0,P|182:153|180:203,1,100,4|0,0:3|0:0,0:0:0:0:
332,200,36629,2,0,P|329:150|310:105,1,100,0|0,0:0|0:0,0:0:0:0:
429,252,36957,2,0,P|433:302|450:349,1,100,0|0,0:0|0:0,0:0:0:0:
171,357,37284,86,0,B|141:239|194:286|171:160,1,200,4|0,0:3|0:0,0:0:0:0:
341,27,37940,6,0,B|371:145|318:98|341:224,1,200,4|0,0:3|0:0,0:0:0:0:
107,218,38551,37,4,0:3:0:0:
256,144,38662,1,8,0:3:0:0:
37,170,38773,2,0,P|22:217|35:264,1,100,4|4,0:3|0:3,0:0:0:0:
288,320,38995,1,8,0:3:0:0:
301,318,39050,1,4,0:3:0:0:
313,315,39106,1,8,0:3:0:0:
325,313,39161,1,4,0:3:0:0:
337,309,39217,2,0,L|229:297,1,100,4|0,0:3|0:0,0:0:0:0:
160,128,39439,5,4,0:3:0:0:
224,208,39551,1,4,0:3:0:0:
304,144,39662,1,8,0:0:0:0:
240,64,39774,1,4,0:3:0:0:
130,159,39884,1,8,0:2:0:0:
332,111,39996,1,4,0:3:0:0:
64,80,40106,2,0,L|0:96,1,50,8|4,0:2|0:3,0:0:0:0:
130,159,40217,2,0,L|194:175,1,50,4|4,0:3|0:3,0:0:0:0:
189,300,40328,6,0,P|122:290|72:303,1,110.000003356934,4|4,0:3|0:3,0:0:0:0:
323,300,40551,2,0,P|376:310|430:300,1,110.000003356934,8|4,0:3|0:3,0:0:0:0:
396,86,40773,1,4,0:3:0:0:
379,107,40828,1,4,0:3:0:0:
369,133,40884,1,4,0:3:0:0:
368,160,40939,1,4,0:3:0:0:
373,186,40995,2,0,L|496:178,1,110.000003356934,8|0,0:3|0:0,0:0:0:0:
269,47,41217,54,0,L|211:54,3,55.0000016784668,4|8|8|8,0:3|0:3|0:3|0:3,0:0:0:0:
173,38,41439,86,0,L|109:45,3,59.9999981689454,4|8|8|8,0:3|0:3|0:3|0:3,0:0:0:0:
69,69,41662,5,4,0:3:0:0:
37,113,41717,1,8,0:3:0:0:
69,158,41773,1,4,0:3:0:0:
121,141,41828,1,8,0:3:0:0:
121,86,41884,1,8,0:3:0:0:
79,281,42106,85,2,0:2:0:0:
298,227,42217,1,2,0:2:0:0:
79,281,42328,1,2,0:2:0:0:
298,227,42439,21,4,0:3:0:0:
325,227,42494,1,4,0:3:0:0:
349,240,42550,1,8,0:3:0:0:
363,263,42605,1,8,0:3:0:0:
365,290,42661,1,4,0:3:0:0:
353,315,42716,1,4,0:3:0:0:
331,331,42773,2,0,L|221:335,1,110.000003356934,4|0,0:3|0:0,0:0:0:0:
70,103,42995,70,0,P|128:74|145:138,1,150.000005722046,2|0,0:2|0:0,0:0:0:0:
91,348,43217,1,4,0:3:0:0:
70,103,43328,1,4,0:3:0:0:
221,334,43439,1,8,0:3:0:0:
11,235,43550,1,8,0:3:0:0:
241,212,43662,2,0,P|309:184|342:119,1,150.000005722046,2|0,0:2|0:0,0:0:0:0:
84,45,43884,22,0,L|204:38,1,119.999996337891,0|0,0:0|0:0,0:0:0:0:
461,127,44106,2,0,L|342:118,1,119.999996337891,0|0,0:0|0:0,0:0:0:0:
195,303,44328,6,0,L|135:311,1,59.9999981689454,0|0,0:0|0:0,0:0:0:0:
324,214,44439,2,0,L|383:207,1,59.9999981689454,0|0,0:0|0:0,0:0:0:0:
195,214,44550,6,0,L|135:205,1,59.9999981689454,0|0,0:0|0:0,0:0:0:0:
324,303,44661,2,0,L|383:308,1,59.9999981689454,0|0,0:0|0:0,0:0:0:0:
256,73,44773,69,0,0:0:0:0:
383,207,44884,2,0,P|427:228|477:231,2,100,0|0|0,0:0|0:0|0:0,0:0:0:0:
256,73,45217,5,0,0:0:0:0:
126,208,45328,2,0,P|85:230|9:228,2,100,0|0|0,0:0|0:0|0:0,0:0:0:0:
242,304,45662,6,0,L|346:283,1,100,4|0,0:3|0:0,0:0:0:0:
437,261,45884,1,4,0:3:0:0:
303,114,45995,2,0,L|269:214,1,100,4|0,0:3|0:0,0:0:0:0:
242,304,46217,1,4,0:3:0:0:
437,261,46328,2,0,L|366:181,1,100,4|0,0:3|0:0,0:0:0:0:
201,47,46550,69,8,0:3:0:0:
161,43,46606,1,8,0:3:0:0:
128,56,46662,1,4,0:3:0:0:
97,78,46717,1,4,0:3:0:0:
76,108,46773,2,0,L|73:171,1,50,8|0,0:3|0:0,0:0:0:0:
157,148,46884,2,0,L|154:211,1,50,8|0,0:3|0:0,0:0:0:0:
69,236,46995,2,0,L|66:299,1,50,4|0,0:3|0:0,0:0:0:0:
150,276,47106,2,0,L|147:339,1,50,4|0,0:3|0:0,0:0:0:0:
256,244,47217,2,0,P|313:228|366:244,1,100,8|0,0:3|0:0,0:0:0:0:
256,336,47439,5,4,0:3:0:0:
131,120,47550,1,8,0:3:0:0:
380,120,47662,2,0,L|383:245,1,119.999996337891,4|4,0:3|0:3,0:0:0:0:
256,350,47884,5,8,0:3:0:0:
393,112,47995,1,4,0:3:0:0:
118,112,48107,2,0,L|116:250,1,119.999996337891,4|8,0:3|0:3,0:0:0:0:
317,300,48328,70,0,B|304:241|304:241|298:304,1,119.999996337891,8|0,0:0|0:0,0:0:0:0:
195,300,48550,2,0,B|208:241|208:241|214:304,1,119.999996337891,8|0,0:0|0:0,0:0:0:0:
307,146,48773,85,4,0:3:0:0:
334,99,48828,1,4,0:3:0:0:
324,46,48884,1,8,0:3:0:0:
283,11,48939,1,4,0:3:0:0:
229,11,48995,1,4,0:3:0:0:
187,46,49050,1,4,0:3:0:0:
178,99,49106,1,8,0:3:0:0:
205,146,49162,1,8,0:3:0:0:
255,163,49217,6,0,P|279:192|287:228,1,75.0000028610231,2|0,0:2|0:0,0:0:0:0:
149,301,49328,2,0,P|161:266|189:241,1,75.0000028610231,2|0,0:2|0:0,0:0:0:0:
315,327,49439,2,0,P|278:333|242:321,1,75.0000028610231,2|0,0:2|0:0,0:0:0:0:
65,152,49550,2,0,B|79:53|79:53|113:147,1,200,8|8,0:0|0:0,0:0:0:0:
241,204,49884,2,0,L|319:201,1,50,4|0,0:3|0:0,0:0:0:0:
280,119,49995,2,0,L|358:116,1,50,4|0,0:3|0:0,0:0:0:0:
431,198,50106,5,4,0:3:0:0:
427,160,50161,1,4,0:3:0:0:
423,123,50217,1,4,0:3:0:0:
419,86,50272,1,4,0:3:0:0:
414,49,50328,1,4,0:3:0:0:
344,247,50550,1,4,0:3:0:0:
242,133,50662,5,0,0:0:0:0:
244,114,50717,1,0,0:0:0:0:
246,95,50773,1,4,0:3:0:0:
221,315,50995,69,8,0:3:0:0:
137,169,51106,1,4,0:3:0:0:
263,242,51217,1,8,3:3:0:0:
95,242,51328,1,4,3:3:0:0:
221,169,51439,1,0,0:0:0:0:
137,315,51550,1,0,0:0:0:0:
311,320,51662,1,0,0:0:0:0:
325,318,51717,1,4,0:3:0:0:
340,317,51773,1,4,0:3:0:0:
355,316,51828,1,4,0:3:0:0:
370,313,51884,5,8,0:3:0:0:
393,275,51939,1,8,0:3:0:0:
399,231,51995,1,8,0:3:0:0:
384,188,52050,1,8,0:3:0:0:
352,157,52106,1,8,0:3:0:0:
310,142,52161,1,8,0:3:0:0:
266,148,52217,1,8,0:3:0:0:
228,172,52272,1,8,0:3:0:0:
205,210,52328,70,0,B|198:224|198:224|201:238|201:238|196:250|196:250|199:265|199:265|193:280,1,75.0000028610231,8|0,0:2|0:0,0:0:0:0:
256,22,52773,5,4,0:1:0:0:
136,40,63439,6,0,L|127:143,1,100,4|0,0:3|0:0,0:0:0:0:
143,173,63773,2,0,L|134:276,1,100,4|0,0:3|0:0,0:0:0:0:
146,307,64106,1,8,0:3:0:0:
377,272,64328,2,0,L|369:173,1,100,8|0,0:3|0:0,0:0:0:0:
256,26,64773,1,8,0:3:0:0:
256,26,64884,1,0,0:0:0:0:
256,192,65106,1,0,0:0:0:0:
256,192,65217,6,0,P|189:203|161:192,1,100,4|0,0:3|0:0,0:0:0:0:
74,102,65550,1,8,0:3:0:0:
74,102,65606,1,8,0:3:0:0:
74,102,65662,2,0,L|71:49,2,50,8|0|8,0:3|0:0|0:3,0:0:0:0:
80,263,66106,54,0,B|93:306|103:361|103:361|108:306|126:263,1,200,4|0,0:3|0:0,0:0:0:0:
181,52,66550,6,0,L|235:56,1,50,4|0,0:3|0:0,0:0:0:0:
261,74,66773,2,0,L|315:78,1,50,0|4,0:0|0:3,0:0:0:0:
384,160,66995,86,0,P|368:224|416:160,1,200,4|0,0:3|0:0,0:0:0:0:
256,24,67439,6,0,L|256:139,1,100,4|8,0:3|0:3,0:0:0:0:
119,181,67884,2,0,P|116:220|94:189,1,100,8|0,0:3|0:0,0:0:0:0:
54,343,68328,1,8,0:3:0:0:
54,343,68439,1,0,0:0:0:0:
256,253,68662,1,0,0:0:0:0:
256,253,68773,6,0,L|378:262,1,100,8|0,0:3|0:0,0:0:0:0:
444,318,69106,1,8,0:3:0:0:
444,318,69162,1,8,0:3:0:0:
444,318,69217,2,0,L|451:249,2,50,8|0|0,0:3|0:0|0:2,0:0:0:0:
384,160,69662,70,0,B|364:107|313:97|313:97|356:66|350:7,1,200,8|0,0:3|0:0,0:0:0:0:
171,75,70106,6,0,L|107:70,1,50,8|0,0:3|0:0,0:0:0:0:
82,93,70328,2,0,L|77:157,1,50,8|0,0:3|0:0,0:0:0:0:
139,232,70550,86,0,B|132:296|132:296|59:288|59:288|66:225,1,200,4|0,0:3|0:0,0:0:0:0:
359,124,71217,5,4,0:3:0:0:
373,232,71439,2,0,B|386:339,1,100,4|0,0:3|0:0,0:0:0:0:
210,270,71884,1,4,0:3:0:0:
210,270,71995,1,0,0:0:0:0:
302,114,72217,1,0,0:0:0:0:
302,114,72328,6,0,P|212:126|200:123,1,100,4|0,0:3|0:0,0:0:0:0:
162,107,72662,1,8,0:3:0:0:
77,293,72884,1,4,0:3:0:0:
122,272,72995,2,0,L|185:267,1,50,8|0,0:3|0:0,0:0:0:0:
229,326,73217,70,0,B|263:284|260:235|218:201|218:201|248:198|273:182,1,200,4|0,0:3|0:0,0:0:0:0:
403,276,73662,6,0,L|452:281,2,50,0|0|0,0:0|0:0|0:0,0:0:0:0:
179,103,74106,86,0,B|164:201|164:201|127:104,1,200,4|0,0:3|0:0,0:0:0:0:
346,198,74550,6,0,L|362:100,1,100,4|8,0:3|0:3,0:0:0:0:
172,304,74995,2,0,P|236:348|340:304,1,200,8|4,0:3|0:3,0:0:0:0:
256,248,75662,1,8,0:3:0:0:
256,96,75884,6,0,P|320:84|360:96,1,100,0|0,0:3|0:0,0:0:0:0:
411,186,76217,1,8,0:3:0:0:
411,186,76273,1,8,0:3:0:0:
411,186,76328,2,0,L|473:183,2,50,8|0|0,0:3|0:0|0:0,0:0:0:0:
289,271,76773,6,0,L|129:291,1,160,0|0,0:0|0:0,0:0:0:0:
295,304,77356,70,0,L|134:326,1,162.499992561341
133,326,77662,70,0,P|65:229|182:247,1,300.000011444092,4|8,0:3|0:3,0:0:0:0:
378,326,77995,2,0,P|446:229|329:247,1,300.000011444092,4|8,0:3|0:3,0:0:0:0:
256,92,78328,2,0,L|256:16,2,75.0000028610231,4|8|4,0:3|0:3|0:3,0:0:0:0:
133,326,78550,5,4,0:3:0:0:
329,246,78662,1,4,0:3:0:0:
205,153,78773,1,4,0:3:0:0:
208,354,78884,1,4,0:3:0:0:
99,166,78995,1,8,0:3:0:0:
303,330,79106,1,4,0:3:0:0:
79,272,79217,1,8,0:3:0:0:
115,265,79272,1,8,0:3:0:0:
152,258,79328,1,8,0:3:0:0:
189,252,79383,1,8,0:3:0:0:
226,245,79439,85,8,0:2:0:0:
405,59,79550,1,8,0:2:0:0:
105,114,79662,1,8,0:2:0:0:
314,270,79773,5,8,0:2:0:0:
337,277,79828,1,4,0:3:0:0:
362,280,79884,1,8,0:3:0:0:
387,280,79939,1,4,0:3:0:0:
412,277,79995,1,8,0:3:0:0:
436,270,80050,1,4,0:3:0:0:
456,259,80106,86,0,P|493:208|487:278,1,175.00000166893,8|4,0:2|0:3,0:0:0:0:
290,329,80328,5,4,0:3:0:0:
312,38,80439,1,8,0:3:0:0:
189,242,80550,1,8,0:3:0:0:
155,226,80605,1,8,0:3:0:0:
118,221,80661,1,8,0:3:0:0:
81,227,80716,1,0,0:0:0:0:
47,244,80773,86,0,L|46:94,1,150.000005722046,8|0,0:0|0:0,0:0:0:0:
121,94,80939,2,0,L|121:259,1,150.000005722046,8|0,0:0|0:0,0:0:0:0:
84,311,81106,1,8,0:0:0:0:
414,312,81217,6,0,P|428:246|380:166,1,150.000005722046,4|0,0:3|0:0,0:0:0:0:
256,192,81439,1,4,0:3:0:0:
256,192,81495,1,8,0:3:0:0:
256,192,81550,1,4,0:3:0:0:
72,269,81662,2,0,P|123:314|215:312,1,150.000005722046,8|0,0:3|0:0,0:0:0:0:
281,0,81884,2,0,P|217:15|172:96,1,150.000005722046,8|0,0:3|0:0,0:0:0:0:
350,342,82106,85,8,0:3:0:0:
389,129,82217,1,0,0:0:0:0:
185,204,82328,1,8,0:3:0:0:
308,222,82439,1,8,0:3:0:0:
267,108,82550,1,8,0:3:0:0:
227,321,82661,1,8,0:3:0:0:
432,247,82773,1,4,0:3:0:0:
446,212,82828,1,4,0:3:0:0:
445,177,82884,1,4,0:3:0:0:
429,144,82939,1,4,0:3:0:0:
400,123,82995,5,8,0:2:0:0:
129,161,83106,1,8,0:2:0:0:
302,353,83217,85,8,0:3:0:0:
330,304,83272,1,4,0:3:0:0:
343,250,83328,1,8,0:3:0:0:
339,194,83383,1,4,0:3:0:0:
319,141,83439,1,8,0:3:0:0:
285,97,83494,1,4,0:3:0:0:
240,64,83550,1,8,0:3:0:0:
187,46,83605,1,4,0:3:0:0:
131,44,83662,2,0,P|37:80|21:162,1,150.000005722046,4|0,0:3|0:3,0:0:0:0:
220,297,83884,5,4,0:3:0:0:
188,159,83995,1,8,0:3:0:0:
214,297,84106,1,4,0:3:0:0:
195,159,84217,1,4,0:3:0:0:
43,264,84328,85,8,0:0:0:0:
364,190,84439,1,8,0:0:0:0:
41,249,84550,1,8,0:0:0:0:
367,206,84661,1,8,0:0:0:0:
96,352,84773,5,4,0:3:0:0:
172,171,84884,1,4,0:3:0:0:
248,352,84995,1,4,0:3:0:0:
251,355,85050,1,8,0:3:0:0:
254,359,85106,1,4,0:3:0:0:
416,32,85217,85,4,0:3:0:0:
340,213,85328,1,4,0:3:0:0:
264,32,85439,1,4,0:3:0:0:
261,29,85494,1,8,0:3:0:0:
258,25,85550,1,4,0:3:0:0:
150,368,85662,5,4,0:3:0:0:
267,165,85773,1,4,0:3:0:0:
107,208,85884,1,8,0:3:0:0:
308,325,85995,1,4,0:3:0:0:
61,305,86106,1,8,0:3:0:0:
353,227,86217,1,8,0:3:0:0:
131,80,86328,1,4,0:3:0:0:
162,59,86383,1,4,0:3:0:0:
197,46,86439,1,4,0:3:0:0:
234,43,86494,1,4,0:3:0:0:
271,50,86550,85,2,0:2:0:0:
147,236,86662,1,8,0:2:0:0:
461,231,86773,1,8,0:2:0:0:
256,147,86884,1,8,0:2:0:0:
264,183,86939,1,4,0:3:0:0:
268,220,86995,1,8,0:3:0:0:
269,258,87050,1,4,0:3:0:0:
265,295,87106,1,8,0:3:0:0:
257,332,87161,1,4,0:3:0:0:
245,367,87217,6,0,P|191:331|256:332,1,175.00000166893,8|4,0:2|0:3,0:0:0:0:
249,94,87439,86,0,B|321:101|321:101|355:151|355:151|421:159,1,200,2|2,0:2|0:2,0:0:0:0:
298,306,87662,5,8,0:3:0:0:
256,333,87718,1,4,0:3:0:0:
217,303,87773,1,8,0:3:0:0:
234,256,87829,1,4,0:3:0:0:
283,256,87884,86,0,L|462:278,1,150.000005722046,8|0,0:0|0:0,0:0:0:0:
443,200,88050,2,0,L|294:181,1,150.000005722046,8|0,0:0|0:0,0:0:0:0:
222,204,88217,1,8,0:0:0:0:
49,46,88328,6,0,L|42:196,1,150.000005722046,4|4,0:3|0:3,0:0:0:0:
230,304,88550,1,8,0:3:0:0:
181,106,88662,1,8,0:3:0:0:
136,324,88773,1,4,0:3:0:0:
181,106,88884,1,4,0:3:0:0:
59,277,88995,1,8,0:3:0:0:
280,48,89217,85,4,0:3:0:0:
426,319,89328,1,8,0:3:0:0:
468,16,89439,1,4,0:3:0:0:
293,248,89550,5,8,0:3:0:0:
260,320,89605,1,8,0:3:0:0:
192,348,89661,1,8,0:3:0:0:
125,336,89716,1,8,0:3:0:0:
79,290,89772,1,8,0:3:0:0:
66,229,89827,1,8,0:3:0:0:
87,172,89884,2,0,L|130:89,1,82.5000007867813,4|4,0:3|0:3,0:0:0:0:
188,160,89995,2,0,L|256:96,1,82.5000007867813,4|4,0:3|0:3,0:0:0:0:
297,205,90106,85,4,0:3:0:0:
501,308,90217,1,4,0:3:0:0:
230,334,90328,1,8,0:3:0:0:
411,150,90439,1,4,0:3:0:0:
399,114,90494,1,8,0:3:0:0:
377,84,90550,1,8,0:3:0:0:
345,65,90605,1,0,0:0:0:0:
309,57,90661,1,4,0:3:0:0:
272,63,90716,1,8,0:3:0:0:
239,82,90773,2,0,L|256:200,1,119.999996337891,4|0,0:3|0:0,0:0:0:0:
126,237,90995,5,8,0:0:0:0:
390,164,91106,1,8,0:0:0:0:
271,344,91217,1,0,0:0:0:0:
234,349,91273,1,0,0:0:0:0:
197,345,91328,1,0,0:0:0:0:
161,334,91384,1,0,0:0:0:0:
128,315,91439,86,2,P|66:266|112:329,1,225.000008583069,2|0,3:0|3:0,0:0:0:0:
134,317,91662,2,2,P|61:260|116:334,1,262.500002503395,2|0,3:0|3:0,0:0:0:0:
143,346,91884,6,0,P|188:343|229:325,1,89.9999972534181,8|0,0:0|0:0,0:0:0:0:
410,305,91995,2,0,P|407:260|389:219,1,89.9999972534181,8|0,0:0|0:0,0:0:0:0:
369,38,92106,2,0,P|324:41|283:59,1,89.9999972534181,8|0,0:0|0:0,0:0:0:0:
102,79,92217,2,0,P|105:124|123:165,1,89.9999972534181,8|0,0:0|0:0,0:0:0:0:
304,336,92328,86,0,L|311:186,1,150.000005722046,4|8,0:3|0:3,0:0:0:0:
208,336,92550,1,4,0:3:0:0:
206,298,92605,1,4,0:3:0:0:
204,261,92661,1,4,0:3:0:0:
202,223,92716,1,4,0:3:0:0:
200,186,92772,5,8,0:3:0:0:
405,82,92884,1,4,0:3:0:0:
222,129,92995,1,4,0:3:0:0:
382,138,93107,1,4,0:3:0:0:
206,71,93217,1,8,0:3:0:0:
398,196,93329,1,8,0:3:0:0:
310,19,93439,1,8,0:3:0:0:
306,75,93494,1,4,0:3:0:0:
302,131,93550,1,8,0:3:0:0:
299,187,93605,1,4,0:3:0:0:
295,243,93661,85,8,0:2:0:0:
64,352,93773,1,8,0:2:0:0:
416,352,93884,1,8,0:2:0:0:
150,192,93995,1,8,0:2:0:0:
150,192,94050,1,4,0:3:0:0:
150,192,94106,1,8,0:3:0:0:
342,193,94217,1,8,0:2:0:0:
247,60,94328,1,8,0:2:0:0:
247,60,94383,1,4,0:3:0:0:
247,60,94439,1,8,0:3:0:0:
480,256,94550,6,0,P|432:320|352:336,1,150.000005722046,8|0,0:2|0:0,0:0:0:0:
224,224,94773,85,4,0:3:0:0:
48,288,94884,1,4,0:3:0:0:
192,336,94995,1,4,0:3:0:0:
187,112,95106,1,8,0:3:0:0:
112,347,95217,1,4,0:3:0:0:
272,176,95328,1,4,0:3:0:0:
272,176,95384,1,4,0:3:0:0:
272,176,95439,6,0,P|361:168|420:203,1,150.000005722046,4|0,0:3|0:0,0:0:0:0:
333,340,95662,1,8,0:3:0:0:
136,213,95773,1,8,0:3:0:0:
231,354,95884,1,8,0:3:0:0:
224,120,95995,1,8,0:3:0:0:
128,324,96106,2,0,P|58:300|25:235,1,150.000005722046,8|0,0:3|0:0,0:0:0:0:
96,28,96328,85,4,0:3:0:0:
224,230,96439,1,8,0:3:0:0:
239,56,96550,1,8,0:3:0:0:
224,230,96662,1,4,0:3:0:0:
392,47,96773,1,8,0:3:0:0:
224,230,96884,1,4,0:3:0:0:
386,321,96995,1,8,0:3:0:0:
399,286,97050,1,4,0:3:0:0:
401,248,97106,1,4,0:3:0:0:
393,212,97161,1,4,0:3:0:0:
374,179,97217,5,8,0:2:0:0:
151,342,97328,1,8,0:2:0:0:
33,88,97439,1,4,0:3:0:0:
82,62,97494,1,4,0:3:0:0:
138,55,97550,1,4,0:3:0:0:
193,67,97605,1,4,0:3:0:0:
240,96,97661,1,8,0:3:0:0:
276,140,97716,1,8,0:3:0:0:
294,192,97772,1,8,0:3:0:0:
295,248,97827,1,8,0:3:0:0:
276,301,97884,2,0,P|188:332|122:306,1,150.000005722046,4|0,0:3|0:0,0:0:0:0:
155,81,98106,85,4,0:3:0:0:
364,76,98217,1,8,0:3:0:0:
261,153,98328,1,4,0:3:0:0:
471,150,98439,1,8,0:3:0:0:
379,326,98550,5,8,0:0:0:0:
134,326,98661,1,8,0:0:0:0:
261,153,98773,1,8,0:0:0:0:
16,153,98884,1,8,0:0:0:0:
379,326,98995,86,0,P|447:229|330:247,1,300.000011444092,4|8,0:3|0:3,0:0:0:0:
134,326,99328,2,0,P|66:229|183:247,1,300.000011444092,4|8,0:3|0:3,0:0:0:0:
256,92,99661,2,0,L|256:16,2,75.0000028610231,4|8|4,0:3|0:3|0:3,0:0:0:0:
256,352,99884,5,4,0:3:0:0:
368,124,99995,1,8,0:3:0:0:
256,352,100106,1,8,0:3:0:0:
256,202,100217,1,4,0:3:0:0:
256,352,100328,1,8,0:3:0:0:
144,124,100439,1,8,0:3:0:0:
256,352,100550,1,4,0:3:0:0:
256,314,100605,1,4,0:3:0:0:
256,277,100661,1,4,0:3:0:0:
256,239,100716,1,4,0:3:0:0:
256,202,100772,85,8,0:2:0:0:
437,48,100884,1,8,0:2:0:0:
496,330,100995,1,8,0:2:0:0:
316,76,101106,5,8,0:2:0:0:
281,62,101161,1,4,0:3:0:0:
243,60,101217,1,8,0:3:0:0:
207,69,101272,1,0,0:0:0:0:
175,88,101328,1,8,0:3:0:0:
150,116,101383,1,4,0:3:0:0:
134,150,101439,86,0,P|143:218|150:153,1,200,8|4,0:2|0:3,0:0:0:0:
271,258,101662,5,4,0:3:0:0:
37,288,101773,1,4,0:3:0:0:
86,61,101884,1,4,0:3:0:0:
121,50,101939,1,4,0:3:0:0:
159,50,101995,1,4,0:3:0:0:
194,63,102050,1,4,0:3:0:0:
225,88,102106,86,0,L|333:232,1,150.000005722046,8|0,0:0|0:0,0:0:0:0:
256,256,102272,2,0,L|165:134,1,150.000005722046,8|0,0:0|0:0,0:0:0:0:
149,61,102439,1,8,0:0:0:0:
136,350,102550,6,0,P|202:364|282:316,1,150.000005722046,4|0,0:3|0:0,0:0:0:0:
256,192,102772,1,4,0:3:0:0:
256,192,102828,1,0,0:0:0:0:
256,192,102883,1,4,0:3:0:0:
179,8,102995,2,0,P|134:59|136:151,1,150.000005722046,4|0,0:3|0:0,0:0:0:0:
448,217,103217,2,0,P|433:153|352:108,1,150.000005722046,8|0,0:3|0:0,0:0:0:0:
182,310,103439,85,4,0:3:0:0:
302,103,103550,1,4,0:3:0:0:
275,265,103662,1,4,0:3:0:0:
208,148,103773,1,0,0:0:0:0:
362,207,103884,1,8,0:3:0:0:
122,207,103995,1,4,0:3:0:0:
302,103,104106,1,8,0:3:0:0:
335,86,104161,1,4,0:3:0:0:
372,83,104217,1,4,0:3:0:0:
408,92,104272,1,4,0:3:0:0:
439,113,104328,5,8,0:2:0:0:
330,307,104439,1,8,0:2:0:0:
182,77,104550,1,8,0:2:0:0:
210,281,104662,85,8,0:2:0:0:
176,297,104717,1,4,0:3:0:0:
139,300,104773,1,8,0:3:0:0:
103,291,104828,1,0,0:0:0:0:
72,270,104884,1,8,0:3:0:0:
54,239,104939,1,8,0:3:0:0:
53,194,104995,6,0,P|54:132|34:189,1,175.00000166893,8|4,0:2|0:3,0:0:0:0:
222,329,105217,85,4,0:3:0:0:
200,38,105328,1,8,0:3:0:0:
323,242,105439,1,4,0:3:0:0:
357,226,105494,1,4,0:3:0:0:
394,221,105550,1,4,0:3:0:0:
431,227,105605,1,4,0:3:0:0:
465,244,105662,6,0,L|465:91,1,150.000005722046,8|0,0:0|0:0,0:0:0:0:
391,94,105828,2,0,L|391:244,1,150.000005722046,8|0,0:0|0:0,0:0:0:0:
428,311,105995,1,8,0:0:0:0:
256,96,106106,21,0,0:0:0:0:
416,192,120328,101,4,0:3:0:0:
309,172,120439,1,8,0:3:0:0:
346,273,120550,1,8,0:0:0:0:
432,184,120662,5,4,0:3:0:0:
293,158,120773,1,8,0:3:0:0:
342,292,120884,1,8,0:0:0:0:
431,79,120995,70,0,L|332:59,1,100,4|8,0:3|0:3,0:0:0:0:
62,136,121217,6,0,P|110:191|97:327,1,200,4|0,0:3|0:0,0:0:0:0:
405,312,121550,2,0,P|393:215|450:136,1,200,4|0,0:3|0:0,0:0:0:0:
256,63,121884,2,0,L|256:183,1,100,4|0,0:3|0:0,0:0:0:0:
200,338,122106,5,4,0:3:0:0:
129,183,122217,1,4,0:3:0:0:
129,183,122273,1,0,0:0:0:0:
129,183,122328,1,4,0:3:0:0:
256,358,122439,69,4,0:3:0:0:
256,142,122550,1,4,0:3:0:0:
256,142,122606,1,0,0:0:0:0:
256,142,122662,1,4,0:3:0:0:
312,338,122773,5,4,0:3:0:0:
383,183,122884,1,4,0:3:0:0:
138,281,122995,5,4,0:3:0:0:
39,132,123106,2,0,P|83:109|133:103,2,100,4|4|4,0:3|0:3|0:3,0:0:0:0:
219,165,123439,70,0,L|223:245,1,75.0000028610231,0|0,2:0|2:0,0:0:0:0:
299,109,123662,2,0,L|295:29,1,75.0000028610231,0|0,2:0|2:0,0:0:0:0:
445,122,123884,5,4,0:3:0:0:
394,314,123995,1,4,0:3:0:0:
344,318,124050,1,4,0:3:0:0:
294,323,124106,1,4,0:3:0:0:
244,327,124161,1,4,0:3:0:0:
193,331,124217,2,0,P|130:261|170:178,1,200,4|0,0:3|0:0,0:0:0:0:
356,107,124550,1,4,0:3:0:0:
212,249,124662,1,4,0:3:0:0:
96,83,124773,86,0,P|140:59|190:58,1,100,8|0,0:3|0:0,0:0:0:0:
305,111,124995,1,4,0:3:0:0:
176,278,125106,6,0,P|133:252|107:209,1,100,8|0,0:3|0:0,0:0:0:0:
96,83,125328,1,4,0:3:0:0:
305,112,125439,6,0,P|303:161|280:205,1,100,8|0,0:3|0:0,0:0:0:0:
200,46,125662,69,8,0:3:0:0:
164,192,125773,1,8,0:3:0:0:
200,338,125884,1,4,0:3:0:0:
312,46,125995,5,8,0:3:0:0:
348,192,126106,1,8,0:3:0:0:
312,338,126217,1,4,0:3:0:0:
164,192,126328,5,8,0:3:0:0:
348,192,126439,1,4,0:3:0:0:
200,338,126550,69,4,0:3:0:0:
45,284,126662,1,4,0:3:0:0:
45,284,126717,1,4,0:3:0:0:
45,284,126773,2,0,P|26:229|31:182,1,100,8|8,0:3|0:3,0:0:0:0:
178,217,126995,6,0,L|182:137,1,75.0000028610231,0|0,2:0|2:0,0:0:0:0:
258,273,127217,2,0,L|254:353,1,75.0000028610231,0|0,2:0|2:0,0:0:0:0:
467,265,127439,5,4,0:3:0:0:
366,121,127550,1,8,0:3:0:0:
338,300,127662,1,8,0:0:0:0:
459,148,127773,2,0,L|466:64,1,50,4|0,0:3|0:0,0:0:0:0:
338,300,127884,2,0,L|359:382,1,50,8|0,0:3|0:0,0:0:0:0:
231,190,127995,2,0,L|238:106,1,50,4|0,0:3|0:0,0:0:0:0:
114,305,128106,1,8,0:0:0:0:
114,305,128217,1,0,0:0:0:0:
20,73,128328,86,0,L|125:65,1,100,4|0,0:3|0:0,0:0:0:0:
216,63,128550,1,4,0:3:0:0:
126,239,128662,6,0,L|67:150,1,100,4|0,0:3|0:0,0:0:0:0:
20,73,128884,1,4,0:3:0:0:
216,63,128995,86,0,L|170:157,1,100,4|0,0:3|0:0,0:0:0:0:
312,46,129217,85,4,0:3:0:0:
383,201,129328,1,4,0:3:0:0:
383,201,129384,1,4,0:3:0:0:
383,201,129439,1,4,0:3:0:0:
200,338,129550,5,4,0:3:0:0:
129,183,129661,1,4,0:3:0:0:
129,183,129717,1,4,0:3:0:0:
129,183,129772,1,4,0:3:0:0:
383,201,129884,2,0,L|254:188,1,100,4|4,0:3|0:3,0:0:0:0:
145,219,130106,85,4,0:3:0:0:
244,70,130217,2,0,P|200:47|150:41,2,100,4|4|4,0:3|0:3|0:3,0:0:0:0:
366,252,130550,2,0,L|382:350,1,75.0000028610231,0|0,2:0|2:0,0:0:0:0:
256,192,130773,2,0,L|251:156,6,18.7500007152558,0|0|0|0|0|0|0,0:0|0:0|0:0|0:0|0:0|0:0|0:0,0:0:0:0:
267,273,130995,5,2,0:0:0:0:
252,88,131106,1,8,0:3:0:0:
252,88,131162,1,4,0:3:0:0:
252,88,131217,1,4,0:3:0:0:
110,193,131328,2,0,L|98:93,1,100,0|0,0:0|0:0,0:0:0:0:
24,285,131550,1,8,0:2:0:0:
67,305,131605,1,8,0:2:0:0:
113,313,131661,1,8,0:2:0:0:
159,306,131716,1,8,0:2:0:0:
204,292,131772,1,8,0:2:0:0:
249,278,131827,1,8,0:2:0:0:
295,273,131884,6,0,L|404:304,1,100,4|0,0:3|0:0,0:0:0:0:
493,254,132106,1,4,0:3:0:0:
230,161,132217,2,0,L|339:192,1,100,8|0,0:3|0:0,0:0:0:0:
428,142,132439,1,8,0:3:0:0:
168,42,132550,2,0,L|277:73,1,100,4|0,0:3|0:0,0:0:0:0:
402,248,132773,69,4,0:3:0:0:
247,319,132884,1,4,0:3:0:0:
247,319,132940,1,0,0:0:0:0:
247,319,132995,1,8,0:0:0:0:
422,192,133106,1,4,0:3:0:0:
206,192,133217,1,4,0:3:0:0:
206,192,133273,1,0,0:0:0:0:
206,192,133329,1,8,0:0:0:0:
402,136,133440,1,4,0:3:0:0:
247,65,133551,1,4,0:3:0:0:
197,322,133662,5,4,0:3:0:0:
101,191,133773,1,4,0:3:0:0:
255,241,133884,1,4,0:3:0:0:
101,291,133995,1,4,0:3:0:0:
197,160,134106,6,0,B|192:113|192:113|146:91|146:91|142:39,1,150.000005722046,2|0,2:2|2:0,0:0:0:0:
438,210,134550,69,4,0:3:0:0:
330,227,134661,1,8,0:3:0:0:
399,310,134772,1,4,0:3:0:0:
450,197,134884,1,4,0:3:0:0:
310,220,134995,1,8,0:3:0:0:
402,329,135106,1,4,0:3:0:0:
413,98,135217,2,0,L|313:113,1,100,4|8,0:3|0:3,0:0:0:0:
74,210,135439,5,8,0:3:0:0:
182,227,135550,1,8,0:3:0:0:
113,310,135661,1,4,0:3:0:0:
62,197,135773,1,8,0:3:0:0:
202,220,135884,1,8,0:3:0:0:
110,329,135995,1,4,0:3:0:0:
99,98,136106,2,0,L|198:113,1,100,8|8,0:3|0:3,0:0:0:0:
369,211,136328,5,4,0:3:0:0:
234,320,136439,1,8,0:3:0:0:
190,313,136494,1,8,0:3:0:0:
145,308,136550,1,4,0:3:0:0:
100,302,136605,1,4,0:3:0:0:
55,296,136661,1,4,0:3:0:0:
19,121,136773,2,0,L|15:56,2,50,4|4|4,0:3|0:3|0:3,0:0:0:0:
169,207,136995,1,8,0:3:0:0:
213,200,137050,1,8,0:3:0:0:
258,195,137106,1,4,0:3:0:0:
303,189,137161,1,4,0:3:0:0:
348,183,137217,69,4,0:3:0:0:
409,87,137328,1,4,0:3:0:0:
320,25,137439,1,4,0:3:0:0:
258,120,137550,1,4,0:3:0:0:
378,282,137662,6,0,L|458:278,1,75.0000028610231,0|0,2:0|2:0,0:0:0:0:
322,202,137885,2,0,L|242:206,1,75.0000028610231,0|0,2:0|2:0,0:0:0:0:
81,315,138106,5,4,0:3:0:0:
81,302,138161,1,4,0:3:0:0:
81,290,138217,1,4,0:3:0:0:
81,277,138272,1,4,0:3:0:0:
81,265,138328,1,4,0:3:0:0:
256,256,138551,1,4,0:3:0:0:
448,352,138662,1,8,0:3:0:0:
448,296,138717,1,8,0:3:0:0:
448,247,138773,1,8,0:3:0:0:
448,191,138828,1,8,0:3:0:0:
448,142,138884,1,4,0:3:0:0:
152,84,138995,70,0,L|261:53,1,100,4|0,0:3|0:0,0:0:0:0:
350,103,139217,1,4,0:3:0:0:
87,196,139328,2,0,L|196:165,1,100,4|0,0:3|0:0,0:0:0:0:
285,215,139550,1,4,0:3:0:0:
25,315,139661,2,0,L|134:284,1,100,4|0,0:3|0:0,0:0:0:0:
404,171,139884,5,4,0:3:0:0:
333,320,139995,1,4,0:3:0:0:
166,311,140106,1,4,0:3:0:0:
345,72,140217,5,4,0:3:0:0:
178,63,140328,1,4,0:3:0:0:
108,213,140439,1,4,0:3:0:0:
302,268,140550,69,4,0:3:0:0:
209,115,140662,1,4,0:3:0:0:
200,283,140773,5,4,0:3:0:0:
312,99,140885,1,4,0:3:0:0:
312,99,140939,1,4,0:3:0:0:
312,99,140995,1,8,0:3:0:0:
111,165,141106,1,8,0:3:0:0:
279,317,141217,6,0,B|236:308|236:308|190:319|190:319|132:309,1,150.000005722046,2|0,2:2|2:2,0:0:0:0:
64,64,141662,69,0,0:3:0:0:
99,186,141773,1,8,0:3:0:0:
133,172,141828,1,8,0:3:0:0:
162,148,141884,1,8,0:3:0:0:
181,116,141939,1,8,0:3:0:0:
189,79,141995,1,4,0:3:0:0:
352,42,142106,1,8,0:3:0:0:
352,42,142217,1,8,0:3:0:0:
290,217,142328,1,4,0:3:0:0:
290,217,142439,1,4,0:3:0:0:
456,323,142550,6,0,L|464:218,1,100,4|0,0:3|0:0,0:0:0:0:
466,127,142772,1,4,0:3:0:0:
290,217,142884,6,0,L|379:276,1,100,4|0,0:3|0:0,0:0:0:0:
456,323,143106,1,4,0:3:0:0:
466,127,143217,86,0,L|372:173,1,100,4|0,0:3|0:0,0:0:0:0:
134,93,143439,85,8,0:3:0:0:
150,263,143550,1,4,0:3:0:0:
150,263,143606,1,4,0:3:0:0:
150,263,143661,1,8,0:3:0:0:
377,290,143772,5,8,0:3:0:0:
361,120,143883,1,4,0:3:0:0:
361,120,143939,1,4,0:3:0:0:
361,120,143994,1,8,0:3:0:0:
150,263,144106,2,0,L|255:187,1,100,4|0,0:3|0:0,0:0:0:0:
57,110,144328,5,4,0:3:0:0:
180,23,144439,2,0,P|230:18|279:29,2,100,4|4|4,0:3|0:3|0:3,0:0:0:0:
261,151,144773,2,0,L|371:133,1,100,0|0,0:0|0:0,0:0:0:0:
475,55,144995,2,0,L|478:13,6,25,0|0|0|0|0|0|0,0:0|0:0|0:0|0:0|0:0|0:0|0:0,0:0:0:0:
468,137,145217,85,8,0:2:0:0:
489,296,145328,1,4,0:3:0:0:
489,296,145384,1,4,0:3:0:0:
489,296,145439,1,4,0:3:0:0:
357,164,145550,1,4,0:3:0:0:
378,323,145661,1,4,0:3:0:0:
249,188,145773,1,4,0:3:0:0:
249,188,145828,1,4,0:3:0:0:
249,188,145884,1,4,0:3:0:0:
270,347,145995,1,4,0:3:0:0:
65,178,146106,6,0,P|59:128|72:80,1,100,8|0,0:3|0:0,0:0:0:0:
254,32,146328,1,4,0:3:0:0:
169,136,146439,1,8,0:3:0:0:
345,112,146550,1,8,0:3:0:0:
273,271,146662,1,4,0:3:0:0:
272,279,146717,1,4,0:3:0:0:
271,287,146773,1,4,0:3:0:0:
270,295,146828,1,4,0:3:0:0:
270,304,146884,1,4,0:3:0:0:
269,312,146939,1,4,0:3:0:0:
268,320,146995,69,4,0:3:0:0:
256,192,147106,1,4,0:3:0:0:
128,204,147217,1,8,0:3:0:0:
244,64,147328,5,4,0:3:0:0:
256,192,147439,1,4,0:3:0:0:
384,180,147550,1,8,0:3:0:0:
198,261,147662,5,4,0:3:0:0:
313,122,147773,1,4,0:3:0:0:
324,316,147884,70,0,L|430:322,1,100,2|4,0:2|0:3,0:0:0:0:
188,316,148106,2,0,L|82:322,1,100,8|4,0:3|0:3,0:0:0:0:
441,61,148328,86,0,B|480:86|480:86|381:75|381:75|433:61,1,200,2|0,0:2|0:0,0:0:0:0:
418,221,148662,1,2,0:2:0:0:
178,186,148773,6,0,L|194:27,1,150.000005722046,4|0,0:3|0:0,0:0:0:0:
334,198,148995,2,0,L|318:357,1,150.000005722046,8|0,0:0|0:0,0:0:0:0:
40,314,149217,1,4,0:3:0:0:
114,100,149328,1,4,0:3:0:0:
197,311,149439,1,8,0:0:0:0:
114,100,149550,1,4,0:3:0:0:
287,160,149662,5,4,0:3:0:0:
34,208,149773,1,8,0:3:0:0:
186,27,149884,1,8,0:0:0:0:
222,218,149995,1,0,0:0:0:0:
222,218,150050,1,0,0:0:0:0:
222,218,150106,2,0,L|247:368,1,150.000005722046,0|4,0:0|0:3,0:0:0:0:
91,278,150328,1,8,0:0:0:0:
372,273,150439,1,4,0:3:0:0:
372,273,150495,1,4,0:3:0:0:
372,273,150550,6,0,P|431:227|407:135,1,150.000005722046,4|0,0:3|0:0,0:0:0:0:
254,40,150773,1,2,0:2:0:0:
142,172,150884,1,4,0:3:0:0:
145,190,150939,1,8,0:3:0:0:
148,208,150995,1,4,0:3:0:0:
152,227,151050,1,4,0:3:0:0:
155,245,151106,1,4,0:3:0:0:
271,300,151217,1,2,0:2:0:0:
70,333,151328,1,0,0:0:0:0:
281,172,151439,69,4,0:3:0:0:
39,184,151550,1,4,0:3:0:0:
39,184,151606,1,4,0:3:0:0:
39,184,151662,2,0,L|54:31,1,150.000005722046,0|0,0:0|0:0,0:0:0:0:
242,322,151884,69,8,0:0:0:0:
265,56,151995,1,8,0:0:0:0:
242,322,152106,1,8,0:0:0:0:
265,56,152217,1,8,0:0:0:0:
435,275,152328,22,0,P|444:200|427:128,1,150.000005722046,8|0,0:2|0:0,0:0:0:0:
173,83,152550,5,8,0:3:0:0:
173,301,152662,1,4,0:3:0:0:
256,83,152773,85,4,0:3:0:0:
256,301,152884,1,8,0:3:0:0:
339,83,152995,5,4,0:3:0:0:
339,301,153106,1,8,0:3:0:0:
74,191,153217,6,0,P|148:172|220:209,1,150.000005722046,8|0,0:2|0:0,0:0:0:0:
256,343,153439,1,8,0:0:0:0:
438,191,153550,1,8,0:3:0:0:
404,175,153605,1,8,0:3:0:0:
366,171,153661,1,8,0:3:0:0:
330,180,153716,1,8,0:3:0:0:
299,201,153772,1,4,0:3:0:0:
107,343,153884,2,0,L|94:191,1,150.000005722046,8|0,0:0|0:0,0:0:0:0:
184,27,154106,69,4,0:3:0:0:
254,205,154217,1,8,0:3:0:0:
378,56,154328,1,8,0:0:0:0:
448,234,154439,1,4,0:3:0:0:
254,205,154550,2,0,L|171:217,1,75.0000028610231,8|0,0:3|0:3,0:0:0:0:
119,133,154662,2,0,L|36:145,1,75.0000028610231,8|0,0:3|0:3,0:0:0:0:
159,42,154773,1,8,0:3:0:0:
177,44,154828,1,8,0:3:0:0:
196,47,154884,1,8,0:3:0:0:
214,50,154939,1,8,0:3:0:0:
233,52,154995,1,4,0:3:0:0:
447,222,155578,86,0,P|372:278|360:224,1,187.500007152558,0|0,2:0|0:0,0:0:0:0:
362,215,155884,86,0,L|211:233,1,150.000005722046,8|0,0:2|0:0,0:0:0:0:
284,335,156106,1,4,0:3:0:0:
256,102,156217,1,4,0:3:0:0:
147,283,156328,5,8,0:2:0:0:
352,217,156439,1,8,0:2:0:0:
140,150,156550,1,8,0:2:0:0:
362,215,156662,1,8,0:2:0:0:
72,346,156773,86,0,L|58:183,1,150.000005722046,8|8,0:3|0:2,0:0:0:0:
171,67,156995,1,8,0:3:0:0:
256,322,157106,1,4,0:3:0:0:
256,322,157162,1,4,0:3:0:0:
256,322,157217,1,4,0:3:0:0:
341,67,157328,1,8,0:2:0:0:
256,322,157439,1,8,0:3:0:0:
256,97,157550,5,8,0:2:0:0:
256,97,157606,1,0,0:0:0:0:
256,97,157662,2,0,P|156:127|111:107,1,150.000005722046
178,18,157884,1,8,0:0:0:0:
338,239,157995,2,0,P|362:137|402:108,1,150.000005722046,8|4,0:3|0:3,0:0:0:0:
446,210,158217,1,8,0:3:0:0:
173,239,158328,2,0,P|249:311|254:360,1,150.000005722046,8|4,0:0|0:3,0:0:0:0:
23,208,158550,85,4,0:3:0:0:
154,65,158662,1,8,0:3:0:0:
152,45,158717,1,8,0:3:0:0:
133,41,158772,1,8,0:3:0:0:
124,58,158828,1,8,0:3:0:0:
136,72,158884,1,8,0:3:0:0:
415,286,158995,5,8,0:2:0:0:
95,286,159106,1,8,0:2:0:0:
415,286,159217,1,8,0:2:0:0:
95,286,159328,1,8,0:2:0:0:
310,32,159439,86,0,L|319:181,1,150.000005722046,8|4,0:3|0:3,0:0:0:0:
202,352,159662,2,0,L|193:203,1,150.000005722046,8|4,0:3|0:3,0:0:0:0:
411,136,159884,2,0,L|420:285,1,150.000005722046,8|4,0:3|0:3,0:0:0:0:
101,248,160106,2,0,L|92:99,1,150.000005722046,8|4,0:3|0:3,0:0:0:0:
342,62,160328,6,0,P|274:44|197:62,1,150.000005722046,0|8,0:0|0:3,0:0:0:0:
256,192,160550,1,8,0:0:0:0:
314,322,160662,1,0,0:0:0:0:
279,335,160717,1,0,0:0:0:0:
242,340,160773,1,0,0:0:0:0:
204,335,160828,1,0,0:0:0:0:
170,322,160884,1,0,0:0:0:0:
256,192,160995,2,0,L|411:192,1,150.000005722046,8|0,0:1|0:0,0:0:0:0:
166,35,161217,85,8,0:3:0:0:
76,192,161328,1,4,0:3:0:0:
166,346,161439,1,8,0:0:0:0:
344,35,161550,1,8,0:3:0:0:
436,190,161661,1,4,0:3:0:0:
346,346,161773,1,8,0:0:0:0:
256,192,161884,1,4,0:3:0:0:
256,154,161939,1,4,0:3:0:0:
256,117,161995,1,4,0:3:0:0:
256,79,162050,1,4,0:3:0:0:
256,41,162106,6,0,P|198:30|138:49,1,119.999996337891,4|0,0:3|0:0,0:0:0:0:
256,41,162328,2,0,P|314:30|374:49,1,119.999996337891,4|0,0:3|0:0,0:0:0:0:
486,331,162550,85,4,0:3:0:0:
26,331,162773,1,8,0:3:0:0:
256,41,162995,21,4,0:0:0:0:
256,192,163328,12,0,165217,0:0:0:0:
