osu file format v14

[General]
AudioFilename: jjj.mp3
AudioLeadIn: 0
PreviewTime: 63439
Countdown: 0
SampleSet: None
StackLeniency: 0.3
Mode: 0
LetterboxInBreaks: 0
WidescreenStoryboard: 0

[Editor]
Bookmarks: 439,6221,34662,38551,52773,63439,77662,91884,106106,120328,134550,141662,148773,154995,162995
DistanceSpacing: 1
BeatDivisor: 4
GridSize: 4
TimelineZoom: 2.4

[Metadata]
Title:SLOTcore Is Dead
TitleUnicode:SLOTcore Is Dead
Artist:sHimaU
ArtistUnicode:sHimaU
Creator:Arphimigon
Version:THREE
Source:
Tags:Hula breakcore miracle dodo naruto da CloudSplash16 Voli diraimur Irreversible astrosexy
BeatmapID:3248795
BeatmapSetID:306012

[Difficulty]
HPDrainRate:4
CircleSize:3
OverallDifficulty:6
ApproachRate:7.5
SliderMultiplier:1.1
SliderTickRate:1

[Events]
//Background and Video events
0,0,"kek.jpg",0,0
//Break Periods
2,3355,5396
2,52973,62614
2,106306,119503
//Storyboard Layer 0 (Background)
//Storyboard Layer 1 (Fail)
//Storyboard Layer 2 (Pass)
//Storyboard Layer 3 (Foreground)
//Storyboard Layer 4 (Overlay)
//Storyboard Sound Samples

[TimingPoints]
439,226.415094339623,4,1,2,65,1,0
6221,222.222222222222,4,1,2,65,1,0
34662,327.868852459016,4,1,2,65,1,0
38551,222.222222222222,4,1,2,65,1,0
63439,-133.333333333333,4,1,2,65,0,0
77662,-100,4,1,2,65,0,1
91884,-100,4,1,2,65,0,0
92328,-100,4,1,2,65,0,1
106106,-100,4,1,2,65,0,0
163050,-125,4,1,2,35,0,0
163884,-125,4,1,2,25,0,0
164773,-125,4,1,2,15,0,0
164995,-125,4,1,2,10,0,0
165217,-125,4,1,2,5,0,0

[Colours]
Combo1 : 230,0,0
Combo2 : 230,230,230
Combo3 : 180,180,180
Combo4 : 106,106,106
Combo5 : 255,0,255
Combo6 : 255,128,255
Combo7 : 255,0,0

[HitObjects]
256,83,439,6,0,L|256:303,2,220,0|0|0,0:0|0:0|0:0,0:0:0:0:
352,135,1571,1,0,0:0:0:0:
352,244,1797,2,0,L|352:359,1,110,0|0,0:0|0:0,0:0:0:0:
256,303,2250,2,0,L|256:188,1,110,0|0,0:0|0:0,0:0:0:0:
160,244,2703,2,0,L|160:359,1,110,0|0,0:0|0:0,0:0:0:0:
256,301,3155,5,0,0:0:0:0:
56,280,6221,86,0,L|64:156,1,110,8|8,0:3|0:0,0:0:0:0:
96,128,6554,1,4,0:3:0:0:
128,84,6665,1,4,0:3:0:0:
236,64,6887,1,8,0:0:0:0:
280,96,6998,2,0,L|284:216,1,110,8|0,0:2|0:0,0:0:0:0:
320,244,7332,1,2,0:2:0:0:
416,192,7554,2,0,L|420:128,2,55,0|0|2,3:0|3:0|3:2,0:0:0:0:
412,248,7887,1,8,0:2:0:0:
408,304,7998,6,0,P|352:336|304:340,1,110,4|8,0:3|0:1,0:0:0:0:
252,328,8332,1,4,0:3:0:0:
196,324,8443,2,0,L|128:332,2,55,4|4|8,0:3|0:3|0:0,0:0:0:0:
228,216,8887,1,4,0:3:0:0:
172,120,9109,1,4,0:3:0:0:
260,56,9332,1,4,0:3:0:0:
312,40,9443,70,0,L|432:64,1,110,8|4,0:1|0:2,0:0:0:0:
448,16,9776,2,0,B|432:64|464:72|440:128,1,110,8|0,0:1|0:0,0:0:0:0:
420,232,10220,6,0,P|428:280|436:300,2,55,4|4|0,0:3|0:3|0:0,0:0:0:0:
331,172,10665,2,0,L|255:166,1,55,2|8,0:2|0:3,0:0:0:0:
221,172,10887,2,0,L|145:166,1,55,2|8,0:2|0:3,0:0:0:0:
114,186,11109,5,0,0:0:0:0:
114,186,11220,1,0,0:0:0:0:
146,291,11443,1,0,0:0:0:0:
186,327,11554,2,0,L|254:331,2,55,0|8|12,0:0|0:3|0:3,0:0:0:0:
200,220,11998,5,4,0:3:0:0:
256,124,12220,1,4,0:3:0:0:
176,44,12443,1,8,0:3:0:0:
124,140,12665,1,4,0:3:0:0:
200,220,12887,1,2,0:2:0:0:
252,240,12998,2,0,L|256:300,2,55,8|8|4,0:2|0:2|0:3,0:0:0:0:
304,220,13332,70,0,P|348:184|360:124,1,110,4|2,0:0|0:2,0:0:0:0:
324,92,13665,1,2,0:2:0:0:
268,100,13776,2,0,P|220:108|152:100,1,110,8|8,0:3|0:3,0:0:0:0:
68,164,14220,1,2,0:3:0:0:
72,276,14443,1,8,0:1:0:0:
172,324,14665,2,0,B|228:308|228:308|300:320,1,110,2|8,0:2|0:2,0:0:0:0:
384,300,15109,6,0,L|396:176,1,110,8|8,3:2|3:2,0:0:0:0:
336,96,15554,2,0,L|212:84,1,110,8|2,0:0|0:2,0:0:0:0:
116,88,15998,2,0,P|88:152|100:200,1,110,4|8,0:3|0:0,0:0:0:0:
139,222,16332,2,0,P|187:216|252:239,1,110,4|2,0:3|0:2,0:0:0:0:
299,237,16665,2,0,L|354:221,1,55,2|2,0:2|0:2,0:0:0:0:
397,191,16887,6,0,L|450:92,1,110,8|0,0:2|0:0,0:0:0:0:
432,36,17220,2,0,P|376:12|312:28,1,110,8|0,0:1|0:0,0:0:0:0:
276,40,17554,2,0,L|216:44,1,55,4|4,0:3|0:3,0:0:0:0:
172,24,17776,1,4,0:3:0:0:
88,96,17998,2,0,L|80:168,1,55,8|0,0:0|0:0,0:0:0:0:
52,196,18220,1,8,0:0:0:0:
120,280,18443,1,8,0:3:0:0:
200,204,18665,70,0,P|252:196|312:212,1,110,4|8,0:3|0:0,0:0:0:0:
352,240,18998,2,0,L|396:132,1,110,4|0,0:3|0:0,0:0:0:0:
416,88,19332,1,0,0:0:0:0:
324,28,19554,2,0,L|208:36,1,110,8|0,0:2|0:0,0:0:0:0:
160,41,19887,2,0,L|93:46,1,55,4|4,0:3|0:3,0:0:0:0:
48,49,20109,5,4,0:0:0:0:
36,212,20443,2,0,L|44:272,2,55,4|4|0,0:3|0:3|0:0,0:0:0:0:
52,160,20776,2,0,P|120:144|160:156,1,110,4|0,0:3|0:0,0:0:0:0:
204,184,21109,1,0,0:0:0:0:
304,140,21332,1,0,0:0:0:0:
392,204,21554,2,0,L|400:264,2,55,4|4|8,0:3|0:3|0:3,0:0:0:0:
240,48,22220,6,0,L|68:36,1,165,2|0,0:2|0:0,0:0:0:0:
40,196,22887,2,0,L|212:208,1,165,8|0,0:2|0:0,0:0:0:0:
360,152,23554,1,4,0:0:0:0:
316,252,23776,1,4,0:0:0:0:
276,356,23998,70,0,P|220:360|180:316,1,110,0|0,0:0|0:0,0:0:0:0:
184,268,24332,2,0,P|188:220|168:160,1,110,0|0,0:0|0:0,0:0:0:0:
128,124,24665,1,4,0:3:0:0:
208,48,24887,2,0,L|320:44,1,110,4|0,0:0|0:0,0:0:0:0:
356,84,25220,2,0,L|360:196,1,110,4|0,0:0|0:0,0:0:0:0:
361,247,25554,1,4,0:0:0:0:
276,320,25776,5,8,0:0:0:0:
224,332,25887,2,0,L|108:316,1,110,8|8,0:0|0:0,0:0:0:0:
33,242,26332,1,8,0:0:0:0:
24,187,26443,5,4,0:0:0:0:
80,88,26665,1,4,0:3:0:0:
180,128,26887,1,8,0:3:0:0:
236,32,27109,1,0,0:0:0:0:
336,76,27332,1,4,0:3:0:0:
444,76,27554,2,0,L|452:136,1,55,4|8,0:3|0:3,0:0:0:0:
404,156,27776,2,0,L|404:224,1,55,4|2,0:3|0:2,0:0:0:0:
352,232,27998,2,0,L|344:296,1,55,2|2,0:2|0:2,0:0:0:0:
336,340,28220,85,8,0:2:0:0:
228,356,28443,2,0,B|8:376|8:376|92:304,1,330,2|4,0:2|0:3,0:0:0:0:
136,204,29332,86,0,L|128:148,2,55,2|2|2,0:3|0:3|0:3,0:0:0:0:
172,244,29665,2,0,P|220:248|272:216,1,110,4|4,0:2|0:3,0:0:0:0:
300,172,29998,1,8,0:0:0:0:
312,120,30109,1,8,0:0:0:0:
300,68,30220,6,0,L|168:56,1,110,4|4,0:3|0:3,0:0:0:0:
136,72,30554,2,0,P|112:128|116:180,1,110,4|0,0:3|0:0,0:0:0:0:
136,228,30887,2,0,L|140:292,1,55,0|0,0:0|0:0,0:0:0:0:
143,337,31109,6,0,L|260:321,1,110,2|0,0:2|0:0,0:0:0:0:
286,278,31443,2,0,L|403:262,1,110,2|0,0:2|0:0,0:0:0:0:
447,248,31776,1,2,0:2:0:0:
388,93,32109,1,4,3:3:0:0:
236,158,32443,2,0,L|171:163,1,55,2|2,3:2|3:2,0:0:0:0:
130,140,32665,2,0,L|65:145,1,55,2|2,3:2|3:2,0:0:0:0:
43,99,32887,70,0,L|31:217,1,110,4|0,0:3|0:0,0:0:0:0:
52,259,33220,2,0,L|170:271,1,110,8|8,3:0|3:3,0:0:0:0:
201,231,33554,1,8,3:0:0:0:
342,315,33887,1,8,0:3:0:0:
456,196,34220,1,8,0:3:0:0:
457,140,34332,2,0,L|461:30,1,110,4|4,0:3|0:3,0:0:0:0:
424,22,34662,38,0,P|365:19|308:62,1,110,4|4,0:3|0:3,0:0:0:0:
237,114,35317,2,0,P|178:117|121:74,1,110,4|4,0:3|0:3,0:0:0:0:
29,61,35973,6,0,P|26:120|69:177,1,110,4|4,0:3|0:3,0:0:0:0:
121,248,36628,2,0,P|124:307|81:364,1,110,0|0,0:0|0:0,0:0:0:0:
206,376,37284,86,0,P|227:320|197:151,1,220,4|4,0:3|0:3,0:0:0:0:
367,70,38551,70,0,L|364:150,1,55,4|8,0:3|0:3,0:0:0:0:
361,179,38773,1,4,0:3:0:0:
318,280,38995,2,0,P|267:281|210:260,1,110,8|4,0:3|0:3,0:0:0:0:
150,170,39439,1,4,0:3:0:0:
44,200,39662,1,8,0:0:0:0:
72,93,39884,1,8,0:2:0:0:
178,63,40106,1,8,0:2:0:0:
259,135,40328,6,0,P|298:144|373:128,1,110,4|8,0:3|0:3,0:0:0:0:
445,208,40773,2,0,P|436:247|452:322,1,110,4|8,0:3|0:3,0:0:0:0:
345,352,41217,54,0,B|285:337|272:278|272:278|223:342|136:359|64:323,1,330,4|8,0:3|0:3,0:0:0:0:
20,221,42106,86,0,L|24:161,2,55,2|2|2,0:2|0:2|0:2,0:0:0:0:
71,239,42439,22,0,L|80:119,1,110,4|4,0:3|0:3,0:0:0:0:
85,74,42773,1,4,0:3:0:0:
185,30,42995,69,2,0:2:0:0:
272,96,43217,1,4,0:3:0:0:
370,48,43439,1,8,0:3:0:0:
452,121,43662,1,2,0:2:0:0:
354,171,43884,22,0,L|340:300,1,110,0|0,0:0|0:0,0:0:0:0:
235,306,44328,2,0,L|106:292,1,110,0|0,0:0|0:0,0:0:0:0:
40,223,44773,1,0,0:0:0:0:
26,169,44884,2,0,P|26:122|69:71,1,110,0|0,0:0|0:0,0:0:0:0:
117,62,45217,1,0,0:0:0:0:
171,59,45328,2,0,L|294:76,1,110,0|0,0:0|0:0,0:0:0:0:
323,39,45662,5,4,0:3:0:0:
381,132,45884,1,4,0:3:0:0:
351,237,46106,1,0,0:0:0:0:
409,330,46328,1,4,0:3:0:0:
300,345,46550,86,0,L|235:336,1,55,8|4,0:3|0:3,0:0:0:0:
192,354,46773,1,8,0:3:0:0:
88,310,46995,2,0,L|82:190,1,110,4|8,0:3|0:3,0:0:0:0:
139,106,47439,5,4,0:3:0:0:
227,171,47662,1,4,0:3:0:0:
294,84,47884,1,8,0:3:0:0:
206,17,48106,1,4,0:3:0:0:
139,106,48328,2,0,L|124:230,1,110,8|8,0:0|0:0,0:0:0:0:
178,312,48773,2,0,P|219:334|258:245,1,165,4|8,0:3|0:3,0:0:0:0:
233,204,49217,86,0,P|236:159|262:87,1,110,2|2,0:2|0:2,0:0:0:0:
301,65,49550,2,0,L|423:57,1,110,8|8,0:0|0:0,0:0:0:0:
465,51,49884,1,4,0:3:0:0:
496,156,50106,2,0,L|485:271,1,110,4|4,0:3|0:3,0:0:0:0:
376,280,50550,2,0,L|365:170,1,110,4|4,0:3|0:3,0:0:0:0:
265,123,50995,5,8,0:3:0:0:
182,195,51217,1,8,3:3:0:0:
104,117,51439,2,0,P|76:163|75:217,1,110,0|0,0:0|0:0,0:0:0:0:
166,281,51884,2,0,P|205:277|274:312,1,110,8|8,0:3|0:3,0:0:0:0:
354,374,52328,53,8,0:2:0:0:
449,175,52773,53,4,0:1:0:0:
166,89,63439,70,0,L|337:81,1,165.000006294251,4|0,0:3|0:0,0:0:0:0:
354,245,64328,2,0,L|183:252,1,165.000006294251,8|8,0:3|0:3,0:0:0:0:
97,115,65217,6,0,P|72:190|92:282,1,165.000006294251,4|8,0:3|0:3,0:0:0:0:
251,294,66106,2,0,P|275:218|255:126,1,165.000006294251,4|4,0:3|0:3,0:0:0:0:
420,228,66995,6,0,L|412:315,1,82.5000031471254,4|0,0:3|0:0,0:0:0:0:
330,324,67439,1,4,0:3:0:0:
261,275,67662,1,8,0:3:0:0:
193,324,67884,2,0,P|141:327|69:237,1,165.000006294251,8|8,0:3|0:3,0:0:0:0:
153,105,68773,70,0,P|204:102|277:192,1,165.000006294251,8|8,0:3|0:3,0:0:0:0:
280,346,69662,6,0,P|331:349|403:259,1,165.000006294251,8|8,0:3|0:3,0:0:0:0:
301,124,70550,6,0,L|298:214,1,82.5000031471254,4|0,0:3|0:0,0:0:0:0:
159,297,71217,1,4,0:3:0:0:
131,219,71439,2,0,L|128:137,1,82.5000031471254,4|0,0:3|0:0,0:0:0:0:
276,150,72328,70,0,P|301:161|392:132,1,123.750004720688,4|8,0:3|0:3,0:0:0:0:
423,255,72995,1,8,0:3:0:0:
349,291,73217,2,0,L|258:282,1,82.5000031471254,4|0,0:3|0:0,0:0:0:0:
184,290,73662,1,0,0:0:0:0:
156,112,74106,6,0,P|129:139|212:175,1,165.000006294251,4|4,0:3|0:3,0:0:0:0:
354,111,74995,2,0,P|377:180|305:185,1,165.000006294251,8|4,0:3|0:3,0:0:0:0:
130,319,75884,86,0,P|55:285|13:216,1,165.000006294251,0|8,0:3|0:3,0:0:0:0:
464,84,77662,70,0,L|344:72,1,110,4|8,0:3|0:3,0:0:0:0:
304,92,77995,2,0,L|184:80,1,110,4|8,0:3|0:3,0:0:0:0:
140,76,78328,1,4,0:3:0:0:
76,165,78550,1,4,0:3:0:0:
111,269,78773,1,4,0:3:0:0:
208,218,78995,2,0,L|271:228,1,55,8|4,0:3|0:3,0:0:0:0:
316,214,79217,2,0,L|379:224,1,55,8|8,0:3|0:3,0:0:0:0:
420,245,79439,6,0,P|395:187|404:132,1,110,8|8,0:2|0:2,0:0:0:0:
421,90,79773,1,8,0:2:0:0:
328,30,79995,1,8,0:3:0:0:
277,52,80106,2,0,L|214:56,1,55,8|4,0:2|0:3,0:0:0:0:
177,23,80328,2,0,L|147:137,1,110,4|8,0:3|0:3,0:0:0:0:
144,184,80662,1,8,0:3:0:0:
146,238,80773,2,0,P|137:288|108:318,2,82.5,8|8|8,0:0|0:0|0:0,0:0:0:0:
176,192,81217,86,0,L|287:203,1,110,4|4,0:3|0:3,0:0:0:0:
340,201,81550,1,4,0:3:0:0:
387,172,81662,1,8,0:3:0:0:
383,62,81884,1,8,0:3:0:0:
278,29,82106,2,0,L|168:39,1,110,8|8,0:3|0:3,0:0:0:0:
81,106,82550,2,0,L|75:172,1,55,8|8,0:3|0:3,0:0:0:0:
119,194,82773,2,0,L|125:260,1,55,4|4,0:3|0:3,0:0:0:0:
94,294,82995,6,0,P|156:268|204:280,1,110,8|8,0:2|0:3,0:0:0:0:
243,303,83328,1,8,0:3:0:0:
287,335,83439,2,0,L|324:376,2,55,8|8|4,0:3|0:3|0:3,0:0:0:0:
274,225,83884,1,4,0:3:0:0:
363,160,84106,1,4,0:3:0:0:
299,69,84328,86,0,L|240:64,1,55,8|8,0:0|0:0,0:0:0:0:
190,77,84550,2,0,L|131:72,1,55,8|8,0:0|0:0,0:0:0:0:
84,51,84773,6,0,P|64:94|71:159,1,110,4|4,0:3|0:3,0:0:0:0:
96,202,85106,1,4,0:3:0:0:
134,240,85217,2,0,L|249:247,1,110,4|4,0:3|0:3,0:0:0:0:
332,181,85662,2,0,P|348:219|344:294,1,110,4|8,0:3|0:3,0:0:0:0:
312,329,85995,1,4,0:3:0:0:
261,349,86106,2,0,L|203:354,1,55,8|8,0:3|0:3,0:0:0:0:
156,330,86328,2,0,L|98:325,1,55,4|4,0:3|0:3,0:0:0:0:
53,352,86550,86,0,L|46:228,1,110,8|8,0:2|0:2,0:0:0:0:
43,185,86884,1,8,0:2:0:0:
82,83,87106,1,8,0:3:0:0:
130,57,87217,2,0,P|166:56|191:62,1,55,8|4,0:2|0:3,0:0:0:0:
228,92,87439,2,0,L|339:87,1,110,2|8,0:2|0:3,0:0:0:0:
393,88,87773,1,8,0:3:0:0:
447,85,87884,2,0,P|458:45|444:1,2,82.5,8|8|8,0:0|0:0|0:0,0:0:0:0:
413,128,88328,6,0,L|404:239,1,110,4|8,0:3|0:3,0:0:0:0:
408,292,88662,1,8,0:3:0:0:
431,341,88773,2,0,L|489:364,2,55,4|4|8,0:3|0:3|0:3,0:0:0:0:
327,303,89217,1,4,0:3:0:0:
222,337,89439,2,0,L|164:341,1,55,4|8,0:3|0:3,0:0:0:0:
114,323,89662,2,0,P|100:289|110:209,1,110,8|4,0:3|0:3,0:0:0:0:
168,126,90106,86,0,L|164:65,2,55,4|4|8,0:3|0:3|0:3,0:0:0:0:
220,142,90439,2,0,P|258:127|326:132,1,110,4|4,0:3|0:3,0:0:0:0:
378,148,90773,1,4,0:3:0:0:
373,257,90995,1,8,0:0:0:0:
300,339,91217,2,0,L|241:328,1,55,0|0,0:0|0:0,0:0:0:0:
192,342,91439,2,0,P|224:296|235:232,1,110,2|2,3:0|3:0,0:0:0:0:
175,151,91884,6,0,L|113:139,1,55,8|8,0:0|0:0,0:0:0:0:
90,94,92106,2,0,L|102:32,1,55,8|8,0:0|0:0,0:0:0:0:
141,3,92328,86,0,L|249:22,1,110,4|4,0:3|0:3,0:0:0:0:
303,35,92662,1,4,0:3:0:0:
345,70,92773,2,0,L|357:190,1,110,8|4,0:3|0:3,0:0:0:0:
339,288,93217,1,8,0:3:0:0:
251,221,93439,1,8,0:3:0:0:
165,290,93662,6,0,L|45:296,1,110,8|8,0:2|0:2,0:0:0:0:
3,314,93995,2,0,P|28:263|43:198,1,110,8|8,0:2|0:2,0:0:0:0:
42,156,94328,1,8,0:2:0:0:
117,76,94550,2,0,P|167:54|227:69,1,110,8|4,0:2|0:3,0:0:0:0:
292,147,94995,1,4,0:3:0:0:
385,89,95217,1,4,0:3:0:0:
457,171,95439,86,0,L|469:290,1,110,4|8,0:3|0:3,0:0:0:0:
369,331,95884,1,8,0:3:0:0:
259,324,96106,1,8,0:3:0:0:
205,228,96328,2,0,L|216:118,1,110,4|8,0:3|0:3,0:0:0:0:
304,52,96773,1,8,0:3:0:0:
413,61,96995,1,8,0:3:0:0:
472,153,97217,6,0,P|477:198|440:267,1,110,8|4,0:2|0:3,0:0:0:0:
401,278,97550,1,4,0:3:0:0:
349,298,97662,2,0,L|288:302,2,55,8|0|4,0:3|0:0|0:3,0:0:0:0:
311,194,98106,2,0,L|189:202,1,110,4|4,0:3|0:3,0:0:0:0:
112,135,98550,86,0,L|102:196,1,55,8|8,0:0|0:0,0:0:0:0:
71,234,98773,2,0,L|81:295,1,55,8|8,0:0|0:0,0:0:0:0:
70,342,98995,6,0,L|183:315,1,110,4|8,0:3|0:3,0:0:0:0:
214,356,99328,2,0,L|327:329,1,110,4|8,0:3|0:3,0:0:0:0:
372,310,99662,1,4,0:3:0:0:
429,216,99884,1,4,0:3:0:0:
394,111,100106,1,8,0:3:0:0:
301,51,100328,2,0,L|244:47,1,55,8|8,0:3|0:3,0:0:0:0:
191,45,100550,2,0,L|134:49,1,55,4|4,0:3|0:3,0:0:0:0:
83,65,100773,86,0,P|64:121|78:176,1,110,8|8,0:2|0:2,0:0:0:0:
103,215,101106,1,8,0:2:0:0:
212,224,101328,1,8,0:3:0:0:
247,265,101439,2,0,P|252:298|249:324,1,55,8|4,0:2|0:3,0:0:0:0:
208,356,101662,2,0,L|329:345,1,110,4|4,0:3|0:3,0:0:0:0:
372,340,101995,1,4,0:3:0:0:
426,335,102106,2,0,P|456:301|460:254,2,82.5,8|8|8,0:0|0:0|0:0,0:0:0:0:
372,340,102550,6,0,L|358:208,1,110,4|4,0:3|0:3,0:0:0:0:
352,175,102884,1,4,0:3:0:0:
345,120,102995,1,4,0:3:0:0:
256,55,103217,1,8,0:3:0:0:
171,124,103439,2,0,P|154:189|161:235,1,110,4|4,0:3|0:3,0:0:0:0:
140,339,103884,2,0,L|77:334,1,55,8|4,0:3|0:3,0:0:0:0:
46,296,104106,2,0,L|51:233,1,55,8|4,0:3|0:3,0:0:0:0:
29,190,104328,86,0,P|70:148|88:96,1,110,8|8,0:2|0:2,0:0:0:0:
92,45,104662,1,8,0:2:0:0:
198,18,104884,1,8,0:3:0:0:
252,25,104995,2,0,L|315:30,1,55,8|4,0:2|0:3,0:0:0:0:
360,38,105217,2,0,P|369:71|355:146,1,110,4|4,0:3|0:3,0:0:0:0:
317,183,105550,1,4,0:3:0:0:
303,236,105662,2,0,L|309:328,2,82.5,8|8|8,0:0|0:0|0:0,0:0:0:0:
271,191,106106,37,0,0:0:0:0:
129,92,120328,5,4,0:3:0:0:
293,109,120662,1,4,0:3:0:0:
197,243,120995,1,4,0:3:0:0:
206,151,121217,69,4,0:3:0:0:
371,139,121550,1,4,0:3:0:0:
300,287,121884,1,4,0:3:0:0:
292,196,122106,5,4,0:3:0:0:
127,184,122439,1,4,0:3:0:0:
198,332,122773,1,4,0:3:0:0:
203,243,122995,5,4,0:3:0:0:
359,35,123884,70,0,P|399:73|420:123,1,110,4|4,0:3|0:3,0:0:0:0:
416,180,124217,1,4,0:3:0:0:
338,304,124439,1,0,0:0:0:0:
286,285,124550,2,0,L|225:280,1,55,4|4,0:3|0:3,0:0:0:0:
186,313,124773,2,0,L|165:197,1,110,8|4,0:3|0:3,0:0:0:0:
112,196,125106,2,0,L|133:80,1,110,8|4,0:3|0:3,0:0:0:0:
137,33,125439,1,8,0:3:0:0:
243,61,125662,6,0,L|324:52,2,55,8|8|4,0:3|0:3|0:3,0:0:0:0:
289,90,125995,2,0,L|368:109,2,55,8|8|4,0:3|0:3|0:3,0:0:0:0:
318,136,126328,2,0,L|355:181,1,55,8|4,0:3|0:3,0:0:0:0:
383,224,126550,1,4,0:3:0:0:
89,317,127439,6,0,L|73:249,2,55,4|8|8,0:3|0:3|0:0,0:0:0:0:
139,339,127773,2,0,P|178:316|253:322,1,110,4|4,0:3|0:3,0:0:0:0:
292,336,128106,1,8,0:0:0:0:
384,276,128328,2,0,L|391:156,1,110,4|4,0:3|0:3,0:0:0:0:
368,115,128662,2,0,L|248:108,1,110,4|4,0:3|0:3,0:0:0:0:
202,105,128995,1,4,0:3:0:0:
108,160,129217,69,4,0:3:0:0:
81,266,129439,1,4,0:3:0:0:
67,319,129550,1,4,0:3:0:0:
176,344,129773,1,4,0:3:0:0:
190,291,129884,1,4,0:3:0:0:
300,276,130106,1,4,0:3:0:0:
392,48,130995,6,0,P|324:32|276:44,1,110,2|4,0:0|0:3,0:0:0:0:
232,60,131328,2,0,L|216:176,1,110,0|8,0:0|0:2,0:0:0:0:
204,224,131662,1,8,0:2:0:0:
279,303,131884,6,0,P|329:300|412:210,2,165,4|8|4,0:3|0:3|0:3,0:0:0:0:
174,267,132773,70,0,L|116:268,2,55,4|4|8,0:3|0:3|0:0,0:0:0:0:
146,219,133106,2,0,L|95:190,2,55,4|4|8,0:3|0:3|0:0,0:0:0:0:
146,164,133439,2,0,L|116:114,1,55,4|4,0:3|0:3,0:0:0:0:
86,70,133662,1,4,0:3:0:0:
359,50,134550,6,0,L|364:183,1,110,4|4,0:3|0:3,0:0:0:0:
397,203,134884,2,0,L|392:336,1,110,4|4,0:3|0:3,0:0:0:0:
354,352,135217,1,4,0:3:0:0:
244,353,135439,6,0,L|239:220,1,110,8|4,0:3|0:3,0:0:0:0:
206,200,135773,2,0,L|211:67,1,110,8|4,0:3|0:3,0:0:0:0:
249,51,136106,1,8,0:3:0:0:
140,30,136328,70,0,P|84:47|60:94,1,110,4|4,0:3|0:3,0:0:0:0:
67,144,136662,1,4,0:3:0:0:
83,196,136773,2,0,L|92:259,1,55,4|4,0:3|0:3,0:0:0:0:
132,285,136995,2,0,L|195:276,1,55,8|4,0:3|0:3,0:0:0:0:
238,294,137217,1,4,0:3:0:0:
439,63,138106,6,0,P|396:96|245:49,1,220,4|4,0:3|0:3,0:0:0:0:
53,155,138995,6,0,L|27:329,2,165,4|4|4,0:3|0:3|0:3,0:0:0:0:
140,86,139884,70,0,L|134:26,2,55,4|4|4,0:3|0:3|0:3,0:0:0:0:
174,129,140217,2,0,L|168:189,2,55,4|4|4,0:3|0:3|0:3,0:0:0:0:
222,102,140550,2,0,P|253:95|282:97,1,55,4|4,0:3|0:3,0:0:0:0:
330,107,140773,6,0,L|452:96,1,110,4|8,0:3|0:3,0:0:0:0:
392,196,141217,1,2,2:2:0:0:
165,341,141662,6,0,B|137:123|137:123|211:39,1,330,0|4,0:3|0:3,0:0:0:0:
315,69,142550,2,0,P|362:73|467:5,2,165,4|4|4,0:3|0:3|0:3,0:0:0:0:
248,157,143439,69,8,0:3:0:0:
327,233,143662,1,8,0:3:0:0:
341,285,143773,1,8,0:3:0:0:
261,361,143995,1,8,0:3:0:0:
209,347,144106,1,4,0:3:0:0:
102,320,144328,1,4,0:3:0:0:
75,58,145217,6,0,L|193:46,1,110,8|4,0:2|0:3,0:0:0:0:
239,49,145550,2,0,P|251:83|238:161,1,110,4|4,0:3|0:3,0:0:0:0:
202,194,145884,1,4,0:3:0:0:
257,288,146106,6,0,L|429:320,2,165,8|8|4,0:3|0:3|0:3,0:0:0:0:
148,267,146995,70,0,P|131:299|127:323,2,55,4|4|8,0:3|0:3|0:3,0:0:0:0:
151,212,147328,2,0,P|131:181|113:165,2,55,4|4|8,0:3|0:3|0:3,0:0:0:0:
197,241,147662,2,0,P|233:239|255:231,1,55,4|4,0:3|0:3,0:0:0:0:
298,206,147884,1,2,0:2:0:0:
154,28,148773,5,4,0:3:0:0:
262,47,148995,1,8,0:0:0:0:
370,66,149217,1,4,0:3:0:0:
478,85,149439,1,8,0:0:0:0:
494,194,149662,2,0,L|484:310,1,110,4|8,0:3|0:0,0:0:0:0:
375,313,150106,2,0,L|385:197,1,110,0|8,0:0|0:0,0:0:0:0:
295,139,150550,5,4,0:3:0:0:
201,198,150773,2,0,L|140:212,2,55,2|4|4,0:2|0:3|0:3,0:0:0:0:
205,88,151217,1,2,0:2:0:0:
103,45,151439,2,0,L|42:59,2,55,4|4|0,0:3|0:3|0:0,0:0:0:0:
205,88,151884,2,0,L|263:72,1,55,8|8,0:0|0:0,0:0:0:0:
310,88,152106,2,0,L|368:72,1,55,8|8,0:0|0:0,0:0:0:0:
417,64,152328,70,0,P|436:116|431:179,1,110,8|8,0:2|0:3,0:0:0:0:
406,218,152662,1,4,0:3:0:0:
375,263,152773,2,0,L|379:319,1,55,4|8,0:3|0:3,0:0:0:0:
331,345,152995,2,0,L|275:349,1,55,4|8,0:3|0:3,0:0:0:0:
220,352,153217,1,8,0:2:0:0:
155,264,153439,2,0,L|157:207,2,55,8|8|8,0:0|0:3|0:3,0:0:0:0:
71,335,153884,1,8,0:0:0:0:
16,239,154106,6,0,L|12:130,1,110,4|8,0:3|0:0,0:0:0:0:
89,51,154550,2,0,L|145:61,2,55,8|8|8,0:3|0:3|0:3,0:0:0:0:
287,349,155884,53,8,0:2:0:0:
230,254,156106,2,0,L|238:187,1,55,4|4,0:3|0:3,0:0:0:0:
287,178,156328,2,0,L|279:111,1,55,8|8,0:2|0:2,0:0:0:0:
228,105,156550,2,0,L|236:38,1,55,8|8,0:2|0:2,0:0:0:0:
283,24,156773,1,8,0:3:0:0:
336,35,156884,1,8,0:2:0:0:
389,47,156995,2,0,P|407:86|406:114,1,55,8|4,0:3|0:3,0:0:0:0:
384,147,157217,2,0,P|366:186|367:214,1,55,4|8,0:3|0:2,0:0:0:0:
386,247,157439,2,0,P|404:286|403:314,1,55,8|8,0:3|0:2,0:0:0:0:
369,340,157662,6,0,L|242:354,1,110,0|8,0:0|0:0,0:0:0:0:
204,355,157995,1,8,0:3:0:0:
111,296,158217,1,8,0:3:0:0:
72,256,158328,2,0,L|79:191,1,55,8|4,0:0|0:3,0:0:0:0:
74,146,158550,2,0,P|51:126|23:119,2,55,4|8|8,0:3|0:3|0:3,0:0:0:0:
184,141,158995,85,8,0:2:0:0:
237,129,159106,1,8,0:2:0:0:
290,117,159217,1,8,0:2:0:0:
343,106,159328,1,8,0:2:0:0:
397,95,159439,6,0,P|428:129|393:186,1,110,8|8,0:3|0:3,0:0:0:0:
310,239,159884,2,0,P|285:284|317:325,1,110,8|8,0:3|0:3,0:0:0:0:
424,350,160328,1,0,0:0:0:0:
481,256,160550,2,0,L|474:198,1,55,8|0,0:0|0:0,0:0:0:0:
490,148,160773,2,0,P|447:156|375:128,1,110,0|8,0:0|0:1,0:0:0:0:
295,73,161217,86,0,L|234:67,2,55,8|4|8,0:3|0:3|0:0,0:0:0:0:
277,125,161550,2,0,L|221:150,2,55,8|4|8,0:3|0:3|0:0,0:0:0:0:
270,180,161884,2,0,L|234:229,1,55,4|4,0:3|0:3,0:0:0:0:
207,270,162106,5,4,0:3:0:0:
99,247,162328,2,0,L|87:174,1,55,4|8,0:3|0:3,0:0:0:0:
81,137,162550,2,0,P|124:102|177:111,1,110,4|8,0:3|0:3,0:0:0:0:
256,183,162995,5,4,0:0:0:0:
256,192,163217,12,0,165217,0:0:0:0:
