osu file format v14

[General]
AudioFilename: jjj.mp3
AudioLeadIn: 0
PreviewTime: 63439
Countdown: 0
SampleSet: Normal
StackLeniency: 0.3
Mode: 0
LetterboxInBreaks: 0
WidescreenStoryboard: 0

[Editor]
Bookmarks: 439,6221,34662,38551,52773,63439,77662,91884,106106,120328,134550,141662,148773,154995,162995
DistanceSpacing: 0.5
BeatDivisor: 4
GridSize: 4
TimelineZoom: 2.4

[Metadata]
Title:SLOTcore Is Dead
TitleUnicode:SLOTcore Is Dead
Artist:sHimaU
ArtistUnicode:sHimaU
Creator:Arphimigon
Version:SEVEN
Source:
Tags:electronic breakcore japanese Miracle High Tension dodo naruto da astrosexy spaced streams high bpm fullscreen jumps
BeatmapID:965283
BeatmapSetID:306012

[Difficulty]
HPDrainRate:5
CircleSize:3.5
OverallDifficulty:9.5
ApproachRate:9.6
SliderMultiplier:2
SliderTickRate:1

[Events]
//Background and Video events
0,0,"kek.jpg",0,0
//Break Periods
2,3608,5712
2,52973,62930
2,106306,119819
//Storyboard Layer 0 (Background)
//Storyboard Layer 1 (Fail)
//Storyboard Layer 2 (Pass)
//Storyboard Layer 3 (Foreground)
//Storyboard Layer 4 (Overlay)
//Storyboard Sound Samples

[TimingPoints]
439,226.415094339623,4,1,2,65,1,0
6221,222.222222222222,4,1,2,65,1,0
9443,-66.6666666666667,4,1,2,65,0,0
9776,-80,4,1,2,65,0,0
10109,-100,4,1,2,65,0,0
12998,-83.3333333333333,4,1,2,65,0,0
13332,-100,4,1,2,65,0,0
15109,-100,4,3,2,65,0,0
15554,-100,4,1,2,65,0,0
17220,-83.3333333333333,4,1,2,65,0,0
21998,-133.333333333333,4,1,2,65,0,0
22220,-100,4,1,2,65,0,0
26443,-66.6666666666667,4,1,2,65,0,0
26665,-100,4,1,2,65,0,0
28220,-133.333333333333,4,1,2,65,0,0
28443,-76.9230769230769,4,1,2,65,0,0
30054,-76.9230769230769,4,1,2,5,0,0
30109,-76.9230769230769,4,1,2,65,0,0
30165,-76.9230769230769,4,1,2,5,0,0
30220,-76.9230769230769,4,1,2,65,0,0
32887,-100,4,1,2,65,0,0
34662,327.868852459016,4,1,2,65,1,0
38551,222.222222222222,4,1,2,65,1,0
40328,-90.9090909090909,4,1,2,65,0,0
42995,-66.6666666666667,4,1,2,65,0,0
43884,-83.3333333333333,4,1,2,65,0,0
45662,-100,4,1,2,65,0,0
47439,-83.3333333333333,4,1,2,65,0,0
52328,-133.333333333333,4,1,2,65,0,0
63439,-200,4,1,2,65,0,0
77662,-66.6666666666667,4,1,2,65,0,1
80106,-57.1428571428571,4,1,2,65,0,1
80328,-66.6666666666667,4,1,2,65,0,1
87217,-57.1428571428571,4,1,2,65,0,1
87439,-66.6666666666667,4,1,2,65,0,1
91884,-66.6666666666667,4,1,2,65,0,0
92328,-66.6666666666667,4,1,2,65,0,1
101439,-50,4,1,2,65,0,1
101662,-66.6666666666667,4,1,2,65,0,1
104995,-57.1428571428571,4,1,2,65,0,1
105217,-66.6666666666667,4,1,2,65,0,1
106106,-66.6666666666667,4,1,2,65,0,0
120328,-100,4,1,2,65,0,0
123439,-133.333333333333,4,1,2,65,0,0
123884,-100,4,1,2,65,0,0
126995,-133.333333333333,4,1,2,65,0,0
127439,-100,4,1,2,65,0,0
130550,-133.333333333333,4,1,2,65,0,0
130995,-100,4,1,2,65,0,0
134106,-133.333333333333,4,1,2,65,0,0
134550,-100,4,1,2,65,0,0
137662,-133.333333333333,4,1,2,65,0,0
138106,-100,4,1,2,65,0,0
141217,-133.333333333333,4,1,2,65,0,0
141662,-80,4,1,2,65,0,0
142550,-100,4,1,2,65,0,0
148773,-76.9230769230769,4,1,2,65,0,0
155884,-66.6666666666667,4,1,2,65,0,0
162106,-80,4,1,2,65,0,0
162328,-100,4,1,2,65,0,0
162550,-125,4,1,2,65,0,0
163050,-125,4,1,2,35,0,0
163884,-125,4,1,2,25,0,0
164773,-125,4,1,2,15,0,0
164995,-125,4,1,2,10,0,0
165217,-125,4,1,2,5,0,0

[Colours]
Combo1 : 230,0,0
Combo2 : 230,230,230
Combo3 : 180,180,180
Combo4 : 106,106,106
Combo5 : 255,0,255
Combo6 : 255,128,255
Combo7 : 255,0,0

[HitObjects]
256,33,439,5,0,0:0:0:0:
256,351,891,1,0,0:0:0:0:
256,33,1344,1,0,0:0:0:0:
256,192,1571,2,0,L|256:251,4,50,0|0|0|0|0,0:0|0:0|0:0|0:0|0:0,0:0:0:0:
138,271,2023,2,0,L|138:330,2,50,0|0|0,0:0|0:0|0:0,0:0:0:0:
138,192,2250,1,0,0:0:0:0:
374,192,2476,1,0,0:0:0:0:
102,110,2703,1,0,0:0:0:0:
409,110,2929,1,0,0:0:0:0:
64,25,3155,5,0,0:0:0:0:
151,66,6221,85,8,0:3:0:0:
177,214,6332,1,4,0:3:0:0:
36,162,6443,1,8,0:0:0:0:
256,101,6554,1,4,0:3:0:0:
280,103,6609,1,4,0:3:0:0:
304,111,6665,2,0,P|319:158|319:208,1,100,4|0,0:3|0:0,0:0:0:0:
177,214,6887,1,8,0:0:0:0:
387,48,6998,6,0,P|417:142|417:242,1,200,8|0,0:2|0:0,0:0:0:0:
256,352,7332,1,2,0:2:0:0:
319,208,7443,1,4,0:3:0:0:
393,340,7554,2,0,P|444:342|492:310,2,100,0|0|2,3:0|3:0|3:2,0:0:0:0:
222,245,7887,1,8,0:2:0:0:
126,348,7998,5,4,0:3:0:0:
45,199,8109,1,4,0:3:0:0:
46,180,8164,1,4,0:3:0:0:
47,161,8220,1,8,0:1:0:0:
180,140,8332,1,4,0:3:0:0:
177,102,8387,1,4,0:3:0:0:
174,65,8443,2,0,L|171:11,2,50,4|4|4,0:3|0:3|0:3,0:0:0:0:
310,56,8665,2,0,L|426:67,1,100,8|0,0:0|0:0,0:0:0:0:
346,223,8887,70,0,P|328:266|382:281,1,100,4|0,0:3|0:0,0:0:0:0:
264,175,9109,2,0,P|232:265|288:360,1,200,4|4,0:3|0:3,0:0:0:0:
467,227,9443,70,0,L|448:59,1,150.000005722046,8|0,0:1|0:0,0:0:0:0:
367,287,9665,1,4,0:2:0:0:
273,42,9776,6,0,P|177:39|220:158,1,250,8|0,0:1|0:0,0:0:0:0:
41,60,10109,5,0,0:0:0:0:
43,68,10165,1,0,0:0:0:0:
45,76,10220,2,0,L|40:134,3,50,4|4|4|4,0:3|0:3|0:3|0:3,0:0:0:0:
61,163,10443,2,0,L|56:221,3,50,0|0|0|0,0:0|0:0|0:0|0:0,0:0:0:0:
84,242,10665,5,2,0:2:0:0:
191,253,10776,1,8,0:3:0:0:
64,363,10887,5,2,0:2:0:0:
231,341,10998,1,8,0:3:0:0:
139,169,11109,70,0,L|141:103,4,50,0|0|0|0|0,0:0|0:0|0:0|0:0|0:0,0:0:0:0:
139,302,11443,1,0,0:0:0:0:
324,262,11554,1,0,0:0:0:0:
290,58,11665,1,8,0:3:0:0:
290,58,11720,1,8,0:3:0:0:
290,58,11776,2,0,L|305:119,2,50,12|4|4,0:3|0:3|0:3,0:0:0:0:
35,77,11998,5,4,0:3:0:0:
194,57,12109,1,8,0:3:0:0:
58,62,12220,1,4,0:3:0:0:
170,71,12331,1,4,0:3:0:0:
41,232,12443,2,0,L|34:339,1,100,8|4,0:3|0:3,0:0:0:0:
256,259,12665,2,0,L|249:159,1,100,4|4,0:3|0:3,0:0:0:0:
152,344,12887,1,2,0:2:0:0:
365,305,12998,54,0,L|426:310,1,59.9999981689454,8|0,0:2|0:0,0:0:0:0:
405,192,13109,2,0,L|472:192,1,59.9999981689454,8|0,0:2|0:0,0:0:0:0:
365,79,13220,2,0,L|426:74,1,59.9999981689454,4|4,0:3|0:3,0:0:0:0:
249,159,13332,2,0,P|191:176|106:120,1,150,4|0,0:0|0:0,0:0:0:0:
93,91,13554,21,2,0:2:0:0:
256,52,13665,1,2,0:2:0:0:
117,261,13776,2,0,P|74:234|39:198,2,100,8|4|0,0:3|0:3|0:0,0:0:0:0:
249,159,14109,1,8,0:3:0:0:
112,353,14220,5,2,0:3:0:0:
221,242,14332,1,8,0:3:0:0:
362,348,14443,2,0,P|425:338|456:310,1,100,8|8,0:1|0:3,0:0:0:0:
364,88,14665,1,2,0:2:0:0:
370,243,14776,1,4,0:3:0:0:
460,121,14887,1,8,0:2:0:0:
266,127,14998,1,8,0:2:0:0:
136,312,15109,6,0,L|140:372,2,50,8|0|0,3:2|3:0|3:2,0:0:0:0:
80,136,15332,2,0,L|84:76,2,50,8|0|0,3:2|3:0|3:2,0:0:0:0:
256,192,15554,2,0,B|356:184|356:184|432:252,1,200,8|2,0:0|0:2,0:0:0:0:
315,307,15887,1,2,0:2:0:0:
228,39,15998,70,0,L|327:28,1,100,4|0,0:3|0:0,0:0:0:0:
439,58,16220,1,8,0:0:0:0:
139,0,16332,2,0,P|131:48|148:95,1,100,4|4,0:3|0:3,0:0:0:0:
408,228,16554,86,0,L|411:292,1,50,2|0,0:2|0:0,0:0:0:0:
251,257,16665,2,0,L|247:192,1,50,2|0,0:2|0:0,0:0:0:0:
375,249,16776,2,0,L|378:313,1,50,2|0,0:2|0:0,0:0:0:0:
216,236,16887,2,0,L|204:36,1,200,8|0,0:2|0:0,0:0:0:0:
96,244,17220,6,0,L|337:229,1,239.999992675781,8|0,0:1|0:0,0:0:0:0:
292,112,17554,1,4,0:3:0:0:
295,171,17609,1,4,0:3:0:0:
299,231,17665,1,4,0:3:0:0:
303,291,17720,1,4,0:3:0:0:
305,347,17776,6,0,P|386:284|298:231,1,239.999992675781,4|8,0:3|0:0,0:0:0:0:
199,297,18109,1,0,0:0:0:0:
486,338,18220,1,8,0:0:0:0:
491,308,18275,1,4,0:3:0:0:
492,278,18331,1,8,0:3:0:0:
443,59,18443,2,0,P|426:129|444:189,1,119.999996337891,8|4,0:3|0:3,0:0:0:0:
226,265,18665,5,4,0:3:0:0:
143,127,18776,1,4,0:3:0:0:
293,126,18887,1,8,0:0:0:0:
75,256,18998,2,0,L|19:290,3,59.9999981689454,4|8|4|4,0:3|0:3|0:3|0:3,0:0:0:0:
116,233,19220,1,0,0:0:0:0:
210,343,19332,1,0,0:0:0:0:
125,207,19443,1,0,0:0:0:0:
259,360,19554,70,0,P|330:361|368:222,1,239.999992675781,8|0,0:2|0:0,0:0:0:0:
296,276,19887,1,4,0:3:0:0:
330,304,19942,1,4,0:3:0:0:
373,314,19998,1,4,0:3:0:0:
417,305,20053,1,4,0:3:0:0:
452,277,20109,86,0,L|460:131,1,119.999996337891,4|0,0:0|0:0,0:0:0:0:
159,350,20443,5,4,0:3:0:0:
59,277,20554,2,0,L|52:131,1,119.999996337891,4|0,0:3|0:0,0:0:0:0:
191,36,20776,1,4,0:3:0:0:
191,36,20887,2,0,L|198:182,1,119.999996337891,4|0,0:3|0:0,0:0:0:0:
429,164,21109,6,0,P|353:110|342:221,1,239.999992675781,0|0,0:0|0:0,0:0:0:0:
427,276,21443,1,0,0:0:0:0:
231,323,21554,1,4,0:3:0:0:
186,318,21609,1,4,0:3:0:0:
141,313,21665,1,4,0:3:0:0:
96,308,21720,1,4,0:3:0:0:
52,303,21776,2,0,L|44:242,3,59.9999981689454,8|4|4|4,0:3|0:3|0:3|0:3,0:0:0:0:
39,206,21998,2,0,P|97:185|118:110,1,112.500004291535,0|0,0:0|0:0,0:0:0:0:
120,91,22220,54,0,L|321:69,1,200,2|4,0:2|0:3,0:0:0:0:
91,59,22554,2,0,L|292:37,1,200,0|4,0:0|0:3,0:0:0:0:
430,231,22887,6,0,L|229:209,1,200,8|4,0:2|0:3,0:0:0:0:
459,199,23221,2,0,L|258:177,1,200,0|4,0:0|0:3,0:0:0:0:
56,302,23554,85,4,0:0:0:0:
456,82,23776,1,4,0:0:0:0:
20,157,23998,22,0,L|37:47,1,100,0|0,0:0|0:0,0:0:0:0:
136,15,24220,1,0,0:0:0:0:
194,196,24332,2,0,L|211:86,1,100,0|0,0:0|0:0,0:0:0:0:
136,15,24554,1,0,0:0:0:0:
92,261,24665,2,0,L|107:359,1,100,4|4,0:3|0:3,0:0:0:0:
431,286,24887,70,0,P|434:210|413:174,1,100,4|0,0:0|0:0,0:0:0:0:
275,164,25109,1,0,0:0:0:0:
446,289,25220,2,0,P|468:216|457:176,1,100,4|0,0:0|0:0,0:0:0:0:
326,130,25442,1,0,0:0:0:0:
463,297,25554,2,0,P|503:232|503:191,1,100,4|0,0:0|0:0,0:0:0:0:
358,30,25776,21,8,0:0:0:0:
174,79,25887,2,0,L|64:69,1,100,8|0,0:0|0:0,0:0:0:0:
380,21,26109,2,0,L|490:31,1,100,8|0,0:0|0:0,0:0:0:0:
196,72,26332,1,8,0:0:0:0:
375,164,26443,86,0,P|380:220|327:176,1,150.000005722046,4|0,0:0|0:0,0:0:0:0:
482,234,26665,21,4,0:3:0:0:
479,258,26720,1,0,0:0:0:0:
477,283,26776,1,4,0:3:0:0:
475,308,26831,1,4,0:3:0:0:
471,333,26887,2,0,L|501:380,3,50,8|8|8|8,0:3|0:3|0:3|0:3,0:0:0:0:
373,325,27109,2,0,L|365:380,3,50,0|0|0|0,0:0|0:0|0:0|0:0,0:0:0:0:
268,320,27332,1,4,0:3:0:0:
232,332,27387,1,4,0:3:0:0:
195,333,27443,1,4,0:3:0:0:
160,321,27498,1,4,0:3:0:0:
130,298,27554,6,0,L|120:183,2,100,4|8|4,0:3|0:3|0:3,0:0:0:0:
236,237,27887,1,2,0:2:0:0:
20,260,27998,1,2,0:2:0:0:
236,237,28109,1,2,0:2:0:0:
38,141,28220,86,0,L|45:45,1,75.0000028610231,8|0,0:2|0:0,0:0:0:0:
171,67,28443,86,0,P|263:163|202:36,1,389.999982147218,2|4,0:2|0:3,0:0:0:0:
144,225,28887,1,4,0:3:0:0:
203,248,28942,1,4,0:3:0:0:
268,248,28998,1,4,0:3:0:0:
327,222,29053,1,4,0:3:0:0:
373,176,29109,2,0,L|443:169,3,64.9999970245363,4|4|4|4,0:3|0:3|0:3|0:3,0:0:0:0:
397,69,29332,69,2,0:3:0:0:
418,276,29443,1,2,0:3:0:0:
299,123,29554,1,2,0:3:0:0:
258,343,29665,38,0,P|173:356|109:206,1,259.999988098145,4|4,0:2|0:3,0:0:0:0:
232,168,29998,2,0,L|237:232,1,64.9999970245363,8|0,0:0|0:0,0:0:0:0:
147,97,30109,2,0,L|142:33,1,64.9999970245363,8|0,0:0|0:0,0:0:0:0:
287,93,30220,5,4,0:3:0:0:
106,168,30332,1,4,0:3:0:0:
95,172,30387,1,4,0:3:0:0:
84,176,30443,2,0,L|11:170,1,64.9999970245363,4|4,0:3|0:3,0:0:0:0:
69,296,30554,1,4,0:3:0:0:
69,296,30776,85,0,0:0:0:0:
239,255,30887,1,0,0:0:0:0:
45,262,30998,1,0,0:0:0:0:
288,345,31109,86,0,B|416:352|416:352|493:231,1,259.999988098145,2|0,0:2|0:0,0:0:0:0:
224,39,31443,2,0,B|96:32|96:32|19:153,1,259.999988098145,2|0,0:2|0:0,0:0:0:0:
378,104,31776,1,2,0:2:0:0:
134,280,32109,1,4,3:3:0:0:
248,118,32443,5,2,3:2:0:0:
263,264,32554,1,2,3:2:0:0:
212,131,32665,1,2,3:2:0:0:
298,251,32776,1,2,3:2:0:0:
450,121,32887,6,0,L|460:17,2,100,4|4|0,0:3|0:3|0:0,0:0:0:0:
385,252,33220,2,0,L|395:356,2,100,8|4|8,3:0|3:3|3:3,0:0:0:0:
254,113,33554,2,0,L|264:9,2,100,8|4|0,3:0|0:3|0:0,0:0:0:0:
175,230,33887,2,0,L|185:334,2,100,8|4|4,0:3|0:3|0:3,0:0:0:0:
93,75,34220,69,8,0:3:0:0:
31,207,34332,1,4,0:3:0:0:
31,207,34387,1,4,0:3:0:0:
31,207,34443,2,0,L|38:262,3,50,4|4|4|4,0:3|0:3|0:3|0:3,0:0:0:0:
13,294,34662,38,0,P|59:296|114:285,1,100,4|0,0:3|0:0,0:0:0:0:
111,110,34989,2,0,P|62:99|12:101,1,100,4|0,0:3|0:0,0:0:0:0:
111,285,35317,6,0,P|159:295|209:293,1,100,4|0,0:3|0:0,0:0:0:0:
209,101,35645,2,0,P|159:98|110:109,1,100,4|0,0:3|0:0,0:0:0:0:
302,293,35973,86,0,P|352:295|401:285,1,100,4|0,0:3|0:0,0:0:0:0:
401,99,36301,2,0,P|352:88|302:90,1,100,4|0,0:3|0:0,0:0:0:0:
400,285,36629,6,0,P|449:296|499:294,1,100
498,89,36957,2,0,P|449:87|400:99,1,100
262,310,37284,86,0,B|153:335|173:299|64:318,1,200,4|0,0:3|0:0,0:0:0:0:
250,74,37940,6,0,B|359:49|339:85|448:66,1,200,4|0,0:3|0:0,0:0:0:0:
61,90,38551,38,0,L|54:198,1,100,4|8,0:3|0:3,0:0:0:0:
177,44,38773,2,0,L|170:152,1,100,4|4,0:3|0:3,0:0:0:0:
294,107,38995,1,8,0:3:0:0:
292,131,39050,1,4,0:3:0:0:
290,156,39106,1,8,0:3:0:0:
289,181,39161,1,4,0:3:0:0:
287,206,39217,1,4,0:3:0:0:
451,353,39439,5,4,0:3:0:0:
431,186,39551,1,4,0:3:0:0:
427,364,39662,1,8,0:0:0:0:
335,190,39773,1,4,0:3:0:0:
287,342,39884,5,8,0:2:0:0:
476,270,39995,1,4,0:3:0:0:
312,113,40106,2,0,L|292:33,3,50,8|4|4|4,0:2|0:3|0:3|0:3,0:0:0:0:
307,30,40328,70,0,P|252:62|87:47,1,220.000006713867,4|8,0:3|0:3,0:0:0:0:
205,354,40773,2,0,P|260:322|425:337,1,220.000006713867,4|8,0:3|0:3,0:0:0:0:
307,30,41217,70,0,L|298:85,3,55.0000016784668,4|0|0|0,0:3|0:0|0:0|0:0,0:0:0:0:
315,115,41439,2,0,L|306:170,3,55.0000016784668,4|0|0|0,0:3|0:0|0:0|0:0,0:0:0:0:
321,202,41662,5,4,0:3:0:0:
290,233,41717,1,8,0:3:0:0:
249,247,41773,1,4,0:3:0:0:
206,241,41828,1,8,0:3:0:0:
170,216,41884,1,8,0:3:0:0:
462,271,42106,85,2,0:2:0:0:
407,78,42217,1,2,0:2:0:0:
462,271,42328,1,2,0:2:0:0:
407,78,42439,22,0,P|313:52|239:144,1,220.000006713867,4|4,0:3|0:3,0:0:0:0:
355,247,42773,2,0,P|358:193|336:144,1,110.000003356934,4|0,0:3|0:0,0:0:0:0:
102,354,42995,70,0,L|278:330,1,150.000005722046,2|0,0:2|0:0,0:0:0:0:
121,97,43217,1,4,0:3:0:0:
78,251,43328,1,4,0:3:0:0:
223,73,43439,1,8,0:3:0:0:
290,235,43550,1,8,0:3:0:0:
54,157,43662,2,0,P|54:90|121:97,1,150.000005722046,2|0,0:2|0:0,0:0:0:0:
290,235,43884,22,0,L|425:224,1,119.999996337891,0|0,0:0|0:0,0:0:0:0:
277,54,44106,2,0,L|142:43,1,119.999996337891,0|0,0:0|0:0,0:0:0:0:
394,129,44328,1,0,0:0:0:0:
213,153,44439,1,0,0:0:0:0:
408,149,44550,1,0,0:0:0:0:
201,132,44662,1,0,0:0:0:0:
344,282,44773,5,0,0:0:0:0:
323,42,44884,2,0,L|343:281,1,239.999992675781,0|0,0:0|0:0,0:0:0:0:
123,344,45217,5,0,0:0:0:0:
145,105,45328,2,0,L|124:344,1,239.999992675781,0|0,0:0|0:0,0:0:0:0:
392,324,45662,70,0,P|401:276|387:227,1,100,4|0,0:3|0:0,0:0:0:0:
246,234,45884,2,0,P|236:282|251:331,1,100,4|0,0:3|0:3,0:0:0:0:
400,324,46106,6,0,P|409:275|394:226,1,100,4|0,0:3|0:3,0:0:0:0:
238,234,46328,2,0,P|228:282|243:331,1,100,4|0,0:3|0:0,0:0:0:0:
483,183,46550,5,8,0:3:0:0:
484,145,46605,1,8,0:3:0:0:
472,110,46661,1,4,0:3:0:0:
449,81,46716,1,4,0:3:0:0:
416,63,46773,2,0,L|308:69,1,100,8|8,0:3|0:3,0:0:0:0:
172,135,46995,1,4,0:3:0:0:
324,157,47106,1,4,0:3:0:0:
198,36,47217,1,8,0:3:0:0:
230,204,47328,1,0,0:0:0:0:
8,129,47439,70,0,L|18:-1,1,119.999996337891,4|8,0:3|0:3,0:0:0:0:
242,221,47662,2,0,L|232:351,1,119.999996337891,4|4,0:3|0:3,0:0:0:0:
147,125,47884,2,0,L|157:-5,1,119.999996337891,8|4,0:3|0:3,0:0:0:0:
381,217,48107,2,0,L|371:347,1,119.999996337891,4|8,0:3|0:3,0:0:0:0:
156,358,48328,6,0,B|95:354|95:354|152:336,1,119.999996337891,8|0,0:0|0:0,0:0:0:0:
381,217,48550,2,0,B|442:213|442:213|385:195,1,119.999996337891,8|0,0:0|0:0,0:0:0:0:
112,239,48773,69,4,0:3:0:0:
82,205,48828,1,4,0:3:0:0:
76,161,48884,1,8,0:3:0:0:
93,120,48939,1,4,0:3:0:0:
130,95,48995,1,4,0:3:0:0:
174,93,49050,1,4,0:3:0:0:
213,115,49106,1,8,0:3:0:0:
234,154,49161,1,8,0:3:0:0:
230,199,49217,6,0,L|237:258,5,59.9999981689454,2|0|2|0|2|0,0:2|0:0|0:2|0:0|0:2|0:0,0:0:0:0:
282,297,49550,2,0,P|364:296|366:134,1,239.999992675781,8|8,0:0|0:0,0:0:0:0:
160,255,49884,1,4,0:3:0:0:
322,214,49995,1,4,0:3:0:0:
59,186,50106,5,4,0:3:0:0:
54,223,50161,1,4,0:3:0:0:
50,260,50217,1,4,0:3:0:0:
46,297,50272,1,4,0:3:0:0:
41,334,50328,1,4,0:3:0:0:
174,287,50550,5,4,0:3:0:0:
79,262,50661,1,0,0:0:0:0:
77,281,50716,1,0,0:0:0:0:
75,299,50772,1,4,0:3:0:0:
447,321,50995,70,0,L|454:189,1,119.999996337891,8|4,0:3|0:3,0:0:0:0:
242,185,51217,2,0,L|235:317,1,119.999996337891,8|4,3:3|3:3,0:0:0:0:
339,350,51439,1,0,0:0:0:0:
340,320,51495,1,0,0:0:0:0:
342,290,51550,1,0,0:0:0:0:
343,260,51606,1,0,0:0:0:0:
345,230,51662,1,0,0:0:0:0:
346,200,51717,1,4,0:3:0:0:
348,170,51773,1,4,0:3:0:0:
349,139,51828,1,4,0:3:0:0:
351,110,51884,2,0,L|354:43,7,59.9999981689454,8|8|8|8|8|8|8|8,0:3|0:3|0:3|0:3|0:3|0:3|0:3|0:3,0:0:0:0:
305,113,52328,86,0,B|291:106|291:106|277:109|277:109|265:104|265:104|250:107|250:107|235:101,1,75.0000028610231,8|0,0:2|0:0,0:0:0:0:
447,321,52773,5,4,0:1:0:0:
468,90,63439,6,0,L|359:85,1,100,4|0,0:3|0:0,0:0:0:0:
472,256,64106,1,8,0:3:0:0:
392,196,64328,2,0,L|292:192,1,100,8|0,0:3|0:0,0:0:0:0:
256,284,64773,2,0,L|207:281,1,50,8|0,0:3|0:0,0:0:0:0:
164,304,64995,2,0,L|115:301,1,50,8|0,0:3|0:0,0:0:0:0:
36,236,65217,6,0,P|55:195|46:141,1,100,4|0,0:3|0:0,0:0:0:0:
13,102,65550,1,8,0:3:0:0:
29,54,65662,2,0,L|68:12,2,50,8|0|8,0:3|0:0|0:3,0:0:0:0:
120,216,66106,2,0,P|161:235|215:226,1,100,4|0,0:3|0:0,0:0:0:0:
280,152,66550,2,0,L|289:84,2,50,4|0|0,0:3|0:0|0:0,0:0:0:0:
425,294,66995,70,0,B|446:248|446:248|435:192,1,100,4|0,0:3|0:0,0:0:0:0:
256,112,67439,2,0,L|256:212,1,100,4|8,0:3|0:3,0:0:0:0:
87,294,67884,2,0,B|66:248|66:248|76:199,1,100,8|0,0:3|0:0,0:0:0:0:
175,341,68328,2,0,L|227:344,1,50,8|0,0:3|0:0,0:0:0:0:
256,304,68550,2,0,L|308:307,1,50,8|0,0:3|0:0,0:0:0:0:
426,352,68773,6,0,L|411:234,1,100,8|0,0:3|0:0,0:0:0:0:
382,214,69106,1,8,0:3:0:0:
349,177,69217,2,0,L|339:107,2,50,8|0|0,0:3|0:0|0:2,0:0:0:0:
48,204,69662,2,0,P|43:146|64:92,1,100,8|0,0:3|0:0,0:0:0:0:
185,220,70106,2,0,L|192:280,1,50,8|0,0:3|0:0,0:0:0:0:
236,292,70328,2,0,L|243:352,1,50,8|0,0:3|0:0,0:0:0:0:
280,372,70550,6,0,L|392:379,1,100,4|0,0:3|0:0,0:0:0:0:
452,192,71217,1,4,0:3:0:0:
376,128,71439,2,0,L|383:16,1,100,4|0,0:3|0:0,0:0:0:0:
296,80,71884,2,0,L|241:74,1,50,4|0,0:3|0:0,0:0:0:0:
220,116,72106,2,0,L|165:110,1,50,4|0,0:3|0:0,0:0:0:0:
64,96,72328,70,0,P|75:158|68:201,1,100,4|0,0:3|0:0,0:0:0:0:
50,240,72662,1,8,0:3:0:0:
36,340,72884,1,4,0:3:0:0:
80,364,72995,2,0,L|136:372,1,50,8|0,0:3|0:0,0:0:0:0:
172,344,73217,2,0,P|222:331|280:344,1,100,4|0,0:3|0:0,0:0:0:0:
372,360,73662,2,0,L|429:366,2,50,0|0|0,0:0|0:0|0:0,0:0:0:0:
333,103,74106,6,0,L|351:210,1,100,4|0,0:3|0:0,0:0:0:0:
163,201,74550,2,0,L|179:103,1,100,4|8,0:3|0:3,0:0:0:0:
340,304,74995,2,0,P|276:348|172:304,1,200,8|4,0:3|0:3,0:0:0:0:
256,248,75662,1,8,0:3:0:0:
256,96,75884,6,0,P|192:84|152:96,1,100,0|0,0:3|0:0,0:0:0:0:
116,116,76217,1,8,0:3:0:0:
92,159,76328,2,0,P|84:183|84:208,2,50,8|0|0,0:3|0:0|0:0,0:0:0:0:
280,46,77662,38,0,L|225:341,1,300.000011444092,4|8,0:3|0:3,0:0:0:0:
399,221,77995,2,0,L|105:166,1,300.000011444092,4|8,0:3|0:3,0:0:0:0:
436,130,78328,2,0,P|486:175|472:286,1,150.000005722046,4|4,0:3|0:3,0:0:0:0:
308,350,78550,5,4,0:3:0:0:
399,221,78662,1,4,0:3:0:0:
466,352,78773,1,4,0:3:0:0:
267,252,78884,1,4,0:3:0:0:
102,349,78995,2,0,L|83:195,1,150.000005722046,8|4,0:3|0:3,0:0:0:0:
208,96,79217,1,8,0:3:0:0:
261,101,79272,1,8,0:3:0:0:
288,55,79328,1,8,0:3:0:0:
257,12,79383,1,8,0:3:0:0:
205,21,79439,86,0,L|198:178,1,150.000005722046,8|8,0:2|0:2,0:0:0:0:
84,200,79662,1,8,0:2:0:0:
285,123,79773,2,0,B|278:274|278:274|333:135,1,300.000011444092,8|8,0:2|0:3,0:0:0:0:
201,283,80106,6,0,P|250:348|339:324,1,175.00000166893,8|4,0:2|0:3,0:0:0:0:
483,238,80328,85,4,0:3:0:0:
278,274,80439,1,8,0:3:0:0:
472,100,80551,1,8,0:3:0:0:
482,47,80606,1,8,0:3:0:0:
442,11,80662,1,8,0:3:0:0:
390,27,80717,1,0,0:0:0:0:
379,80,80773,2,0,B|303:75|303:75|245:124|245:124|165:117,2,225.000008583069,8|8|8,0:0|0:0|0:0,0:0:0:0:
127,44,81217,6,0,P|88:93|110:181,1,150.000005722046,4|0,0:3|0:0,0:0:0:0:
238,261,81439,1,4,0:3:0:0:
78,278,81550,1,4,0:3:0:0:
275,163,81662,2,0,L|435:172,1,150.000005722046,8|0,0:3|0:0,0:0:0:0:
285,367,81884,2,0,L|125:358,1,150.000005722046,8|0,0:3|0:0,0:0:0:0:
46,130,82106,86,0,P|18:220|58:278,1,150.000005722046,8|0,0:3|0:0,0:0:0:0:
245,220,82328,1,8,0:3:0:0:
111,200,82439,1,8,0:3:0:0:
320,292,82550,1,8,0:3:0:0:
341,261,82605,1,0,0:0:0:0:
350,225,82661,1,8,0:3:0:0:
343,188,82716,1,0,0:0:0:0:
323,157,82773,2,0,L|334:2,1,150.000005722046,4|4,0:3|0:3,0:0:0:0:
221,170,82995,5,8,0:2:0:0:
498,135,83106,1,8,0:2:0:0:
428,330,83217,1,8,0:3:0:0:
385,310,83272,1,4,0:3:0:0:
339,302,83328,1,8,0:3:0:0:
293,309,83383,1,4,0:3:0:0:
248,323,83439,2,0,L|172:357,3,75.0000028610231,4|12|4|12,0:3|0:3|0:3|0:3,0:3:0:0:
129,349,83662,2,0,P|106:272|120:185,1,150.000005722046,4|0,0:3|0:3,0:0:0:0:
419,181,83884,86,0,L|429:347,1,150.000005722046,4|8,0:3|0:3,0:0:0:0:
232,172,84106,2,0,L|241:22,1,150.000005722046,4|4,0:3|0:3,0:0:0:0:
336,292,84328,5,8,0:0:0:0:
82,252,84439,1,8,0:0:0:0:
337,278,84550,1,8,0:0:0:0:
81,264,84661,1,8,0:0:0:0:
410,350,84773,86,0,P|439:288|405:201,1,150.000005722046,4|4,0:3|0:3,0:0:0:0:
220,161,84995,1,4,0:3:0:0:
253,330,85106,1,4,0:3:0:0:
313,163,85217,1,4,0:3:0:0:
131,197,85328,1,4,0:3:0:0:
337,278,85439,2,0,L|512:287,1,150.000005722046,4|4,0:3|0:3,0:0:0:0:
484,59,85662,5,4,0:3:0:0:
337,160,85773,1,4,0:3:0:0:
169,37,85884,1,8,0:3:0:0:
221,259,85995,1,4,0:3:0:0:
44,105,86106,2,0,L|22:269,1,150.000005722046,8|8,0:3|0:3,0:0:0:0:
217,316,86328,1,4,0:3:0:0:
221,259,86383,1,4,0:3:0:0:
166,237,86439,1,4,0:3:0:0:
130,280,86494,1,4,0:3:0:0:
160,330,86550,86,0,L|310:348,1,150.000005722046,8|8,0:2|0:2,0:0:0:0:
265,172,86773,1,8,0:2:0:0:
427,205,86884,2,0,B|452:56|452:56|305:20,1,300.000011444092,8|8,0:2|0:3,0:0:0:0:
142,353,87217,6,0,L|315:375,1,175.00000166893,8|4,0:2|0:3,0:0:0:0:
91,65,87439,85,2,0:2:0:0:
37,319,87550,1,2,0:2:0:0:
193,134,87662,1,8,0:3:0:0:
244,114,87717,1,4,0:3:0:0:
298,128,87773,1,8,0:3:0:0:
333,171,87828,1,4,0:3:0:0:
336,226,87884,2,0,P|408:298|459:217,2,225.000008583069,8|8|8,0:0|0:0|0:0,0:0:0:0:
338,45,88328,6,0,L|188:38,1,150.000005722046,4|4,0:3|0:3,0:0:0:0:
74,232,88550,1,8,0:3:0:0:
264,170,88662,1,8,0:3:0:0:
54,138,88773,1,4,0:3:0:0:
264,170,88885,1,4,0:3:0:0:
101,61,88995,1,8,0:3:0:0:
271,292,89217,85,4,0:3:0:0:
248,77,89328,1,8,0:3:0:0:
95,194,89439,1,4,0:3:0:0:
278,174,89550,5,8,0:3:0:0:
328,155,89605,1,8,0:3:0:0:
339,102,89661,1,8,0:3:0:0:
300,65,89716,1,8,0:3:0:0:
248,77,89773,1,8,0:3:0:0:
193,71,89828,1,8,0:3:0:0:
143,44,89884,2,0,P|167:128|141:192,1,150.000005722046,4|4,0:3|0:3,0:0:0:0:
42,340,90106,85,4,0:3:0:0:
213,241,90217,1,4,0:3:0:0:
350,361,90328,1,8,0:3:0:0:
257,141,90439,1,4,0:3:0:0:
257,141,90495,1,8,0:3:0:0:
257,141,90550,2,0,L|268:59,3,75.0000028610231,8|0|4|8,0:3|0:0|0:3|0:3,0:0:0:0:
228,217,90773,2,0,L|245:64,1,150.000005722046,4|0,0:3|0:0,0:0:0:0:
336,218,90995,5,8,0:0:0:0:
204,341,91106,1,8,0:0:0:0:
66,225,91217,1,0,0:0:0:0:
68,186,91272,1,0,0:0:0:0:
59,149,91328,1,0,0:0:0:0:
41,115,91383,1,0,0:0:0:0:
10,69,91439,86,0,B|45:-2|141:0|169:82|169:82|265:63|333:127|333:127|420:132|464:92,1,525.000020027161,2|0,3:0|3:0,0:0:0:0:
364,26,91884,6,0,L|359:126,1,75.0000028610231,8|0,0:0|0:0,0:0:0:0:
313,311,91995,2,0,L|308:211,1,75.0000028610231,8|0,0:0|0:0,0:0:0:0:
388,32,92106,2,0,L|366:130,1,75.0000028610231,8|0,0:0|0:0,0:0:0:0:
288,304,92217,2,0,L|301:205,1,75.0000028610231,8|0,0:0|0:0,0:0:0:0:
463,92,92328,86,0,L|470:249,1,150.000005722046,4|8,0:3|0:3,0:0:0:0:
398,350,92550,1,4,0:3:0:0:
354,316,92605,1,4,0:3:0:0:
300,304,92661,1,4,0:3:0:0:
245,314,92716,1,4,0:3:0:0:
199,347,92773,2,0,P|88:347|44:312,1,150.000005722046,8|4,0:3|0:3,0:0:0:0:
37,101,92995,5,4,0:3:0:0:
141,247,93106,1,4,0:3:0:0:
249,93,93217,1,8,0:3:0:0:
36,191,93328,1,8,0:3:0:0:
266,176,93439,1,8,0:3:0:0:
302,169,93494,1,4,0:3:0:0:
339,171,93550,1,8,0:3:0:0:
373,185,93605,1,4,0:3:0:0:
401,211,93662,86,0,L|419:370,1,150.000005722046,8|8,0:2|0:2,0:0:0:0:
499,155,93884,1,8,0:2:0:0:
324,305,93995,2,0,P|183:314|118:187,1,300.000011444092,8|8,0:2|0:2,0:0:0:0:
238,368,94328,2,0,P|169:351|108:295,1,150.000005722046,8|8,0:2|0:3,0:0:0:0:
233,51,94550,6,0,L|247:200,1,150.000005722046,8|0,0:2|0:0,0:0:0:0:
36,247,94773,1,4,0:3:0:0:
92,79,94884,1,4,0:3:0:0:
188,270,94995,1,4,0:3:0:0:
30,156,95106,1,8,0:3:0:0:
252,231,95217,1,4,0:3:0:0:
252,35,95328,1,4,0:3:0:0:
252,35,95384,1,4,0:3:0:0:
252,35,95439,86,0,L|97:27,1,150.000005722046,4|0,0:3|0:0,0:0:0:0:
27,203,95662,1,8,0:3:0:0:
219,180,95773,1,8,0:3:0:0:
70,311,95884,1,8,0:3:0:0:
124,67,95995,1,8,0:3:0:0:
166,268,96106,2,0,P|239:281|301:242,1,150.000005722046,8|0,0:3|0:0,0:0:0:0:
270,84,96328,6,0,P|197:71|135:110,1,150.000005722046,4|8,0:3|0:3,0:0:0:0:
86,319,96550,1,8,0:3:0:0:
216,175,96662,1,4,0:3:0:0:
17,186,96773,1,8,0:3:0:0:
166,268,96884,1,4,0:3:0:0:
33,113,96995,1,8,0:3:0:0:
25,150,97050,1,4,0:3:0:0:
17,186,97106,1,4,0:3:0:0:
9,223,97161,1,4,0:3:0:0:
1,260,97217,86,0,P|18:317|117:335,1,150.000005722046,8|8,0:2|0:2,0:0:0:0:
221,265,97439,1,4,0:3:0:0:
233,220,97494,1,4,0:3:0:0:
262,183,97550,1,4,0:3:0:0:
303,161,97605,1,4,0:3:0:0:
350,157,97661,1,8,0:3:0:0:
394,171,97716,1,8,0:3:0:0:
430,201,97772,1,8,0:3:0:0:
451,242,97827,1,8,0:3:0:0:
454,288,97884,2,0,L|438:138,1,150.000005722046,4|0,0:3|0:0,0:0:0:0:
309,42,98106,5,4,0:3:0:0:
211,109,98217,1,8,0:3:0:0:
115,39,98328,1,4,0:3:0:0:
17,106,98439,1,8,0:3:0:0:
113,294,98550,85,8,0:0:0:0:
211,149,98661,1,8,0:0:0:0:
307,301,98772,1,8,0:0:0:0:
405,156,98883,1,8,0:0:0:0:
172,283,98995,6,0,P|74:191|172:100,1,300.000011444092,4|8,0:3|0:3,0:0:0:0:
339,283,99328,2,0,P|437:191|339:100,1,300.000011444092,4|8,0:3|0:3,0:0:0:0:
256,224,99662,2,0,L|256:380,1,150.000005722046,4|4,0:3|0:3,0:0:0:0:
60,280,99884,85,4,0:3:0:0:
184,120,99995,1,8,0:3:0:0:
48,32,100106,2,0,L|68:180,1,150.000005722046,8|4,0:3|0:3,0:0:0:0:
331,188,100328,1,8,0:3:0:0:
204,27,100439,1,8,0:3:0:0:
156,232,100550,2,0,L|164:320,3,75.0000028610231,4|4|4|4,0:3|0:3|0:3|0:3,0:0:0:0:
136,336,100773,5,8,0:2:0:0:
272,324,100884,1,8,0:2:0:0:
72,256,100995,1,8,0:2:0:0:
296,336,101106,2,0,P|408:300|352:152,1,300.000011444092,8|8,0:2|0:3,0:0:0:0:
308,304,101439,86,0,P|390:266|350:188,1,200,8|4,0:2|0:3,0:0:0:0:
148,252,101662,5,4,0:3:0:0:
140,80,101773,1,4,0:3:0:0:
200,256,101884,1,4,0:3:0:0:
200,256,101939,1,4,0:3:0:0:
200,256,101995,1,4,0:3:0:0:
36,284,102106,86,0,B|16:212|16:212|32:188|32:188|52:180|52:180|68:160|68:160|48:88,2,225.000008583069,8|8|8,0:0|0:0|0:0,0:0:0:0:
160,156,102550,6,0,B|120:8|120:8|256:100,1,300.000011444092,4|4,0:3|0:3,0:0:0:0:
256,192,102884,1,4,0:3:0:0:
352,228,102995,2,0,B|392:376|392:376|256:284,1,300.000011444092,4|8,0:3|0:3,0:0:0:0:
368,56,103439,85,4,0:3:0:0:
468,236,103550,1,4,0:3:0:0:
447,80,103662,1,4,0:3:0:0:
388,211,103773,1,0,0:0:0:0:
415,31,103884,1,8,0:3:0:0:
424,278,103995,1,4,0:3:0:0:
276,52,104106,2,0,L|200:48,3,75.0000028610231,8|4|4|4,0:3|0:3|0:3|0:3,0:0:0:0:
164,44,104328,5,8,0:2:0:0:
244,176,104439,1,8,0:2:0:0:
156,20,104550,1,8,0:2:0:0:
44,192,104662,1,8,0:2:0:0:
44,192,104717,1,4,0:3:0:0:
44,192,104773,2,0,L|52:268,3,75.0000028610231,8|0|8|8,0:3|0:0|0:3|0:3,0:0:0:0:
73,115,104995,86,0,L|92:288,1,175.00000166893,8|4,0:2|0:3,0:0:0:0:
308,312,105217,5,4,0:3:0:0:
176,208,105328,1,8,0:3:0:0:
368,208,105439,1,4,0:3:0:0:
422,195,105494,1,4,0:3:0:0:
460,155,105550,1,4,0:3:0:0:
469,100,105605,1,4,0:3:0:0:
446,50,105662,2,0,L|188:32,2,225.000008583069,8|8|8,0:0|0:0|0:0,0:0:0:0:
256,192,106106,5,0,0:0:0:0:
124,220,120328,101,4,0:3:0:0:
108,131,120439,1,8,0:3:0:0:
192,162,120550,1,8,0:0:0:0:
118,234,120662,5,4,0:3:0:0:
96,118,120773,1,8,0:3:0:0:
208,159,120884,1,8,0:0:0:0:
16,228,120995,6,0,L|12:76,1,100,4|8,0:3|0:3,0:0:0:0:
172,32,121217,70,0,P|280:76|340:32,1,200,4|0,0:3|0:0,0:0:0:0:
436,199,121550,2,0,P|344:270|352:344,1,200,4|0,0:3|0:0,0:0:0:0:
159,343,121884,2,0,P|171:295|157:248,1,100,4|0,0:3|0:0,0:0:0:0:
72,88,122106,5,4,0:3:0:0:
188,160,122217,1,4,0:3:0:0:
188,160,122273,1,0,0:0:0:0:
188,160,122328,1,4,0:3:0:0:
440,88,122439,5,4,0:3:0:0:
324,160,122550,1,4,0:3:0:0:
324,160,122606,1,0,0:0:0:0:
324,160,122661,1,4,0:3:0:0:
256,0,122773,70,0,L|256:100,1,100,4|4,0:3|0:3,0:0:0:0:
256,348,122995,5,4,0:3:0:0:
84,300,123106,2,0,L|72:76,1,200,4|4,0:3|0:3,0:0:0:0:
168,216,123439,6,0,L|172:296,1,75.0000028610231,0|0,2:0|2:0,0:0:0:0:
248,160,123662,2,0,L|244:80,1,75.0000028610231,0|0,2:0|2:0,0:0:0:0:
311,271,123884,1,4,0:3:0:0:
381,194,123995,1,4,0:3:0:0:
381,194,124050,1,4,0:3:0:0:
381,194,124106,1,4,0:3:0:0:
443,107,124217,2,0,L|227:83,1,200,4|0,0:3|0:0,0:0:0:0:
72,120,124550,1,4,0:3:0:0:
136,268,124662,1,4,0:3:0:0:
244,84,124773,70,0,L|264:284,1,200,8|4,0:3|0:3,0:0:0:0:
336,132,125106,2,0,L|172:249,1,200,8|4,0:3|0:3,0:0:0:0:
336,344,125439,2,0,L|228:336,1,100,8|0,0:3|0:0,0:0:0:0:
488,196,125662,5,8,0:3:0:0:
476,296,125773,1,8,0:3:0:0:
396,236,125884,1,4,0:3:0:0:
224,236,125995,5,8,0:3:0:0:
236,336,126106,1,8,0:3:0:0:
316,276,126217,1,4,0:3:0:0:
320,96,126328,70,0,L|216:92,1,100,8|4,0:3|0:3,0:0:0:0:
48,208,126550,5,4,0:3:0:0:
104,48,126662,1,4,0:3:0:0:
104,48,126717,1,4,0:3:0:0:
104,48,126773,1,8,0:3:0:0:
196,180,126884,1,8,0:3:0:0:
115,352,126995,6,0,P|78:352|46:333,1,75.0000028610231,0|0,2:0|2:0,0:0:0:0:
228,272,127217,2,0,P|265:271|297:290,1,75.0000028610231,0|0,2:0|2:0,0:0:0:0:
108,216,127439,70,0,L|144:4,1,200,4|8,0:3|0:0,0:0:0:0:
28,168,127773,1,4,0:3:0:0:
220,148,127884,2,0,L|269:157,1,50,8|0,0:3|0:0,0:0:0:0:
342,246,127995,2,0,L|332:295,1,50,4|0,0:3|0:0,0:0:0:0:
221,365,128106,2,0,L|171:355,1,50,8|0,0:0|0:0,0:0:0:0:
98,265,128217,2,0,L|107:215,1,50,0|0,0:0|0:0,0:0:0:0:
224,56,128328,6,0,L|432:80,1,200,4|4,0:3|0:3,0:0:0:0:
472,192,128662,2,0,L|264:216,1,200,4|4,0:3|0:3,0:0:0:0:
176,324,128995,2,0,L|280:336,1,100,4|0,0:3|0:0,0:0:0:0:
104,136,129217,5,4,0:3:0:0:
2,277,129328,2,0,L|10:345,2,50,4|4|4,0:3|0:3|0:3,0:0:0:0:
104,136,129550,2,0,P|220:132|248:36,1,200,4|4,0:3|0:3,0:0:0:0:
104,136,129884,2,0,L|116:244,1,100,4|4,0:3|0:3,0:0:0:0:
256,248,130106,69,4,0:3:0:0:
64,92,130217,2,0,L|88:308,1,200,4|4,0:3|0:3,0:0:0:0:
256,248,130550,2,0,L|244:148,1,75.0000028610231,0|0,2:0|2:0,0:0:0:0:
176,308,130773,2,0,L|184:380,3,37.5000014305115,0|0|0|0,0:0|0:0|0:0|0:0,0:0:0:0:
168,224,130995,5,2,0:0:0:0:
292,348,131106,1,8,0:3:0:0:
292,348,131162,1,4,0:3:0:0:
292,348,131217,1,4,0:3:0:0:
412,244,131328,2,0,L|404:128,1,100,0|0,0:0|0:0,0:0:0:0:
292,56,131550,1,8,0:2:0:0:
261,77,131605,1,8,0:2:0:0:
225,87,131661,1,8,0:2:0:0:
188,86,131716,1,8,0:2:0:0:
153,72,131772,1,8,0:2:0:0:
32,204,131884,6,0,B|132:224|132:224|180:312,1,200,4|4,0:3|0:3,0:0:0:0:
333,310,132217,2,0,B|380:224|380:224|480:204,1,200,8|8,0:3|0:3,0:0:0:0:
484,64,132550,2,0,L|380:80,1,100,4|0,0:3|0:0,0:0:0:0:
160,160,132773,69,4,0:3:0:0:
172,260,132884,1,4,0:3:0:0:
252,200,132995,1,8,0:0:0:0:
424,200,133106,5,4,0:3:0:0:
412,300,133217,1,4,0:3:0:0:
332,240,133328,1,8,0:0:0:0:
88,248,133439,6,0,L|100:360,1,100,4|4,0:3|0:3,0:0:0:0:
244,184,133662,2,0,L|232:72,1,100,4|4,0:3|0:3,0:0:0:0:
108,232,133884,2,0,L|120:344,1,100,4|4,0:3|0:3,0:0:0:0:
356,192,134106,70,0,B|364:116|364:116|390:184,1,150.000005722046,2|0,2:2|2:0,0:0:0:0:
280,340,134550,6,0,L|176:332,1,100,4|8,0:3|0:3,0:0:0:0:
79,324,134773,1,4,0:3:0:0:
305,242,134884,6,0,L|201:234,1,100,4|8,0:3|0:3,0:0:0:0:
104,226,135107,1,4,0:3:0:0:
327,140,135217,70,0,L|223:132,1,100,4|8,0:3|0:3,0:0:0:0:
398,46,135439,6,0,P|444:104|445:148,1,100,8|8,0:3|0:3,0:0:0:0:
433,227,135662,1,4,0:3:0:0:
256,217,135773,6,0,L|256:108,1,100,8|8,0:3|0:3,0:0:0:0:
256,17,135995,1,4,0:3:0:0:
62,85,136106,1,0,0:0:0:0:
105,209,136217,1,0,0:0:0:0:
76,335,136328,85,4,0:3:0:0:
191,270,136439,1,8,0:3:0:0:
191,270,136495,1,8,0:3:0:0:
191,270,136550,2,0,P|252:301|293:295,1,100,4|4,0:3|0:3,0:0:0:0:
399,180,136773,1,4,0:3:0:0:
399,180,136829,1,4,0:3:0:0:
399,180,136884,2,0,L|336:167,1,50,4|0,0:3|0:0,0:0:0:0:
279,93,136995,2,0,L|216:106,3,50,8|8|4|4,0:3|0:3|0:3|0:3,0:0:0:0:
153,67,137217,5,4,0:3:0:0:
190,181,137328,1,4,0:3:0:0:
145,47,137439,1,4,0:3:0:0:
93,201,137550,1,4,0:3:0:0:
244,296,137662,70,0,L|328:302,1,75.0000028610231,0|0,2:0|2:0,0:0:0:0:
408,193,137884,2,0,L|324:187,1,75.0000028610231,0|0,2:0|2:0,0:0:0:0:
469,273,138106,6,0,P|508:185|454:105,1,200,4|4,0:3|0:3,0:0:0:0:
224,159,138550,1,4,0:3:0:0:
115,94,138662,1,8,0:3:0:0:
115,94,138717,1,8,0:3:0:0:
115,94,138773,2,0,L|106:43,2,50,8|8|4,0:3|0:3|0:3,0:0:0:0:
151,261,138995,6,0,L|136:368,1,100,4|0,0:3|0:0,0:0:0:0:
85,185,139217,1,4,0:3:0:0:
274,261,139328,70,0,L|259:368,1,100,4|0,0:3|0:0,0:0:0:0:
208,185,139550,1,4,0:3:0:0:
388,255,139662,6,0,L|373:362,1,100,4|0,0:3|0:0,0:0:0:0:
251,119,139884,5,4,0:3:0:0:
350,107,139995,1,4,0:3:0:0:
310,199,140106,1,4,0:3:0:0:
235,112,140217,69,4,0:3:0:0:
363,96,140328,1,4,0:3:0:0:
311,216,140439,1,4,0:3:0:0:
237,25,140550,6,0,L|356:11,1,100,4|4,0:3|0:3,0:0:0:0:
311,144,140773,5,4,0:3:0:0:
128,121,140884,1,4,0:3:0:0:
102,110,140939,1,4,0:3:0:0:
78,115,140995,2,0,P|59:158|65:216,1,100,8|8,0:3|0:3,0:0:0:0:
293,259,141217,70,0,P|256:312|217:261,1,150.000005722046,2|0,2:2|2:2,0:0:0:0:
394,15,141662,5,0,0:3:0:0:
265,84,141773,1,8,0:3:0:0:
262,124,141828,1,8,0:3:0:0:
260,164,141884,2,0,L|255:233,2,62.5,8|8|4,0:3|0:3|0:3,0:0:0:0:
415,157,142106,2,0,L|420:88,2,62.5,8|0|8,0:3|0:0|0:3,0:0:0:0:
352,313,142328,2,0,L|353:384,1,62.5,4|0,0:3|0:0,0:0:0:0:
269,321,142439,2,0,L|264:391,1,62.5,4|0,0:3|0:0,0:0:0:0:
256,227,142550,6,0,P|174:245|127:145,1,200,4|4,0:3|0:3,0:0:0:0:
256,227,142884,2,0,P|338:245|385:145,1,200,4|4,0:3|0:3,0:0:0:0:
256,227,143217,2,0,L|256:332,1,100,4|0,0:3|0:0,0:0:0:0:
40,328,143439,69,8,0:3:0:0:
127,211,143550,2,0,L|187:206,2,50,4|4|8,0:3|0:3|0:3,0:0:0:0:
40,328,143773,2,0,P|14:250|38:128,1,200,8|8,0:3|0:3,0:0:0:0:
203,74,144106,2,0,L|307:89,1,100,4|0,0:3|0:0,0:0:0:0:
101,56,144328,5,4,0:3:0:0:
256,40,144439,2,0,L|464:70,1,200,4|4,0:3|0:3,0:0:0:0:
256,120,144773,2,0,L|360:135,1,100,0|0,0:0|0:0,0:0:0:0:
264,200,144995,2,0,L|323:210,3,50
371,217,145217,5,8,0:2:0:0:
194,311,145328,1,4,0:3:0:0:
194,311,145383,1,4,0:3:0:0:
194,311,145439,2,0,L|177:195,1,100,4|4,0:3|0:3,0:0:0:0:
102,347,145661,1,4,0:3:0:0:
264,200,145773,1,4,0:3:0:0:
264,200,145828,1,4,0:3:0:0:
264,200,145884,2,0,L|281:84,1,100,4|4,0:3|0:3,0:0:0:0:
62,208,146106,70,0,P|50:151|60:99,1,100,8|0,0:3|0:0,0:0:0:0:
137,23,146328,1,4,0:3:0:0:
296,103,146439,2,0,P|308:160|298:212,1,100,8|8,0:3|0:3,0:0:0:0:
214,71,146662,1,4,0:3:0:0:
229,41,146717,1,4,0:3:0:0:
255,20,146773,1,4,0:3:0:0:
286,10,146828,1,4,0:3:0:0:
319,13,146884,1,4,0:3:0:0:
349,29,146939,1,4,0:3:0:0:
370,54,146995,6,0,L|376:171,1,100,4|4,0:3|0:3,0:0:0:0:
380,252,147217,1,8,0:3:0:0:
251,121,147328,6,0,L|257:238,1,100,4|4,0:3|0:3,0:0:0:0:
261,319,147550,1,8,0:3:0:0:
131,77,147662,70,0,L|137:194,1,100,4|4,0:3|0:3,0:0:0:0:
370,335,147884,5,2,0:2:0:0:
284,329,147995,1,4,0:3:0:0:
198,322,148106,1,8,0:3:0:0:
112,315,148217,1,4,0:3:0:0:
256,220,148328,70,0,B|295:247|295:247|196:237|196:237|247:220,1,200,2|0,0:2|0:0,0:0:0:0:
330,98,148662,1,2,0:2:0:0:
159,83,148773,6,0,L|21:71,1,129.999994049073,4|0,0:3|0:0,0:0:0:0:
102,228,148995,2,0,L|233:240,1,129.999994049073,8|0,0:0|0:0,0:0:0:0:
7,222,149217,5,4,0:3:0:0:
121,340,149328,1,4,0:3:0:0:
209,151,149439,1,8,0:0:0:0:
140,340,149550,1,4,0:3:0:0:
373,298,149662,5,4,0:3:0:0:
231,243,149773,1,8,0:3:0:0:
417,171,149884,2,0,L|422:96,3,64.9999970245363,8|0|0|0,0:0|0:0|0:0|0:0,0:0:0:0:
466,58,150106,2,0,P|406:79|341:60,1,129.999994049073,0|4,0:0|0:3,0:0:0:0:
215,28,150328,1,8,0:0:0:0:
68,98,150439,1,4,0:3:0:0:
68,98,150494,1,4,0:3:0:0:
68,98,150550,70,0,L|58:237,1,129.999994049073,4|0,0:3|0:0,0:0:0:0:
126,375,150773,1,2,0:2:0:0:
293,371,150884,1,4,0:3:0:0:
336,348,150939,1,8,0:3:0:0:
363,308,150995,1,4,0:3:0:0:
366,260,151050,1,4,0:3:0:0:
346,216,151106,1,4,0:3:0:0:
201,142,151217,1,2,0:2:0:0:
273,274,151328,1,0,0:0:0:0:
456,155,151439,5,4,0:3:0:0:
333,90,151550,2,0,L|342:14,2,64.9999970245363,4|4|0,0:3|0:3|0:0,0:0:0:0:
196,134,151773,1,0,0:0:0:0:
50,27,151884,53,8,0:0:0:0:
71,257,151995,1,8,0:0:0:0:
61,26,152106,1,8,0:0:0:0:
59,257,152217,1,8,0:0:0:0:
177,32,152328,22,0,P|238:24|295:71,1,129.999994049073,8|0,0:2|0:0,0:0:0:0:
196,281,152550,5,8,0:3:0:0:
217,106,152662,1,4,0:3:0:0:
355,214,152773,85,4,0:3:0:0:
157,188,152884,1,8,0:3:0:0:
316,121,152995,5,4,0:3:0:0:
295,293,153107,1,8,0:3:0:0:
150,80,153217,6,0,L|18:70,1,129.999994049073,8|0,0:2|0:0,0:0:0:0:
101,205,153439,1,8,0:0:0:0:
267,69,153550,2,0,L|333:64,2,64.9999970245363,8|8|8,0:3|0:3|0:3,0:0:0:0:
150,80,153773,1,4,0:3:0:0:
307,171,153884,2,0,L|439:161,1,129.999994049073,8|0,0:0|0:0,0:0:0:0:
337,352,154106,70,0,L|205:342,1,129.999994049073,4|8,0:3|0:3,0:0:0:0:
42,241,154328,2,0,L|174:231,1,129.999994049073,8|4,0:0|0:3,0:0:0:0:
314,209,154550,1,8,0:3:0:0:
112,119,154662,1,8,0:3:0:0:
328,63,154773,2,0,L|403:73,3,64.9999970245363,8|8|8|8,0:3|0:3|0:3|0:3,0:0:0:0:
433,76,154995,5,4,0:3:0:0:
223,53,155884,70,0,L|210:202,1,150.000005722046,8|0,0:2|0:0,0:0:0:0:
117,117,156106,1,4,0:3:0:0:
325,137,156217,1,4,0:3:0:0:
91,258,156328,85,8,0:2:0:0:
208,356,156439,1,8,0:2:0:0:
421,258,156550,1,8,0:2:0:0:
304,356,156661,1,8,0:2:0:0:
278,165,156773,6,0,L|291:16,1,150.000005722046,8|8,0:3|0:2,0:0:0:0:
401,98,156995,1,8,0:3:0:0:
200,148,157106,1,4,0:3:0:0:
388,248,157217,2,0,L|401:99,1,150.000005722046,4|8,0:3|0:2,0:0:0:0:
278,165,157439,1,8,0:3:0:0:
216,333,157550,1,8,0:2:0:0:
114,70,157662,86,0,P|40:86|-3:154,1,150.000005722046,0|0,0:0|0:0,0:0:0:0:
92,286,157884,2,0,P|166:270|209:202,1,150.000005722046,8|8,0:0|0:3,0:0:0:0:
397,70,158106,2,0,P|468:84|511:143,1,150.000005722046,4|8,0:3|0:3,0:0:0:0:
419,285,158328,2,0,P|347:270|304:211,1,150.000005722046,8|4,0:0|0:3,0:0:0:0:
256,33,158550,5,4,0:3:0:0:
256,285,158662,1,8,0:3:0:0:
256,285,158717,1,8,0:3:0:0:
256,285,158773,2,0,P|211:346|132:345,1,150.000005722046,8|0,0:3|0:0,0:0:0:0:
67,106,158995,85,8,0:2:0:0:
329,125,159106,1,8,0:2:0:0:
53,115,159217,1,8,0:2:0:0:
342,115,159328,1,8,0:2:0:0:
48,230,159439,6,0,L|55:381,1,150.000005722046,8|4,0:3|0:3,0:0:0:0:
330,227,159662,2,0,L|323:76,1,150.000005722046,8|4,0:3|0:3,0:0:0:0:
182,157,159884,2,0,L|189:308,1,150.000005722046,8|4,0:3|0:3,0:0:0:0:
464,154,160106,2,0,L|457:3,1,150.000005722046,8|4,0:3|0:3,0:0:0:0:
111,95,160328,86,0,P|75:208|181:155,1,300.000011444092,0|8,0:0|0:0,0:0:0:0:
34,292,160662,1,0,0:0:0:0:
66,310,160717,1,0,0:0:0:0:
105,317,160773,2,0,L|255:317,1,150.000005722046,0|0,0:0|0:0,0:0:0:0:
405,317,160995,2,0,L|255:317,1,150.000005722046,8|0,0:1|0:0,0:0:0:0:
345,5,161217,5,8,0:3:0:0:
256,125,161328,1,4,0:3:0:0:
344,245,161439,1,8,0:0:0:0:
168,5,161550,85,8,0:3:0:0:
256,125,161661,1,4,0:3:0:0:
169,245,161772,1,8,0:0:0:0:
406,121,161884,5,4,0:3:0:0:
459,133,161939,1,4,0:3:0:0:
494,175,161995,1,4,0:3:0:0:
496,230,162050,1,4,0:3:0:0:
463,275,162106,86,0,L|334:286,1,125,4|8,0:3|0:3,0:0:0:0:
273,158,162328,6,0,L|151:147,1,100,4|8,0:3|0:3,0:0:0:0:
151,314,162550,86,0,P|92:327|-1:289,1,160,4|8,0:3|0:3,0:0:0:0:
256,239,162995,21,4,0:0:0:0:
256,192,163050,12,0,165217,0:0:0:0:
