osu file format v14

[General]
AudioFilename: jjj.mp3
AudioLeadIn: 0
PreviewTime: 63439
Countdown: 0
SampleSet: Normal
StackLeniency: 0.3
Mode: 0
LetterboxInBreaks: 0
WidescreenStoryboard: 0

[Editor]
Bookmarks: 439,6221,34662,38551,52773,63439,77662,91884,106106,120328,134550,141662,148773,154995,162995
DistanceSpacing: 1
BeatDivisor: 4
GridSize: 4
TimelineZoom: 2.4

[Metadata]
Title:SLOTcore Is Dead
TitleUnicode:SLOTcore Is Dead
Artist:sHimaU
ArtistUnicode:sHimaU
Creator:Arphimigon
Version:ONE
Source:
Tags:Hula breakcore miracle dodo naruto da CloudSplash16 Voli diraimur Irreversible astrosexy
BeatmapID:3248794
BeatmapSetID:306012

[Difficulty]
HPDrainRate:3
CircleSize:2.5
OverallDifficulty:3
ApproachRate:3.5
SliderMultiplier:0.599999999999999
SliderTickRate:1

[Events]
//Background and Video events
0,0,"kek.jpg",0,0
//Break Periods
2,3355,4841
2,52973,62059
2,106306,118948
//Storyboard Layer 0 (Background)
//Storyboard Layer 1 (Fail)
//Storyboard Layer 2 (Pass)
//Storyboard Layer 3 (Foreground)
//Storyboard Layer 4 (Overlay)
//Storyboard Sound Samples

[TimingPoints]
439,226.415094339623,4,1,2,65,1,0
6221,222.222222222222,4,1,2,65,1,0
34662,327.868852459016,4,1,2,65,1,0
38551,222.222222222222,4,1,2,65,1,0
77662,-100,4,1,2,65,0,1
91884,-100,4,1,2,65,0,0
92328,-100,4,1,2,65,0,1
106106,-100,4,1,2,65,0,0
163050,-125,4,1,2,35,0,0
163884,-125,4,1,2,25,0,0
164773,-125,4,1,2,15,0,0
164995,-125,4,1,2,10,0,0
165217,-125,4,1,2,5,0,0

[Colours]
Combo1 : 230,0,0
Combo2 : 230,230,230
Combo3 : 180,180,180
Combo4 : 106,106,106
Combo5 : 255,0,255
Combo6 : 255,128,255
Combo7 : 255,0,0

[HitObjects]
256,251,439,6,0,L|256:375,2,120,0|0|0,0:0|0:0|0:0,0:0:0:0:
256,130,1797,1,0,0:0:0:0:
360,69,2250,1,0,0:0:0:0:
256,8,2703,1,0,0:0:0:0:
152,69,3155,5,0,0:0:0:0:
39,87,6221,86,0,P|83:69|158:85,1,120,8|4,0:3|0:3,0:0:0:0:
228,131,6998,2,0,L|230:223,1,89.9999999999999,8|2,0:2|0:2,0:0:0:0:
228,280,7554,1,0,3:0:0:0:
328,344,7998,6,0,B|388:348|388:348|437:314,1,120,4|4,0:3|0:3,0:0:0:0:
436,196,8887,2,0,L|412:124,1,59.9999999999999,4|4,0:3|0:3,0:0:0:0:
340,92,9443,69,8,0:1:0:0:
254,118,9776,1,8,0:1:0:0:
236,236,10220,6,0,P|200:292|128:236,1,180,4|2,0:3|0:2,0:0:0:0:
136,148,11220,5,0,0:0:0:0:
172,64,11554,1,0,0:0:0:0:
284,24,11998,2,0,L|348:35,1,59.9999999999999,4|4,0:3|0:3,0:0:0:0:
362,93,12443,2,0,L|351:157,1,59.9999999999999,8|4,0:3|0:3,0:0:0:0:
309,194,12887,2,0,L|320:258,1,59.9999999999999,2|8,0:2|0:2,0:0:0:0:
360,296,13332,6,0,B|297:272|297:318|235:290,1,120,4|8,0:0|0:3,0:0:0:0:
155,208,14220,2,0,L|150:138,1,59.9999999999999,2|8,0:3|0:1,0:0:0:0:
190,102,14665,2,0,L|260:97,1,59.9999999999999,2|8,0:2|0:2,0:0:0:0:
296,60,15109,70,0,L|306:204,1,120,8|8,3:2|0:0,0:0:0:0:
388,272,15998,2,0,P|328:263|296:271,1,89.9999999999999,4|4,0:3|0:3,0:0:0:0:
215,299,16665,1,2,0:2:0:0:
161,271,16887,6,0,L|151:169,1,89.9999999999999,8|8,0:2|0:1,0:0:0:0:
96,112,17554,1,4,0:3:0:0:
44,142,17776,2,0,L|36:209,2,59.9999999999999,4|8|8,0:3|0:0|0:0,0:0:0:0:
80,28,18665,6,0,B|138:13|138:13|220:51,1,150,4|0,0:3|0:0,0:0:0:0:
300,92,19554,1,8,0:2:0:0:
340,240,20109,53,4,0:0:0:0:
258,280,20443,6,0,L|162:283,1,89.9999999999999,4|4,0:3|0:3,0:0:0:0:
78,284,21109,1,0,0:0:0:0:
89,104,21776,1,8,0:3:0:0:
208,124,22220,6,0,L|308:115,1,89.9999999999999,2|0,0:2|0:0,0:0:0:0:
308,205,22887,2,0,L|208:214,1,89.9999999999999,8|0,0:2|0:0,0:0:0:0:
188,298,23554,1,4,0:0:0:0:
237,331,23776,1,4,0:0:0:0:
296,328,23998,6,0,P|349:317|387:292,1,89.9999999999999,0|0,0:0|0:0,0:0:0:0:
396,210,24665,1,4,0:3:0:0:
353,168,24887,54,0,L|256:161,2,89.9999999999999,4|4|4,0:0|0:0|0:0,0:0:0:0:
377,113,25776,6,0,P|342:55|311:45,1,89.9999999999999,8|8,0:0|0:0,0:0:0:0:
233,48,26443,1,4,0:0:0:0:
172,40,26665,2,0,L|86:28,2,59.9999999999999,4|8|0,0:3|0:3|0:0,0:0:0:0:
184,160,27554,2,0,L|188:252,1,89.9999999999999,4|2,0:3|0:2,0:0:0:0:
276,268,28220,1,8,0:2:0:0:
308,216,28443,6,0,B|303:187|303:187|321:162|321:162|318:133|318:133|338:112|338:112|331:83|331:83|356:58,1,180,2|4,0:2|0:3,0:0:0:0:
404,28,29332,1,2,0:3:0:0:
444,108,29665,2,0,L|452:204,1,89.9999999999999,4|8,0:2|0:0,0:0:0:0:
440,256,30220,6,0,P|405:284|352:288,1,89.9999999999999,4|4,0:3|0:3,0:0:0:0:
292,232,30887,1,0,0:0:0:0:
276,176,31109,70,0,L|300:80,2,89.9999999999999,2|2|2,0:2|0:2|0:2,0:0:0:0:
188,192,32109,1,4,3:3:0:0:
156,108,32443,2,0,L|88:100,1,59.9999999999999,2|2,3:2|3:2,0:0:0:0:
48,64,32887,6,0,L|56:160,1,89.9999999999999,4|8,0:3|3:0,0:0:0:0:
128,208,33554,2,0,L|120:304,1,89.9999999999999,8|8,3:0|0:3,0:0:0:0:
188,356,34220,1,8,0:3:0:0:
243,279,34662,38,0,P|337:176|293:349,1,479.999999999999,4|4,0:3|0:3,0:0:0:0:
84,144,38551,70,0,L|80:204,1,59.9999999999999,4|4,0:3|0:3,0:0:0:0:
32,240,38995,2,0,B|80:261|101:228|151:249,1,120,8|4,0:3|0:3,0:0:0:0:
264,280,39884,1,8,0:2:0:0:
360,208,40328,2,0,P|364:164|360:144,1,59.9999999999999,4|8,0:3|0:3,0:0:0:0:
332,96,40773,2,0,P|288:92|268:96,1,59.9999999999999,4|8,0:3|0:3,0:0:0:0:
216,116,41217,70,0,P|148:132|184:68,1,180,4|8,0:3|0:3,0:0:0:0:
236,40,42106,6,0,L|336:36,2,89.9999999999999,2|4|4,0:2|0:3|0:3,0:0:0:0:
182,67,42995,1,2,0:2:0:0:
84,136,43439,1,8,0:3:0:0:
176,212,43884,6,0,L|184:276,1,59.9999999999999,0|0,0:0|0:0,0:0:0:0:
228,312,44328,2,0,L|292:304,1,59.9999999999999,0|0,0:0|0:0,0:0:0:0:
348,300,44773,1,0,0:0:0:0:
420,204,45217,1,0,0:0:0:0:
352,104,45662,70,0,B|296:80|296:80|232:92,1,120,4|0,0:3|0:0,0:0:0:0:
124,124,46550,1,8,0:3:0:0:
208,208,46995,1,4,0:3:0:0:
95,248,47439,6,0,P|83:306|100:364,1,120,4|8,0:3|0:3,0:0:0:0:
220,344,48328,1,8,0:0:0:0:
336,320,48773,1,4,0:3:0:0:
392,212,49217,6,0,L|396:112,1,89.9999999999999,2|8,0:2|0:0,0:0:0:0:
332,56,49884,1,4,0:3:0:0:
280,88,50106,2,0,P|236:92|212:80,1,59.9999999999999,4|4,0:3|0:3,0:0:0:0:
164,68,50550,2,0,P|135:60|106:66,1,59.9999999999999,4|4,0:3|0:3,0:0:0:0:
52,88,50995,70,0,L|60:216,1,120,8|0,0:3|0:0,0:0:0:0:
164,268,51884,2,0,B|195:271|195:271|223:263|223:263|252:268|252:268|284:258,1,120,8|8,0:3|0:2,0:0:0:0:
395,224,52773,5,4,0:1:0:0:
144,316,63439,6,0,P|160:276|164:188,1,120,4|0,0:3|0:0,0:0:0:0:
132,80,64328,2,0,P|172:96|260:100,1,120,8|8,0:3|0:3,0:0:0:0:
368,68,65217,2,0,P|352:108|348:196,1,120,4|8,0:3|0:3,0:0:0:0:
380,304,66106,2,0,P|340:288|252:284,1,120,4|4,0:3|0:3,0:0:0:0:
160,224,66995,70,0,L|32:240,2,120,4|4|8,0:3|0:3|0:3,0:0:0:0:
256,156,68328,1,8,0:3:0:0:
352,224,68773,2,0,L|480:240,2,120,8|8|8,0:3|0:3|0:3,0:0:0:0:
256,296,70106,1,8,0:3:0:0:
168,216,70550,6,0,P|168:152|196:100,1,120,4|0,0:3|0:0,0:0:0:0:
318,103,71439,2,0,P|345:156|344:216,1,120,4|4,0:3|0:3,0:0:0:0:
256,296,72328,2,0,L|136:304,1,120,4|0,0:3|0:0,0:0:0:0:
88,192,73217,2,0,L|80:72,1,120,4|0,0:3|0:0,0:0:0:0:
192,28,74106,5,4,0:3:0:0:
320,28,74550,1,4,0:3:0:0:
432,72,74995,2,0,L|424:192,1,120,8|4,0:3|0:3,0:0:0:0:
376,304,75884,2,0,B|256:295|256:295|203:335,1,180,0|0,0:3|0:0,0:0:0:0:
36,176,77662,38,0,P|32:116|40:80,2,89.9999999999999,4|4|4,0:3|0:3|0:3,0:0:0:0:
60,232,78550,1,4,0:3:0:0:
168,180,78995,2,0,L|230:184,1,59.9999999999999,8|8,0:3|0:3,0:0:0:0:
266,229,79439,2,0,L|368:235,2,89.9999999999999,8|8|8,0:2|0:2|0:2,0:0:0:0:
229,276,80328,1,8,0:2:0:0:
204,158,80773,2,0,L|209:90,1,59.9999999999999,8|8,0:0|0:0,0:0:0:0:
230,42,81217,6,0,P|269:64|350:54,1,120,4|8,0:3|0:3,0:0:0:0:
392,91,81884,1,8,0:3:0:0:
425,140,82106,2,0,P|409:172|413:260,1,120,8|8,0:3|0:3,0:0:0:0:
397,313,82773,1,4,0:3:0:0:
342,337,82995,1,8,0:2:0:0:
233,285,83439,1,8,0:2:0:0:
128,344,83884,2,0,B|68:328|68:328|32:272,1,120,8|8,0:2|0:0,0:0:0:0:
24,160,84773,85,4,0:3:0:0:
96,64,85217,2,0,L|137:113,1,59.9999999999999,4|4,0:3|0:3,0:0:0:0:
184,144,85662,2,0,P|228:152|300:120,1,120,4|8,0:3|0:3,0:0:0:0:
400,64,86550,2,0,L|492:56,2,89.9999999999999,8|8|8,0:2|0:2|0:2,0:0:0:0:
344,40,87439,1,10,0:2:0:0:
228,64,87884,2,0,L|162:54,1,59.9999999999999,8|8,0:0|0:0,0:0:0:0:
108,64,88328,6,0,L|112:188,1,120,4|4,0:3|0:3,0:0:0:0:
113,243,88995,1,8,0:3:0:0:
116,304,89217,2,0,P|148:332|232:328,1,120,4|8,0:3|0:3,0:0:0:0:
304,244,90106,86,0,L|312:120,1,120,4|8,0:3|0:3,0:0:0:0:
255,102,90773,1,4,0:3:0:0:
200,124,90995,2,0,L|208:244,1,120,4|2,0:3|3:0,0:0:0:0:
296,328,91884,6,0,B|326:322|326:322|360:324,1,59.9999999999999,8|8,0:0|0:0,0:0:0:0:
412,344,92328,2,0,P|392:308|404:220,1,120,4|8,0:3|0:3,0:0:0:0:
444,120,93217,2,0,L|432:60,1,59.9999999999999,8|8,0:3|0:3,0:0:0:0:
384,24,93662,2,0,L|256:16,1,120,8|8,0:2|0:3,0:0:0:0:
208,120,94550,2,0,L|336:128,1,120,8|4,0:2|0:3,0:0:0:0:
372,168,95217,1,4,0:3:0:0:
392,224,95439,86,0,L|384:352,1,120,4|8,0:3|0:3,0:0:0:0:
326,360,96106,1,8,0:3:0:0:
268,368,96328,2,0,P|212:360|165:311,1,120,4|8,0:3|0:3,0:0:0:0:
164,196,97217,2,0,L|160:96,2,89.9999999999999,8|8|8,0:2|0:2|0:3,0:0:0:0:
216,228,98106,2,0,L|280:220,1,59.9999999999999,4|4,0:3|0:3,0:0:0:0:
336,232,98550,2,0,L|400:240,1,59.9999999999999,8|8,0:0|0:0,0:0:0:0:
448,212,98995,6,0,P|460:176|452:124,2,89.9999999999999,4|4|4,0:3|0:3|0:3,0:0:0:0:
444,272,99884,1,4,0:3:0:0:
352,348,100328,1,8,0:3:0:0:
251,279,100773,86,0,P|209:267|164:280,2,89.9999999999999,8|8|8,0:2|0:2|0:2,0:0:0:0:
308,264,101662,2,0,L|312:196,1,59.9999999999999,8|4,0:2|0:3,0:0:0:0:
264,168,102106,2,0,L|255:99,1,59.9999999999999,8|8,0:0|0:0,0:0:0:0:
240,56,102550,6,0,P|196:80|120:64,1,120,4|4,0:3|0:3,0:0:0:0:
68,76,103217,1,8,0:3:0:0:
20,112,103439,2,0,L|28:236,1,120,4|8,0:3|0:3,0:0:0:0:
116,312,104328,86,0,L|248:296,1,120,8|0,0:2|0:0,0:0:0:0:
288,324,104995,1,8,0:2:0:0:
344,348,105217,2,0,L|476:332,1,120,4|8,0:3|0:0,0:0:0:0:
488,216,106106,53,0,0:0:0:0:
64,188,120328,70,0,L|60:92,2,89.9999999999999,4|4|4,0:3|0:3|0:3,0:0:0:0:
120,168,121217,2,0,L|116:72,2,89.9999999999999,4|4|4,0:3|0:3|0:3,0:0:0:0:
180,152,122106,2,0,L|176:56,2,89.9999999999999,4|4|4,0:3|0:3|0:3,0:0:0:0:
182,211,122995,1,4,0:3:0:0:
392,96,123884,6,0,P|432:88|484:96,2,89.9999999999999,4|4|4,0:3|0:3|0:3,0:0:0:0:
332,88,124773,2,0,P|305:57|286:8,2,89.9999999999999,8|8|8,0:3|0:3|0:3,0:0:0:0:
352,144,125662,2,0,P|338:182|306:223,2,89.9999999999999,8|8|8,0:3|0:3|0:3,0:0:0:0:
392,96,126550,1,4,0:3:0:0:
156,48,127439,6,0,L|60:60,2,89.9999999999999,4|4|8,0:3|0:3|0:0,0:0:0:0:
200,92,128328,2,0,L|296:104,2,89.9999999999999,4|4|4,0:3|0:3|0:3,0:0:0:0:
164,140,129217,2,0,L|68:152,2,89.9999999999999,4|4|4,0:3|0:3|0:3,0:0:0:0:
192,192,130106,1,4,0:3:0:0:
432,220,130995,70,0,P|432:168|420:128,2,89.9999999999999,2|0|8,0:0|0:0|0:2,0:0:0:0:
372,220,131884,2,0,P|344:174|312:148,2,89.9999999999999,4|8|4,0:3|0:3|0:3,0:0:0:0:
328,260,132773,2,0,P|282:233|242:224,2,89.9999999999999,4|4|4,0:3|0:3|0:3,0:0:0:0:
368,304,133662,1,4,0:3:0:0:
128,312,134550,6,0,L|36:292,2,89.9999999999999,4|4|4,0:3|0:3|0:3,0:0:0:0:
176,276,135439,2,0,L|163:182,2,89.9999999999999,8|8|8,0:3|0:3|0:3,0:0:0:0:
232,300,136328,2,0,L|315:256,2,89.9999999999999,4|4|8,0:3|0:3|0:3,0:0:0:0:
236,360,137217,1,4,0:3:0:0:
92,168,138106,6,0,P|72:116|72:72,2,89.9999999999999,4|0|8,0:3|0:0|0:3,0:0:0:0:
136,208,138995,2,0,P|132:252|114:293,2,89.9999999999999,4|4|4,0:3|0:3|0:3,0:0:0:0:
180,168,139884,2,0,P|183:112|202:72,2,89.9999999999999,4|4|4,0:3|0:3|0:3,0:0:0:0:
224,208,140773,1,4,0:3:0:0:
424,76,141662,70,0,P|448:148|420:252,1,180,0|4,0:3|0:3,0:0:0:0:
368,268,142550,2,0,L|376:360,2,89.9999999999999,4|4|4,0:3|0:3|0:3,0:0:0:0:
308,268,143439,2,0,L|300:360,2,89.9999999999999,8|8|4,0:3|0:3|0:3,0:0:0:0:
312,208,144328,1,4,0:3:0:0:
100,96,145217,6,0,P|60:88|20:56,2,89.9999999999999,8|4|4,0:2|0:3|0:3,0:0:0:0:
128,148,146106,2,0,P|168:140|208:108,2,89.9999999999999,8|8|4,0:3|0:3|0:3,0:0:0:0:
96,200,146995,2,0,P|56:192|16:160,2,89.9999999999999,4|4|4,0:3|0:3|0:3,0:0:0:0:
132,248,147884,1,2,0:2:0:0:
356,336,148773,5,4,0:3:0:0:
374,278,148995,1,8,0:0:0:0:
388,220,149217,2,0,L|404:152,1,59.9999999999999,4|8,0:3|0:0,0:0:0:0:
452,132,149662,2,0,L|328:136,1,120,4|0,0:3|0:0,0:0:0:0:
212,144,150550,70,0,P|196:196|208:264,1,120,4|4,0:3|0:3,0:0:0:0:
316,308,151439,2,0,L|376:312,1,59.9999999999999,4|0,0:3|0:0,0:0:0:0:
424,276,151884,1,8,0:0:0:0:
416,216,152106,1,8,0:0:0:0:
408,156,152328,6,0,P|392:120|376:100,1,59.9999999999999,8|8,0:2|0:3,0:0:0:0:
320,108,152773,2,0,P|302:132|291:160,1,59.9999999999999,4|4,0:3|0:3,0:0:0:0:
240,192,153217,2,0,P|192:172|128:192,1,120,8|8,0:2|0:3,0:0:0:0:
128,312,154106,2,0,P|176:332|240:312,1,120,4|8,0:3|0:3,0:0:0:0:
306,213,154995,5,4,0:3:0:0:
123,57,155884,53,8,0:2:0:0:
108,176,156328,2,0,P|108:216|112:240,1,59.9999999999999,8|8,0:2|0:2,0:0:0:0:
164,264,156773,2,0,P|204:264|228:260,1,59.9999999999999,8|8,0:3|0:3,0:0:0:0:
284,252,157217,2,0,P|313:251|343:255,1,59.9999999999999,4|8,0:3|0:3,0:0:0:0:
388,296,157662,86,0,L|404:168,1,120,0|4,0:0|0:3,0:0:0:0:
344,72,158550,2,0,L|284:64,1,59.9999999999999,4|8,0:3|0:3,0:0:0:0:
228,84,158995,1,8,0:2:0:0:
175,113,159217,1,8,0:2:0:0:
132,156,159439,6,0,L|124:228,1,59.9999999999999,8|8,0:3|0:3,0:0:0:0:
172,256,159884,2,0,L|180:328,1,59.9999999999999,8|8,0:3|0:3,0:0:0:0:
228,352,160328,2,0,B|172:332|164:364|109:344,1,120,0|0,0:0|0:0,0:0:0:0:
44,244,161217,86,0,P|28:176|28:144,2,89.9999999999999,8|8|4,0:3|0:3|0:3,0:0:0:0:
88,284,162106,1,4,0:3:0:0:
176,204,162550,2,0,L|236:192,1,59.9999999999999,4|8,0:3|0:3,0:0:0:0:
292,208,162995,21,4,0:0:0:0:
256,192,163217,12,0,165217,0:0:0:0:
