osu file format v14

[General]
AudioFilename: jjj.mp3
AudioLeadIn: 0
PreviewTime: 63439
Countdown: 0
SampleSet: Normal
StackLeniency: 0.3
Mode: 0
LetterboxInBreaks: 0
WidescreenStoryboard: 1

[Editor]
Bookmarks: 439,6221,34662,38551,52773,63439,77662,91884,106106,120328,134550,141662,148773,154995,162995
DistanceSpacing: 1.2
BeatDivisor: 4
GridSize: 4
TimelineZoom: 2.4

[Metadata]
Title:SLOTcore Is Dead
TitleUnicode:SLOTcore Is Dead
Artist:sHimaU
ArtistUnicode:sHimaU
Creator:Arphimigon
Version:FOUR
Source:
Tags:electronic breakcore japanese Miracle High Tension dodo naruto da astrosexy spaced streams high bpm fullscreen jumps
BeatmapID:1515941
BeatmapSetID:306012

[Difficulty]
HPDrainRate:4
CircleSize:3
OverallDifficulty:6.5
ApproachRate:8.5
SliderMultiplier:1.3
SliderTickRate:1

[Events]
//Background and Video events
0,0,"kek.jpg",0,0
//Break Periods
2,52973,62764
2,106306,119653
//Storyboard Layer 0 (Background)
//Storyboard Layer 1 (Fail)
//Storyboard Layer 2 (Pass)
//Storyboard Layer 3 (Foreground)
//Storyboard Layer 4 (Overlay)
//Storyboard Sound Samples

[TimingPoints]
439,226.415094339623,4,1,2,65,1,0
6221,222.222222222222,4,1,2,65,1,0
9443,-76.9230769230769,4,1,2,65,0,0
9776,-100,4,1,2,65,0,0
12887,-83.3333333333333,4,1,2,65,0,0
13332,-100,4,1,2,65,0,0
24887,-76.9230769230769,4,1,2,65,0,0
25776,-100,4,1,2,65,0,0
34662,327.868852459016,4,1,2,65,1,0
38551,222.222222222222,4,1,2,65,1,0
40328,-76.9230769230769,4,1,2,65,0,0
41217,-100,4,1,2,65,0,0
42995,-76.9230769230769,4,1,2,65,0,0
43884,-100,4,1,2,65,0,0
63439,-133.333333333333,4,1,2,65,0,0
77662,-76.9230769230769,4,1,2,65,0,1
91884,-76.9230769230769,4,1,2,65,0,0
92328,-76.9230769230769,4,1,2,65,0,1
106106,-100,4,1,2,65,0,0
155884,-76.9230769230769,4,1,2,65,0,0
163050,-125,4,1,2,35,0,0
163884,-125,4,1,2,25,0,0
164773,-125,4,1,2,15,0,0
164995,-125,4,1,2,10,0,0
165217,-125,4,1,2,5,0,0

[Colours]
Combo1 : 230,0,0
Combo2 : 230,230,230
Combo3 : 180,180,180
Combo4 : 106,106,106
Combo5 : 255,0,255
Combo6 : 255,128,255
Combo7 : 255,0,0

[HitObjects]
111,161,6221,6,0,P|101:129|101:70,2,65,8|4|8,0:3|0:3|0:0,0:0:0:0:
164,221,6554,1,4,0:3:0:0:
226,171,6665,2,0,P|290:156|353:167,1,130,4|8,0:3|0:0,0:0:0:0:
479,163,6998,6,0,P|416:177|353:167,1,130,8|0,0:2|0:0,0:0:0:0:
372,12,7332,1,2,0:2:0:0:
362,89,7443,1,4,0:3:0:0:
352,166,7554,2,0,L|340:257,2,65,0|0|2,3:0|3:0|3:2,0:0:0:0:
362,89,7887,1,8,0:2:0:0:
222,46,7998,6,0,L|147:54,2,65,4|4|8,0:3|0:3|0:1,0:0:0:0:
192,146,8332,1,4,0:3:0:0:
192,146,8443,2,0,L|117:154,1,65,4|4,0:3|0:3,0:0:0:0:
250,234,8665,2,0,L|175:242,1,65,8|0,0:0|0:0,0:0:0:0:
101,345,8887,69,4,0:3:0:0:
178,334,8998,1,0,0:0:0:0:
251,358,9109,2,0,L|392:346,1,130,4|4,0:3|0:3,0:0:0:0:
444,245,9443,70,0,P|395:187|379:84,1,168.999992263794,8|4,0:1|0:2,0:0:0:0:
225,154,9776,6,0,P|264:107|277:25,1,130,8|0,0:1|0:0,0:0:0:0:
200,48,10109,5,0,0:0:0:0:
123,32,10220,2,0,L|87:36,3,32.5,4|4|4|4,0:3|0:3|0:3|0:3,0:0:0:0:
51,42,10443,2,0,P|59:92|55:127,1,65,0|0,0:0|0:0,0:0:0:0:
131,163,10665,2,0,P|112:210|91:238,1,65,2|8,0:2|0:3,0:0:0:0:
176,289,10887,2,0,P|136:320|103:333,1,65,2|8,0:2|0:3,0:0:0:0:
24,346,11109,5,0,0:0:0:0:
24,346,11220,1,0,0:0:0:0:
264,351,11443,1,0,0:0:0:0:
319,258,11554,2,0,P|327:204|321:168,2,65,0|8|12,0:0|0:3|0:3,0:0:0:0:
264,351,11887,1,12,0:3:0:0:
105,281,11998,6,0,P|98:230|101:199,1,65,4|8,0:3|0:3,0:0:0:0:
220,178,12220,2,0,P|220:211|213:245,1,65,4|4,0:3|0:3,0:0:0:0:
75,255,12443,2,0,P|75:221|81:188,1,65,8|4,0:3|0:3,0:0:0:0:
243,200,12665,2,0,P|249:232|249:266,1,65,4|4,0:3|0:3,0:0:0:0:
366,335,12887,69,2,0:2:0:0:
483,350,12998,85,8,0:3:0:0:
483,350,13109,1,8,0:3:0:0:
483,350,13220,1,8,0:3:0:0:
504,227,13332,6,0,P|491:172|413:112,1,130,4|2,0:0|0:2,0:0:0:0:
362,110,13665,1,2,0:2:0:0:
284,116,13776,2,0,L|133:136,1,130,8|8,0:3|0:3,0:0:0:0:
84,166,14109,1,0,0:3:0:0:
52,237,14220,6,0,L|62:304,1,65,2|8,0:3|0:3,0:0:0:0:
169,281,14443,2,0,L|159:348,1,65,8|8,0:1|0:3,0:0:0:0:
272,236,14665,2,0,L|282:303,1,65,2|4,0:2|0:3,0:0:0:0:
385,340,14887,1,8,0:2:0:0:
385,340,14998,1,8,0:2:0:0:
465,276,15109,6,0,L|502:289,2,32.5,8|0|0,3:2|0:0|0:0,0:0:0:0:
389,184,15332,2,0,L|349:199,2,32.5,8|0|0,3:2|0:0|0:0,0:0:0:0:
472,113,15554,2,0,L|472:38,1,65,8|0,0:0|0:0,0:0:0:0:
367,5,15776,1,2,0:2:0:0:
367,5,15887,1,2,0:2:0:0:
277,67,15998,70,0,P|216:84|153:69,1,130,4|8,0:3|0:0,0:0:0:0:
28,71,16332,2,0,P|90:54|153:68,1,130,4|2,0:3|0:2,0:0:0:0:
156,200,16665,70,0,L|156:286,1,65,2|2,0:2|0:2,0:0:0:0:
268,348,16887,38,0,P|316:327|343:253,1,130,8|0,0:2|0:0,0:0:0:0:
254,128,17220,2,0,B|247:191|247:191|258:257,1,130,8|0,0:1|0:0,0:0:0:0:
344,124,17554,2,0,L|351:81,3,32.5,4|4|4|4,0:3|0:3|0:3|0:3,0:0:0:0:
358,54,17776,5,4,0:3:0:0:
482,205,17998,2,0,L|486:287,1,65,8|0,0:0|0:0,0:0:0:0:
378,326,18220,2,0,L|374:261,2,65,8|4|4,0:3|0:3|0:3,0:0:0:0:
378,326,18554,1,8,0:3:0:0:
267,360,18665,70,0,P|228:358|162:291,1,130,4|8,0:3|0:0,0:0:0:0:
155,205,18998,2,0,L|157:164,4,32.5,4|8|4|4|0,0:3|0:3|0:3|0:3|0:0,0:0:0:0:
65,147,19332,2,0,L|67:75,1,65,0|0,0:0|0:0,0:0:0:0:
160,12,19554,6,0,B|234:15|213:35|300:37,1,130,8|0,0:2|0:0,0:0:0:0:
383,92,19887,2,0,L|429:87,2,32.5,4|4|4,0:3|0:3|0:3,0:0:0:0:
327,184,20109,1,4,0:0:0:0:
271,354,20443,5,4,0:3:0:0:
189,312,20554,2,0,L|103:320,1,65,0|0,0:0|0:3,0:0:0:0:
119,223,20776,1,4,0:3:0:0:
119,223,20887,2,0,L|33:231,1,65,4|0,0:3|0:3,0:0:0:0:
147,117,21109,1,4,0:3:0:0:
147,117,21220,2,0,L|61:125,2,65,4|0|0,0:3|0:0|0:0,0:0:0:0:
234,57,21554,70,0,L|282:89,3,32.5,4|4|4|4,0:3|0:3|0:3|0:3,0:0:0:0:
301,77,21776,2,0,L|318:133,3,32.5,8|4|4|4,0:3|0:3|0:3|0:3,0:0:0:0:
327,142,21998,1,0,0:0:0:0:
98,50,22220,5,2,0:2:0:0:
414,50,22554,1,0,0:0:0:0:
145,333,22887,5,8,0:2:0:0:
366,333,23221,1,0,0:0:0:0:
256,90,23554,69,4,0:0:0:0:
256,294,23776,1,4,0:0:0:0:
85,63,23998,6,0,L|80:127,1,65
114,201,24220,1,0,0:0:0:0:
193,182,24332,2,0,P|281:181|323:213,1,130
375,263,24665,1,4,0:3:0:0:
133,359,24887,54,0,L|117:178,1,168.999992263794,4|0,0:0|0:0,0:0:0:0:
167,314,25220,2,0,L|151:133,1,168.999992263794,4|0,0:0|0:0,0:0:0:0:
200,266,25554,2,0,L|192:175,1,84.4999961318971,4|0,0:0|0:0,0:0:0:0:
300,51,25776,21,8,0:0:0:0:
300,51,25887,1,8,0:0:0:0:
398,192,26109,1,8,0:0:0:0:
300,333,26332,1,8,0:0:0:0:
300,333,26443,86,0,P|302:311|314:335,1,65,4|0,0:0|0:0,0:0:0:0:
207,350,26665,6,0,L|199:259,1,65,4|4,0:3|0:3,0:0:0:0:
283,206,26887,2,0,L|279:164,3,32.5,8|8|8|8,0:3|0:3|0:3|0:3,0:0:0:0:
243,151,27109,2,0,L|247:110,3,32.5,0|0|0|0,0:0|0:0|0:0|0:0,0:0:0:0:
276,88,27332,2,0,L|272:47,3,32.5,4|4|4|4,0:3|0:3|0:3|0:3,0:0:0:0:
242,24,27554,6,0,P|206:20|157:42,2,65,4|8|4,0:3|0:3|0:3,0:0:0:0:
371,66,27887,85,2,0:2:0:0:
397,142,27998,1,2,0:2:0:0:
450,80,28109,1,2,0:2:0:0:
397,142,28220,6,0,L|397:231,1,65,8|0,0:2|0:0,0:0:0:0:
427,350,28443,86,0,P|276:284|179:305,1,260,2|4,0:2|0:3,0:0:0:0:
26,184,29109,2,0,L|37:97,1,65,4|4,0:3|0:3,0:0:0:0:
155,52,29332,21,2,0:3:0:0:
228,82,29443,1,2,0:3:0:0:
309,66,29554,1,2,0:3:0:0:
381,106,29665,70,0,P|402:179|389:238,1,130,4|4,0:2|0:3,0:0:0:0:
316,274,29998,2,0,L|240:269,1,65,8|8,0:0|0:0,0:0:0:0:
150,312,30220,1,4,0:3:0:0:
91,259,30332,2,0,L|93:208,2,32.5,4|4|4,0:3|0:3|0:3,0:0:0:0:
25,303,30554,1,4,0:3:0:0:
91,103,30776,1,0,0:0:0:0:
168,114,30887,1,0,0:0:0:0:
245,125,30998,1,0,0:0:0:0:
329,85,31109,22,0,P|400:96|455:153,1,130,2|0,0:2|0:0,0:0:0:0:
443,251,31443,2,0,P|392:291|329:299,1,130,2|0,0:2|0:0,0:0:0:0:
183,298,31776,1,2,0:2:0:0:
183,86,32109,1,4,3:3:0:0:
79,192,32443,2,0,L|6:192,1,65,2|2,3:2|3:2,0:0:0:0:
161,192,32665,2,0,L|234:192,1,65,2|2,3:2|3:2,0:0:0:0:
334,336,32887,86,0,P|388:343|401:341,2,65,4|4|0,0:3|0:3|0:0,0:0:0:0:
373,246,33220,2,0,P|382:188|348:102,1,130,8|8,3:0|3:3,0:0:0:0:
289,63,33554,1,8,3:0:0:0:
99,105,33887,1,8,0:3:0:0:
288,62,34109,1,4,0:3:0:0:
288,62,34220,1,8,0:3:0:0:
277,145,34332,2,0,L|272:182,4,32.5,4|4|4|4|4,0:3|0:3|0:3|0:3|0:3,0:0:0:0:
208,271,34662,38,0,P|155:282|69:258,1,130,4|4,0:3|0:3,0:0:0:0:
304,271,35317,2,0,P|357:282|443:258,1,130,4|4,0:3|0:3,0:0:0:0:
429,118,35973,86,0,P|367:102|304:113,1,130,4|4,0:3|0:3,0:0:0:0:
82,118,36629,2,0,P|144:102|208:113,1,130
194,344,37284,6,0,P|184:306|197:205,1,130,4|0,0:3|0:0,0:0:0:0:
319,216,37940,86,0,P|330:280|318:344,1,130,4|0,0:3|0:0,0:0:0:0:
127,127,38551,86,0,L|48:121,1,65,4|8,0:3|0:3,0:0:0:0:
194,77,38773,1,4,0:3:0:0:
335,62,38995,2,0,L|393:57,4,32.5,8|4|8|4|4,0:3|0:3|0:3|0:3|0:3,0:0:0:0:
300,226,39439,70,0,L|227:217,1,65,4|4,0:3|0:3,0:0:0:0:
376,160,39662,2,0,L|449:169,1,65,8|4,0:0|0:3,0:0:0:0:
292,232,39884,2,0,L|214:223,1,65,8|4,0:2|0:3,0:0:0:0:
383,153,40107,2,0,L|461:162,1,65,8|0,0:2|0:0,0:0:0:0:
487,306,40328,6,0,P|405:300|340:350,1,168.999992263794,4|8,0:3|0:3,0:0:0:0:
226,224,40773,2,0,P|161:274|79:268,1,168.999992263794,4|8,0:3|0:3,0:0:0:0:
48,92,41217,70,0,L|104:97,3,32.5,4|8|8|8,0:3|0:3|0:3|0:3,0:0:0:0:
124,98,41439,2,0,L|180:93,3,32.5,4|8|8|8,0:3|0:3|0:3|0:3,0:0:0:0:
205,80,41662,2,0,L|261:85,3,32.5,4|8|4|8,0:3|0:3|0:3|0:3,0:0:0:0:
287,91,41884,1,8,0:3:0:0:
365,252,42106,85,2,0:2:0:0:
462,254,42217,1,2,0:2:0:0:
415,169,42328,1,2,0:2:0:0:
365,252,42439,22,0,P|289:278|221:263,1,130,4|4,0:3|0:3,0:0:0:0:
161,217,42773,1,4,0:3:0:0:
52,29,42995,70,0,L|38:143,1,84.4999961318971,2|0,0:2|0:0,0:0:0:0:
142,101,43217,1,4,0:3:0:0:
242,89,43328,1,4,0:3:0:0:
342,78,43439,2,0,L|328:192,1,84.4999961318971,8|8,0:3|0:3,0:0:0:0:
431,141,43662,1,2,0:2:0:0:
396,327,43884,22,0,L|308:323,1,65,0|0,0:0|0:0,0:0:0:0:
261,253,44106,2,0,L|173:249,1,65,0|0,0:0|0:0,0:0:0:0:
92,311,44328,1,0,0:0:0:0:
92,311,44439,1,0,0:0:0:0:
56,216,44550,1,0,0:0:0:0:
56,216,44662,1,0,0:0:0:0:
126,143,44773,5,0,0:0:0:0:
223,170,44884,2,0,P|290:154|339:100,1,130,0|0,0:0|0:0,0:0:0:0:
233,62,45217,1,0,0:0:0:0:
223,170,45328,2,0,P|239:236|298:283,1,130,0|0,0:0|0:0,0:0:0:0:
414,301,45662,5,4,0:3:0:0:
358,178,45884,1,4,0:3:0:0:
481,232,46106,1,0,0:0:0:0:
425,109,46328,1,4,0:3:0:0:
271,108,46550,70,0,L|265:56,3,32.5,8|8|4|4,0:3|0:3|0:3|0:3,0:0:0:0:
265,32,46773,1,8,0:3:0:0:
98,54,46995,1,4,0:3:0:0:
201,188,47217,1,8,0:3:0:0:
364,280,47439,6,0,L|458:269,1,65,4|8,0:3|0:3,0:0:0:0:
295,232,47662,2,0,L|285:148,1,65,4|4,0:3|0:3,0:0:0:0:
409,94,47884,2,0,L|315:105,1,65,8|4,0:3|0:3,0:0:0:0:
478,142,48107,2,0,L|488:226,1,65,4|8,0:3|0:3,0:0:0:0:
435,337,48328,5,8,0:0:0:0:
435,337,48550,1,8,0:0:0:0:
288,301,48773,38,0,L|234:296,3,32.5,4|4|8|4,0:3|0:3|0:3|0:3,0:0:0:0:
223,269,48995,2,0,L|170:261,3,32.5,4|4|8|8,0:3|0:3|0:3|0:3,0:0:0:0:
152,278,49217,21,2,0:2:0:0:
162,196,49328,1,2,0:2:0:0:
173,113,49439,1,2,0:2:0:0:
247,78,49550,6,0,P|315:106|377:81,1,130,8|8,0:0|0:0,0:0:0:0:
428,142,49884,2,0,L|436:230,1,65,4|4,0:3|0:3,0:0:0:0:
357,290,50106,2,0,L|361:334,4,32.5,4|4|4|4|4,0:3|0:3|0:3|0:3|0:3,0:0:0:0:
223,320,50550,1,4,0:3:0:0:
223,320,50662,2,0,L|219:364,2,32.5,0|0|4,0:0|0:0|0:3,0:0:0:0:
82,96,50995,6,0,L|159:102,1,65,8|4,0:3|0:3,0:0:0:0:
173,197,51217,2,0,L|250:203,1,65,8|4,3:3|3:3,0:0:0:0:
309,125,51439,2,0,L|341:121,3,32.5,0|0|0|0,0:0|0:0|0:0|0:0,0:0:0:0:
369,152,51662,2,0,L|429:159,3,32.5,0|4|4|4,0:0|0:3|0:3|0:3,0:0:0:0:
427,126,51884,70,0,L|459:122,7,32.5,8|8|8|8|8|8|8|8,0:3|0:3|0:3|0:3|0:3|0:3|0:3|0:3,0:0:0:0:
499,139,52328,69,8,0:2:0:0:
256,345,52773,21,4,0:1:0:0:
256,151,63439,6,0,L|50:141,1,195.00000743866,4|0,0:3|0:0,0:0:0:0:
31,338,64328,2,0,L|236:346,1,195.00000743866,8|8,0:3|0:3,0:0:0:0:
256,151,65217,2,0,L|461:141,1,195.00000743866,4|8,0:3|0:3,0:0:0:0:
481,338,66106,2,0,L|275:346,1,195.00000743866,4|4,0:3|0:3,0:0:0:0:
193,277,66995,86,0,L|92:271,1,97.50000371933,4|0,0:3|0:0,0:0:0:0:
47,201,67439,2,0,L|53:100,1,97.50000371933,4|8,0:3|0:3,0:0:0:0:
131,34,67884,2,0,P|191:45|291:145,1,195.00000743866,8|8,0:3|0:3,0:0:0:0:
454,162,68773,6,0,P|415:209|278:245,1,195.00000743866,8|8,0:3|0:3,0:0:0:0:
182,379,69662,2,0,P|161:321|198:184,1,195.00000743866,8|8,0:3|0:3,0:0:0:0:
364,179,70550,6,0,L|374:280,1,97.50000371933,4|0,0:3|0:0,0:0:0:0:
273,72,71217,1,4,0:3:0:0:
389,149,71439,2,0,L|399:250,1,97.50000371933,4|0,0:3|0:0,0:0:0:0:
163,323,72328,70,0,P|152:298|160:179,1,146.250005578995,4|8,0:3|0:3,0:0:0:0:
256,348,72995,1,8,0:3:0:0:
349,323,73217,2,0,P|360:298|346:215,1,97.50000371933,4|0,0:3|0:0,0:0:0:0:
204,48,74106,6,0,P|112:144|117:208,1,195.00000743866,4|4,0:3|0:3,0:0:0:0:
308,48,74995,2,0,P|399:144|394:208,1,195.00000743866,8|4,0:3|0:3,0:0:0:0:
256,327,75884,6,0,L|256:180,2,146.250005578995,0|8|0,0:3|0:3|0:0,0:0:0:0:
217,210,77662,38,0,P|156:231|50:204,1,168.999992263794,4|8,0:3|0:3,0:0:0:0:
138,70,77995,2,0,P|186:112|216:217,1,168.999992263794,4|8,0:3|0:3,0:0:0:0:
46,101,78328,1,4,0:3:0:0:
273,31,78550,5,4,0:3:0:0:
372,53,78662,1,4,0:3:0:0:
430,135,78773,2,0,P|444:190|443:240,1,84.4999961318971,4|4,0:3|0:3,0:0:0:0:
372,340,78995,2,0,P|358:285|359:235,1,84.4999961318971,8|4,0:3|0:3,0:0:0:0:
284,159,79217,2,0,L|226:153,3,42.2499980659486,8|8|8|8,0:3|0:3|0:3|0:3,0:0:0:0:
195,179,79439,86,0,L|93:169,1,84.4999961318971,8|8,0:2|0:2,0:0:0:0:
28,80,79662,1,8,0:2:0:0:
64,204,79773,2,0,L|232:220,1,168.999992263794,8|8,0:2|0:3,0:0:0:0:
137,323,80106,1,8,0:2:0:0:
351,333,80328,6,0,P|375:316|408:177,1,168.999992263794,4|8,0:3|0:3,0:0:0:0:
353,95,80662,1,8,0:3:0:0:
244,107,80773,86,0,B|199:110|199:110|163:86|163:86|121:89,2,126.749994197846,8|8|8,0:0|0:0|0:0,0:0:0:0:
236,234,81217,6,0,P|151:250|67:227,1,168.999992263794,4|4,0:3|0:3,0:0:0:0:
70,358,81550,1,4,0:3:0:0:
70,357,81662,2,0,P|152:341|233:362,1,168.999992263794,8|8,0:3|0:3,0:0:0:0:
478,298,82106,85,8,0:3:0:0:
456,199,82218,1,0,0:0:0:0:
374,141,82329,2,0,P|319:127|269:128,1,84.4999961318971,8|0,0:3|0:0,0:0:0:0:
169,199,82551,2,0,P|224:213|274:212,1,84.4999961318971,8|8,0:3|0:3,0:0:0:0:
316,291,82773,1,4,0:3:0:0:
316,291,82884,1,4,0:3:0:0:
228,342,82995,5,8,0:2:0:0:
127,328,83106,1,8,0:2:0:0:
67,246,83217,2,0,L|62:188,3,42.2499980659486,8|4|8|4,0:3|0:3|0:3|0:3,0:0:0:0:
93,167,83439,2,0,L|88:109,3,42.2499980659486,8|4|8|4,0:3|0:3|0:3|0:3,0:0:0:0:
89,72,83662,1,4,0:3:0:0:
287,32,83884,6,0,L|281:123,1,84.4999961318971,4|8,0:3|0:3,0:0:0:0:
401,108,84106,2,0,L|395:192,1,84.4999961318971,4|4,0:3|0:3,0:0:0:0:
175,355,84328,86,0,L|169:270,1,84.4999961318971,8|8,0:0|0:0,0:0:0:0:
401,276,84550,2,0,L|395:192,1,84.4999961318971,8|8,0:0|0:0,0:0:0:0:
160,143,84773,6,0,P|68:117|33:52,1,168.999992263794,4|4,0:3|0:3,0:0:0:0:
141,36,85106,1,4,0:3:0:0:
160,143,85217,2,0,P|134:235|69:270,1,168.999992263794,4|4,0:3|0:3,0:0:0:0:
285,346,85662,85,4,0:3:0:0:
376,301,85773,1,4,0:3:0:0:
418,209,85884,2,0,P|419:164|406:117,1,84.4999961318971,8|4,0:3|0:3,0:0:0:0:
300,58,86106,2,0,P|299:103|312:150,1,84.4999961318971,8|8,0:3|0:3,0:0:0:0:
289,186,86328,2,0,L|231:180,3,42.2499980659486,4|4|4|4,0:3|0:3|0:3|0:3,0:0:0:0:
200,206,86550,6,0,L|98:196,1,84.4999961318971,8|8,0:2|0:2,0:0:0:0:
33,107,86773,1,8,0:2:0:0:
69,231,86884,2,0,L|237:247,1,168.999992263794,8|8,0:2|0:3,0:0:0:0:
402,272,87217,1,8,0:2:0:0:
155,83,87439,86,0,P|124:103|154:104,1,84.4999961318971,2|2,0:2|0:2,0:0:0:0:
264,91,87662,2,0,L|314:90,3,42.2499980659486,8|4|8|4,0:3|0:3|0:3|0:3,0:0:0:0:
347,112,87884,6,0,B|392:111|392:111|426:84|426:84|469:83,2,126.749994197846,8|8|8,0:0|0:0|0:0,0:0:0:0:
281,223,88328,86,0,P|257:282|157:320,1,168.999992263794,4|8,0:3|0:3,0:0:0:0:
64,300,88662,1,8,0:3:0:0:
25,206,88773,2,0,L|25:112,2,84.4999961318971,4|4|8,0:3|0:3|0:3,0:0:0:0:
193,47,89217,2,0,P|277:30|362:86,1,168.999992263794,4|4,0:3|0:3,0:0:0:0:
405,220,89550,2,0,L|407:272,6,42.2499980659486,8|8|8|8|8|8|4,0:3|0:3|0:3|0:3|0:3|0:3|0:3,0:0:0:0:
166,335,90106,5,4,0:3:0:0:
167,218,90217,1,4,0:3:0:0:
225,277,90328,1,8,0:3:0:0:
108,275,90439,2,0,P|86:206|149:138,1,168.999992263794,4|4,0:3|0:3,0:0:0:0:
255,127,90773,2,0,L|350:127,1,84.4999961318971,4|0,0:3|0:0,0:0:0:0:
316,308,90995,1,8,0:0:0:0:
316,308,91106,1,8,0:0:0:0:
215,335,91217,2,0,L|172:335,3,42.2499980659486,0|0|0|0,0:0|0:0|0:0|0:0,0:0:0:0:
139,297,91439,86,0,P|67:286|155:254,1,253.499988395691,2|0,3:0|0:0,0:0:0:0:
268,313,91884,5,8,0:0:0:0:
377,284,91995,1,8,0:0:0:0:
348,175,92106,1,8,0:0:0:0:
239,204,92217,1,8,0:0:0:0:
270,93,92328,86,0,P|341:61|443:118,1,168.999992263794,4|4,0:3|0:3,0:0:0:0:
348,175,92662,1,4,0:3:0:0:
423,257,92773,2,0,P|352:289|250:232,1,168.999992263794,8|4,0:3|0:3,0:0:0:0:
92,49,93217,2,0,L|68:140,1,84.4999961318971,8|8,0:3|0:3,0:0:0:0:
145,236,93439,2,0,L|166:154,1,84.4999961318971,8|8,0:3|0:3,0:0:0:0:
272,84,93662,6,0,L|374:94,1,84.4999961318971,8|8,0:2|0:2,0:0:0:0:
439,183,93884,1,8,0:2:0:0:
403,59,93996,2,0,L|235:43,1,168.999992263794,8|0,0:2|0:0,0:0:0:0:
165,154,94328,1,8,0:2:0:0:
373,302,94550,86,0,P|329:263|258:335,1,168.999992263794,8|4,0:2|0:3,0:0:0:0:
159,354,94884,1,4,0:3:0:0:
69,306,94995,2,0,P|58:265|60:223,1,84.4999961318971,4|8,0:3|0:3,0:0:0:0:
142,165,95217,2,0,P|153:124|151:82,1,84.4999961318971,4|4,0:3|0:3,0:0:0:0:
86,4,95439,6,0,P|154:46|254:41,1,168.999992263794,4|8,0:3|0:3,0:0:0:0:
343,44,95773,1,8,0:3:0:0:
395,130,95884,2,0,P|393:213|436:284,1,168.999992263794,8|8,0:3|0:3,0:0:0:0:
75,284,96328,86,0,P|118:213|117:130,1,168.999992263794,4|8,0:3|0:3,0:0:0:0:
169,44,96661,1,4,0:3:0:0:
271,45,96773,2,0,P|354:46|426:4,1,168.999992263794,8|8,0:3|0:3,0:0:0:0:
480,198,97217,5,8,0:2:0:0:
480,198,97328,1,8,0:2:0:0:
410,271,97439,2,0,L|362:278,3,42.2499980659486,4|4|4|4,0:3|0:3|0:3|0:3,0:0:0:0:
318,262,97662,2,0,L|270:269,3,42.2499980659486,8|0|0|0,0:3|0:0|0:0|0:0,0:0:0:0:
239,303,97884,1,4,0:3:0:0:
111,108,98106,86,0,L|117:192,1,84.4999961318971,4|8,0:3|0:3,0:0:0:0:
225,32,98328,2,0,L|230:116,1,84.4999961318971,4|8,0:3|0:3,0:0:0:0:
111,276,98550,6,0,L|117:192,1,84.4999961318971,8|8,0:0|0:0,0:0:0:0:
337,355,98772,2,0,L|343:270,1,84.4999961318971,8|8,0:0|0:0,0:0:0:0:
415,20,98995,86,0,P|436:81|409:187,1,168.999992263794,4|8,0:3|0:3,0:0:0:0:
275,99,99328,2,0,P|317:51|422:21,1,168.999992263794,4|8,0:3|0:3,0:0:0:0:
306,191,99661,1,4,0:3:0:0:
211,18,99884,5,4,0:3:0:0:
120,52,99996,1,8,0:3:0:0:
78,138,100107,2,0,P|64:193|65:243,1,84.4999961318971,8|0,0:3|0:0,0:0:0:0:
140,340,100329,2,0,P|154:285|153:235,1,84.4999961318971,8|0,0:3|0:0,0:0:0:0:
228,159,100551,2,0,L|286:153,3,42.2499980659486,4|0|0|0,0:3|0:0|0:0|0:0,0:0:0:0:
317,179,100773,86,0,L|419:169,1,84.4999961318971,8|8,0:2|0:2,0:0:0:0:
484,80,100996,1,8,0:2:0:0:
448,204,101107,2,0,L|280:220,1,168.999992263794,8|0,0:2|0:0,0:0:0:0:
375,323,101440,1,8,0:2:0:0:
183,196,101662,6,0,P|159:213|126:352,1,168.999992263794,4|4,0:3|0:3,0:0:0:0:
231,305,101996,1,4,0:3:0:0:
279,220,102107,86,0,B|282:175|282:175|258:139|258:139|261:97,2,126.749994197846,8|8|8,0:0|0:0|0:0,0:0:0:0:
342,336,102550,6,0,P|434:340|481:284,1,168.999992263794,4|4,0:3|0:3,0:0:0:0:
476,184,102884,1,4,0:3:0:0:
429,93,102995,2,0,L|228:102,1,168.999992263794,4|8,0:3|0:3,0:0:0:0:
54,189,103439,85,4,0:3:0:0:
76,288,103551,1,4,0:3:0:0:
158,346,103662,2,0,P|213:360|263:359,1,84.4999961318971,4|0,0:3|0:0,0:0:0:0:
363,288,103884,2,0,P|308:274|258:275,1,84.4999961318971,8|4,0:3|0:3,0:0:0:0:
196,193,104106,2,0,L|193:142,3,42.2499980659486,8|4|4|4,0:3|0:3|0:3|0:3,0:0:0:0:
172,117,104328,6,0,L|70:127,1,84.4999961318971,8|8,0:2|0:2,0:0:0:0:
5,216,104551,1,8,0:2:0:0:
41,92,104662,2,0,L|209:76,1,168.999992263794,8|8,0:2|0:3,0:0:0:0:
374,57,104995,1,8,0:2:0:0:
437,287,105217,2,0,P|390:275|341:282,1,84.4999961318971,4|8,0:3|0:3,0:0:0:0:
256,328,105439,2,0,L|211:328,3,42.2499980659486,4|4|4|4,0:3|0:3|0:3|0:3,0:0:0:0:
177,328,105662,86,0,B|131:327|131:327|97:301|97:301|55:301,2,126.749994197846,8|8|8,0:0|0:0|0:0,0:0:0:0:
256,192,106106,21,0,0:0:0:0:
409,71,120328,5,4,0:3:0:0:
211,91,120662,1,4,0:3:0:0:
327,253,120995,1,4,0:3:0:0:
316,138,121217,5,4,0:3:0:0:
117,118,121550,1,4,0:3:0:0:
198,300,121884,1,4,0:3:0:0:
210,194,122106,69,4,0:3:0:0:
409,174,122439,1,4,0:3:0:0:
328,356,122773,1,4,0:3:0:0:
316,250,122995,1,4,0:3:0:0:
128,55,123884,6,0,P|80:99|55:160,1,130,4|4,0:3|0:3,0:0:0:0:
57,223,124217,1,4,0:3:0:0:
140,333,124439,1,0,0:0:0:0:
198,307,124550,2,0,L|271:301,1,65,4|4,0:3|0:3,0:0:0:0:
366,280,124773,6,0,L|455:290,2,65,8|0|4,0:3|0:0|0:3,0:0:0:0:
417,199,125106,2,0,L|506:209,2,65,8|0|4,0:3|0:0|0:3,0:0:0:0:
383,115,125439,1,8,0:3:0:0:
157,73,125662,69,8,0:3:0:0:
186,145,125773,1,8,0:3:0:0:
189,222,125884,1,4,0:3:0:0:
156,292,125995,2,0,P|101:322|24:288,1,130,8|4,0:3|0:3,0:0:0:0:
15,229,126328,1,8,0:3:0:0:
85,64,126550,6,0,L|178:61,1,65,4|4,0:3|0:3,0:0:0:0:
226,91,126773,2,0,L|319:88,1,65,8|8,0:3|0:3,0:0:0:0:
439,324,127439,6,0,L|374:318,1,65,4|8,0:3|0:3,0:0:0:0:
293,307,127662,2,0,L|228:301,1,65,8|4,0:0|0:3,0:0:0:0:
238,209,127884,2,0,L|173:203,1,65,8|4,0:3|0:3,0:0:0:0:
92,192,128107,2,0,L|27:186,1,65,8|0,0:0|0:0,0:0:0:0:
65,85,128328,70,0,P|119:96|218:72,1,130,4|4,0:3|0:3,0:0:0:0:
278,85,128662,2,0,P|341:96|405:85,1,130,4|4,0:3|0:3,0:0:0:0:
472,34,128995,1,4,0:3:0:0:
492,170,129217,5,4,0:3:0:0:
454,294,129439,1,4,0:3:0:0:
437,357,129550,1,4,0:3:0:0:
308,318,129773,1,4,0:3:0:0:
325,254,129884,1,4,0:3:0:0:
256,111,130106,1,4,0:3:0:0:
140,304,130995,6,0,L|124:154,1,130,2|4,0:0|0:3,0:0:0:0:
117,65,131328,2,0,P|211:34|246:39,1,130,0|8,0:0|0:2,0:0:0:0:
326,89,131662,2,0,L|381:83,2,32.5,8|0|0,0:2|0:0|0:0,0:0:0:0:
224,176,131884,70,0,L|214:265,2,65,4|0|4,0:3|0:0|0:3,0:0:0:0:
305,227,132217,2,0,L|295:316,2,65,8|0|8,0:3|0:0|0:3,0:0:0:0:
389,193,132550,1,4,0:3:0:0:
192,38,132773,5,4,0:3:0:0:
120,68,132884,1,4,0:3:0:0:
73,128,132995,1,8,0:0:0:0:
60,204,133106,2,0,P|71:275|121:324,1,130,4|8,0:3|0:0,0:0:0:0:
188,331,133439,1,4,0:3:0:0:
347,299,133662,6,0,L|335:226,1,65,4|4,0:3|0:3,0:0:0:0:
391,162,133884,2,0,L|379:89,1,65,4|4,0:3|0:3,0:0:0:0:
440,30,134106,69,2,2:2:0:0:
115,62,134550,6,0,L|122:204,1,130,4|4,0:3|0:3,0:0:0:0:
126,285,134884,1,4,0:3:0:0:
236,211,135106,1,4,0:3:0:0:
231,117,135218,2,0,L|229:23,1,65,4|0,0:3|0:0,0:0:0:0:
458,56,135439,6,0,L|450:198,1,130,8|4,0:3|0:3,0:0:0:0:
444,300,135773,1,8,0:3:0:0:
325,218,135995,1,4,0:3:0:0:
325,115,136107,2,0,L|326:51,1,65,8|0,0:3|0:0,0:0:0:0:
213,81,136328,69,4,0:3:0:0:
110,41,136439,2,0,L|67:47,4,32.5,8|8|4|4|4,0:3|0:3|0:3|0:3|0:3,0:0:0:0:
55,133,136773,2,0,L|12:139,2,32.5,4|4|4,0:3|0:3|0:3,0:0:0:0:
130,200,136995,1,8,0:3:0:0:
130,200,137106,1,4,0:3:0:0:
82,299,137217,5,4,0:3:0:0:
82,299,137328,1,4,0:3:0:0:
82,299,137439,1,4,0:3:0:0:
82,299,137550,1,4,0:3:0:0:
339,185,138106,6,0,P|342:156|371:200,1,130,4|4,0:3|0:3,0:0:0:0:
240,247,138550,1,4,0:3:0:0:
200,178,138662,2,0,L|202:137,4,32.5,8|8|8|8|4,0:3|0:3|0:3|0:3|0:3,0:0:0:0:
148,338,138995,70,0,L|59:348,2,65,4|0|4,0:3|0:0|0:3,0:0:0:0:
97,257,139328,2,0,L|8:267,2,65,4|0|4,0:3|0:0|0:3,0:0:0:0:
131,173,139661,1,4,0:3:0:0:
312,46,139884,5,4,0:3:0:0:
384,76,139995,1,4,0:3:0:0:
431,136,140106,1,4,0:3:0:0:
444,212,140217,2,0,P|433:283|383:332,1,130,4|4,0:3|0:3,0:0:0:0:
316,339,140550,1,4,0:3:0:0:
161,335,140773,6,0,L|155:262,1,65,4|4,0:3|0:3,0:0:0:0:
73,229,140995,2,0,L|82:138,1,65,8|8,0:3|0:3,0:0:0:0:
141,96,141217,69,2,2:2:0:0:
316,204,141662,6,0,L|372:201,6,32.5,0|0|8|8|8|8|4,0:3|0:0|0:3|0:3|0:3|0:3|0:3,0:0:0:0:
419,268,142106,2,0,L|491:265,1,65,8|8,0:3|0:3,0:0:0:0:
338,317,142328,2,0,L|266:320,1,65,4|4,0:3|0:3,0:0:0:0:
143,313,142550,6,0,P|90:278|70:217,1,130,4|4,0:3|0:3,0:0:0:0:
167,218,142884,2,0,P|171:154|213:106,1,130,4|4,0:3|0:3,0:0:0:0:
312,83,143217,1,4,0:3:0:0:
428,140,143439,69,8,0:3:0:0:
412,268,143661,1,8,0:3:0:0:
406,333,143772,1,8,0:3:0:0:
272,317,143995,1,8,0:3:0:0:
278,251,144106,1,4,0:3:0:0:
241,134,144328,5,4,0:3:0:0:
241,134,144439,1,4,0:3:0:0:
241,134,144550,1,4,0:3:0:0:
241,134,144662,1,4,0:3:0:0:
478,47,145217,6,0,L|467:127,1,65,8|4,0:2|0:3,0:0:0:0:
389,63,145439,2,0,L|378:143,1,65,4|4,0:3|0:3,0:0:0:0:
453,195,145662,2,0,L|442:275,1,65,4|4,0:3|0:3,0:0:0:0:
364,211,145884,2,0,L|353:291,1,65,4|4,0:3|0:3,0:0:0:0:
235,232,146106,70,0,P|174:228|97:261,1,130,8|4,0:3|0:3,0:0:0:0:
38,221,146439,1,8,0:3:0:0:
32,143,146550,1,8,0:3:0:0:
83,83,146662,2,0,L|132:75,5,32.5,4|4|4|4|4|4,0:3|0:3|0:3|0:3|0:3|0:3,0:0:0:0:
153,67,146995,6,0,L|241:80,2,65,4|4|8,0:3|0:3|0:3,0:0:0:0:
181,159,147328,2,0,L|269:172,2,65,4|4|8,0:3|0:3|0:3,0:0:0:0:
127,231,147662,2,0,L|133:315,1,65,4|4,0:3|0:3,0:0:0:0:
237,346,147884,5,2,0:2:0:0:
313,331,147995,1,4,0:3:0:0:
367,275,148106,1,8,0:3:0:0:
381,198,148217,1,4,0:3:0:0:
353,125,148328,1,2,0:2:0:0:
97,304,148773,70,0,L|188:309,1,65,4|0,0:3|0:0,0:0:0:0:
292,248,148995,2,0,L|201:253,1,65,8|0,0:0|0:0,0:0:0:0:
142,179,149217,2,0,L|78:176,1,65,4|4,0:3|0:3,0:0:0:0:
208,123,149439,2,0,L|273:120,1,65,8|4,0:0|0:3,0:0:0:0:
366,177,149662,5,4,0:3:0:0:
379,253,149773,1,8,0:3:0:0:
393,329,149884,1,8,0:0:0:0:
317,348,149995,2,0,L|256:357,2,32.5,0|0|0,0:0|0:0|0:0,0:0:0:0:
393,329,150217,1,4,0:3:0:0:
393,329,150328,1,8,0:0:0:0:
457,276,150439,1,4,0:3:0:0:
379,253,150550,6,0,P|366:211|363:117,1,130,4|2,0:3|0:2,0:0:0:0:
298,70,150884,2,0,L|232:76,2,65,4|4|4,0:3|0:3|0:3,0:0:0:0:
376,45,151217,1,2,0:2:0:0:
444,209,151439,2,0,L|510:203,2,65,4|4|0,0:3|0:3|0:0,0:0:0:0:
259,292,151884,1,8,0:0:0:0:
305,355,151995,1,8,0:0:0:0:
379,331,152106,1,8,0:0:0:0:
379,253,152217,1,8,0:0:0:0:
304,228,152328,70,0,P|297:197|294:165,1,65,8|0,0:2|0:0,0:0:0:0:
287,63,152550,2,0,P|294:94|297:126,1,65,8|4,0:3|0:3,0:0:0:0:
218,234,152773,2,0,P|210:202|207:170,1,65,4|8,0:3|0:3,0:0:0:0:
200,68,152995,2,0,P|207:99|210:131,1,65,4|8,0:3|0:3,0:0:0:0:
109,220,153217,6,0,P|94:289|110:355,1,130,8|8,0:2|0:0,0:0:0:0:
194,353,153550,2,0,L|233:348,2,32.5,8|8|8,0:3|0:3|0:3,0:0:0:0:
371,330,153884,1,8,0:0:0:0:
403,47,154106,6,0,L|328:45,1,65,4|8,0:3|0:3,0:0:0:0:
262,93,154328,2,0,L|187:91,1,65,8|4,0:0|0:3,0:0:0:0:
340,146,154550,2,0,L|405:148,1,65,8|8,0:3|0:3,0:0:0:0:
198,192,154772,2,0,L|263:194,1,65,8|8,0:3|0:3,0:0:0:0:
253,68,155884,38,0,L|253:187,1,84.4999961318971,8|0,0:2|0:0,0:0:0:0:
199,273,156105,1,4,0:3:0:0:
199,273,156216,1,4,0:3:0:0:
99,189,156327,2,0,P|93:147|101:105,1,84.4999961318971,8|8,0:2|0:2,0:0:0:0:
199,273,156550,2,0,P|204:314|196:356,1,84.4999961318971,8|8,0:2|0:2,0:0:0:0:
15,185,156773,6,0,P|56:180|98:188,1,84.4999961318971,8|8,0:3|0:2,0:0:0:0:
300,129,156995,2,0,P|259:134|217:126,1,84.4999961318971,8|4,0:3|0:3,0:0:0:0:
199,273,157217,2,0,P|240:268|282:276,1,84.4999961318971,4|8,0:3|0:2,0:0:0:0:
484,217,157439,2,0,P|443:222|401:214,1,84.4999961318971,8|8,0:3|0:2,0:0:0:0:
447,86,157662,85,0,0:0:0:0:
447,86,157773,2,0,L|439:254,1,168.999992263794,0|8,0:0|0:3,0:0:0:0:
314,349,158106,2,0,L|306:180,1,168.999992263794,4|8,0:3|0:0,0:0:0:0:
210,52,158550,5,4,0:3:0:0:
85,93,158662,2,0,L|39:86,2,42.2499980659486,8|8|0,0:3|0:3|0:0,0:0:0:0:
196,272,158995,1,8,0:2:0:0:
251,347,159106,1,8,0:2:0:0:
339,318,159217,1,8,0:2:0:0:
339,225,159328,1,8,0:2:0:0:
250,195,159439,86,0,P|241:157|244:91,1,84.4999961318971,8|4,0:3|0:3,0:0:0:0:
421,162,159662,2,0,P|429:199|427:266,1,84.4999961318971,8|4,0:3|0:3,0:0:0:0:
239,190,159884,2,0,P|230:152|233:86,1,84.4999961318971,8|4,0:3|0:3,0:0:0:0:
432,167,160107,2,0,P|440:204|438:271,1,84.4999961318971,8|4,0:3|0:3,0:0:0:0:
278,332,160328,6,0,L|96:341,1,168.999992263794,0|8,0:0|0:0,0:0:0:0:
160,244,160662,2,0,L|212:242,2,42.2499980659486,0|0|0,0:0|0:0|0:0,0:0:0:0:
37,104,160995,1,8,0:1:0:0:
278,37,161217,85,8,0:3:0:0:
378,48,161328,1,4,0:3:0:0:
478,58,161439,1,8,0:0:0:0:
422,142,161550,2,0,L|240:128,1,168.999992263794,4|0,0:3|0:0,0:0:0:0:
264,213,161884,2,0,L|316:218,3,42.2499980659486,4|4|4|4,0:3|0:3|0:3|0:3,0:0:0:0:
219,221,162106,6,0,P|210:268|217:306,1,84.4999961318971,4|8,0:3|0:3,0:0:0:0:
394,355,162328,2,0,P|403:308|396:270,1,84.4999961318971,4|8,0:3|0:3,0:0:0:0:
402,134,162550,1,4,0:3:0:0:
256,30,162773,1,8,0:3:0:0:
110,134,162995,5,4,0:0:0:0:
256,192,163217,12,0,165217,0:0:0:0:
