osu file format v14

[General]
AudioFilename: jjj.mp3
AudioLeadIn: 0
PreviewTime: 63439
Countdown: 0
SampleSet: Normal
StackLeniency: 0.3
Mode: 0
LetterboxInBreaks: 0
WidescreenStoryboard: 1

[Editor]
Bookmarks: 439,6221,34662,38551,52773,63439,77662,91884,106106,120328,134550,141662,148773,154995,162995
DistanceSpacing: 0.6
BeatDivisor: 8
GridSize: 16
TimelineZoom: 4.599998

[Metadata]
Title:SLOTcore Is Dead
TitleUnicode:SLOTcore Is Dead
Artist:sHimaU
ArtistUnicode:sHimaU
Creator:Arphimigon
Version:BOSS
Source:
Tags:electronic breakcore japanese Miracle High Tension dodo naruto da astrosexy spaced streams high bpm fullscreen jumps
BeatmapID:2281994
BeatmapSetID:306012

[Difficulty]
HPDrainRate:5
CircleSize:3.5
OverallDifficulty:10
ApproachRate:10
SliderMultiplier:2
SliderTickRate:2

[Events]
//Background and Video events
0,0,"kek.jpg",0,0
//Break Periods
2,55884,62206
//Storyboard Layer 0 (Background)
//Storyboard Layer 1 (Fail)
//Storyboard Layer 2 (Pass)
//Storyboard Layer 3 (Foreground)
Sprite,Foreground,Centre,"kek.jpg",320,240 S,0,0,172527,0.59305 C,0,77356,77662,255,255,255,255,50,50 C,0,106106,106328,255,50,50,255,255,255 C,0,155578,155884,255,255,255,255,50,50 C,0,162550,162995,255,50,50,255,255,255
//Storyboard Layer 4 (Overlay)
//Storyboard Sound Samples

[TimingPoints]
439,226.415094339623,4,1,2,65,1,0
439,-66.6666666666667,4,1,2,65,0,0
665,-66.6666666666667,4,1,2,5,0,0
891,-100,4,1,2,65,0,0
1118,-100,4,1,2,5,0,0
1344,-66.6666666666667,4,1,2,65,0,0
1457,-66.6666666666667,4,1,2,5,0,0
1571,-100,4,1,2,65,0,0
3155,-133.333333333333,4,1,2,65,0,0
3382,-133.333333333333,4,1,2,35,0,0
3646,-153.846153846154,4,1,2,35,0,0
3872,-153.846153846154,4,1,2,25,0,0
4137,-181.818181818182,4,1,2,25,0,0
4363,-181.818181818182,4,1,2,20,0,0
4627,-222.222222222222,4,1,2,15,0,0
4854,-222.222222222222,4,1,2,10,0,0
6221,222.222222222222,4,1,2,65,1,0
6998,-100,4,1,2,65,0,0
7026,-100,4,1,2,55,0,0
7054,-100,4,1,2,45,0,0
7082,-100,4,1,2,35,0,0
7109,-100,4,1,2,25,0,0
7137,-100,4,1,2,15,0,0
7220,-100,4,1,2,65,0,0
7984,-100,4,1,2,5,0,0
7998,-100,4,1,2,65,0,0
9443,-33.3333333333333,4,1,2,65,0,0
9776,-50,4,1,2,65,0,0
9998,-80,4,1,2,45,0,0
10109,-100,4,1,2,65,0,0
10998,-83.3333333333333,4,1,2,65,0,0
11220,-100,4,1,2,65,0,0
12887,-100,4,1,2,65,0,0
12998,-83.3333333333333,4,1,2,65,0,0
13054,-83.3333333333333,4,1,2,45,0,0
13109,-83.3333333333333,4,1,2,65,0,0
13165,-83.3333333333333,4,1,2,45,0,0
13220,-83.3333333333333,4,1,2,65,0,0
13554,-100,4,1,2,65,0,0
14943,-100,4,1,2,25,0,0
14998,-100,4,1,2,65,0,0
15054,-100,4,1,2,25,0,0
15109,-100,4,3,2,65,0,0
15776,-100,4,1,2,65,0,0
15832,-100,4,1,2,35,0,0
15887,-100,4,1,2,65,0,0
15943,-100,4,1,2,35,0,0
15998,-100,4,1,2,65,0,0
16554,-76.9230769230769,4,1,2,65,0,0
16609,-76.9230769230769,4,1,2,35,0,0
16665,-76.9230769230769,4,1,2,65,0,0
16720,-76.9230769230769,4,1,2,35,0,0
16776,-76.9230769230769,4,1,2,65,0,0
16832,-76.9230769230769,4,1,2,35,0,0
16887,-100,4,1,2,65,0,0
17220,-76.9230769230769,4,1,2,65,0,0
19554,-83.3333333333333,4,1,2,65,0,0
20109,-45.4545454545455,4,1,2,65,0,0
20443,-83.3333333333333,4,1,2,65,0,0
21998,-133.333333333333,4,1,2,65,0,0
22207,-133.333333333333,4,1,2,15,0,0
22220,-100,4,1,2,65,0,0
25220,-76.9230769230769,4,1,2,65,0,0
25554,-62.5,4,1,2,65,0,0
25776,-100,4,1,2,65,0,0
26443,-66.6666666666667,4,1,2,65,0,0
26665,-100,4,1,2,65,0,0
27109,-100,4,1,2,65,0,0
27165,-100,4,1,2,25,0,0
27220,-100,4,1,2,65,0,0
27276,-100,4,1,2,25,0,0
27887,-100,4,1,2,65,0,0
27943,-100,4,1,2,25,0,0
27998,-100,4,1,2,65,0,0
28054,-100,4,1,2,25,0,0
28109,-100,4,1,2,65,0,0
28165,-100,4,1,2,25,0,0
28220,-133.333333333333,4,1,2,65,0,0
28429,-133.333333333333,4,1,2,65,0,0
28443,-76.9230769230769,4,1,2,55,0,0
28609,-76.9230769230769,4,1,2,15,0,0
28665,-76.9230769230769,4,1,2,65,0,0
28720,-76.9230769230769,4,1,2,15,0,0
29443,-62.5,4,1,2,65,0,0
29554,-50,4,1,2,65,0,0
29665,-76.9230769230769,4,1,2,65,0,0
29998,-100,4,1,2,65,0,0
30054,-76.9230769230769,4,1,2,5,0,0
30109,-100,4,1,2,65,0,0
30165,-76.9230769230769,4,1,2,5,0,0
30220,-76.9230769230769,4,1,2,65,0,0
30832,-76.9230769230769,4,1,2,5,0,0
30887,-76.9230769230769,4,1,2,65,0,0
30943,-76.9230769230769,4,1,2,5,0,0
30998,-66.6666666666667,4,1,2,65,0,0
31054,-76.9230769230769,4,1,2,5,0,0
31109,-76.9230769230769,4,1,2,65,0,0
32887,-100,4,1,2,65,0,0
34662,327.868852459016,4,1,2,65,1,0
38551,222.222222222222,4,1,2,65,1,0
39217,-133.333333333333,4,1,2,65,0,0
39328,-100,4,1,2,35,0,0
39439,-100,4,1,2,65,0,0
40328,-90.9090909090909,4,1,2,65,0,0
41439,-83.3333333333333,4,1,2,65,0,0
42106,-90.9090909090909,4,1,2,65,0,0
42773,-133.333333333333,4,1,2,65,0,0
42884,-90.9090909090909,4,1,2,35,0,0
42995,-66.6666666666667,4,1,2,65,0,0
43884,-83.3333333333333,4,1,2,65,0,0
44550,-66.6666666666667,4,1,2,65,0,0
44606,-66.6666666666667,4,1,2,45,0,0
44662,-66.6666666666667,4,1,2,65,0,0
44717,-66.6666666666667,4,1,2,45,0,0
44773,-83.3333333333333,4,1,2,65,0,0
45495,-83.3333333333333,4,1,2,45,0,0
45550,-83.3333333333333,4,1,2,65,0,0
45605,-83.3333333333333,4,1,2,45,0,0
45662,-100,4,1,2,65,0,0
46773,-133.333333333333,4,1,2,65,0,0
47217,-66.6666666666667,4,1,2,65,0,0
47273,-66.6666666666667,4,1,2,45,0,0
47328,-66.6666666666667,4,1,2,65,0,0
47384,-66.6666666666667,4,1,2,45,0,0
47439,-83.3333333333333,4,1,2,65,0,0
48439,-83.3333333333333,4,1,2,15,0,0
48550,-83.3333333333333,4,1,2,65,0,0
48662,-83.3333333333333,4,1,2,15,0,0
48773,-83.3333333333333,4,1,2,65,0,0
49217,-66.6666666666667,4,1,2,65,0,0
50328,-83.3333333333333,4,1,2,65,0,0
50773,-100,4,1,2,65,0,0
50995,-83.3333333333333,4,1,2,65,0,0
51912,-83.3333333333333,4,1,2,5,0,0
51939,-83.3333333333333,4,1,2,65,0,0
51967,-83.3333333333333,4,1,2,5,0,0
51994,-83.3333333333333,4,1,2,65,0,0
52023,-83.3333333333333,4,1,2,5,0,0
52050,-83.3333333333333,4,1,2,65,0,0
52078,-83.3333333333333,4,1,2,5,0,0
52105,-83.3333333333333,4,1,2,65,0,0
52134,-83.3333333333333,4,1,2,5,0,0
52161,-83.3333333333333,4,1,2,65,0,0
52189,-83.3333333333333,4,1,2,5,0,0
52216,-83.3333333333333,4,1,2,65,0,0
52245,-83.3333333333333,4,1,2,5,0,0
52272,-83.3333333333333,4,1,2,65,0,0
52300,-83.3333333333333,4,1,2,5,0,0
52328,-166.666666666667,4,1,2,65,0,0
63105,-33.3333333333333,4,1,2,65,0,0
63328,-166.666666666667,4,1,2,5,0,0
63439,-200,4,1,2,65,0,0
63773,-100,4,1,2,65,0,0
64106,-200,4,1,2,65,0,0
65384,-200,4,1,2,25,0,0
65439,-200,4,1,2,65,0,0
66106,-100,4,1,2,65,0,0
66550,-200,4,1,2,65,0,0
66995,-100,4,1,2,65,0,0
67439,-200,4,1,2,65,0,0
69662,-100,4,1,2,65,0,0
70217,-200,4,1,2,65,0,0
70550,-100,4,1,2,65,0,0
70884,-100,4,1,2,65,0,0
71106,-200,4,1,2,65,0,0
71773,-100,4,1,2,65,0,0
71995,-200,4,1,2,65,0,0
73217,-100,4,1,2,65,0,0
73662,-200,4,1,2,65,0,0
74106,-100,4,1,2,65,0,0
74550,-200,4,1,2,65,0,0
76773,-250,4,1,2,25,0,0
77356,-153.846153846153,4,1,2,25,0,0
77550,-133.333333333333,4,1,2,5,0,0
77662,-66.6666666666667,4,1,2,65,0,1
80106,-57.1428571428571,4,1,2,65,0,1
80217,-57.1428571428571,4,1,2,55,0,1
80328,-66.6666666666667,4,1,2,65,0,1
80856,-66.6666666666667,4,1,2,5,0,1
80884,-66.6666666666667,4,1,2,65,0,1
80912,-66.6666666666667,4,1,2,5,0,1
80939,-66.6666666666667,4,1,2,65,0,1
81050,-66.6666666666667,4,1,2,55,0,1
81106,-66.6666666666667,4,1,2,65,0,1
81162,-66.6666666666667,4,1,2,55,0,1
87217,-57.1428571428571,4,1,2,65,0,1
87439,-50,4,1,2,65,0,1
87662,-66.6666666666667,4,1,2,65,0,1
87967,-66.6666666666667,4,1,2,5,0,1
87995,-66.6666666666667,4,1,2,65,0,1
88023,-66.6666666666667,4,1,2,5,0,1
88050,-66.6666666666667,4,1,2,65,0,1
89550,-60.6060606060606,4,1,2,65,0,1
90106,-66.6666666666667,4,1,2,65,0,1
91606,-66.6666666666667,4,1,2,35,0,1
91662,-57.1428571428571,4,1,2,65,0,1
91828,-57.1428571428571,4,1,2,35,0,1
91884,-55.5555555555556,4,1,2,65,0,0
91939,-55.5555555555556,4,1,2,35,0,0
91995,-55.5555555555556,4,1,2,65,0,0
92050,-55.5555555555556,4,1,2,35,0,0
92106,-55.5555555555556,4,1,2,65,0,0
92161,-55.5555555555556,4,1,2,35,0,0
92217,-55.5555555555556,4,1,2,65,0,0
92272,-55.5555555555556,4,1,2,35,0,0
92328,-66.6666666666667,4,1,2,65,0,1
101439,-50,4,1,2,65,0,1
101662,-66.6666666666667,4,1,2,65,0,1
102189,-66.6666666666667,4,1,2,5,0,1
102217,-66.6666666666667,4,1,2,65,0,1
102245,-66.6666666666667,4,1,2,5,0,1
102273,-66.6666666666667,4,1,2,65,0,1
104995,-57.1428571428571,4,1,2,65,0,1
105217,-66.6666666666667,4,1,2,65,0,1
105745,-66.6666666666667,4,1,2,5,0,1
105773,-66.6666666666667,4,1,2,65,0,1
105800,-66.6666666666667,4,1,2,5,0,1
105828,-66.6666666666667,4,1,2,65,0,1
106106,-100,4,1,2,50,0,0
107550,-133.333333333333,4,1,2,50,0,0
107884,-100,4,1,2,50,0,0
110995,-100,4,1,2,30,0,0
111217,-100,4,1,2,50,0,0
111273,-100,4,1,2,10,0,0
111439,-100,4,1,2,50,0,0
114662,-133.333333333333,4,1,2,50,0,0
114884,-100,4,1,2,50,0,0
115828,-100,4,1,2,10,0,0
115884,-100,4,1,2,50,0,0
118106,-100,4,1,2,30,0,0
118328,-100,4,1,2,50,0,0
118384,-100,4,1,2,10,0,0
118550,-100,4,1,2,50,0,0
120328,-66.6666666666667,4,1,2,50,0,0
123439,-133.333333333333,4,1,2,65,0,0
123884,-66.6666666666667,4,1,2,65,0,0
124328,-66.6666666666667,4,1,2,35,0,0
124439,-66.6666666666667,4,1,2,65,0,0
126995,-133.333333333333,4,1,2,65,0,0
127439,-66.6666666666667,4,1,2,65,0,0
130550,-133.333333333333,4,1,2,65,0,0
130995,-66.6666666666667,4,1,2,65,0,0
131439,-66.6666666666667,4,1,2,45,0,0
131550,-66.6666666666667,4,1,2,65,0,0
134106,-133.333333333333,4,1,2,65,0,0
134328,-133.333333333333,4,1,2,25,0,0
134550,-66.6666666666667,4,1,2,65,0,0
137662,-133.333333333333,4,1,2,65,0,0
138106,-66.6666666666667,4,1,2,65,0,0
141217,-100,4,1,2,65,0,0
141662,-66.6666666666667,4,1,2,65,0,0
142217,-50,4,1,2,65,0,0
142328,-66.6666666666667,4,1,2,65,0,0
144773,-66.6666666666667,4,1,0,65,0,0
144995,-66.6666666666667,4,1,2,65,0,0
148328,-100,4,1,2,65,0,0
148773,-66.6666666666667,4,1,2,65,0,0
155578,-133.333333333333,4,1,2,35,0,0
155856,-66.6666666666667,4,1,2,5,0,0
155884,-66.6666666666667,4,1,2,75,0,0
159439,-28.5714285714286,4,1,2,75,0,0
159884,-20,4,1,2,75,0,0
160328,-66.6666666666667,4,1,2,75,0,0
162106,-83.3333333333333,4,1,2,75,0,0
162550,-125,4,1,2,65,0,0
163328,-125,4,1,2,35,0,0
163884,-125,4,1,2,25,0,0
164773,-125,4,1,2,15,0,0
164995,-125,4,1,2,10,0,0
165217,-125,4,1,2,5,0,0

[Colours]
Combo1 : 230,0,0
Combo2 : 230,230,230
Combo3 : 170,170,170
Combo4 : 106,106,106
Combo5 : 255,0,255
Combo6 : 255,128,255
Combo7 : 255,0,0

[HitObjects]
170,113,439,6,0,P|256:13|342:113,1,300.000011444092
183,303,891,6,0,P|256:361|329:304,1,200
213,106,1344,6,0,P|256:55|298:106,1,150.000005722046
256,285,1571,86,0,L|256:185,1,100
162,324,1797,1,0,0:0:0:0:
350,250,2023,2,0,L|350:150,1,100
256,285,2249,5,0,0:0:0:0:
350,68,2476,1,0,0:0:0:0:
66,360,2703,1,0,0:0:0:0:
481,192,2929,1,0,0:0:0:0:
2,13,3155,86,0,L|12:162,1,150.000005722046,0|0,0:0|2:0,2:0:0:0:
96,23,3646,2,0,L|104:152,1,129.999994049073,0|0,2:0|2:0,2:0:0:0:
187,33,4137,2,0,L|193:142,1,110.000003356934,0|0,2:0|2:0,2:0:0:0:
276,43,4627,2,0,L|281:132,1,89.9999972534181,0|0,2:0|2:0,2:0:0:0:
159,280,6221,85,8,0:3:0:0:
158,73,6332,1,4,0:3:0:0:
278,238,6443,1,8,0:0:0:0:
85,176,6554,1,4,0:3:0:0:
79,174,6609,1,4,0:3:0:0:
5,158,6665,1,4,0:3:0:0:
278,107,6776,1,0,0:0:0:0:
149,301,6887,1,8,0:0:0:0:
227,16,6998,6,0,P|287:3|344:27,1,125,8|0,0:2|0:0,0:0:0:0:
404,88,7220,1,0,0:0:0:0:
352,328,7332,1,2,0:2:0:0:
278,107,7443,1,4,0:3:0:0:
512,269,7554,5,0,3:0:0:0:
352,328,7665,1,0,3:0:0:0:
404,88,7776,1,2,3:2:0:0:
444,259,7887,2,0,B|447:275|447:275|438:286|438:286|445:303|445:303|438:316|438:316|442:340,1,87.5,8|0,0:2|0:0,0:0:0:0:
443,346,7998,85,4,0:3:0:0:
486,162,8109,1,4,0:3:0:0:
487,157,8164,1,4,0:3:0:0:
500,82,8220,1,8,0:1:0:0:
336,137,8332,1,4,0:3:0:0:
293,138,8387,1,4,0:3:0:0:
259,151,8443,1,4,0:3:0:0:
238,170,8498,1,4,0:3:0:0:
229,190,8554,1,4,0:3:0:0:
350,7,8665,1,8,0:0:0:0:
402,246,8776,1,0,0:0:0:0:
112,257,8887,5,4,0:3:0:0:
169,29,8998,1,8,0:3:0:0:
262,193,9109,1,4,0:3:0:0:
262,193,9165,1,4,0:3:0:0:
262,193,9220,1,4,0:3:0:0:
73,34,9332,37,4,0:3:0:0:
73,34,9387,1,4,0:3:0:0:
73,34,9443,2,0,B|40:67|40:67|-10:62|-10:62|19:101|19:101|0:144|0:144|48:136|48:136|77:169|77:169|90:122|90:122|134:94,1,375.000014305115,4|0,0:2|0:0,0:0:0:0:
169,29,9665,1,4,0:2:0:0:
428,194,9776,6,0,P|493:301|368:309,1,300,4|0,0:2|0:0,0:0:0:0:
339,220,9998,1,4,0:3:0:0:
235,113,10109,5,0,0:0:0:0:
181,97,10165,1,0,0:0:0:0:
136,102,10220,1,4,0:3:0:0:
106,123,10275,1,4,0:3:0:0:
92,158,10331,1,4,0:3:0:0:
99,194,10386,1,4,0:3:0:0:
128,224,10443,1,0,0:0:0:0:
203,238,10498,1,0,0:0:0:0:
279,249,10554,1,0,0:0:0:0:
278,255,10609,1,0,0:0:0:0:
252,332,10665,5,2,0:2:0:0:
118,367,10776,1,8,0:3:0:0:
353,289,10887,5,2,0:2:0:0:
72,233,10998,2,0,B|86:222|86:222|88:200|88:200|103:195|103:195|112:179|112:179|129:178|129:178|146:166|146:166|163:173|163:173|179:162|179:162|196:170|196:170|212:162,1,179.999994506836
295,160,11220,70,0,L|375:157,2,50
170,85,11443,1,0,0:0:0:0:
136,370,11554,5,0,0:0:0:0:
49,197,11665,1,8,0:3:0:0:
43,149,11720,1,8,0:3:0:0:
51,113,11776,1,12,0:3:0:0:
65,89,11831,1,8,0:3:0:0:
79,76,11887,1,12,0:3:0:0:
320,62,11998,5,4,0:3:0:0:
320,62,12054,1,4,0:3:0:0:
320,62,12109,1,8,0:3:0:0:
413,184,12220,1,4,0:3:0:0:
419,206,12331,1,4,0:3:0:0:
209,156,12443,1,8,0:3:0:0:
403,312,12554,1,4,0:3:0:0:
397,290,12665,1,4,0:3:0:0:
209,156,12776,1,8,0:3:0:0:
491,74,12887,85,2,0:2:0:0:
213,62,12998,54,0,B|196:53|196:53|160:73,1,59.9999981689454,8|0,0:2|0:0,0:0:0:0:
221,267,13109,2,0,B|239:276|239:276|273:256,1,59.9999981689454,8|0,0:2|0:0,0:0:0:0:
95,167,13220,1,8,0:2:0:0:
80,212,13275,1,4,0:3:0:0:
70,252,13332,2,0,B|91:246|91:246|76:345,1,119.999996337891,8|0,0:2|0:0,0:0:0:0:
279,252,13554,22,0,L|282:202,1,50,2|0,0:2|0:0,0:0:0:0:
374,302,13665,2,0,L|369:365,1,50,2|0,0:2|0:0,0:0:0:0:
493,274,13776,5,8,0:3:0:0:
385,130,13887,1,4,0:3:0:0:
386,117,13942,1,4,0:3:0:0:
388,105,13998,1,8,0:3:0:0:
279,252,14109,1,0,0:3:0:0:
54,214,14220,5,2,0:3:0:0:
316,160,14332,1,8,0:3:0:0:
161,59,14443,1,8,0:1:0:0:
192,203,14554,1,8,0:3:0:0:
321,24,14665,69,2,0:2:0:0:
64,74,14776,1,4,0:3:0:0:
184,282,14887,2,0,L|189:231,1,50,4|0,0:3|0:0,0:0:0:0:
211,7,14998,2,0,L|206:57,1,50,4|0,0:3|0:0,0:0:0:0:
70,265,15109,5,8,3:2:0:0:
70,277,15164,1,0,3:0:0:0:
71,289,15220,1,0,3:2:0:0:
291,252,15332,1,8,3:2:0:0:
288,288,15387,1,0,3:0:0:0:
285,325,15443,1,0,3:2:0:0:
157,184,15554,86,2,B|159:134|159:134|173:182,1,100,8|0,0:0|0:0,0:2:0:0:
218,68,15776,2,0,L|274:49,1,50,2|0,0:2|0:0,0:0:0:0:
87,82,15887,2,0,L|20:70,1,50,2|0,0:2|0:0,0:0:0:0:
281,195,15998,5,4,0:3:0:0:
311,190,16053,1,0,0:0:0:0:
342,188,16109,1,0,0:0:0:0:
372,184,16164,1,0,0:0:0:0:
421,176,16220,5,8,0:0:0:0:
301,322,16332,1,4,0:3:0:0:
281,320,16387,1,4,0:3:0:0:
267,318,16443,1,4,0:3:0:0:
257,318,16498,1,4,0:3:0:0:
249,317,16554,38,0,B|248:350|248:350|236:319,1,64.9999970245363,2|0,0:2|0:0,0:0:0:0:
110,242,16665,2,0,B|111:275|111:275|122:244,1,64.9999970245363,2|0,0:2|0:0,0:0:0:0:
274,181,16776,2,0,B|273:214|273:214|261:183,1,64.9999970245363,2|0,0:2|0:0,0:0:0:0:
109,25,16887,6,0,B|156:47|181:93|181:93|196:44|238:13,1,200,8|0,0:2|0:0,0:0:0:0:
274,181,17220,6,2,B|243:119|181:93|181:93|130:141|123:205,1,259.999988098145,8|0,0:1|0:0,0:0:0:0:
321,384,17554,5,8,0:3:0:0:
327,301,17609,1,8,0:3:0:0:
382,239,17665,85,8,0:3:0:0:
389,158,17720,1,8,0:3:0:0:
433,92,17776,22,0,P|382:29|334:21,1,129.999994049073,4|0,0:3|0:0,0:0:0:0:
137,169,17998,1,8,0:0:0:0:
343,112,18109,1,0,0:0:0:0:
121,69,18220,1,8,0:0:0:0:
75,77,18275,1,4,0:3:0:0:
42,105,18332,1,8,0:3:0:0:
47,136,18387,1,4,0:3:0:0:
42,156,18443,1,8,0:3:0:0:
94,365,18554,1,4,0:3:0:0:
94,365,18609,1,4,0:3:0:0:
94,365,18665,85,4,0:3:0:0:
137,169,18776,1,4,0:3:0:0:
313,359,18887,1,8,0:0:0:0:
127,259,18998,1,4,0:3:0:0:
181,242,19054,1,8,0:3:0:0:
132,214,19109,1,4,0:3:0:0:
186,199,19164,1,4,0:3:0:0:
137,169,19220,5,0,0:0:0:0:
299,48,19332,1,0,0:0:0:0:
55,62,19443,1,0,0:0:0:0:
283,161,19554,2,0,B|295:133|295:133|290:103|290:103|305:78|305:78|300:48,1,119.999996337891,8|0,0:2|0:0,0:0:0:0:
55,62,19776,69,0,0:0:0:0:
92,326,19887,1,4,0:3:0:0:
131,347,19942,1,4,0:3:0:0:
174,358,19998,1,4,0:3:0:0:
219,357,20053,1,4,0:3:0:0:
262,345,20109,6,0,B|312:314|312:314|359:337|359:337|408:310|408:310|457:332,1,220.000006713867,4|0,0:0|0:0,0:0:0:0:
31,171,20443,85,4,0:3:0:0:
39,171,20554,1,4,0:3:0:0:
250,251,20665,1,8,0:3:0:0:
39,171,20776,1,4,0:3:0:0:
31,171,20887,1,4,0:3:0:0:
295,124,20998,1,8,0:3:0:0:
209,21,21109,5,4,0:3:0:0:
117,274,21220,1,4,0:3:0:0:
250,251,21332,1,8,0:3:0:0:
77,45,21443,1,4,0:3:0:0:
427,97,21554,85,4,0:3:0:0:
400,103,21609,1,4,0:3:0:0:
352,96,21665,1,4,0:3:0:0:
325,103,21720,1,4,0:3:0:0:
275,107,21776,21,8,0:3:0:0:
278,110,21832,1,4,0:3:0:0:
281,113,21887,1,4,0:3:0:0:
284,116,21943,1,4,0:3:0:0:
287,119,21998,86,0,B|279:145|279:145|290:161|290:161|266:198|280:251,1,140.625005364418
280,251,22220,86,0,L|379:245,1,100,2|0,0:2|0:0,0:0:0:0:
477,240,22443,1,4,0:3:0:0:
266,308,22554,1,4,0:3:0:0:
497,293,22665,1,4,0:3:0:0:
386,300,22777,1,8,0:3:0:0:
228,129,22887,6,0,L|128:136,1,100,8|0,0:2|0:0,0:0:0:0:
35,142,23109,1,4,0:3:0:0:
246,76,23221,1,4,0:3:0:0:
15,91,23332,1,4,0:3:0:0:
126,84,23444,1,4,0:3:0:0:
334,371,23554,5,4,0:0:0:0:
178,13,23776,1,4,0:0:0:0:
466,144,23998,70,0,P|403:157|367:187,1,100,4|0,0:3|0:0,0:0:0:0:
291,284,24220,1,4,0:3:0:0:
35,90,24332,2,0,P|98:103|134:133,1,100,8|0,0:3|0:0,0:0:0:0:
211,230,24554,1,8,0:3:0:0:
322,74,24665,1,4,0:3:0:0:
322,74,24720,1,4,0:3:0:0:
322,74,24776,1,4,0:3:0:0:
210,310,24887,70,0,B|165:336|165:336|122:314,1,100,4|0,0:0|0:0,0:0:0:0:
151,75,25109,21,4,0:3:0:0:
225,327,25220,70,0,B|166:360|166:360|110:332,1,129.999994049073,4|0,0:0|0:0,0:0:0:0:
151,75,25443,21,4,0:3:0:0:
242,346,25554,70,0,B|168:388|168:388|101:354,1,160,4|0,0:0|0:0,0:0:0:0:
56,20,25776,21,8,0:0:0:0:
385,100,25887,2,0,P|402:139|391:205,1,100,8|0,0:0|0:0,0:0:0:0:
151,75,26109,2,0,P|176:41|239:17,1,100,8|0,0:0|0:0,0:0:0:0:
321,319,26332,1,8,0:0:0:0:
0,146,26443,86,0,P|20:95|39:152,1,150.000005722046,4|0,0:0|0:0,0:0:0:0:
12,262,26665,5,4,0:3:0:0:
132,353,26776,1,4,0:3:0:0:
138,355,26832,1,4,0:3:0:0:
144,357,26887,1,8,0:3:0:0:
204,354,26942,1,8,0:3:0:0:
245,308,26998,1,8,0:3:0:0:
240,247,27053,1,8,0:3:0:0:
193,208,27109,2,0,L|122:201,1,50
129,65,27220,2,0,L|79:60,1,50,0|0,0:0|0:0,0:0:0:0:
250,106,27332,1,4,0:3:0:0:
299,100,27388,1,4,0:3:0:0:
310,51,27443,1,4,0:3:0:0:
267,26,27499,1,4,0:3:0:0:
229,59,27554,5,4,0:3:0:0:
271,249,27665,1,8,0:3:0:0:
397,19,27776,1,4,0:3:0:0:
402,24,27832,1,4,0:3:0:0:
406,28,27887,70,0,P|418:49|426:73,1,50,2|0,0:2|0:2,0:0:0:0:
435,176,27998,2,0,P|432:215|425:236,1,50,2|0,0:2|0:2,0:0:0:0:
386,324,28109,2,0,P|374:345|358:364,1,50,2|0,0:2|0:2,0:0:0:0:
19,187,28220,38,2,B|13:162|13:162|25:142|25:142|17:118|17:118|30:83|14:50,1,140.625005364418,8|0,0:2|0:0,0:0:0:0:
16,54,28443,70,2,P|64:85|190:42,1,194.999991073609,2|0,0:2|0:0,0:0:0:0:
267,5,28665,2,0,L|361:19,1,64.9999970245363
361,152,28776,1,4,0:3:0:0:
343,144,28831,1,4,0:3:0:0:
325,135,28887,1,4,0:3:0:0:
329,178,28943,1,4,0:3:0:0:
332,221,28998,1,4,0:3:0:0:
336,264,29053,1,4,0:3:0:0:
338,307,29109,1,8,0:3:0:0:
263,317,29165,1,8,0:3:0:0:
187,322,29220,1,4,0:3:0:0:
209,298,29275,1,4,0:3:0:0:
228,277,29332,86,0,P|194:280|155:302,1,64.9999970245363,2|0,0:3|0:0,0:0:0:0:
412,182,29443,2,0,P|461:175|497:178,1,80,2|0,0:3|0:0,0:0:0:0:
192,149,29554,2,0,P|148:133|85:135,1,100,2|0,0:3|0:0,0:0:0:0:
318,12,29665,6,0,B|290:32|290:32|337:37|337:37|300:54|300:54|320:55|320:55|289:101|304:168,1,259.999988098145,4|8,0:3|0:3,0:0:0:0:
78,188,29998,6,0,L|80:139,1,50,8|0,0:0|0:0,0:0:0:0:
93,182,30109,2,0,L|95:133,1,50,8|0,0:0|0:0,0:0:0:0:
103,345,30220,5,4,0:3:0:0:
312,291,30332,1,4,0:3:0:0:
351,295,30387,1,4,0:3:0:0:
384,298,30443,1,4,0:3:0:0:
410,299,30498,1,4,0:3:0:0:
430,301,30554,69,4,0:3:0:0:
430,301,30776,6,0,L|429:367,1,64.9999970245363
251,138,30887,2,0,L|251:213,1,64.9999970245363
175,381,30998,2,0,L|175:292,1,75.0000028610231
45,131,31109,6,0,L|63:2,1,129.999994049073,2|0,0:2|0:0,0:0:0:0:
55,157,31332,1,0,0:0:0:0:
265,163,31443,2,0,L|241:35,1,129.999994049073,2|0,0:2|0:0,0:0:0:0:
255,189,31666,1,0,0:0:0:0:
69,352,31776,70,0,L|91:222,2,129.999994049073,2|0|0,0:2|0:0|0:0,0:0:0:0:
242,213,32109,6,0,B|279:193|279:193|321:203|321:203|355:187|355:187|365:177|365:177|369:185|369:185|373:173|373:173|377:182|377:182|381:169|381:169|386:178|386:178|389:165|389:165|395:174|395:174|398:162|398:162|404:171|404:171|408:162|408:162|419:158,1,259.999988098145,4|0,3:3|3:0,0:0:0:0:
200,111,32443,1,2,3:2:0:0:
157,185,32554,1,0,3:2:0:0:
312,111,32665,1,2,3:2:0:0:
355,185,32776,1,0,3:2:0:0:
190,337,32887,5,8,3:3:0:0:
92,358,32998,1,4,3:3:0:0:
288,314,33110,1,8,3:0:0:0:
158,200,33220,69,8,3:0:0:0:
354,244,33332,1,4,3:3:0:0:
256,223,33443,1,8,3:3:0:0:
232,337,33554,5,8,3:0:0:0:
254,44,33665,2,0,P|349:29|416:103,1,200,4|8,0:3|0:3,0:0:0:0:
264,257,33998,1,4,0:3:0:0:
316,127,34109,1,4,0:3:0:0:
349,363,34220,1,8,0:3:0:0:
111,248,34332,1,4,0:3:0:0:
101,225,34387,1,4,0:3:0:0:
92,201,34443,1,4,0:3:0:0:
106,155,34498,1,4,0:3:0:0:
140,120,34554,1,4,0:3:0:0:
188,107,34609,1,4,0:3:0:0:
235,118,34662,37,4,0:3:0:0:
309,136,34825,1,0,0:0:0:0:
277,266,34989,1,4,0:3:0:0:
202,247,35152,1,0,0:0:0:0:
330,210,35317,1,4,0:3:0:0:
181,173,35481,1,0,0:0:0:0:
292,44,35645,1,4,0:3:0:0:
218,342,35809,1,4,0:3:0:0:
277,118,35973,85,4,0:3:0:0:
203,136,36137,1,0,0:0:0:0:
235,266,36301,1,4,0:3:0:0:
310,247,36465,1,0,0:0:0:0:
182,210,36629,1,4,0:3:0:0:
331,173,36793,1,0,0:0:0:0:
220,44,36957,1,4,0:3:0:0:
294,342,37121,1,4,0:3:0:0:
24,48,37284,6,0,B|-4:141|52:155|24:244,1,200,4|0,0:3|0:0,2:0:0:0:
488,336,37940,86,0,B|516:243|460:229|488:140,1,200,4|0,0:3|0:0,2:0:0:0:
48,278,38551,53,4,0:3:0:0:
301,141,38662,1,8,0:3:0:0:
89,158,38773,1,4,0:3:0:0:
234,263,38884,1,4,0:3:0:0:
184,112,38995,1,8,0:3:0:0:
190,99,39050,1,4,0:3:0:0:
197,87,39106,1,8,0:3:0:0:
203,75,39161,1,4,0:3:0:0:
211,63,39217,2,0,L|221:166,1,75.0000028610231,4|0,0:3|0:0,0:0:0:0:
411,300,39439,5,4,0:3:0:0:
366,131,39551,1,4,0:3:0:0:
243,315,39662,1,8,0:0:0:0:
262,203,39773,1,4,0:3:0:0:
80,86,39884,1,8,0:2:0:0:
132,324,39995,1,4,0:3:0:0:
252,69,40106,1,8,0:2:0:0:
300,60,40161,1,4,0:3:0:0:
346,77,40217,1,4,0:3:0:0:
378,115,40272,1,4,0:3:0:0:
385,164,40328,6,0,P|403:218|450:262,1,110.000003356934,4|4,0:3|0:3,0:0:0:0:
212,104,40551,2,0,P|194:50|147:6,1,110.000003356934,4|4,0:3|0:3,0:0:0:0:
120,197,40773,1,4,0:3:0:0:
126,223,40828,1,4,0:3:0:0:
128,251,40884,1,4,0:3:0:0:
127,278,40939,1,4,0:3:0:0:
122,304,40995,2,0,P|125:345|147:308,1,110.000003356934,8|0,0:3|0:0,0:0:0:0:
333,357,41217,53,4,0:3:0:0:
331,338,41272,1,8,0:3:0:0:
329,320,41328,1,8,0:3:0:0:
327,302,41383,1,8,0:3:0:0:
357,266,41439,85,4,0:3:0:0:
358,236,41494,1,8,0:3:0:0:
360,207,41550,1,8,0:3:0:0:
362,179,41605,1,8,0:3:0:0:
317,145,41662,5,4,0:3:0:0:
292,101,41717,1,8,0:3:0:0:
315,43,41773,1,4,0:3:0:0:
393,23,41828,1,8,0:3:0:0:
452,89,41884,1,8,0:3:0:0:
120,356,42106,85,2,0:2:0:0:
80,79,42217,1,2,0:2:0:0:
120,356,42328,1,2,0:2:0:0:
80,79,42439,53,4,0:3:0:0:
109,44,42494,1,4,0:3:0:0:
151,27,42550,1,8,0:3:0:0:
196,33,42605,1,8,0:3:0:0:
236,58,42662,1,4,0:3:0:0:
253,100,42716,1,4,0:3:0:0:
251,145,42773,2,0,B|254:165|245:182|245:182|255:215|255:215|248:233|251:254,1,112.500004291535,4|0,0:3|0:0,0:0:0:0:
88,328,42995,38,0,P|127:284|131:343,1,150.000005722046,2|0,0:2|0:0,0:0:0:0:
26,168,43217,1,4,0:3:0:0:
236,58,43328,1,4,0:3:0:0:
88,328,43439,1,8,0:3:0:0:
109,44,43550,1,8,0:3:0:0:
305,254,43662,2,0,P|255:222|267:279,1,150.000005722046,2|0,0:2|0:0,0:0:0:0:
341,15,43884,21,0,0:0:0:0:
170,16,43995,1,0,0:0:0:0:
318,114,44106,1,0,0:0:0:0:
194,114,44217,1,0,0:0:0:0:
391,325,44328,6,0,L|395:265,1,59.9999981689454,2|0,2:0|0:0,0:0:0:0:
121,325,44439,2,0,L|117:265,1,59.9999981689454,2|0,0:2|0:0,0:0:0:0:
311,245,44550,2,0,L|307:322,1,75.0000028610231,8|0,0:2|0:0,0:0:0:0:
201,245,44662,2,0,L|206:332,1,75.0000028610231,8|0,0:2|0:0,0:0:0:0:
256,74,44773,5,4,0:3:0:0:
256,155,44884,1,4,0:3:0:0:
374,116,44995,69,8,0:3:0:0:
138,116,45106,1,4,0:3:0:0:
394,255,45217,6,0,L|398:195,1,59.9999981689454,2|0,2:0|0:0,0:0:0:0:
118,255,45328,2,0,L|114:195,1,59.9999981689454,2|0,2:0|0:0,0:0:0:0:
311,294,45439,2,0,L|308:353,1,59.9999981689454,8|0,0:2|0:0,0:0:0:0:
201,294,45550,2,0,L|205:353,1,59.9999981689454,8|0,0:2|0:0,0:0:0:0:
139,24,45662,86,0,L|130:124,1,100,4|0,0:3|0:0,0:0:0:0:
118,255,45884,1,4,0:3:0:0:
324,157,45995,2,0,L|234:200,1,100,4|0,0:3|0:0,0:0:0:0:
116,255,46217,1,4,0:3:0:0:
298,384,46328,2,0,L|217:327,1,100,4|0,0:3|0:0,0:0:0:0:
445,100,46550,5,8,0:3:0:0:
420,112,46605,1,8,0:3:0:0:
395,108,46661,1,4,0:3:0:0:
370,116,46716,1,4,0:3:0:0:
343,111,46773,2,0,L|305:113,1,37.5000014305115,8|0,0:3|0:0,2:0:0:0:
179,119,46884,2,0,L|216:117,1,37.5000014305115,8|0,0:3|0:0,2:0:0:0:
286,10,46995,2,0,L|249:12,1,37.5000014305115,8|0,0:3|0:0,2:0:0:0:
92,21,47106,2,0,L|129:19,1,37.5000014305115,8|0,0:3|0:0,2:0:0:0:
296,187,47217,6,0,L|305:109,1,75.0000028610231
408,284,47328,2,0,L|416:205,1,75.0000028610231
127,96,47439,69,4,0:3:0:0:
385,96,47550,1,8,0:3:0:0:
325,288,47662,1,4,0:3:0:0:
186,288,47773,1,4,0:3:0:0:
187,96,47884,1,8,0:3:0:0:
326,96,47995,1,4,0:3:0:0:
372,288,48107,1,4,0:3:0:0:
140,288,48218,1,8,0:3:0:0:
75,48,48328,86,0,P|74:0|118:23,1,119.999996337891,8|0,0:0|0:0,0:0:0:0:
436,48,48550,2,0,P|437:0|394:23,1,119.999996337891,8|0,0:0|0:0,0:0:0:0:
46,200,48773,85,4,0:3:0:0:
72,218,48828,1,4,0:3:0:0:
108,224,48884,1,8,0:3:0:0:
146,213,48939,1,4,0:3:0:0:
182,190,48995,1,4,0:3:0:0:
227,185,49050,1,4,0:3:0:0:
277,195,49106,1,8,0:3:0:0:
321,226,49162,1,8,0:3:0:0:
382,229,49217,22,0,P|438:232|466:242,1,75.0000028610231,2|0,0:2|0:0,0:0:0:0:
264,318,49328,2,0,P|233:364|210:384,1,75.0000028610231,2|0,0:2|0:0,0:0:0:0:
251,159,49439,2,0,P|225:109|220:79,1,75.0000028610231,2|0,0:2|0:0,0:0:0:0:
374,337,49550,5,8,0:0:0:0:
99,258,49662,1,0,0:0:0:0:
99,258,49717,1,0,0:0:0:0:
99,258,49773,5,8,0:0:0:0:
221,91,49884,2,0,L|297:74,1,75.0000028610231,4|0,0:3|0:0,0:0:0:0:
264,318,49995,2,0,L|188:335,1,75.0000028610231,4|0,0:3|0:0,0:0:0:0:
62,175,50106,69,4,0:3:0:0:
66,137,50161,1,4,0:3:0:0:
90,100,50217,1,4,0:3:0:0:
94,63,50272,1,4,0:3:0:0:
73,22,50328,1,4,0:3:0:0:
426,257,50550,5,4,0:3:0:0:
467,133,50662,1,0,0:0:0:0:
413,70,50745,1,0,0:0:0:0:
413,70,50773,2,0,L|421:14,2,50,4|4|4,0:3|0:3|0:3,0:0:0:0:
248,183,50995,85,8,0:3:0:0:
372,311,51106,1,4,0:3:0:0:
338,145,51217,1,8,3:3:0:0:
283,348,51328,1,4,3:3:0:0:
173,139,51439,5,0,0:0:0:0:
215,153,51495,1,0,0:0:0:0:
248,183,51550,1,0,0:0:0:0:
267,224,51606,1,0,0:0:0:0:
269,269,51662,5,0,0:0:0:0:
246,284,51717,1,4,0:3:0:0:
216,286,51773,1,4,0:3:0:0:
187,279,51828,1,4,0:3:0:0:
163,266,51884,70,0,L|127:266,1,29.9999990844727
183,207,51939,6,0,L|150:184,1,29.9999990844727
229,170,51995,6,0,L|217:137,1,29.9999990844727
288,162,52050,70,0,L|296:112,1,29.9999990844727
343,184,52106,6,0,L|366:154,1,29.9999990844727
379,231,52162,6,0,L|413:218,1,29.9999990844727
387,289,52217,70,0,L|426:297,1,29.9999990844727
364,344,52273,6,0,L|399:376,1,29.9999990844727
315,374,52328,70,0,B|301:367|301:367|287:370|287:370|275:365|275:365|260:368|260:368|245:362,1,75.0000028610231,8|0,0:2|0:0,0:0:0:0:
256,25,52773,5,4,0:1:0:0:
395,81,63106,102,0,B|412:331|412:331|60:352|60:352|46:92,1,862.500032901765
46,93,63439,22,0,L|146:89,1,100,4|0,0:3|0:0,0:0:0:0:
221,64,63773,2,0,P|256:64|223:84,1,100,4|0,0:3|0:0,0:0:0:0:
367,126,64106,2,0,L|424:123,1,50,8|0,0:3|0:0,0:0:0:0:
290,164,64328,2,0,L|190:168,1,100,8|0,0:3|0:0,0:0:0:0:
33,304,64773,2,0,L|76:301,1,25,8|0,0:3|0:0,0:0:0:0:
80,315,64884,2,0,L|104:313,1,25,8|0,0:3|0:0,0:0:0:0:
126,326,64995,2,0,L|175:323,1,50,8|0,0:3|0:0,0:0:0:0:
309,347,65217,70,0,P|350:328|396:331,1,75,4|0,0:3|0:0,0:0:0:0:
450,353,65439,1,8,0:3:0:0:
454,357,65495,1,8,0:3:0:0:
458,361,65550,1,8,0:3:0:0:
462,365,65606,1,8,0:3:0:0:
466,369,65662,2,0,L|478:313,1,50,8|0,0:3|0:0,0:0:0:0:
485,275,65884,1,8,0:3:0:0:
391,215,66106,86,0,B|344:194|337:137|337:137|336:195|296:224,1,200,4|0,0:3|0:0,0:0:0:0:
211,148,66439,6,0,P|243:125|234:163,1,100
175,255,66662,1,0,0:0:0:0:
175,255,66773,2,0,L|180:323,1,50,4|0,0:3|0:0,0:0:0:0:
64,253,66995,86,0,B|59:221|43:207|43:207|59:179|59:143|38:114|38:114|53:96|59:67,1,200,4|0,0:3|0:0,0:0:0:0:
194,101,67328,6,0,P|186:137|166:101,1,100
285,56,67550,1,0,0:0:0:0:
285,56,67662,2,0,L|342:50,1,50,8|8,0:3|0:3,0:0:0:0:
459,158,67884,6,0,B|469:207|469:207|448:253,1,100,8|0,0:3|0:0,0:0:0:0:
337,341,68328,2,0,L|312:342,1,25,8|0,0:3|0:0,0:0:0:0:
297,322,68439,2,0,L|272:323,1,25,8|0,0:3|0:0,0:0:0:0:
256,304,68550,2,0,L|204:307,1,50,8|0,0:3|0:0,0:0:0:0:
90,334,68773,6,0,L|102:240,1,75,8|0,0:3|0:0,0:0:0:0:
147,193,68995,1,8,0:3:0:0:
151,189,69050,1,8,0:3:0:0:
155,185,69106,1,8,0:3:0:0:
159,181,69162,1,8,0:3:0:0:
163,177,69217,2,0,L|173:107,2,50,8|0|0,0:3|0:0|0:2,0:0:0:0:
464,203,69662,54,0,B|477:158|451:126|451:126|487:90|487:90|460:51|422:49,1,200,8|0,0:3|0:0,0:0:0:0:
314,109,69995,6,0,P|332:144|345:106,1,100
308,247,70217,1,8,0:3:0:0:
308,247,70328,2,0,L|312:309,1,50,8|8,0:3|0:3,0:0:0:0:
181,315,70550,86,0,B|152:257|175:218|175:218|197:179|171:122,1,200,4|0,0:3|0:0,0:0:0:0:
91,174,70884,6,0,P|54:172|87:152,1,100
11,298,71106,1,0,0:0:0:0:
11,298,71217,2,0,L|7:242,1,50,4|0,0:3|0:0,0:0:0:0:
15,52,71439,22,0,L|121:47,1,100,4|0,0:3|0:0,0:0:0:0:
259,93,71773,2,0,P|292:75|254:72,1,100
202,219,71995,1,0,0:0:0:0:
202,219,72106,2,0,L|257:213,1,50,4|0,0:3|0:0,0:0:0:0:
422,84,72328,70,0,P|411:146|418:189,1,100,4|0,0:3|0:0,0:0:0:0:
436,228,72662,1,8,0:3:0:0:
496,308,72884,1,4,0:3:0:0:
452,332,72995,2,0,L|396:340,1,50,8|0,0:3|0:0,0:0:0:0:
318,288,73217,86,0,B|287:282|268:250|268:250|231:230|231:230|242:279|214:319,1,200,4|0,0:3|0:0,0:0:0:0:
105,239,73550,38,0,P|141:257|104:265,1,100
37,362,73773,1,0,0:0:0:0:
37,362,73884,2,0,L|87:357,1,50
179,75,74106,38,0,B|179:127|162:173|162:173|179:127|221:94,1,200,4|0,0:3|0:0,0:0:0:0:
333,361,74550,37,4,0:3:0:0:
179,361,74773,1,8,0:3:0:0:
348,172,74995,2,0,L|332:74,1,100,8|0,0:3|0:0,0:0:0:0:
296,292,75439,2,0,L|240:288,1,50,4|0,0:3|0:0,0:0:0:0:
216,256,75662,2,0,L|220:200,1,50,8|0,0:3|0:0,0:0:0:0:
260,62,75884,86,0,P|295:51|332:52,1,75,0|0,0:3|0:0,0:0:0:0:
404,99,76106,1,8,0:3:0:0:
408,103,76162,1,8,0:3:0:0:
412,107,76217,1,8,0:3:0:0:
416,111,76273,1,8,0:3:0:0:
420,115,76328,2,0,P|428:139|428:164,2,50,8|0|0,0:3|0:0|0:0,0:0:0:0:
295,229,76773,6,0,L|136:208,1,160
290,258,77356,86,0,B|259:262|259:262|233:252|233:252|208:255|208:255|187:247|187:247|160:251|160:251|132:243,1,162.499992561341
132,243,77662,70,0,P|19:213|84:308,1,300,4|8,0:3|0:3,0:0:0:0:
395,272,77995,2,0,P|451:257|420:305,1,150.000005722046,4|8,0:3|0:3,0:0:0:0:
325,338,78217,1,8,0:3:0:0:
256,113,78328,1,4,0:3:0:0:
256,113,78384,1,8,0:3:0:0:
256,113,78439,1,4,0:3:0:0:
208,320,78550,5,4,0:3:0:0:
438,107,78662,2,0,L|526:97,1,75.0000028610231,8|0,0:3|0:0,0:0:0:0:
219,226,78773,2,0,L|310:231,1,75.0000028610231,8|0,0:3|0:0,0:0:0:0:
72,181,78885,1,4,0:3:0:0:
231,37,78995,2,0,L|319:27,1,75.0000028610231,8|0,0:3|0:0,0:0:0:0:
356,303,79106,2,0,L|437:308,1,75.0000028610231,4|0,0:3|0:0,0:0:0:0:
256,113,79217,1,8,0:3:0:0:
183,130,79272,1,8,0:3:0:0:
109,117,79328,1,8,0:3:0:0:
72,181,79383,1,8,0:3:0:0:
10,224,79439,85,8,0:2:0:0:
227,384,79550,1,8,0:2:0:0:
256,113,79662,2,0,L|274:195,1,75.0000028610231,8|0,0:2|0:0,0:0:0:0:
356,303,79773,5,8,0:2:0:0:
387,285,79828,1,4,0:3:0:0:
411,255,79884,1,8,0:3:0:0:
420,219,79939,1,4,0:3:0:0:
416,182,79995,1,8,0:3:0:0:
400,167,80050,1,4,0:3:0:0:
384,152,80106,86,0,P|401:86|431:146,1,175.00000166893,8|4,0:2|0:3,0:0:0:0:
97,347,80328,5,4,0:3:0:0:
198,23,80439,1,8,0:3:0:0:
269,339,80550,1,8,0:3:0:0:
343,330,80605,1,8,0:3:0:0:
414,356,80661,1,8,0:3:0:0:
433,284,80716,1,0,0:0:0:0:
501,254,80773,86,0,L|507:108,1,112.500004291535,8|0,0:0|0:0,0:0:0:0:
507,104,80884,2,0,L|505:141,1,37.5000014305115
422,102,80939,2,0,L|415:251,1,150.000005722046,8|0,0:0|0:0,0:0:0:0:
338,210,81106,2,0,L|341:135,1,75.0000028610231,8|0,0:0|0:0,0:0:0:0:
148,24,81217,6,0,P|112:82|130:173,1,150.000005722046,4|0,0:3|0:0,0:0:0:0:
197,286,81439,1,4,0:3:0:0:
191,274,81495,1,8,0:3:0:0:
185,262,81550,1,4,0:3:0:0:
364,359,81662,2,0,P|400:301|382:210,1,150.000005722046,8|0,0:3|0:0,0:0:0:0:
315,98,81884,1,4,0:3:0:0:
321,110,81940,1,8,0:3:0:0:
327,122,81995,1,4,0:3:0:0:
133,31,82106,85,8,0:3:0:0:
82,308,82217,1,0,0:0:0:0:
347,211,82328,1,8,0:3:0:0:
186,186,82439,1,8,0:3:0:0:
294,323,82550,2,0,L|374:328,1,75.0000028610231,8|0,0:3|0:0,0:0:0:0:
255,41,82662,2,0,L|335:36,1,75.0000028610231,8|0,0:3|0:0,0:0:0:0:
41,148,82773,1,4,0:3:0:0:
22,192,82828,1,4,0:3:0:0:
24,238,82884,1,4,0:3:0:0:
44,280,82939,1,4,0:3:0:0:
82,308,82995,5,8,0:2:0:0:
482,342,83106,1,8,0:2:0:0:
155,70,83217,85,8,0:3:0:0:
230,64,83272,1,4,0:3:0:0:
290,19,83328,1,8,0:3:0:0:
338,76,83383,1,4,0:3:0:0:
410,99,83439,1,8,0:3:0:0:
392,172,83494,1,4,0:3:0:0:
415,244,83550,1,8,0:3:0:0:
344,268,83605,1,4,0:3:0:0:
300,332,83662,2,0,L|203:339,1,75.0000028610231,4|0,0:3|0:0,0:0:0:0:
77,265,83773,2,0,P|110:185|139:165,1,112.500004291535,8|0,0:3|0:0,0:0:0:0:
141,165,83884,5,4,0:3:0:0:
370,218,83995,1,8,0:3:0:0:
215,201,84106,1,4,0:3:0:0:
296,182,84217,1,4,0:3:0:0:
26,139,84328,85,8,0:0:0:0:
486,245,84439,1,8,0:0:0:0:
26,245,84550,1,8,0:0:0:0:
486,139,84661,1,8,0:0:0:0:
161,314,84773,5,4,0:3:0:0:
256,87,84884,1,4,0:3:0:0:
351,314,84995,1,4,0:3:0:0:
355,318,85050,1,8,0:3:0:0:
359,322,85106,1,4,0:3:0:0:
351,70,85217,1,4,0:3:0:0:
256,297,85328,1,4,0:3:0:0:
161,70,85439,1,4,0:3:0:0:
157,66,85494,1,8,0:3:0:0:
153,62,85550,1,4,0:3:0:0:
315,348,85662,85,4,0:3:0:0:
237,32,85773,2,0,L|306:1,1,75.0000028610231,4|0,0:3|0:0,0:0:0:0:
209,297,85884,2,0,L|140:328,1,75.0000028610231,8|0,0:3|0:3,0:3:0:0:
335,67,85995,1,4,0:3:0:0:
110,260,86106,2,0,L|41:291,1,75.0000028610231,8|0,0:3|0:0,0:0:0:0:
427,117,86217,2,0,L|495:85,1,75.0000028610231,8|0,0:3|0:0,0:0:0:0:
311,194,86328,1,4,0:3:0:0:
244,160,86383,1,4,0:3:0:0:
168,174,86439,1,4,0:3:0:0:
102,137,86494,1,4,0:3:0:0:
29,160,86550,5,8,0:2:0:0:
335,67,86662,1,8,0:2:0:0:
132,354,86773,2,0,L|212:346,1,75.0000028610231,8|0,0:2|0:0,0:0:0:0:
446,249,86884,85,8,0:2:0:0:
413,233,86939,1,4,0:3:0:0:
375,235,86995,1,8,0:3:0:0:
346,258,87050,1,4,0:3:0:0:
334,292,87106,1,8,0:3:0:0:
344,328,87161,1,4,0:3:0:0:
373,352,87217,6,0,P|354:302|418:339,1,175.00000166893,8|4,0:2|0:3,0:0:0:0:
217,31,87439,86,0,B|197:42|176:43|176:43|124:46|111:88|111:88|71:93|42:70,1,200,2|2,0:2|0:2,0:0:0:0:
286,207,87662,5,8,0:3:0:0:
325,145,87718,1,4,0:3:0:0:
280,87,87773,1,8,0:3:0:0:
212,113,87829,1,4,0:3:0:0:
215,185,87884,86,0,L|228:296,1,112.500004291535,8|0,0:0|0:0,0:0:0:0:
232,333,87995,2,0,L|227:294,1,37.5000014305115
317,320,88050,2,0,L|297:171,1,150.000005722046,8|0,0:0|0:0,0:0:0:0:
386,198,88217,2,0,L|398:289,1,75.0000028610231,8|0,0:0|0:0,0:0:0:0:
95,340,88328,6,0,P|41:295|32:212,1,150.000005722046,4|4,0:3|0:3,0:0:0:0:
228,48,88550,1,8,0:3:0:0:
266,265,88662,1,8,0:3:0:0:
107,110,88773,1,4,0:3:0:0:
324,142,88884,1,4,0:3:0:0:
130,245,88995,2,0,L|63:279,2,75.0000028610231,8|4|8,0:3|0:3|0:3,0:0:0:0:
481,55,89217,85,4,0:3:0:0:
275,189,89328,2,0,L|200:193,1,75.0000028610231,8|0,0:3|0:0,0:0:0:0:
347,368,89439,1,12,0:3:0:0:
25,192,89550,5,8,0:3:0:0:
71,98,89605,1,8,0:3:0:0:
161,56,89661,1,8,0:3:0:0:
250,76,89716,1,8,0:3:0:0:
313,135,89772,1,8,0:3:0:0:
331,216,89827,1,8,0:3:0:0:
310,289,89884,1,4,0:3:0:0:
268,324,89939,1,4,0:3:0:0:
223,332,89995,1,4,0:3:0:0:
187,326,90050,1,4,0:3:0:0:
157,312,90106,85,4,0:3:0:0:
128,59,90217,1,4,0:3:0:0:
21,193,90328,2,0,L|95:184,1,75.0000028610231,8|0,0:3|0:0,0:0:0:0:
277,161,90439,1,4,0:3:0:0:
314,157,90494,1,8,0:3:0:0:
351,153,90550,1,8,0:3:0:0:
388,150,90605,1,0,0:0:0:0:
425,145,90661,1,4,0:3:0:0:
422,165,90716,1,8,0:3:0:0:
418,187,90773,2,0,L|392:346,1,150.000005722046,4|0,0:3|0:0,0:0:0:0:
99,347,90995,5,8,0:0:0:0:
258,96,91106,1,8,0:0:0:0:
473,329,91218,1,0,0:0:0:0:
394,336,91273,1,0,0:0:0:0:
325,374,91329,1,0,0:0:0:0:
264,325,91384,1,0,0:0:0:0:
190,309,91439,86,0,P|128:260|174:323,1,225.000008583069,2|0,3:0|3:0,0:0:0:0:
196,311,91662,2,0,P|123:254|178:328,1,262.500002503395,2|0,3:0|3:0,0:0:0:0:
244,320,91884,86,0,B|288:330|288:330|243:328,1,89.9999972534181,8|0,0:0|0:0,0:0:0:0:
268,64,91995,86,0,B|224:54|224:54|269:56,1,89.9999972534181,8|0,0:0|0:0,0:0:0:0:
360,266,92106,6,0,B|391:233|391:233|367:271,1,89.9999972534181,8|0,0:0|0:0,0:0:0:0:
151,117,92217,86,0,B|120:150|120:150|144:112,1,89.9999972534181,8|0,0:0|0:0,0:0:0:0:
401,128,92328,21,4,0:3:0:0:
51,219,92439,1,8,0:3:0:0:
270,332,92550,1,4,0:3:0:0:
275,294,92606,1,4,0:3:0:0:
279,256,92661,1,4,0:3:0:0:
283,219,92716,1,4,0:3:0:0:
287,181,92772,5,8,0:3:0:0:
146,350,92884,1,4,0:3:0:0:
429,272,92995,2,0,L|504:278,1,75.0000028610231,4|8,0:3|0:3,0:0:0:0:
511,279,93106,1,4,0:3:0:0:
78,301,93217,2,0,L|3:307,1,75.0000028610231,8|0,0:3|0:0,0:0:0:0:
287,181,93328,2,0,L|361:187,1,75.0000028610231,8|0,0:3|0:0,0:0:0:0:
166,44,93439,1,8,0:3:0:0:
129,110,93494,1,4,0:3:0:0:
67,156,93550,1,8,0:3:0:0:
95,226,93605,1,4,0:3:0:0:
78,301,93662,85,8,0:2:0:0:
429,114,93773,1,8,0:2:0:0:
282,300,93884,1,8,0:2:0:0:
255,250,93939,1,0,0:0:0:0:
256,194,93995,1,8,0:2:0:0:
259,139,94050,1,4,0:3:0:0:
233,87,94106,1,8,0:3:0:0:
94,172,94217,1,8,0:2:0:0:
417,211,94328,1,8,0:2:0:0:
417,211,94383,1,4,0:3:0:0:
417,211,94439,1,8,0:3:0:0:
82,322,94550,6,0,L|94:172,1,150.000005722046,8|0,0:2|0:0,0:0:0:0:
361,148,94773,85,4,0:3:0:0:
361,148,94828,1,0,0:0:0:0:
361,148,94884,1,4,0:3:0:0:
194,232,94995,1,4,0:3:0:0:
275,31,95106,1,8,0:3:0:0:
256,345,95217,1,4,0:3:0:0:
0,182,95328,5,4,0:3:0:0:
0,182,95384,1,4,0:3:0:0:
0,182,95439,2,0,L|20:14,1,150.000005722046,4|0,0:3|0:0,0:0:0:0:
256,192,95662,1,8,0:3:0:0:
332,27,95773,1,8,0:3:0:0:
363,343,95884,1,8,0:3:0:0:
73,212,95995,1,8,0:3:0:0:
332,27,96106,2,0,L|421:28,2,75.0000028610231,8|0|0,0:3|0:0|0:0,0:0:0:0:
150,269,96328,85,4,0:3:0:0:
75,93,96439,2,0,L|82:11,1,75.0000028610231,4|0,0:3|0:0,0:0:0:0:
156,283,96550,2,0,L|149:365,1,75.0000028610231,8|0,0:3|0:0,0:0:0:0:
242,94,96661,1,4,0:3:0:0:
163,297,96773,2,0,L|156:379,1,75.0000028610231,8|0,0:3|0:0,0:0:0:0:
244,82,96884,2,0,L|251:0,1,75.0000028610231,4|0,0:3|0:0,0:0:0:0:
369,325,96995,1,8,0:3:0:0:
337,344,97050,1,4,0:3:0:0:
301,354,97106,1,4,0:3:0:0:
263,354,97162,1,4,0:3:0:0:
227,344,97217,5,8,0:2:0:0:
56,115,97328,1,8,0:2:0:0:
351,90,97439,1,4,0:3:0:0:
277,66,97495,1,4,0:3:0:0:
221,11,97550,1,4,0:3:0:0:
161,62,97606,1,4,0:3:0:0:
93,100,97662,1,8,0:3:0:0:
120,174,97717,1,8,0:3:0:0:
113,253,97773,1,8,0:3:0:0:
186,282,97828,1,8,0:3:0:0:
247,334,97884,2,0,L|325:342,2,75.0000028610231,4|0|0,0:3|0:0|0:0,0:0:0:0:
218,194,98106,85,4,0:3:0:0:
279,78,98217,1,8,0:3:0:0:
299,206,98328,1,4,0:3:0:0:
193,46,98439,1,8,0:3:0:0:
463,224,98550,5,8,0:0:0:0:
49,330,98661,1,8,0:0:0:0:
463,330,98772,1,8,0:0:0:0:
49,224,98883,1,8,0:0:0:0:
428,74,98995,86,0,P|491:172|380:140,1,300,4|8,0:3|0:3,0:0:0:0:
62,113,99328,2,0,P|30:162|86:146,1,150.000005722046,4|8,0:3|0:3,0:0:0:0:
144,79,99550,1,4,0:3:0:0:
256,177,99662,1,4,0:3:0:0:
256,177,99717,1,8,0:3:0:0:
256,177,99773,1,4,0:3:0:0:
90,286,99884,5,4,0:3:0:0:
423,286,99996,1,8,0:3:0:0:
256,11,100106,2,0,L|256:95,1,75.0000028610231,8|4,0:3|0:3,0:0:0:0:
256,94,100217,1,4,0:3:0:0:
133,268,100328,2,0,L|207:259,1,75.0000028610231,8|0,0:3|0:0,0:0:0:0:
379,268,100439,2,0,L|305:259,1,75.0000028610231,8|0,0:3|0:0,0:0:0:0:
53,91,100550,1,4,0:3:0:0:
56,165,100605,1,4,0:3:0:0:
10,225,100661,1,4,0:3:0:0:
59,281,100716,1,4,0:3:0:0:
75,355,100772,85,8,0:2:0:0:
322,132,100884,1,8,0:2:0:0:
31,14,100995,2,0,L|74:89,1,75.0000028610231,8|0,0:2|0:0,0:0:0:0:
255,327,101106,5,8,0:2:0:0:
290,338,101161,1,4,0:3:0:0:
327,335,101217,1,8,0:3:0:0:
360,318,101272,1,0,0:0:0:0:
384,289,101328,1,8,0:3:0:0:
388,265,101383,1,4,0:3:0:0:
392,241,101439,86,0,P|426:189|433:270,1,200,8|4,0:2|0:3,0:0:0:0:
255,327,101662,5,4,0:3:0:0:
484,45,101773,1,4,0:3:0:0:
271,225,101884,1,4,0:3:0:0:
206,185,101939,1,4,0:3:0:0:
166,121,101995,1,4,0:3:0:0:
108,169,102050,1,4,0:3:0:0:
36,193,102106,86,0,L|20:304,1,112.500004291535,8|0,0:0|0:0,0:0:0:0:
15,341,102217,2,0,L|20:303,1,37.5000014305115
102,351,102272,2,0,L|123:188,1,150.000005722046,8|0,0:0|0:0,0:0:0:0:
200,258,102439,2,0,L|190:332,1,75.0000028610231,8|0,0:0|0:0,0:0:0:0:
301,318,102550,6,0,P|368:290|394:222,1,150.000005722046,4|0,0:3|0:0,0:0:0:0:
256,192,102773,1,4,0:3:0:0:
256,192,102828,1,4,0:3:0:0:
256,192,102884,1,4,0:3:0:0:
124,168,102995,2,0,P|114:240|160:297,1,150.000005722046,4|0,0:3|0:0,0:0:0:0:
342,89,103217,2,0,P|285:45|213:56,1,150.000005722046,8|0,0:3|0:0,0:0:0:0:
256,351,103439,85,4,0:3:0:0:
388,168,103550,1,4,0:3:0:0:
124,168,103662,2,0,L|101:73,1,75.0000028610231,4|8,0:3|0:3,0:0:0:0:
105,88,103773,1,0,0:0:0:0:
382,279,103884,2,0,L|462:269,1,75.0000028610231,8|0,0:3|0:0,0:0:0:0:
249,81,103995,2,0,L|329:71,1,75.0000028610231,4|0,0:3|0:0,0:0:0:0:
195,353,104107,1,8,0:3:0:0:
123,327,104161,1,4,0:3:0:0:
46,321,104217,1,4,0:3:0:0:
47,244,104272,1,4,0:3:0:0:
10,176,104328,5,8,0:2:0:0:
249,81,104439,1,8,0:2:0:0:
195,353,104550,2,0,L|209:279,1,75.0000028610231,8|0,0:2|0:0,0:0:0:0:
249,81,104662,85,8,0:2:0:0:
279,59,104718,1,4,0:3:0:0:
315,49,104774,1,8,0:3:0:0:
352,48,104828,1,4,0:3:0:0:
387,66,104885,1,8,0:3:0:0:
414,91,104940,1,8,0:3:0:0:
431,122,104996,6,0,P|496:139|454:87,1,175.00000166893,8|4,0:2|0:3,0:0:0:0:
192,351,105217,85,4,0:3:0:0:
498,326,105328,1,8,0:3:0:0:
331,153,105439,1,4,0:3:0:0:
255,149,105494,1,4,0:3:0:0:
191,108,105550,1,4,0:3:0:0:
142,165,105605,1,4,0:3:0:0:
67,183,105662,6,0,L|60:295,1,112.500004291535,8|0,0:0|0:0,0:0:0:0:
59,332,105773,2,0,L|60:294,1,37.5000014305115
150,339,105828,2,0,L|157:175,1,150.000005722046,8|0,0:0|0:0,0:0:0:0:
242,229,105995,2,0,L|239:304,1,75.0000028610231,8|0,0:0|0:0,0:0:0:0:
355,47,106106,6,0,B|247:22|266:70|157:47,1,200,4|0,0:0|0:0,0:0:0:0:
139,356,106550,1,0,0:0:0:0:
373,356,106773,1,0,0:0:0:0:
256,46,106995,1,0,0:0:0:0:
332,245,107217,1,4,0:3:0:0:
332,245,107328,1,4,0:3:0:0:
343,170,107439,1,8,0:3:0:0:
319,319,107550,2,0,P|271:334|236:328,1,75.0000028610231,4|0,0:3|0:0,0:0:0:0:
77,100,107772,1,0,0:0:0:0:
193,128,107884,6,0,P|249:166|167:161,1,200
338,216,108217,2,0,P|307:263|155:300,1,200
61,252,108550,2,0,L|61:140,1,100
256,39,108773,1,0,0:0:0:0:
399,352,108995,5,4,0:3:0:0:
418,276,109106,1,0,0:0:0:0:
324,251,109217,69,4,0:3:0:0:
323,172,109328,1,0,0:0:0:0:
230,198,109439,5,4,0:3:0:0:
209,122,109550,1,0,0:0:0:0:
63,203,109662,6,0,P|54:143|123:16,1,200,4|0,0:3|0:0,0:0:0:0:
368,68,110106,2,0,L|368:170,1,100
368,316,110328,1,0,0:0:0:0:
156,192,110550,1,0,0:0:0:0:
451,139,110773,70,0,B|499:147|499:147|441:205|469:290,1,200
256,152,111217,2,0,L|256:80,1,50
61,285,111439,5,4,0:3:0:0:
37,187,111550,2,0,P|87:187|130:212,1,100,8|0,0:3|0:0,0:0:0:0:
245,320,111773,1,0,0:0:0:0:
316,284,111884,2,0,L|314:219,1,50
388,320,111995,2,0,L|390:380,1,50
460,284,112106,1,0,0:0:0:0:
256,19,112328,5,0,0:0:0:0:
256,365,112550,2,0,L|256:261,1,100,0|0,0:0|0:0,0:0:0:0:
134,90,112773,1,0,0:0:0:0:
214,98,112884,1,0,0:0:0:0:
162,217,112995,1,0,0:0:0:0:
231,177,113106,1,0,0:0:0:0:
102,163,113217,70,0,P|81:221|185:295,1,200,0|0,0:0|0:0,0:0:0:0:
410,163,113884,1,0,0:0:0:0:
256,314,114106,1,0,0:0:0:0:
72,131,114328,1,4,0:3:0:0:
151,115,114440,1,4,0:3:0:0:
98,54,114550,1,8,0:3:0:0:
126,193,114662,2,0,P|131:251|128:274,1,75.0000028610231,4|0,0:3|0:0,0:0:0:0:
289,309,114883,1,0,0:0:0:0:
370,288,114995,6,0,P|433:305|371:342,1,175,0|0,0:0|0:0,0:0:0:0:
256,236,115328,2,0,B|288:129|226:152|260:40,1,200,0|0,0:0|0:0,0:0:0:0:
370,95,115662,2,0,L|210:95,1,150
142,95,115884,1,0,0:0:0:0:
113,352,116106,5,4,0:3:0:0:
94,276,116217,1,0,0:0:0:0:
188,251,116328,69,4,0:3:0:0:
189,172,116439,1,0,0:0:0:0:
282,198,116550,5,4,0:3:0:0:
303,122,116661,1,0,0:0:0:0:
389,261,116773,6,0,B|491:242|491:242|510:127,1,200,4|0,0:3|0:0,0:0:0:0:
139,28,117217,1,0,0:0:0:0:
373,28,117440,1,0,0:0:0:0:
256,338,117662,1,0,0:0:0:0:
256,34,117884,70,0,B|239:2|303:4|299:70|240:82|234:121|256:181,1,200
140,88,118328,2,0,L|79:88,1,50,0|0,0:0|0:0,0:0:0:0:
372,87,118550,5,4,0:3:0:0:
436,165,118662,2,0,L|430:274,1,100,8|0,0:3|0:0,0:0:0:0:
272,330,118884,1,0,0:0:0:0:
234,252,118995,2,0,L|179:258,1,50,0|0,0:0|0:0,0:0:0:0:
278,182,119106,2,0,L|338:176,1,50,0|0,0:0|0:0,0:0:0:0:
240,111,119217,1,0,0:0:0:0:
86,216,119439,5,0,0:0:0:0:
416,310,119662,2,0,L|305:297,1,100,0|0,0:0|0:0,0:0:0:0:
96,310,119884,2,0,L|195:298,1,100,0|0,0:0|0:0,0:0:0:0:
256,116,120106,2,0,L|256:216,1,100,0|0,0:0|0:0,0:0:0:0:
25,228,120328,69,4,0:3:0:0:
178,107,120439,1,8,0:3:0:0:
207,299,120550,1,8,0:0:0:0:
39,177,120662,5,4,0:3:0:0:
210,84,120773,1,8,0:3:0:0:
206,277,120884,1,8,0:0:0:0:
17,139,120995,5,4,0:3:0:0:
250,59,121106,1,8,0:3:0:0:
462,223,121217,70,0,L|447:372,1,150.000005722046,4|0,0:3|0:0,0:0:0:0:
475,87,121439,1,0,0:0:0:0:
256,192,121550,6,0,L|256:362,1,150.000005722046,4|0,0:3|0:0,0:0:0:0:
256,59,121773,1,0,0:0:0:0:
50,223,121884,6,0,L|65:376,1,150.000005722046,4|0,0:3|0:0,0:0:0:0:
34,87,122106,69,4,0:3:0:0:
256,192,122217,1,4,0:3:0:0:
478,87,122328,1,4,0:3:0:0:
478,297,122439,5,4,0:3:0:0:
256,192,122550,1,4,0:3:0:0:
34,297,122661,1,4,0:3:0:0:
365,42,122773,5,4,0:3:0:0:
329,322,122884,1,4,0:3:0:0:
166,125,122995,69,4,0:3:0:0:
256,192,123106,1,4,0:3:0:0:
324,106,123217,1,4,0:3:0:0:
234,38,123328,1,4,0:3:0:0:
176,240,123439,6,0,L|186:324,1,75.0000028610231,0|0,2:0|2:0,0:0:0:0:
356,297,123662,2,0,L|346:213,1,75.0000028610231,0|0,2:0|2:0,0:0:0:0:
221,19,123884,5,4,0:3:0:0:
54,117,123995,1,4,0:3:0:0:
55,173,124050,1,4,0:3:0:0:
56,229,124106,1,4,0:3:0:0:
58,285,124161,1,4,0:3:0:0:
59,341,124217,2,0,L|256:329,1,150.000005722046,4|0,0:3|0:0,0:0:0:0:
357,325,124439,1,0,0:0:0:0:
144,208,124550,1,4,0:3:0:0:
333,48,124662,1,4,0:3:0:0:
357,325,124773,86,0,P|331:270|361:174,1,150.000005722046,8|0,0:3|0:0,0:0:0:0:
466,91,124995,1,4,0:3:0:0:
474,250,125106,6,0,P|428:308|357:325,1,150.000005722046,8|0,0:3|0:0,0:0:0:0:
216,272,125328,1,4,0:3:0:0:
351,186,125439,86,0,P|423:196|474:250,1,150.000005722046,8|0,0:3|0:0,0:0:0:0:
89,337,125662,5,8,0:3:0:0:
134,188,125773,1,8,0:3:0:0:
241,299,125884,1,4,0:3:0:0:
66,317,125995,69,8,0:3:0:0:
84,162,126106,1,8,0:3:0:0:
209,253,126217,1,4,0:3:0:0:
36,309,126328,5,8,0:3:0:0:
64,70,126439,1,4,0:3:0:0:
320,154,126550,5,4,0:3:0:0:
266,356,126661,1,4,0:3:0:0:
266,356,126716,1,4,0:3:0:0:
266,356,126772,1,8,0:3:0:0:
205,140,126884,1,8,0:3:0:0:
444,210,126995,86,0,L|436:128,1,75.0000028610231,0|0,2:0|2:0,0:0:0:0:
294,61,127217,2,0,L|302:143,1,75.0000028610231,0|0,2:0|2:0,2:0:0:0:
127,345,127439,85,4,0:3:0:0:
85,129,127550,1,8,0:3:0:0:
240,308,127662,1,8,0:0:0:0:
324,78,127773,2,0,L|398:84,1,75.0000028610231,4|0,0:3|0:0,0:0:0:0:
453,326,127884,2,0,L|369:333,1,75.0000028610231,8|0,0:3|0:0,0:0:0:0:
314,106,127995,2,0,L|388:112,1,75.0000028610231,4|0,0:3|0:0,0:0:0:0:
250,343,128106,1,8,0:0:0:0:
169,173,128217,1,0,0:0:0:0:
27,357,128328,6,0,L|42:207,1,150.000005722046,4|0,0:3|0:0,0:0:0:0:
59,59,128550,1,4,0:3:0:0:
302,236,128662,6,0,L|164:296,1,150.000005722046,4|0,0:3|0:0,0:0:0:0:
27,357,128884,1,4,0:3:0:0:
59,59,128995,70,0,L|189:153,1,150.000005722046,4|0,0:3|0:0,0:0:0:0:
412,313,129217,5,4,0:3:0:0:
412,313,129273,1,4,0:3:0:0:
412,313,129328,1,4,0:3:0:0:
453,59,129439,1,4,0:3:0:0:
100,313,129550,5,4,0:3:0:0:
100,313,129606,1,4,0:3:0:0:
100,313,129661,1,4,0:3:0:0:
59,59,129772,1,4,0:3:0:0:
256,338,129884,69,4,0:3:0:0:
256,338,129940,1,4,0:3:0:0:
256,338,129995,1,4,0:3:0:0:
359,82,130106,5,4,0:3:0:0:
335,192,130217,1,4,0:3:0:0:
227,173,130328,1,4,0:3:0:0:
251,63,130439,1,4,0:3:0:0:
330,325,130550,86,0,L|255:337,1,75.0000028610231,0|0,2:0|2:0,0:0:0:0:
34,190,130773,2,0,L|39:154,6,18.7500007152558,0|0|0|0|0|0|0,0:0|0:0|0:0|0:0|0:0|0:0|0:0,0:0:0:0:
23,272,130995,5,2,0:0:0:0:
48,90,131106,1,8,0:3:0:0:
48,90,131162,1,4,0:3:0:0:
48,90,131217,1,4,0:3:0:0:
183,191,131328,2,0,L|202:32,1,150.000005722046,0|0,0:0|0:0,0:0:0:0:
322,230,131550,1,8,0:2:0:0:
302,178,131605,1,8,0:2:0:0:
327,129,131661,1,8,0:2:0:0:
365,106,131716,1,8,0:2:0:0:
409,112,131772,1,8,0:2:0:0:
442,142,131827,1,8,0:2:0:0:
456,186,131884,86,0,B|447:261|447:261|392:311,1,150.000005722046,4|0,0:3|0:0,0:0:0:0:
243,331,132106,1,4,0:3:0:0:
224,75,132217,6,0,B|293:45|293:45|364:67,1,150.000005722046,8|0,0:3|0:0,0:0:0:0:
456,186,132439,1,8,0:3:0:0:
243,331,132550,6,0,B|182:285|182:285|165:213,1,150.000005722046,4|0,0:3|0:0,0:0:0:0:
29,20,132772,69,4,0:3:0:0:
245,114,132884,1,4,0:3:0:0:
87,199,132995,1,8,0:0:0:0:
58,12,133106,5,4,0:3:0:0:
293,168,133218,1,4,0:3:0:0:
89,236,133329,1,8,0:0:0:0:
300,57,133439,5,4,0:3:0:0:
347,264,133550,1,4,0:3:0:0:
101,321,133662,69,4,0:3:0:0:
216,107,133773,1,4,0:3:0:0:
275,323,133884,1,4,0:3:0:0:
81,219,133995,1,4,0:3:0:0:
311,139,134106,6,0,B|358:134|358:134|380:88|380:88|432:84,1,150.000005722046,2|0,2:2|2:0,0:0:0:0:
100,111,134550,5,4,0:3:0:0:
118,265,134661,1,8,0:3:0:0:
243,173,134772,1,4,0:3:0:0:
65,155,134884,69,4,0:3:0:0:
109,304,134995,1,8,0:3:0:0:
216,192,135106,1,4,0:3:0:0:
53,175,135217,5,4,0:3:0:0:
114,350,135328,1,8,0:3:0:0:
436,284,135439,5,8,0:3:0:0:
348,110,135550,1,8,0:3:0:0:
240,271,135661,1,4,0:3:0:0:
444,232,135773,69,8,0:3:0:0:
328,75,135884,1,8,0:3:0:0:
250,252,135995,1,4,0:3:0:0:
477,184,136106,5,8,0:3:0:0:
300,48,136217,2,0,B|290:42|290:42|289:53|289:53|281:47|281:47|280:57|280:57|272:51|272:51|270:60|270:60|263:55|263:55|259:57,1,75.0000028610231,8|0,0:3|0:0,0:0:0:0:
51,12,136328,5,4,0:3:0:0:
188,131,136439,1,8,0:3:0:0:
180,186,136494,1,8,0:3:0:0:
173,242,136550,1,4,0:3:0:0:
166,298,136605,1,4,0:3:0:0:
159,354,136661,1,4,0:3:0:0:
320,352,136773,1,4,0:3:0:0:
326,296,136828,1,4,0:3:0:0:
332,240,136884,1,4,0:3:0:0:
45,71,136995,1,8,0:3:0:0:
37,126,137050,1,8,0:3:0:0:
30,182,137106,1,4,0:3:0:0:
23,238,137161,1,4,0:3:0:0:
16,294,137217,69,4,0:3:0:0:
272,247,137328,1,4,0:3:0:0:
159,354,137439,1,4,0:3:0:0:
130,158,137550,1,4,0:3:0:0:
159,354,137662,6,0,L|251:343,1,75.0000028610231,0|0,2:0|2:0,0:0:0:0:
205,150,137884,2,0,L|113:161,1,75.0000028610231,0|0,2:0|2:0,2:0:0:0:
371,280,138106,5,4,0:3:0:0:
367,202,138162,1,4,0:3:0:0:
292,190,138217,1,4,0:3:0:0:
278,244,138273,1,4,0:3:0:0:
297,262,138328,1,4,0:3:0:0:
502,117,138550,1,4,0:3:0:0:
327,57,138662,1,8,0:3:0:0:
256,90,138717,1,8,0:3:0:0:
179,71,138773,1,8,0:3:0:0:
110,108,138828,1,8,0:3:0:0:
32,86,138884,1,4,0:3:0:0:
9,302,138995,70,0,L|170:289,1,150.000005722046,4|0,0:3|0:0,0:0:0:0:
256,90,139217,1,4,0:3:0:0:
503,302,139328,6,0,L|342:289,1,150.000005722046,4|0,0:3|0:0,0:0:0:0:
256,90,139550,1,4,0:3:0:0:
256,372,139662,6,0,L|256:222,1,150.000005722046,4|0,0:3|0:0,0:0:0:0:
52,36,139884,69,4,0:3:0:0:
12,216,139995,1,4,0:3:0:0:
188,161,140106,1,4,0:3:0:0:
460,36,140217,5,4,0:3:0:0:
500,216,140328,1,4,0:3:0:0:
324,161,140439,1,4,0:3:0:0:
135,39,140550,5,4,0:3:0:0:
104,319,140662,1,4,0:3:0:0:
280,80,140773,69,4,0:3:0:0:
326,261,140884,1,4,0:3:0:0:
326,261,140939,1,4,0:3:0:0:
326,261,140995,1,8,0:3:0:0:
451,142,141106,1,8,0:3:0:0:
111,122,141217,6,0,B|99:181|99:181|115:246|115:246|101:328,1,200,2|0,2:2|2:2,0:0:0:0:
459,224,141662,5,0,0:3:0:0:
326,115,141773,1,8,0:3:0:0:
332,175,141828,1,8,0:3:0:0:
339,237,141884,1,8,0:3:0:0:
346,298,141939,1,8,0:3:0:0:
353,360,141995,1,4,0:3:0:0:
219,300,142106,2,0,P|216:337|196:383,1,75.0000028610231,8|0,0:3|0:0,0:0:0:0:
156,238,142217,2,0,P|103:258|50:255,1,100,8|0,0:3|0:0,0:0:0:0:
369,228,142328,2,0,P|425:237|452:251,1,75.0000028610231,4|0,0:3|0:0,0:0:0:0:
307,292,142439,2,0,P|327:345|328:376,1,75.0000028610231,4|0,0:3|0:0,0:0:0:0:
187,125,142550,70,0,B|221:59|221:59|313:24,1,150.000005722046,4|0,0:3|0:0,0:0:0:0:
442,44,142773,1,4,0:3:0:0:
203,233,142884,6,0,B|128:236|128:236|52:174,1,150.000005722046,4|0,0:3|0:0,0:0:0:0:
5,52,143107,1,4,0:3:0:0:
346,108,143217,6,0,B|386:170|386:170|370:267,1,150.000005722046,4|0,0:3|0:0,0:0:0:0:
119,348,143439,69,4,0:3:0:0:
119,348,143495,1,4,0:3:0:0:
119,348,143550,1,8,0:3:0:0:
161,125,143662,1,8,0:3:0:0:
393,36,143773,5,4,0:3:0:0:
393,36,143828,1,4,0:3:0:0:
393,36,143884,1,8,0:3:0:0:
351,259,143995,1,8,0:3:0:0:
44,174,144106,6,0,L|61:11,1,150.000005722046,4|0,0:3|0:0,0:0:0:0:
409,189,144328,69,4,0:3:0:0:
326,112,144439,1,4,0:3:0:0:
249,189,144550,1,4,0:3:0:0:
332,266,144661,1,4,0:3:0:0:
400,53,144773,6,0,P|336:17|266:38,1,150.000005722046,2|0,0:2|0:0,0:0:0:0:
37,55,144995,2,0,L|30:-3,6,37.5000014305115,0|0|0|0|0|0|0,0:0|0:0|0:0|0:0|0:0|0:0|0:0,0:0:0:0:
47,137,145217,85,8,0:2:0:0:
267,125,145328,1,4,0:3:0:0:
267,125,145384,1,4,0:3:0:0:
267,125,145439,1,4,0:3:0:0:
26,134,145550,1,4,0:3:0:0:
227,281,145662,1,4,0:3:0:0:
123,45,145773,1,4,0:3:0:0:
123,45,145829,1,4,0:3:0:0:
123,45,145884,1,4,0:3:0:0:
94,318,145995,1,4,0:3:0:0:
213,66,146106,6,0,B|251:65|282:93|282:93|308:66|346:63,1,150.000005722046,8|0,0:3|0:0,0:0:0:0:
450,270,146328,1,4,0:3:0:0:
450,85,146439,1,8,0:3:0:0:
286,308,146550,1,8,0:3:0:0:
282,93,146662,1,4,0:3:0:0:
328,66,146718,1,4,0:3:0:0:
380,59,146773,1,4,0:3:0:0:
433,75,146829,1,4,0:3:0:0:
473,114,146884,1,4,0:3:0:0:
480,146,146940,1,4,0:3:0:0:
489,177,146995,85,4,0:3:0:0:
358,337,147106,1,4,0:3:0:0:
274,128,147217,1,8,0:3:0:0:
489,184,147328,5,4,0:3:0:0:
322,335,147439,1,4,0:3:0:0:
275,114,147550,1,8,0:3:0:0:
480,247,147662,5,4,0:3:0:0:
168,297,147773,1,4,0:3:0:0:
382,75,147884,69,2,0:2:0:0:
132,161,147995,1,4,0:3:0:0:
347,218,148106,1,8,0:3:0:0:
256,326,148217,1,4,0:3:0:0:
382,75,148328,86,0,B|428:96|428:96|331:80|331:80|382:75,1,200,2|0,0:2|0:0,0:0:0:0:
348,218,148662,1,2,0:2:0:0:
31,171,148773,6,0,L|47:12,1,150.000005722046,4|0,0:3|0:0,0:0:0:0:
348,218,148995,2,0,L|332:377,1,150.000005722046,8|0,0:0|0:0,0:0:0:0:
155,185,149217,1,4,0:3:0:0:
397,39,149328,1,4,0:3:0:0:
155,185,149439,1,8,0:0:0:0:
430,253,149550,1,4,0:3:0:0:
152,340,149662,5,4,0:3:0:0:
241,76,149773,1,8,0:3:0:0:
358,370,149884,1,8,0:0:0:0:
152,340,149995,1,0,0:0:0:0:
97,333,150050,1,0,0:0:0:0:
41,326,150106,1,0,0:0:0:0:
248,356,150217,1,4,0:3:0:0:
155,185,150328,1,8,0:0:0:0:
315,61,150439,1,4,0:3:0:0:
332,112,150495,1,4,0:3:0:0:
338,163,150550,6,0,P|327:236|269:281,1,150.000005722046,4|0,0:3|0:0,0:0:0:0:
240,49,150773,2,0,L|319:61,1,75.0000028610231,2|0,0:2|0:0,0:0:0:0:
466,193,150884,1,4,0:3:0:0:
448,234,150939,1,8,0:3:0:0:
463,269,150995,1,4,0:3:0:0:
448,306,151050,1,4,0:3:0:0:
465,345,151106,1,4,0:3:0:0:
190,287,151217,1,4,0:3:0:0:
315,61,151328,1,8,0:3:0:0:
310,361,151439,69,4,0:3:0:0:
34,199,151550,1,4,0:3:0:0:
46,145,151605,1,4,0:3:0:0:
58,89,151662,2,0,B|72:49|122:66|178:69|168:121,1,150.000005722046
239,362,151884,69,8,0:0:0:0:
269,17,151995,1,8,0:0:0:0:
239,362,152106,1,8,0:0:0:0:
269,17,152217,1,8,0:0:0:0:
497,315,152328,22,0,P|506:243|478:147,1,150.000005722046,8|0,0:2|0:0,0:0:0:0:
131,77,152550,5,8,0:3:0:0:
217,351,152662,1,4,0:3:0:0:
216,55,152773,85,4,0:3:0:0:
302,329,152885,1,8,0:3:0:0:
295,33,152995,5,4,0:3:0:0:
381,307,153107,1,8,0:3:0:0:
52,171,153217,86,0,P|42:254|51:326,1,150.000005722046,8|0,0:2|0:0,0:0:0:0:
234,132,153439,1,8,0:0:0:0:
465,325,153550,1,8,0:3:0:0:
479,265,153605,1,8,0:3:0:0:
477,206,153661,1,8,0:3:0:0:
458,150,153716,1,8,0:3:0:0:
423,101,153772,1,4,0:3:0:0:
178,220,153884,2,0,P|172:304|214:369,1,150.000005722046,8|0,0:0|0:0,0:0:0:0:
378,58,154106,5,4,0:3:0:0:
94,82,154217,1,8,0:3:0:0:
367,216,154328,1,8,0:0:0:0:
200,15,154439,1,4,0:3:0:0:
98,298,154550,2,0,L|105:379,1,75.0000028610231,8|0,0:3|0:3,0:0:0:0:
214,181,154662,2,0,L|221:100,1,75.0000028610231,8|0,0:3|0:3,0:0:0:0:
340,319,154773,1,8,0:3:0:0:
392,337,154828,1,8,0:3:0:0:
445,322,154884,1,8,0:3:0:0:
480,279,154939,1,8,0:3:0:0:
484,224,154995,1,4,0:3:0:0:
99,13,155578,70,0,P|140:81|187:17,1,187.500007152558,0|0,2:0|0:0,0:0:0:0:
185,6,155884,86,0,L|336:24,1,150.000005722046,8|0,0:2|0:0,0:0:0:0:
387,308,156106,1,4,0:3:0:0:
387,308,156217,1,4,0:3:0:0:
196,268,156328,5,8,0:2:0:0:
439,224,156439,1,8,0:2:0:0:
151,166,156550,1,8,0:2:0:0:
457,226,156662,1,8,0:2:0:0:
224,62,156773,85,8,0:3:0:0:
143,351,156884,1,8,0:2:0:0:
83,42,156995,1,8,0:3:0:0:
314,208,157106,1,4,0:3:0:0:
320,267,157161,1,4,0:3:0:0:
327,327,157217,1,4,0:3:0:0:
181,194,157328,1,8,0:2:0:0:
389,44,157439,1,8,0:3:0:0:
75,34,157550,1,4,0:3:0:0:
42,79,157606,1,4,0:3:0:0:
32,136,157662,5,4,0:3:0:0:
40,144,157773,1,4,0:3:0:0:
420,147,157884,1,8,0:0:0:0:
190,104,157995,1,8,0:3:0:0:
256,341,158106,1,4,0:3:0:0:
322,104,158217,1,8,0:3:0:0:
114,283,158328,1,8,0:0:0:0:
398,283,158439,1,4,0:3:0:0:
165,28,158550,85,4,0:3:0:0:
26,296,158661,1,8,0:3:0:0:
51,348,158717,1,8,0:3:0:0:
101,375,158772,1,8,0:3:0:0:
159,364,158828,1,8,0:3:0:0:
198,323,158883,1,8,0:3:0:0:
84,67,158995,5,8,0:2:0:0:
427,67,159106,1,8,0:2:0:0:
84,67,159217,1,8,0:2:0:0:
427,67,159328,1,8,0:2:0:0:
169,323,159439,86,0,B|128:304|128:304|168:323|168:323|189:287|189:287|169:324|169:324|210:342|210:342|169:324|169:324|147:361|147:361|169:323,1,350.00000333786,8|4,0:3|0:3,0:0:0:0:
342,323,159662,2,0,B|382:304|382:304|342:323|342:323|321:287|321:287|342:324|342:324|300:342|300:342|342:324|342:324|363:361|363:361|342:323,1,350.00000333786,8|4,0:3|0:3,0:0:0:0:
121,176,159884,2,0,B|62:150|62:150|119:177|119:177|150:125|150:125|121:178|121:178|180:204|180:204|121:178|121:178|90:231|90:231|121:177,1,500,8|4,0:3|0:3,0:0:0:0:
391,176,160106,2,0,B|449:150|449:150|392:177|392:177|361:125|361:125|391:178|391:178|331:204|331:204|391:178|391:178|421:231|421:231|391:177,1,500,8|4,0:3|0:3,0:0:0:0:
149,29,160328,5,0,0:0:0:0:
422,72,160439,1,8,0:3:0:0:
256,337,160550,1,8,0:0:0:0:
149,29,160662,1,0,0:0:0:0:
75,41,160717,1,0,0:0:0:0:
22,95,160773,1,0,0:0:0:0:
11,171,160828,1,0,0:0:0:0:
55,235,160884,1,0,0:0:0:0:
393,302,160995,2,0,P|411:230|392:159,1,150.000005722046,8|0,0:1|0:0,0:0:0:0:
64,325,161217,85,8,0:3:0:0:
311,194,161328,1,4,0:3:0:0:
75,41,161439,1,8,0:0:0:0:
228,306,161550,5,8,0:3:0:0:
378,69,161661,1,4,0:3:0:0:
98,57,161772,1,8,0:0:0:0:
437,285,161884,85,4,0:3:0:0:
443,225,161939,1,4,0:3:0:0:
449,165,161995,1,4,0:3:0:0:
456,105,162050,1,4,0:3:0:0:
461,46,162106,5,4,0:3:0:0:
213,77,162217,1,8,0:3:0:0:
496,290,162328,1,4,0:3:0:0:
252,321,162439,1,8,0:3:0:0:
486,53,162550,85,4,0:3:0:0:
26,53,162773,1,8,0:3:0:0:
256,346,162995,21,4,0:0:0:0:
256,192,163328,12,0,165217,0:0:0:0:
