osu file format v14

[General]
AudioFilename: audio.mp3
AudioLeadIn: 0
PreviewTime: 92149
Countdown: 1
SampleSet: Normal
StackLeniency: 0.7
Mode: 1
LetterboxInBreaks: 0
WidescreenStoryboard: 0

[Editor]
DistanceSpacing: 0.8
BeatDivisor: 4
GridSize: 32
TimelineZoom: 3.299998

[Metadata]
Title:GOD of MADNESS
TitleUnicode:GOD of MADNESS
Artist:sHimaU
ArtistUnicode:sHimaU
Creator:Eiuh
Version:Cthulhu
Source:
Tags:shimau breakcore yabaicore
BeatmapID:1100485
BeatmapSetID:517983

[Difficulty]
HPDrainRate:6
CircleSize:5
OverallDifficulty:7
ApproachRate:10
SliderMultiplier:1.4
SliderTickRate:1

[Events]
//Background and Video events
0,0,"GODofMADNESS-bg.png",0,0
//Break Periods
//Storyboard Layer 0 (Background)
//Storyboard Layer 1 (Fail)
//Storyboard Layer 2 (Pass)
//Storyboard Layer 3 (Foreground)
//Storyboard Sound Samples

[TimingPoints]
41,960,4,1,0,100,1,0
30769,240,4,1,0,100,1,0
122929,-133.333333333333,4,1,0,100,0,0
123049,-131.578947368421,4,1,0,100,0,0
123169,-129.87012987013,4,1,0,100,0,0
123289,-128.205128205128,4,1,0,100,0,0
123409,-111.111111111111,4,1,0,100,0,0
123489,-109.89010989011,4,1,0,100,0,0
123569,-108.695652173913,4,1,0,100,0,0
123649,-107.52688172043,4,1,0,100,0,0
123769,-106.382978723404,4,1,0,100,0,0
123889,-100,4,1,0,100,0,0

[HitObjects]
256,192,30769,5,4,0:0:0:0:
256,192,31009,1,8,0:0:0:0:
256,192,31129,1,0,0:0:0:0:
256,192,31249,1,8,0:0:0:0:
256,192,31309,1,8,0:0:0:0:
256,192,31369,1,8,0:0:0:0:
256,192,31429,1,8,0:0:0:0:
256,192,31489,1,0,0:0:0:0:
256,192,31609,1,0,0:0:0:0:
256,192,31729,1,8,0:0:0:0:
256,192,31789,1,0,0:0:0:0:
256,192,31849,1,8,0:0:0:0:
256,192,31969,1,8,0:0:0:0:
256,192,32089,1,0,0:0:0:0:
256,192,32209,1,8,0:0:0:0:
256,192,32329,1,0,0:0:0:0:
256,192,32389,1,8,0:0:0:0:
256,192,32449,1,0,0:0:0:0:
256,192,32509,1,8,0:0:0:0:
256,192,32569,1,8,0:0:0:0:
256,192,32689,1,0,0:0:0:0:
256,192,32929,1,4,0:0:0:0:
256,192,33049,1,4,0:0:0:0:
256,192,33169,1,12,0:0:0:0:
256,192,33409,1,0,0:0:0:0:
256,192,33529,1,8,0:0:0:0:
256,192,33649,1,0,0:0:0:0:
256,192,33709,1,8,0:0:0:0:
256,192,33769,1,0,0:0:0:0:
256,192,33829,1,0,0:0:0:0:
256,192,33889,1,8,0:0:0:0:
256,192,34009,1,8,0:0:0:0:
256,192,34129,1,0,0:0:0:0:
256,192,34249,1,8,0:0:0:0:
256,192,34369,1,0,0:0:0:0:
256,192,34429,1,8,0:0:0:0:
256,192,34489,1,8,0:0:0:0:
256,192,34609,1,0,0:0:0:0:
256,192,34729,1,0,0:0:0:0:
256,192,34849,1,0,0:0:0:0:
256,192,34969,1,0,0:0:0:0:
256,192,35089,1,8,0:0:0:0:
256,192,35149,1,0,0:0:0:0:
256,192,35209,1,8,0:0:0:0:
256,192,35269,1,8,0:0:0:0:
256,192,35329,1,0,0:0:0:0:
256,192,35569,1,0,0:0:0:0:
256,192,35629,1,8,0:0:0:0:
256,192,35689,1,0,0:0:0:0:
256,192,35749,1,8,0:0:0:0:
256,192,35809,1,0,0:0:0:0:
256,192,36049,1,8,0:0:0:0:
256,192,36109,1,0,0:0:0:0:
256,192,36169,1,0,0:0:0:0:
256,192,36229,1,8,0:0:0:0:
256,192,36289,1,0,0:0:0:0:
256,192,36409,1,8,0:0:0:0:
256,192,36529,1,0,0:0:0:0:
256,192,37009,1,4,0:0:0:0:
256,192,37129,1,0,0:0:0:0:
256,192,37189,1,0,0:0:0:0:
256,192,37249,1,0,0:0:0:0:
256,192,37369,1,0,0:0:0:0:
256,192,37489,1,12,0:0:0:0:
256,192,37729,1,8,0:0:0:0:
256,192,37789,1,0,0:0:0:0:
256,192,37849,1,8,0:0:0:0:
256,192,37909,1,0,0:0:0:0:
256,192,37969,1,0,0:0:0:0:
256,192,38089,1,0,0:0:0:0:
256,192,38149,1,0,0:0:0:0:
256,192,38209,1,8,0:0:0:0:
256,192,38269,1,8,0:0:0:0:
256,192,38329,1,0,0:0:0:0:
256,192,38449,1,8,0:0:0:0:
256,192,38569,1,0,0:0:0:0:
256,192,38689,1,8,0:0:0:0:
256,192,38749,1,0,0:0:0:0:
256,192,38809,1,8,0:0:0:0:
256,192,38869,1,8,0:0:0:0:
256,192,38929,1,0,0:0:0:0:
256,192,38989,1,8,0:0:0:0:
256,192,39049,1,0,0:0:0:0:
256,192,39169,1,8,0:0:0:0:
256,192,39289,1,0,0:0:0:0:
256,192,39409,1,8,0:0:0:0:
256,192,39529,1,0,0:0:0:0:
256,192,39649,1,12,0:0:0:0:
256,192,39889,1,8,0:0:0:0:
256,192,39949,1,8,0:0:0:0:
256,192,40009,1,8,0:0:0:0:
256,192,40069,1,8,0:0:0:0:
256,192,40129,1,0,0:0:0:0:
256,192,40249,1,8,0:0:0:0:
256,192,40369,1,0,0:0:0:0:
256,192,40609,1,0,0:0:0:0:
256,192,40669,1,0,0:0:0:0:
256,192,40729,1,0,0:0:0:0:
256,192,40789,1,0,0:0:0:0:
256,192,40849,1,8,0:0:0:0:
256,192,40889,1,8,0:0:0:0:
256,192,40929,1,8,0:0:0:0:
256,192,41089,1,0,0:0:0:0:
256,192,41209,1,8,0:0:0:0:
256,192,41329,1,0,0:0:0:0:
256,192,41389,1,0,0:0:0:0:
256,192,41449,1,0,0:0:0:0:
256,192,41509,1,0,0:0:0:0:
256,192,41569,1,8,0:0:0:0:
256,192,41689,1,8,0:0:0:0:
256,192,41809,1,0,0:0:0:0:
256,192,41929,1,8,0:0:0:0:
256,192,42049,1,4,0:0:0:0:
256,192,42289,1,8,0:0:0:0:
256,192,42349,1,8,0:0:0:0:
256,192,42409,1,8,0:0:0:0:
256,192,42469,1,8,0:0:0:0:
256,192,42529,1,0,0:0:0:0:
256,192,42649,1,0,0:0:0:0:
256,192,42769,1,12,0:0:0:0:
256,192,42889,1,0,0:0:0:0:
256,192,42949,1,8,0:0:0:0:
256,192,43009,1,0,0:0:0:0:
256,192,43129,1,0,0:0:0:0:
256,192,43249,1,8,0:0:0:0:
256,192,43309,1,0,0:0:0:0:
256,192,43369,1,8,0:0:0:0:
256,192,43489,1,0,0:0:0:0:
256,192,43609,1,0,0:0:0:0:
256,192,43729,1,8,0:0:0:0:
256,192,43789,1,8,0:0:0:0:
256,192,43849,1,0,0:0:0:0:
256,192,43909,1,0,0:0:0:0:
256,192,43969,1,8,0:0:0:0:
256,192,44029,1,8,0:0:0:0:
256,192,44089,1,0,0:0:0:0:
256,192,44209,1,8,0:0:0:0:
256,192,44329,1,4,0:0:0:0:
256,192,44449,1,4,0:0:0:0:
256,192,44569,1,4,0:0:0:0:
256,192,44689,1,12,0:0:0:0:
256,192,44929,1,0,0:0:0:0:
256,192,45049,1,8,0:0:0:0:
256,192,45169,1,8,0:0:0:0:
256,192,45229,1,0,0:0:0:0:
256,192,45289,1,0,0:0:0:0:
256,192,45409,1,0,0:0:0:0:
256,192,45649,1,0,0:0:0:0:
256,192,45709,1,8,0:0:0:0:
256,192,45769,1,8,0:0:0:0:
256,192,45829,1,0,0:0:0:0:
256,192,45889,1,8,0:0:0:0:
256,192,45949,1,8,0:0:0:0:
256,192,46009,1,8,0:0:0:0:
256,192,46129,1,0,0:0:0:0:
256,192,46369,1,0,0:0:0:0:
256,192,46429,1,8,0:0:0:0:
256,192,46489,1,0,0:0:0:0:
256,192,46609,1,8,0:0:0:0:
256,192,46669,1,8,0:0:0:0:
256,192,46729,1,8,0:0:0:0:
256,192,46789,1,0,0:0:0:0:
256,192,46849,1,8,0:0:0:0:
256,192,46969,1,0,0:0:0:0:
256,192,47089,1,8,0:0:0:0:
256,192,47149,1,8,0:0:0:0:
256,192,47209,1,0,0:0:0:0:
256,192,47269,1,8,0:0:0:0:
256,192,47329,1,0,0:0:0:0:
256,192,47389,1,8,0:0:0:0:
256,192,47449,1,0,0:0:0:0:
256,192,47569,1,0,0:0:0:0:
256,192,47629,1,8,0:0:0:0:
256,192,47689,1,0,0:0:0:0:
256,192,47749,1,0,0:0:0:0:
256,192,47809,1,8,0:0:0:0:
256,192,47849,1,8,0:0:0:0:
256,192,47889,1,8,0:0:0:0:
256,192,48049,1,0,0:0:0:0:
256,192,48289,1,8,0:0:0:0:
256,192,48409,1,0,0:0:0:0:
256,192,48529,1,0,0:0:0:0:
256,192,48889,1,8,0:0:0:0:
256,192,49129,1,8,0:0:0:0:
256,192,49249,1,8,0:0:0:0:
256,192,49369,1,8,0:0:0:0:
256,192,49489,1,0,0:0:0:0:
256,192,49569,1,0,0:0:0:0:
256,192,49649,1,0,0:0:0:0:
256,192,49729,1,0,0:0:0:0:
256,192,49809,1,8,0:0:0:0:
256,192,49969,1,4,0:0:0:0:
256,192,50329,1,0,0:0:0:0:
256,192,50449,1,8,0:0:0:0:
256,192,50509,1,8,0:0:0:0:
256,192,50569,1,8,0:0:0:0:
256,192,50629,1,0,0:0:0:0:
256,192,50929,1,4,0:0:0:0:
256,192,51169,1,0,0:0:0:0:
256,192,51409,1,8,0:0:0:0:
256,192,51529,1,8,0:0:0:0:
256,192,51589,1,8,0:0:0:0:
256,192,51649,1,0,0:0:0:0:
256,192,51769,1,8,0:0:0:0:
256,192,51889,1,0,0:0:0:0:
256,192,51969,1,8,0:0:0:0:
256,192,52049,1,8,0:0:0:0:
256,192,52129,1,0,0:0:0:0:
256,192,52209,1,0,0:0:0:0:
256,192,52289,1,0,0:0:0:0:
256,192,52369,1,8,0:0:0:0:
256,192,52429,1,0,0:0:0:0:
256,192,52489,1,8,0:0:0:0:
256,192,52549,1,8,0:0:0:0:
256,192,52609,1,0,0:0:0:0:
256,192,52729,1,0,0:0:0:0:
256,192,52849,1,12,0:0:0:0:
256,192,53089,1,8,0:0:0:0:
256,192,53149,1,0,0:0:0:0:
256,192,53209,1,8,0:0:0:0:
256,192,53269,1,0,0:0:0:0:
256,192,53329,1,0,0:0:0:0:
256,192,53449,1,0,0:0:0:0:
256,192,53509,1,8,0:0:0:0:
256,192,53569,1,0,0:0:0:0:
256,192,53629,1,8,0:0:0:0:
256,192,53689,1,0,0:0:0:0:
256,192,53809,1,0,0:0:0:0:
256,192,54049,1,0,0:0:0:0:
256,192,54289,1,8,0:0:0:0:
256,192,54349,1,8,0:0:0:0:
256,192,54409,1,8,0:0:0:0:
256,192,54469,1,0,0:0:0:0:
256,192,54649,1,0,0:0:0:0:
256,192,54769,1,8,0:0:0:0:
256,192,54829,1,0,0:0:0:0:
256,192,54889,1,0,0:0:0:0:
256,192,54949,1,0,0:0:0:0:
256,192,55009,1,8,0:0:0:0:
256,192,55049,1,8,0:0:0:0:
256,192,55089,1,8,0:0:0:0:
256,192,55129,1,8,0:0:0:0:
256,192,55249,1,0,0:0:0:0:
256,192,55489,1,8,0:0:0:0:
256,192,55549,1,8,0:0:0:0:
256,192,55609,1,0,0:0:0:0:
256,192,55669,1,8,0:0:0:0:
256,192,55729,1,0,0:0:0:0:
256,192,55969,1,4,0:0:0:0:
256,192,56089,1,4,0:0:0:0:
256,192,56329,1,12,0:0:0:0:
256,192,56449,1,0,0:0:0:0:
256,192,56569,1,0,0:0:0:0:
256,192,56689,1,8,0:0:0:0:
256,192,56769,1,8,0:0:0:0:
256,192,56849,1,8,0:0:0:0:
256,192,56929,1,0,0:0:0:0:
256,192,57169,1,8,0:0:0:0:
256,192,57289,1,8,0:0:0:0:
256,192,57409,1,0,0:0:0:0:
256,192,57649,1,0,0:0:0:0:
256,192,57769,1,8,0:0:0:0:
256,192,57889,1,4,0:0:0:0:
256,192,58009,1,4,0:0:0:0:
256,192,58249,1,4,0:0:0:0:
256,192,58369,1,4,0:0:0:0:
256,192,58489,1,4,0:0:0:0:
256,192,58609,1,8,0:0:0:0:
256,192,58649,1,8,0:0:0:0:
256,192,58689,1,8,0:0:0:0:
256,192,58729,1,8,0:0:0:0:
256,192,58769,1,0,0:0:0:0:
256,192,59089,1,8,0:0:0:0:
256,192,59209,1,8,0:0:0:0:
256,192,59329,1,0,0:0:0:0:
256,192,59389,1,8,0:0:0:0:
256,192,59449,1,8,0:0:0:0:
256,192,59569,1,4,0:0:0:0:
256,192,59689,1,4,0:0:0:0:
256,192,59809,1,8,0:0:0:0:
256,192,59849,1,8,0:0:0:0:
256,192,59889,1,8,0:0:0:0:
256,192,59929,1,8,0:0:0:0:
256,192,60049,1,0,0:0:0:0:
256,192,60289,1,0,0:0:0:0:
256,192,60409,1,8,0:0:0:0:
256,192,60649,1,0,0:0:0:0:
256,192,61009,1,0,0:0:0:0:
256,192,61489,1,4,0:0:0:0:
256,192,61609,1,8,0:0:0:0:
256,192,61729,1,0,0:0:0:0:
256,192,61849,1,0,0:0:0:0:
256,192,61969,1,8,0:0:0:0:
256,192,62029,1,8,0:0:0:0:
256,192,62089,1,8,0:0:0:0:
256,192,62149,1,0,0:0:0:0:
256,192,62209,1,8,0:0:0:0:
256,192,62329,1,0,0:0:0:0:
256,192,62449,1,8,0:0:0:0:
256,192,62509,1,0,0:0:0:0:
256,192,62569,1,8,0:0:0:0:
256,192,62689,1,8,0:0:0:0:
256,192,62809,1,0,0:0:0:0:
256,192,62869,1,0,0:0:0:0:
256,192,62929,1,8,0:0:0:0:
256,192,62989,1,0,0:0:0:0:
256,192,63049,1,0,0:0:0:0:
256,192,63109,1,8,0:0:0:0:
256,192,63169,1,0,0:0:0:0:
256,192,63229,1,8,0:0:0:0:
256,192,63289,1,8,0:0:0:0:
256,192,63409,1,4,0:0:0:0:
256,192,63529,1,0,0:0:0:0:
256,192,63649,1,8,0:0:0:0:
256,192,63769,1,0,0:0:0:0:
256,192,63889,1,0,0:0:0:0:
256,192,63979,1,8,0:0:0:0:
256,192,64009,1,8,0:0:0:0:
256,192,64129,1,0,0:0:0:0:
256,192,64189,1,0,0:0:0:0:
256,192,64249,1,8,0:0:0:0:
256,192,64369,1,0,0:0:0:0:
256,192,64429,1,0,0:0:0:0:
256,192,64489,1,8,0:0:0:0:
256,192,64549,1,0,0:0:0:0:
256,192,64609,1,0,0:0:0:0:
256,192,64669,1,8,0:0:0:0:
256,192,64729,1,0,0:0:0:0:
256,192,64849,1,8,0:0:0:0:
256,192,64909,1,0,0:0:0:0:
256,192,64969,1,8,0:0:0:0:
256,192,65029,1,8,0:0:0:0:
256,192,65089,1,8,0:0:0:0:
256,192,65149,1,8,0:0:0:0:
256,192,65209,1,0,0:0:0:0:
256,192,65329,1,0,0:0:0:0:
256,192,65389,1,0,0:0:0:0:
256,192,65449,1,0,0:0:0:0:
256,192,65509,1,0,0:0:0:0:
256,192,65569,1,8,0:0:0:0:
256,192,65689,1,0,0:0:0:0:
256,192,65809,1,8,0:0:0:0:
256,192,65869,1,8,0:0:0:0:
256,192,65929,1,8,0:0:0:0:
256,192,66049,1,0,0:0:0:0:
256,192,66289,1,0,0:0:0:0:
256,192,66349,1,8,0:0:0:0:
256,192,66409,1,0,0:0:0:0:
256,192,66469,1,8,0:0:0:0:
256,192,66529,1,0,0:0:0:0:
256,192,66649,1,0,0:0:0:0:
256,192,66769,1,8,0:0:0:0:
256,192,66829,1,0,0:0:0:0:
256,192,66889,1,8,0:0:0:0:
256,192,66949,1,8,0:0:0:0:
256,192,67009,1,0,0:0:0:0:
256,192,67129,1,8,0:0:0:0:
256,192,67249,1,0,0:0:0:0:
256,192,67729,1,4,0:0:0:0:
256,192,67849,1,0,0:0:0:0:
256,192,67909,1,0,0:0:0:0:
256,192,67969,1,8,0:0:0:0:
256,192,68089,1,0,0:0:0:0:
256,192,68209,1,12,0:0:0:0:
256,192,68329,1,0,0:0:0:0:
256,192,68449,1,8,0:0:0:0:
256,192,68509,1,0,0:0:0:0:
256,192,68569,1,8,0:0:0:0:
256,192,68629,1,0,0:0:0:0:
256,192,68689,1,0,0:0:0:0:
256,192,68809,1,0,0:0:0:0:
256,192,68869,1,0,0:0:0:0:
256,192,68929,1,0,0:0:0:0:
256,192,68989,1,8,0:0:0:0:
256,192,69049,1,0,0:0:0:0:
256,192,69169,1,8,0:0:0:0:
256,192,69289,1,8,0:0:0:0:
256,192,69409,1,0,0:0:0:0:
256,192,69469,1,0,0:0:0:0:
256,192,69529,1,0,0:0:0:0:
256,192,69589,1,0,0:0:0:0:
256,192,69649,1,8,0:0:0:0:
256,192,69709,1,0,0:0:0:0:
256,192,69769,1,0,0:0:0:0:
256,192,69829,1,8,0:0:0:0:
256,192,69889,1,8,0:0:0:0:
256,192,70009,1,0,0:0:0:0:
256,192,70129,1,8,0:0:0:0:
256,192,70249,1,0,0:0:0:0:
256,192,70309,1,0,0:0:0:0:
256,192,70369,1,8,0:0:0:0:
256,192,70489,1,0,0:0:0:0:
256,192,70609,1,8,0:0:0:0:
256,192,70669,1,0,0:0:0:0:
256,192,70729,1,8,0:0:0:0:
256,192,70849,1,4,0:0:0:0:
256,192,70969,1,4,0:0:0:0:
256,192,71089,1,8,0:0:0:0:
256,192,71329,1,4,0:0:0:0:
256,192,71449,1,4,0:0:0:0:
256,192,71569,1,12,0:0:0:0:
256,192,71689,1,12,0:0:0:0:
256,192,71809,1,0,0:0:0:0:
256,192,71869,1,0,0:0:0:0:
256,192,71929,1,8,0:0:0:0:
256,192,72049,1,12,0:0:0:0:
256,192,72169,1,12,0:0:0:0:
256,192,72289,1,12,0:0:0:0:
256,192,72409,1,12,0:0:0:0:
256,192,72529,1,0,0:0:0:0:
256,192,72589,1,8,0:0:0:0:
256,192,72649,1,0,0:0:0:0:
256,192,72769,1,8,0:0:0:0:
256,192,72829,1,8,0:0:0:0:
256,192,72889,1,8,0:0:0:0:
256,192,72949,1,8,0:0:0:0:
256,192,73009,1,8,0:0:0:0:
256,192,73069,1,8,0:0:0:0:
256,192,73129,1,8,0:0:0:0:
256,192,73249,1,0,0:0:0:0:
256,192,73369,1,0,0:0:0:0:
256,192,73489,1,8,0:0:0:0:
256,192,73549,1,0,0:0:0:0:
256,192,73609,1,8,0:0:0:0:
256,192,73669,1,8,0:0:0:0:
256,192,73729,1,0,0:0:0:0:
256,192,73849,1,0,0:0:0:0:
256,192,73909,1,0,0:0:0:0:
256,192,73969,1,8,0:0:0:0:
256,192,74029,1,0,0:0:0:0:
256,192,74089,1,8,0:0:0:0:
256,192,74149,1,0,0:0:0:0:
256,192,74209,1,0,0:0:0:0:
256,192,74329,1,8,0:0:0:0:
256,192,74389,1,0,0:0:0:0:
256,192,74449,1,8,0:0:0:0:
256,192,74509,1,8,0:0:0:0:
256,192,74569,1,0,0:0:0:0:
256,192,74629,1,8,0:0:0:0:
256,192,74689,1,0,0:0:0:0:
256,192,74809,1,0,0:0:0:0:
256,192,74929,1,8,0:0:0:0:
256,192,75049,1,4,0:0:0:0:
256,192,75169,1,4,0:0:0:0:
256,192,75289,1,4,0:0:0:0:
256,192,75409,1,12,0:0:0:0:
256,192,75649,1,0,0:0:0:0:
256,192,75709,1,0,0:0:0:0:
256,192,75769,1,8,0:0:0:0:
256,192,75889,12,0,76369,0:0:0:0:
256,192,76849,5,4,0:0:0:0:
256,192,76969,1,8,0:0:0:0:
256,192,77089,1,0,0:0:0:0:
256,192,77209,1,0,0:0:0:0:
256,192,77329,1,8,0:0:0:0:
256,192,77389,1,8,0:0:0:0:
256,192,77449,1,8,0:0:0:0:
256,192,77509,1,0,0:0:0:0:
256,192,77569,1,8,0:0:0:0:
256,192,77689,1,0,0:0:0:0:
256,192,77809,1,8,0:0:0:0:
256,192,77869,1,0,0:0:0:0:
256,192,77929,1,8,0:0:0:0:
256,192,78049,1,8,0:0:0:0:
256,192,78169,1,0,0:0:0:0:
256,192,78229,1,0,0:0:0:0:
256,192,78289,1,8,0:0:0:0:
256,192,78349,1,0,0:0:0:0:
256,192,78409,1,0,0:0:0:0:
256,192,78469,1,8,0:0:0:0:
256,192,78529,1,0,0:0:0:0:
256,192,78589,1,8,0:0:0:0:
256,192,78649,1,8,0:0:0:0:
256,192,78769,1,4,0:0:0:0:
256,192,78889,1,0,0:0:0:0:
256,192,79009,1,8,0:0:0:0:
256,192,79129,1,0,0:0:0:0:
256,192,79249,1,0,0:0:0:0:
256,192,79339,1,8,0:0:0:0:
256,192,79369,1,8,0:0:0:0:
256,192,79489,1,0,0:0:0:0:
256,192,79549,1,0,0:0:0:0:
256,192,79609,1,8,0:0:0:0:
256,192,79729,1,0,0:0:0:0:
256,192,79789,1,0,0:0:0:0:
256,192,79849,1,8,0:0:0:0:
256,192,79909,1,0,0:0:0:0:
256,192,79969,1,0,0:0:0:0:
256,192,80029,1,8,0:0:0:0:
256,192,80089,1,0,0:0:0:0:
256,192,80209,1,8,0:0:0:0:
256,192,80269,1,0,0:0:0:0:
256,192,80329,1,8,0:0:0:0:
256,192,80389,1,8,0:0:0:0:
256,192,80449,1,0,0:0:0:0:
256,192,80509,1,0,0:0:0:0:
256,192,80569,1,8,0:0:0:0:
256,192,80689,1,4,0:0:0:0:
256,192,80809,1,4,0:0:0:0:
256,192,80929,1,4,0:0:0:0:
256,192,81049,1,4,0:0:0:0:
256,192,81169,1,8,0:0:0:0:
256,192,81229,1,8,0:0:0:0:
256,192,81289,1,0,0:0:0:0:
256,192,81349,1,0,0:0:0:0:
256,192,81409,1,8,0:0:0:0:
256,192,81649,1,0,0:0:0:0:
256,192,81709,1,8,0:0:0:0:
256,192,81769,1,0,0:0:0:0:
256,192,81829,1,8,0:0:0:0:
256,192,81889,1,0,0:0:0:0:
256,192,82129,1,8,0:0:0:0:
256,192,82189,1,0,0:0:0:0:
256,192,82249,1,8,0:0:0:0:
256,192,82309,1,8,0:0:0:0:
256,192,82369,1,0,0:0:0:0:
256,192,82489,1,8,0:0:0:0:
256,192,82609,1,0,0:0:0:0:
256,192,83089,1,4,0:0:0:0:
256,192,83209,1,0,0:0:0:0:
256,192,83269,1,0,0:0:0:0:
256,192,83329,1,8,0:0:0:0:
256,192,83449,1,0,0:0:0:0:
256,192,83569,1,12,0:0:0:0:
256,192,83689,1,0,0:0:0:0:
256,192,83809,1,8,0:0:0:0:
256,192,83869,1,0,0:0:0:0:
256,192,83929,1,8,0:0:0:0:
256,192,83989,1,0,0:0:0:0:
256,192,84049,1,0,0:0:0:0:
256,192,84169,1,0,0:0:0:0:
256,192,84229,1,0,0:0:0:0:
256,192,84289,1,0,0:0:0:0:
256,192,84349,1,8,0:0:0:0:
256,192,84409,1,0,0:0:0:0:
256,192,84529,1,8,0:0:0:0:
256,192,84649,1,8,0:0:0:0:
256,192,84769,1,0,0:0:0:0:
256,192,84829,1,0,0:0:0:0:
256,192,84889,1,0,0:0:0:0:
256,192,84949,1,0,0:0:0:0:
256,192,85009,1,8,0:0:0:0:
256,192,85069,1,8,0:0:0:0:
256,192,85129,1,0,0:0:0:0:
256,192,85189,1,8,0:0:0:0:
256,192,85249,1,0,0:0:0:0:
256,192,85369,1,0,0:0:0:0:
256,192,85489,1,8,0:0:0:0:
256,192,85609,1,0,0:0:0:0:
256,192,85669,1,0,0:0:0:0:
256,192,85729,1,8,0:0:0:0:
256,192,85849,1,0,0:0:0:0:
256,192,85969,1,8,0:0:0:0:
256,192,86029,1,0,0:0:0:0:
256,192,86089,1,8,0:0:0:0:
256,192,86209,1,4,0:0:0:0:
256,192,86329,1,4,0:0:0:0:
256,192,86449,1,8,0:0:0:0:
256,192,86689,1,4,0:0:0:0:
256,192,86809,1,4,0:0:0:0:
256,192,86929,1,12,0:0:0:0:
256,192,87049,1,12,0:0:0:0:
256,192,87169,1,0,0:0:0:0:
256,192,87229,1,0,0:0:0:0:
256,192,87289,1,8,0:0:0:0:
256,192,87409,1,12,0:0:0:0:
256,192,87529,1,12,0:0:0:0:
256,192,87649,1,12,0:0:0:0:
256,192,87769,1,12,0:0:0:0:
256,192,87889,1,0,0:0:0:0:
256,192,87949,1,8,0:0:0:0:
256,192,88009,1,0,0:0:0:0:
256,192,88129,1,8,0:0:0:0:
256,192,88249,1,8,0:0:0:0:
256,192,88369,1,0,0:0:0:0:
256,192,88489,1,8,0:0:0:0:
256,192,88609,1,0,0:0:0:0:
256,192,88729,1,0,0:0:0:0:
256,192,88849,1,8,0:0:0:0:
256,192,88909,1,0,0:0:0:0:
256,192,88969,1,8,0:0:0:0:
256,192,89029,1,8,0:0:0:0:
256,192,89089,1,0,0:0:0:0:
256,192,89209,1,0,0:0:0:0:
256,192,89269,1,0,0:0:0:0:
256,192,89329,1,8,0:0:0:0:
256,192,89389,1,0,0:0:0:0:
256,192,89449,1,8,0:0:0:0:
256,192,89509,1,0,0:0:0:0:
256,192,89569,1,0,0:0:0:0:
256,192,89689,1,8,0:0:0:0:
256,192,89749,1,0,0:0:0:0:
256,192,89809,1,8,0:0:0:0:
256,192,89869,1,8,0:0:0:0:
256,192,89929,1,0,0:0:0:0:
256,192,89989,1,8,0:0:0:0:
256,192,90049,1,0,0:0:0:0:
256,192,90169,1,0,0:0:0:0:
256,192,90289,1,8,0:0:0:0:
256,192,90409,1,0,0:0:0:0:
256,192,90529,1,8,0:0:0:0:
256,192,90649,1,0,0:0:0:0:
256,192,90709,1,8,0:0:0:0:
256,192,90769,1,8,0:0:0:0:
256,192,90829,1,0,0:0:0:0:
256,192,90889,1,0,0:0:0:0:
256,192,90949,1,0,0:0:0:0:
256,192,91009,1,8,0:0:0:0:
256,192,92209,1,4,0:0:0:0:
256,192,92329,1,8,0:0:0:0:
256,192,92389,1,8,0:0:0:0:
256,192,92449,1,0,0:0:0:0:
256,192,92509,1,0,0:0:0:0:
256,192,92569,1,8,0:0:0:0:
256,192,92629,1,0,0:0:0:0:
256,192,92689,1,8,0:0:0:0:
256,192,92809,1,0,0:0:0:0:
256,192,92929,1,8,0:0:0:0:
256,192,93049,1,0,0:0:0:0:
256,192,93169,1,8,0:0:0:0:
256,192,93229,1,8,0:0:0:0:
256,192,93289,1,8,0:0:0:0:
256,192,93349,1,0,0:0:0:0:
256,192,93409,1,0,0:0:0:0:
256,192,93469,1,0,0:0:0:0:
256,192,93529,1,0,0:0:0:0:
256,192,93589,1,0,0:0:0:0:
256,192,93649,1,8,0:0:0:0:
256,192,93769,1,0,0:0:0:0:
256,192,93889,1,8,0:0:0:0:
256,192,94009,1,0,0:0:0:0:
256,192,94129,1,4,0:0:0:0:
256,192,94249,1,0,0:0:0:0:
256,192,94369,1,12,0:0:0:0:
256,192,94489,1,8,0:0:0:0:
256,192,94609,1,0,0:0:0:0:
256,192,94729,1,12,0:0:0:0:
256,192,94849,1,0,0:0:0:0:
256,192,94969,1,8,0:0:0:0:
256,192,95029,1,0,0:0:0:0:
256,192,95089,1,0,0:0:0:0:
256,192,95149,1,0,0:0:0:0:
256,192,95209,1,8,0:0:0:0:
256,192,95269,1,0,0:0:0:0:
256,192,95329,1,8,0:0:0:0:
256,192,95389,1,8,0:0:0:0:
256,192,95449,1,0,0:0:0:0:
256,192,95569,1,4,0:0:0:0:
256,192,95689,1,0,0:0:0:0:
256,192,95809,1,8,0:0:0:0:
256,192,96049,1,0,0:0:0:0:
256,192,96169,1,0,0:0:0:0:
256,192,96289,1,8,0:0:0:0:
256,192,96349,1,8,0:0:0:0:
256,192,96409,1,0,0:0:0:0:
256,192,96469,1,0,0:0:0:0:
256,192,96529,1,8,0:0:0:0:
256,192,96649,1,0,0:0:0:0:
256,192,96769,1,8,0:0:0:0:
256,192,96889,1,0,0:0:0:0:
256,192,97009,1,8,0:0:0:0:
256,192,97069,1,0,0:0:0:0:
256,192,97129,1,8,0:0:0:0:
256,192,97189,1,0,0:0:0:0:
256,192,97249,1,8,0:0:0:0:
256,192,97309,1,8,0:0:0:0:
256,192,97369,1,0,0:0:0:0:
256,192,97429,1,8,0:0:0:0:
256,192,97489,1,0,0:0:0:0:
256,192,97609,1,8,0:0:0:0:
256,192,97729,1,0,0:0:0:0:
256,192,97849,1,0,0:0:0:0:
256,192,97969,1,8,0:0:0:0:
256,192,98089,1,0,0:0:0:0:
256,192,98209,1,8,0:0:0:0:
256,192,98269,1,0,0:0:0:0:
256,192,98329,1,8,0:0:0:0:
256,192,98389,1,8,0:0:0:0:
256,192,98449,1,8,0:0:0:0:
256,192,98569,1,4,0:0:0:0:
256,192,98689,1,8,0:0:0:0:
256,192,98809,1,0,0:0:0:0:
256,192,98929,1,8,0:0:0:0:
256,192,98989,1,8,0:0:0:0:
256,192,99049,1,0,0:0:0:0:
256,192,99169,1,8,0:0:0:0:
256,192,99289,1,8,0:0:0:0:
256,192,99349,1,0,0:0:0:0:
256,192,99409,1,0,0:0:0:0:
256,192,99529,1,0,0:0:0:0:
256,192,99649,1,0,0:0:0:0:
256,192,99889,1,4,0:0:0:0:
256,192,100009,1,8,0:0:0:0:
256,192,100069,1,8,0:0:0:0:
256,192,100129,1,0,0:0:0:0:
256,192,100189,1,0,0:0:0:0:
256,192,100249,1,8,0:0:0:0:
256,192,100309,1,0,0:0:0:0:
256,192,100369,1,8,0:0:0:0:
256,192,100489,1,0,0:0:0:0:
256,192,100609,1,8,0:0:0:0:
256,192,100729,1,0,0:0:0:0:
256,192,100849,1,8,0:0:0:0:
256,192,100909,1,8,0:0:0:0:
256,192,100969,1,8,0:0:0:0:
256,192,101029,1,0,0:0:0:0:
256,192,101089,1,0,0:0:0:0:
256,192,101149,1,0,0:0:0:0:
256,192,101209,1,0,0:0:0:0:
256,192,101269,1,0,0:0:0:0:
256,192,101329,1,8,0:0:0:0:
256,192,101449,1,0,0:0:0:0:
256,192,101569,1,8,0:0:0:0:
256,192,101689,1,0,0:0:0:0:
256,192,101809,1,4,0:0:0:0:
256,192,101929,1,0,0:0:0:0:
256,192,102049,1,12,0:0:0:0:
256,192,102169,1,8,0:0:0:0:
256,192,102289,1,0,0:0:0:0:
256,192,102409,1,12,0:0:0:0:
256,192,102529,1,0,0:0:0:0:
256,192,102649,1,8,0:0:0:0:
256,192,102709,1,0,0:0:0:0:
256,192,102769,1,0,0:0:0:0:
256,192,102829,1,0,0:0:0:0:
256,192,102889,1,8,0:0:0:0:
256,192,102949,1,0,0:0:0:0:
256,192,103009,1,8,0:0:0:0:
256,192,103069,1,8,0:0:0:0:
256,192,103129,1,0,0:0:0:0:
256,192,103249,1,4,0:0:0:0:
256,192,103369,1,0,0:0:0:0:
256,192,103489,1,8,0:0:0:0:
256,192,103729,1,0,0:0:0:0:
256,192,103849,1,0,0:0:0:0:
256,192,103969,1,8,0:0:0:0:
256,192,104029,1,0,0:0:0:0:
256,192,104089,1,8,0:0:0:0:
256,192,104149,1,8,0:0:0:0:
256,192,104209,1,0,0:0:0:0:
256,192,104329,1,0,0:0:0:0:
256,192,104449,1,8,0:0:0:0:
256,192,104569,1,0,0:0:0:0:
256,192,104689,1,8,0:0:0:0:
256,192,104749,1,0,0:0:0:0:
256,192,104809,1,8,0:0:0:0:
256,192,104869,1,0,0:0:0:0:
256,192,104929,1,8,0:0:0:0:
256,192,104989,1,8,0:0:0:0:
256,192,105049,1,0,0:0:0:0:
256,192,105109,1,8,0:0:0:0:
256,192,105169,1,0,0:0:0:0:
256,192,105289,1,8,0:0:0:0:
256,192,105409,1,0,0:0:0:0:
256,192,105529,1,0,0:0:0:0:
256,192,105649,1,8,0:0:0:0:
256,192,105769,1,0,0:0:0:0:
256,192,105889,1,8,0:0:0:0:
256,192,105949,1,0,0:0:0:0:
256,192,106009,1,8,0:0:0:0:
256,192,106069,1,8,0:0:0:0:
256,192,106129,1,8,0:0:0:0:
256,192,106249,1,4,0:0:0:0:
256,192,106369,1,8,0:0:0:0:
256,192,106489,1,0,0:0:0:0:
256,192,106609,1,8,0:0:0:0:
256,192,106669,1,8,0:0:0:0:
256,192,106729,1,0,0:0:0:0:
256,192,106789,1,8,0:0:0:0:
256,192,106849,1,0,0:0:0:0:
256,192,106909,1,8,0:0:0:0:
256,192,106969,1,0,0:0:0:0:
256,192,107089,1,8,0:0:0:0:
256,192,107209,1,0,0:0:0:0:
256,192,107329,1,0,0:0:0:0:
256,192,107569,1,4,0:0:0:0:
256,192,107689,1,0,0:0:0:0:
256,192,107809,1,12,0:0:0:0:
256,192,107929,1,0,0:0:0:0:
256,192,108049,1,12,0:0:0:0:
256,192,108169,1,12,0:0:0:0:
256,192,108289,1,0,0:0:0:0:
256,192,108409,1,0,0:0:0:0:
256,192,108529,1,8,0:0:0:0:
256,192,108649,1,0,0:0:0:0:
256,192,108769,1,0,0:0:0:0:
256,192,108889,1,8,0:0:0:0:
256,192,108949,1,0,0:0:0:0:
256,192,109009,1,0,0:0:0:0:
256,192,109129,1,8,0:0:0:0:
256,192,109249,1,0,0:0:0:0:
256,192,109489,1,4,0:0:0:0:
256,192,109729,1,12,0:0:0:0:
256,192,109849,1,12,0:0:0:0:
256,192,109969,1,8,0:0:0:0:
256,192,110029,1,8,0:0:0:0:
256,192,110089,1,0,0:0:0:0:
256,192,110209,1,4,0:0:0:0:
256,192,110329,1,4,0:0:0:0:
256,192,110449,1,8,0:0:0:0:
256,192,110569,1,0,0:0:0:0:
256,192,110689,1,8,0:0:0:0:
256,192,110749,1,0,0:0:0:0:
256,192,110809,1,0,0:0:0:0:
256,192,110869,1,0,0:0:0:0:
256,192,110929,1,8,0:0:0:0:
256,192,111049,1,8,0:0:0:0:
256,192,111169,1,0,0:0:0:0:
256,192,111409,1,4,0:0:0:0:
256,192,111529,1,0,0:0:0:0:
256,192,111649,1,12,0:0:0:0:
256,192,111769,1,0,0:0:0:0:
256,192,111889,1,12,0:0:0:0:
256,192,112009,1,0,0:0:0:0:
256,192,112069,1,8,0:0:0:0:
256,192,112129,1,0,0:0:0:0:
256,192,112249,1,12,0:0:0:0:
256,192,112369,1,8,0:0:0:0:
256,192,112429,1,8,0:0:0:0:
256,192,112489,1,0,0:0:0:0:
256,192,112549,1,0,0:0:0:0:
256,192,112609,1,0,0:0:0:0:
256,192,112669,1,0,0:0:0:0:
256,192,112729,1,8,0:0:0:0:
256,192,112789,1,0,0:0:0:0:
256,192,112849,1,8,0:0:0:0:
256,192,112969,1,0,0:0:0:0:
256,192,113089,1,8,0:0:0:0:
256,192,113209,1,0,0:0:0:0:
256,192,113329,1,12,0:0:0:0:
256,192,113449,1,0,0:0:0:0:
256,192,113569,1,0,0:0:0:0:
256,192,113689,1,8,0:0:0:0:
256,192,113749,1,8,0:0:0:0:
256,192,113809,1,8,0:0:0:0:
256,192,113869,1,8,0:0:0:0:
256,192,113929,1,0,0:0:0:0:
256,192,114049,1,8,0:0:0:0:
256,192,114169,1,0,0:0:0:0:
256,192,114289,1,0,0:0:0:0:
256,192,114349,1,8,0:0:0:0:
256,192,114409,1,0,0:0:0:0:
256,192,114469,1,8,0:0:0:0:
256,192,114529,1,0,0:0:0:0:
256,192,114589,1,8,0:0:0:0:
256,192,114649,1,0,0:0:0:0:
256,192,114709,1,8,0:0:0:0:
256,192,114769,1,0,0:0:0:0:
256,192,115249,1,4,0:0:0:0:
256,192,115369,1,8,0:0:0:0:
256,192,115429,1,0,0:0:0:0:
256,192,115489,1,0,0:0:0:0:
256,192,115549,1,0,0:0:0:0:
256,192,115609,1,8,0:0:0:0:
256,192,115669,1,0,0:0:0:0:
256,192,115729,1,8,0:0:0:0:
256,192,115849,1,0,0:0:0:0:
256,192,115969,1,8,0:0:0:0:
256,192,116089,1,0,0:0:0:0:
256,192,116209,1,8,0:0:0:0:
256,192,116269,1,8,0:0:0:0:
256,192,116329,1,8,0:0:0:0:
256,192,116389,1,0,0:0:0:0:
256,192,116449,1,0,0:0:0:0:
256,192,116509,1,0,0:0:0:0:
256,192,116569,1,0,0:0:0:0:
256,192,116629,1,0,0:0:0:0:
256,192,116689,1,8,0:0:0:0:
256,192,116809,1,0,0:0:0:0:
256,192,116929,1,8,0:0:0:0:
256,192,117049,1,0,0:0:0:0:
256,192,117169,1,4,0:0:0:0:
256,192,117289,1,0,0:0:0:0:
256,192,117409,1,12,0:0:0:0:
256,192,117529,1,8,0:0:0:0:
256,192,117649,1,0,0:0:0:0:
256,192,117769,1,12,0:0:0:0:
256,192,117889,1,0,0:0:0:0:
256,192,118009,1,8,0:0:0:0:
256,192,118069,1,0,0:0:0:0:
256,192,118129,1,0,0:0:0:0:
256,192,118189,1,0,0:0:0:0:
256,192,118249,1,8,0:0:0:0:
256,192,118309,1,0,0:0:0:0:
256,192,118369,1,8,0:0:0:0:
256,192,118429,1,8,0:0:0:0:
256,192,118489,1,0,0:0:0:0:
256,192,118609,1,4,0:0:0:0:
256,192,118729,1,0,0:0:0:0:
256,192,118849,1,8,0:0:0:0:
256,192,119089,1,0,0:0:0:0:
256,192,119209,1,0,0:0:0:0:
256,192,119329,1,8,0:0:0:0:
256,192,119389,1,8,0:0:0:0:
256,192,119449,1,0,0:0:0:0:
256,192,119509,1,0,0:0:0:0:
256,192,119569,1,8,0:0:0:0:
256,192,119689,1,0,0:0:0:0:
256,192,119809,1,8,0:0:0:0:
256,192,119929,1,0,0:0:0:0:
256,192,120049,1,8,0:0:0:0:
256,192,120109,1,0,0:0:0:0:
256,192,120169,1,8,0:0:0:0:
256,192,120229,1,0,0:0:0:0:
256,192,120289,1,8,0:0:0:0:
256,192,120349,1,8,0:0:0:0:
256,192,120409,1,0,0:0:0:0:
256,192,120469,1,8,0:0:0:0:
256,192,120529,1,0,0:0:0:0:
256,192,120649,1,8,0:0:0:0:
256,192,120769,1,0,0:0:0:0:
256,192,120889,1,0,0:0:0:0:
256,192,121009,1,8,0:0:0:0:
256,192,121129,1,0,0:0:0:0:
256,192,121249,1,8,0:0:0:0:
256,192,121309,1,0,0:0:0:0:
256,192,121369,1,8,0:0:0:0:
256,192,121429,1,8,0:0:0:0:
256,192,121489,1,8,0:0:0:0:
256,192,121609,1,4,0:0:0:0:
256,192,121729,1,8,0:0:0:0:
256,192,121849,1,0,0:0:0:0:
256,192,121969,1,8,0:0:0:0:
256,192,122029,1,0,0:0:0:0:
256,192,122089,1,8,0:0:0:0:
256,192,122149,1,0,0:0:0:0:
256,192,122209,1,8,0:0:0:0:
256,192,122269,1,0,0:0:0:0:
256,192,122329,1,8,0:0:0:0:
256,192,122389,1,0,0:0:0:0:
256,192,122449,1,0,0:0:0:0:
256,192,122929,1,0,0:0:0:0:
256,192,122959,1,8,0:0:0:0:
256,192,123049,1,0,0:0:0:0:
256,192,123169,1,0,0:0:0:0:
256,192,123289,1,0,0:0:0:0:
256,192,123409,1,8,0:0:0:0:
256,192,123489,1,0,0:0:0:0:
256,192,123569,1,8,0:0:0:0:
256,192,123649,1,0,0:0:0:0:
256,192,123769,1,0,0:0:0:0:
256,192,123889,1,8,0:0:0:0:
256,192,124009,1,0,0:0:0:0:
256,192,124129,1,0,0:0:0:0:
256,192,124249,1,0,0:0:0:0:
256,192,124369,1,8,0:0:0:0:
256,192,124429,1,0,0:0:0:0:
256,192,124489,1,8,0:0:0:0:
256,192,124549,1,8,0:0:0:0:
256,192,124609,1,0,0:0:0:0:
256,192,124729,1,8,0:0:0:0:
256,192,124849,1,0,0:0:0:0:
256,192,124969,1,0,0:0:0:0:
256,192,125029,1,0,0:0:0:0:
256,192,125089,1,8,0:0:0:0:
256,192,125209,1,0,0:0:0:0:
256,192,125329,1,0,0:0:0:0:
256,192,125449,1,8,0:0:0:0:
256,192,125489,1,8,0:0:0:0:
256,192,125529,1,8,0:0:0:0:
256,192,125569,1,0,0:0:0:0:
256,192,125689,1,8,0:0:0:0:
256,192,125809,1,0,0:0:0:0:
256,192,125869,1,0,0:0:0:0:
256,192,125929,1,12,0:0:0:0:
256,192,126049,1,12,0:0:0:0:
256,192,126169,1,12,0:0:0:0:
256,192,126289,1,0,0:0:0:0:
256,192,126529,1,8,0:0:0:0:
256,192,126649,1,0,0:0:0:0:
256,192,126769,1,4,0:0:0:0:
256,192,127009,1,4,0:0:0:0:
256,192,127129,1,4,0:0:0:0:
256,192,127249,1,8,0:0:0:0:
256,192,127309,1,8,0:0:0:0:
256,192,127369,1,8,0:0:0:0:
256,192,127429,1,0,0:0:0:0:
256,192,127609,1,8,0:0:0:0:
256,192,127729,1,0,0:0:0:0:
256,192,127789,1,8,0:0:0:0:
256,192,127849,1,0,0:0:0:0:
256,192,127909,1,0,0:0:0:0:
256,192,127969,1,8,0:0:0:0:
256,192,128029,1,0,0:0:0:0:
256,192,128089,1,8,0:0:0:0:
256,192,128149,1,8,0:0:0:0:
256,192,128209,1,8,0:0:0:0:
256,192,128269,1,8,0:0:0:0:
256,192,128329,1,0,0:0:0:0:
256,192,128449,1,8,0:0:0:0:
256,192,128689,1,0,0:0:0:0:
256,192,129169,1,4,0:0:0:0:
256,192,129289,1,0,0:0:0:0:
256,192,129349,1,0,0:0:0:0:
256,192,129409,1,0,0:0:0:0:
256,192,129529,1,0,0:0:0:0:
256,192,129649,1,12,0:0:0:0:
256,192,129769,1,0,0:0:0:0:
256,192,129889,1,8,0:0:0:0:
256,192,129949,1,0,0:0:0:0:
256,192,130009,1,8,0:0:0:0:
256,192,130069,1,0,0:0:0:0:
256,192,130129,1,8,0:0:0:0:
256,192,130249,1,0,0:0:0:0:
256,192,130309,1,0,0:0:0:0:
256,192,130369,1,0,0:0:0:0:
256,192,130429,1,8,0:0:0:0:
256,192,130489,1,0,0:0:0:0:
256,192,130609,1,8,0:0:0:0:
256,192,130729,1,0,0:0:0:0:
256,192,130789,1,0,0:0:0:0:
256,192,130849,1,0,0:0:0:0:
256,192,130969,1,0,0:0:0:0:
256,192,131089,1,12,0:0:0:0:
256,192,131209,1,0,0:0:0:0:
256,192,131269,1,0,0:0:0:0:
256,192,131329,1,0,0:0:0:0:
256,192,131449,1,0,0:0:0:0:
256,192,131569,1,12,0:0:0:0:
256,192,131689,1,12,0:0:0:0:
256,192,131809,1,12,0:0:0:0:
256,192,131929,1,12,0:0:0:0:
256,192,132049,1,0,0:0:0:0:
256,192,132109,1,0,0:0:0:0:
256,192,132169,1,8,0:0:0:0:
256,192,132229,1,0,0:0:0:0:
256,192,132289,1,8,0:0:0:0:
256,192,132409,1,8,0:0:0:0:
256,192,132529,1,0,0:0:0:0:
256,192,132769,1,4,0:0:0:0:
256,192,132889,1,4,0:0:0:0:
256,192,133009,1,12,0:0:0:0:
256,192,133129,1,12,0:0:0:0:
256,192,133249,1,0,0:0:0:0:
256,192,133369,1,0,0:0:0:0:
256,192,133489,1,8,0:0:0:0:
256,192,133549,1,0,0:0:0:0:
256,192,133609,1,0,0:0:0:0:
256,192,133729,1,0,0:0:0:0:
256,192,133969,1,0,0:0:0:0:
256,192,134009,1,0,0:0:0:0:
256,192,134049,1,0,0:0:0:0:
256,192,134089,1,8,0:0:0:0:
256,192,134209,1,0,0:0:0:0:
256,192,134329,1,8,0:0:0:0:
256,192,134449,1,8,0:0:0:0:
256,192,134509,1,8,0:0:0:0:
256,192,134569,1,8,0:0:0:0:
256,192,134689,1,0,0:0:0:0:
256,192,134809,1,0,0:0:0:0:
256,192,134929,1,8,0:0:0:0:
256,192,134989,1,8,0:0:0:0:
256,192,135049,1,8,0:0:0:0:
256,192,135109,1,0,0:0:0:0:
256,192,135289,1,0,0:0:0:0:
256,192,135409,1,0,0:0:0:0:
256,192,135529,1,8,0:0:0:0:
256,192,135649,1,0,0:0:0:0:
256,192,135769,1,0,0:0:0:0:
256,192,135889,1,8,0:0:0:0:
256,192,135949,1,8,0:0:0:0:
256,192,136009,1,0,0:0:0:0:
256,192,136069,1,8,0:0:0:0:
256,192,136129,1,0,0:0:0:0:
256,192,136249,1,8,0:0:0:0:
256,192,136369,1,0,0:0:0:0:
256,192,136489,1,4,0:0:0:0:
256,192,136609,1,4,0:0:0:0:
256,192,136729,1,4,0:0:0:0:
256,192,136849,1,12,0:0:0:0:
256,192,137089,1,0,0:0:0:0:
256,192,137149,1,0,0:0:0:0:
256,192,137209,1,8,0:0:0:0:
256,192,137329,1,0,0:0:0:0:
256,192,137389,1,8,0:0:0:0:
256,192,137449,1,8,0:0:0:0:
256,192,137509,1,0,0:0:0:0:
256,192,137569,1,0,0:0:0:0:
256,192,137809,1,8,0:0:0:0:
256,192,137929,1,8,0:0:0:0:
256,192,138049,1,8,0:0:0:0:
256,192,138169,1,8,0:0:0:0:
256,192,138289,1,0,0:0:0:0:
256,192,138409,1,0,0:0:0:0:
256,192,138529,1,8,0:0:0:0:
256,192,138649,1,0,0:0:0:0:
256,192,138769,1,8,0:0:0:0:
256,192,138829,1,8,0:0:0:0:
256,192,138889,1,0,0:0:0:0:
256,192,138949,1,0,0:0:0:0:
256,192,139009,1,0,0:0:0:0:
256,192,139129,1,0,0:0:0:0:
256,192,139249,1,8,0:0:0:0:
256,192,139309,1,8,0:0:0:0:
256,192,139369,1,0,0:0:0:0:
256,192,139429,1,8,0:0:0:0:
256,192,139489,1,0,0:0:0:0:
256,192,139549,1,8,0:0:0:0:
256,192,139609,1,8,0:0:0:0:
256,192,139729,1,0,0:0:0:0:
256,192,139789,1,0,0:0:0:0:
256,192,139849,1,8,0:0:0:0:
256,192,139909,1,0,0:0:0:0:
256,192,139969,1,8,0:0:0:0:
256,192,140009,1,8,0:0:0:0:
256,192,140049,1,8,0:0:0:0:
256,192,140089,1,8,0:0:0:0:
256,192,140449,1,0,0:0:0:0:
256,192,140569,1,8,0:0:0:0:
256,192,140689,1,8,0:0:0:0:
256,192,140809,1,8,0:0:0:0:
256,192,140929,1,0,0:0:0:0:
256,192,141049,1,8,0:0:0:0:
256,192,141289,1,8,0:0:0:0:
256,192,141409,1,8,0:0:0:0:
256,192,141529,1,8,0:0:0:0:
256,192,141649,1,0,0:0:0:0:
256,192,141729,1,0,0:0:0:0:
256,192,141809,1,0,0:0:0:0:
256,192,141889,1,0,0:0:0:0:
256,192,141969,1,8,0:0:0:0:
256,192,142129,1,0,0:0:0:0:
256,192,142489,1,0,0:0:0:0:
256,192,142609,1,8,0:0:0:0:
256,192,142669,1,8,0:0:0:0:
256,192,142729,1,8,0:0:0:0:
256,192,142789,1,0,0:0:0:0:
256,192,143089,1,0,0:0:0:0:
256,192,143329,1,0,0:0:0:0:
256,192,143569,1,8,0:0:0:0:
256,192,143689,1,8,0:0:0:0:
256,192,143749,1,8,0:0:0:0:
256,192,143809,1,0,0:0:0:0:
256,192,143929,1,8,0:0:0:0:
256,192,144049,1,4,0:0:0:0:
256,192,144529,1,4,0:0:0:0:
256,192,144649,1,0,0:0:0:0:
256,192,144709,1,0,0:0:0:0:
256,192,144769,1,0,0:0:0:0:
256,192,144889,1,0,0:0:0:0:
256,192,145009,1,12,0:0:0:0:
256,192,145249,1,8,0:0:0:0:
256,192,145309,1,0,0:0:0:0:
256,192,145369,1,8,0:0:0:0:
256,192,145429,1,0,0:0:0:0:
256,192,145489,1,0,0:0:0:0:
256,192,145609,1,8,0:0:0:0:
256,192,145729,1,0,0:0:0:0:
256,192,145969,1,0,0:0:0:0:
256,192,146209,1,0,0:0:0:0:
256,192,146449,1,8,0:0:0:0:
256,192,146509,1,0,0:0:0:0:
256,192,146569,1,8,0:0:0:0:
256,192,146629,1,8,0:0:0:0:
256,192,146689,1,0,0:0:0:0:
256,192,146809,1,0,0:0:0:0:
256,192,146929,1,8,0:0:0:0:
256,192,146969,1,8,0:0:0:0:
256,192,147009,1,8,0:0:0:0:
256,192,147169,1,0,0:0:0:0:
256,192,147409,1,8,0:0:0:0:
256,192,147529,1,0,0:0:0:0:
256,192,147589,1,8,0:0:0:0:
256,192,147649,1,8,0:0:0:0:
256,192,147769,1,0,0:0:0:0:
256,192,147889,1,8,0:0:0:0:
256,192,148129,1,4,0:0:0:0:
256,192,148249,1,4,0:0:0:0:
256,192,148369,1,0,0:0:0:0:
256,192,148489,1,12,0:0:0:0:
256,192,148609,1,0,0:0:0:0:
256,192,148729,1,0,0:0:0:0:
256,192,148849,1,8,0:0:0:0:
256,192,148909,1,0,0:0:0:0:
256,192,148969,1,8,0:0:0:0:
256,192,149089,1,8,0:0:0:0:
256,192,149209,1,8,0:0:0:0:
256,192,149329,1,8,0:0:0:0:
256,192,149449,1,8,0:0:0:0:
256,192,149569,1,0,0:0:0:0:
256,192,149809,1,0,0:0:0:0:
256,192,149929,1,0,0:0:0:0:
256,192,150049,1,12,0:0:0:0:
256,192,150169,1,12,0:0:0:0:
256,192,150289,1,0,0:0:0:0:
256,192,150409,1,12,0:0:0:0:
256,192,150529,1,12,0:0:0:0:
256,192,150649,1,12,0:0:0:0:
256,192,150769,1,8,0:0:0:0:
256,192,150829,1,8,0:0:0:0:
256,192,150889,1,8,0:0:0:0:
256,192,150949,1,8,0:0:0:0:
256,192,151009,1,8,0:0:0:0:
256,192,151069,1,8,0:0:0:0:
256,192,151129,1,8,0:0:0:0:
256,192,151249,1,0,0:0:0:0:
256,192,151369,1,8,0:0:0:0:
256,192,151489,1,0,0:0:0:0:
256,192,151609,1,0,0:0:0:0:
256,192,151729,1,8,0:0:0:0:
256,192,151769,1,8,0:0:0:0:
256,192,151809,1,8,0:0:0:0:
256,192,151849,1,0,0:0:0:0:
256,192,151969,1,0,0:0:0:0:
256,192,152089,1,8,0:0:0:0:
256,192,152209,1,0,0:0:0:0:
256,192,152449,1,8,0:0:0:0:
256,192,152569,1,8,0:0:0:0:
256,192,152689,12,0,153649,0:0:0:0:
