osu file format v14

[General]
AudioFilename: audio.mp3
AudioLeadIn: 0
PreviewTime: 37326
Countdown: 0
SampleSet: Normal
StackLeniency: 0.7
Mode: 3
LetterboxInBreaks: 0
SpecialStyle: 0
WidescreenStoryboard: 1

[Editor]
Bookmarks: 25326,37713,50100,62487,74874,87261,99648,102616,112035,118229,124422,136810,143003
DistanceSpacing: 0.8
BeatDivisor: 4
GridSize: 8
TimelineZoom: 2.2

[Metadata]
Title:Trrricksters!!
TitleUnicode:Trrricksters!!
Artist:s-don vs. Hino Isuka
ArtistUnicode:s-don vs. 翡乃イスカ
Creator:Raveille
Version:Expert!!
Source:CHUNITHM CRYSTAL
Tags:electronic instrumental bouncy techno チュウニズム 音源 sega cytus ii 2 rayark ep. III episode 3 zenza of performai respect V 5 neowiz groove coaster soft6 soft 6 spring time ffa tournament ro16 round of 16 hybrid hb ln long notes maimai でらっくす FESTiVAL DX Deluxe
BeatmapID:3894611
BeatmapSetID:1711751

[Difficulty]
HPDrainRate:7.7
CircleSize:4
OverallDifficulty:7.5
ApproachRate:5
SliderMultiplier:1.4
SliderTickRate:1

[Events]
//Background and Video events
0,0,"trrrrr.jpg",0,0
//Break Periods
//Storyboard Layer 0 (Background)
//Storyboard Layer 1 (Fail)
//Storyboard Layer 2 (Pass)
//Storyboard Layer 3 (Foreground)
//Storyboard Layer 4 (Overlay)
//Storyboard Sound Samples

[TimingPoints]
261,387.096774193548,4,1,1,44,1,0
37422,-100,4,1,1,44,0,1
49809,-100,4,1,1,44,0,0
117938,-100,4,1,1,44,0,1
136519,-100,4,1,1,44,0,0

[HitObjects]
64,192,261,128,0,648:0:0:0:0:
448,192,261,1,0,0:0:0:0:
448,192,454,1,0,0:0:0:0:
448,192,648,1,0,0:0:0:0:
320,192,744,1,0,0:0:0:0:
192,192,841,1,0,0:0:0:0:
64,192,938,1,0,0:0:0:0:
192,192,1035,1,0,0:0:0:0:
320,192,1131,128,0,1325:0:0:0:0:
192,192,1325,128,0,1422:0:0:0:0:
448,192,1422,1,0,0:0:0:0:
320,192,1519,1,0,0:0:0:0:
64,192,1615,1,0,0:0:0:0:
192,192,1712,1,0,0:0:0:0:
448,192,1809,128,0,2002:0:0:0:0:
64,192,2002,128,0,2196:0:0:0:0:
320,192,2196,128,0,2390:0:0:0:0:
192,192,2390,128,0,2583:0:0:0:0:
448,192,2583,128,0,2777:0:0:0:0:
320,192,2777,1,0,0:0:0:0:
192,192,2777,1,0,0:0:0:0:
64,192,3067,1,0,0:0:0:0:
320,192,3067,1,0,0:0:0:0:
64,192,3357,1,0,0:0:0:0:
448,192,3357,128,0,3744:0:0:0:0:
64,192,3551,1,0,0:0:0:0:
64,192,3744,1,0,0:0:0:0:
192,192,3841,1,0,0:0:0:0:
320,192,3938,1,0,0:0:0:0:
448,192,3938,1,0,0:0:0:0:
192,192,4035,1,0,0:0:0:0:
448,192,4131,1,0,0:0:0:0:
64,192,4131,1,0,0:0:0:0:
320,192,4228,128,0,4325:0:0:0:0:
192,192,4422,128,0,4615:0:0:0:0:
448,192,4615,1,0,0:0:0:0:
320,192,4712,1,0,0:0:0:0:
192,192,4809,1,0,0:0:0:0:
320,192,4906,1,0,0:0:0:0:
448,192,4906,1,0,0:0:0:0:
64,192,5002,1,0,0:0:0:0:
192,192,5099,1,0,0:0:0:0:
320,192,5099,1,0,0:0:0:0:
448,192,5196,1,0,0:0:0:0:
192,192,5293,1,0,0:0:0:0:
64,192,5293,1,0,0:0:0:0:
64,192,5486,1,0,0:0:0:0:
192,192,5486,1,0,0:0:0:0:
320,192,5583,1,0,0:0:0:0:
448,192,5680,1,0,0:0:0:0:
64,192,5680,1,0,0:0:0:0:
192,192,5777,1,0,0:0:0:0:
320,192,5873,1,0,0:0:0:0:
448,192,5873,1,0,0:0:0:0:
448,192,6067,1,0,0:0:0:0:
192,192,6067,128,0,6260:0:0:0:0:
320,192,6260,1,0,0:0:0:0:
64,192,6454,128,0,6841:0:0:0:0:
448,192,6454,1,0,0:0:0:0:
448,192,6648,1,0,0:0:0:0:
448,192,6841,1,0,0:0:0:0:
320,192,6841,1,0,0:0:0:0:
192,192,6938,1,0,0:0:0:0:
320,192,7035,1,0,0:0:0:0:
192,192,7131,1,0,0:0:0:0:
64,192,7228,1,0,0:0:0:0:
448,192,7228,1,0,0:0:0:0:
320,192,7325,128,0,7422:0:0:0:0:
192,192,7519,128,0,7615:0:0:0:0:
64,192,7615,1,0,0:0:0:0:
448,192,7615,1,0,0:0:0:0:
320,192,7712,1,0,0:0:0:0:
192,192,7809,1,0,0:0:0:0:
64,192,7906,1,0,0:0:0:0:
448,192,8002,1,0,0:0:0:0:
320,192,8002,1,0,0:0:0:0:
192,192,8196,1,0,0:0:0:0:
448,192,8196,1,0,0:0:0:0:
192,192,8390,1,0,0:0:0:0:
64,192,8390,1,0,0:0:0:0:
64,192,8583,1,0,0:0:0:0:
320,192,8583,1,0,0:0:0:0:
320,192,8777,1,0,0:0:0:0:
448,192,8777,1,0,0:0:0:0:
64,192,8970,1,0,0:0:0:0:
448,192,8970,1,0,0:0:0:0:
192,192,9164,1,0,0:0:0:0:
64,192,9164,1,0,0:0:0:0:
448,192,9260,1,0,0:0:0:0:
320,192,9260,128,0,9551:0:0:0:0:
448,192,9551,128,0,9938:0:0:0:0:
64,192,9551,1,0,0:0:0:0:
64,192,9744,1,0,0:0:0:0:
64,192,9938,1,0,0:0:0:0:
192,192,9938,1,0,0:0:0:0:
320,192,10035,1,0,0:0:0:0:
192,192,10131,1,0,0:0:0:0:
320,192,10228,1,0,0:0:0:0:
64,192,10325,1,0,0:0:0:0:
448,192,10325,1,0,0:0:0:0:
192,192,10422,128,0,10615:0:0:0:0:
320,192,10615,128,0,10712:0:0:0:0:
64,192,10712,1,0,0:0:0:0:
448,192,10712,1,0,0:0:0:0:
192,192,10809,1,0,0:0:0:0:
320,192,10906,1,0,0:0:0:0:
448,192,11002,1,0,0:0:0:0:
64,192,11099,1,0,0:0:0:0:
320,192,11196,1,0,0:0:0:0:
64,192,11293,1,0,0:0:0:0:
448,192,11486,1,0,0:0:0:0:
192,192,11583,1,0,0:0:0:0:
448,192,11680,1,0,0:0:0:0:
448,192,11873,1,0,0:0:0:0:
320,192,11970,1,0,0:0:0:0:
192,192,12067,1,0,0:0:0:0:
64,192,12164,1,0,0:0:0:0:
448,192,12260,128,0,12454:0:0:0:0:
320,192,12260,1,0,0:0:0:0:
64,192,12454,1,0,0:0:0:0:
192,192,12551,1,0,0:0:0:0:
64,192,12648,1,0,0:0:0:0:
320,192,12648,1,0,0:0:0:0:
192,192,12841,1,0,0:0:0:0:
64,192,13035,1,0,0:0:0:0:
320,192,13035,1,0,0:0:0:0:
192,192,13131,1,0,0:0:0:0:
192,192,13325,1,0,0:0:0:0:
320,192,13422,1,0,0:0:0:0:
64,192,13422,1,0,0:0:0:0:
192,192,13519,1,0,0:0:0:0:
448,192,13615,1,0,0:0:0:0:
192,192,13712,1,0,0:0:0:0:
64,192,13809,1,0,0:0:0:0:
320,192,13809,1,0,0:0:0:0:
448,192,13906,1,0,0:0:0:0:
320,192,14002,1,0,0:0:0:0:
192,192,14099,1,0,0:0:0:0:
448,192,14196,1,0,0:0:0:0:
192,192,14196,1,0,0:0:0:0:
320,192,14390,1,0,0:0:0:0:
448,192,14583,1,0,0:0:0:0:
192,192,14583,1,0,0:0:0:0:
320,192,14680,1,0,0:0:0:0:
320,192,14873,1,0,0:0:0:0:
192,192,14970,1,0,0:0:0:0:
448,192,14970,1,0,0:0:0:0:
320,192,15067,1,0,0:0:0:0:
64,192,15164,1,0,0:0:0:0:
320,192,15260,1,0,0:0:0:0:
448,192,15357,1,0,0:0:0:0:
192,192,15357,1,0,0:0:0:0:
64,192,15454,1,0,0:0:0:0:
448,192,15551,1,0,0:0:0:0:
320,192,15648,1,0,0:0:0:0:
320,192,15744,1,0,0:0:0:0:
64,192,15744,1,0,0:0:0:0:
192,192,15938,1,0,0:0:0:0:
320,192,16131,1,0,0:0:0:0:
64,192,16131,1,0,0:0:0:0:
192,192,16228,1,0,0:0:0:0:
192,192,16422,1,0,0:0:0:0:
64,192,16519,1,0,0:0:0:0:
320,192,16519,1,0,0:0:0:0:
192,192,16615,1,0,0:0:0:0:
448,192,16712,1,0,0:0:0:0:
192,192,16809,1,0,0:0:0:0:
320,192,16906,1,0,0:0:0:0:
64,192,16906,1,0,0:0:0:0:
448,192,17002,1,0,0:0:0:0:
192,192,17099,1,0,0:0:0:0:
64,192,17196,1,0,0:0:0:0:
448,192,17293,1,0,0:0:0:0:
320,192,17293,1,0,0:0:0:0:
320,192,17486,1,0,0:0:0:0:
192,192,17680,1,0,0:0:0:0:
64,192,17680,1,0,0:0:0:0:
320,192,17777,1,0,0:0:0:0:
320,192,17970,1,0,0:0:0:0:
192,192,18067,1,0,0:0:0:0:
448,192,18067,1,0,0:0:0:0:
64,192,18164,1,0,0:0:0:0:
192,192,18260,1,0,0:0:0:0:
320,192,18357,1,0,0:0:0:0:
448,192,18454,128,0,18841:0:0:0:0:
64,192,18551,1,0,0:0:0:0:
64,192,18841,1,0,0:0:0:0:
192,192,18841,1,0,0:0:0:0:
320,192,19035,1,0,0:0:0:0:
64,192,19228,1,0,0:0:0:0:
320,192,19228,1,0,0:0:0:0:
192,192,19325,1,0,0:0:0:0:
192,192,19519,1,0,0:0:0:0:
448,192,19615,1,0,0:0:0:0:
320,192,19615,1,0,0:0:0:0:
64,192,19712,1,0,0:0:0:0:
192,192,19809,1,0,0:0:0:0:
448,192,20002,1,0,0:0:0:0:
192,192,20002,1,0,0:0:0:0:
320,192,20099,1,0,0:0:0:0:
320,192,20293,1,0,0:0:0:0:
192,192,20390,1,0,0:0:0:0:
448,192,20390,1,0,0:0:0:0:
64,192,20486,1,0,0:0:0:0:
320,192,20583,1,0,0:0:0:0:
192,192,20680,1,0,0:0:0:0:
64,192,20777,1,0,0:0:0:0:
448,192,20777,1,0,0:0:0:0:
320,192,20873,1,0,0:0:0:0:
192,192,20970,1,0,0:0:0:0:
320,192,21067,1,0,0:0:0:0:
64,192,21164,1,0,0:0:0:0:
192,192,21164,1,0,0:0:0:0:
448,192,21260,1,0,0:0:0:0:
192,192,21357,1,0,0:0:0:0:
64,192,21357,1,0,0:0:0:0:
448,192,21454,1,0,0:0:0:0:
320,192,21551,1,0,0:0:0:0:
192,192,21551,1,0,0:0:0:0:
64,192,21648,1,0,0:0:0:0:
192,192,21744,1,0,0:0:0:0:
320,192,21744,1,0,0:0:0:0:
448,192,21841,1,0,0:0:0:0:
320,192,21938,128,0,22131:0:0:0:0:
64,192,22131,128,0,22325:0:0:0:0:
448,192,22325,128,0,22519:0:0:0:0:
192,192,22519,128,0,22712:0:0:0:0:
320,192,22712,128,0,23099:0:0:0:0:
192,192,23099,128,0,23486:0:0:0:0:
64,192,23486,1,0,0:0:0:0:
320,192,23486,1,0,0:0:0:0:
192,192,23873,1,0,0:0:0:0:
448,192,23873,1,0,0:0:0:0:
192,192,24260,1,0,0:0:0:0:
320,192,24260,1,0,0:0:0:0:
192,192,24454,1,0,0:0:0:0:
64,192,24648,128,0,25035:0:0:0:0:
448,192,24648,128,0,25035:0:0:0:0:
320,192,25035,1,0,0:0:0:0:
192,192,25131,1,0,0:0:0:0:
320,192,25228,1,0,0:0:0:0:
192,192,25325,1,0,0:0:0:0:
448,192,25422,1,0,0:0:0:0:
64,192,25519,1,0,0:0:0:0:
448,192,25615,1,0,0:0:0:0:
64,192,25712,1,0,0:0:0:0:
192,192,25809,128,0,25906:0:0:0:0:
320,192,25906,128,0,26002:0:0:0:0:
448,192,26002,128,0,26099:0:0:0:0:
64,192,26099,128,0,26196:0:0:0:0:
448,192,26196,1,0,0:0:0:0:
192,192,26293,1,0,0:0:0:0:
448,192,26390,1,0,0:0:0:0:
192,192,26486,1,0,0:0:0:0:
64,192,26583,1,0,0:0:0:0:
320,192,26583,128,0,26970:0:0:0:0:
64,192,26777,1,0,0:0:0:0:
192,192,26970,1,0,0:0:0:0:
448,192,26970,1,0,0:0:0:0:
320,192,27260,1,0,0:0:0:0:
64,192,27260,1,0,0:0:0:0:
64,192,27551,1,0,0:0:0:0:
192,192,27551,1,0,0:0:0:0:
320,192,27744,128,0,27841:0:0:0:0:
448,192,27841,128,0,27938:0:0:0:0:
64,192,27938,128,0,28035:0:0:0:0:
192,192,28035,128,0,28131:0:0:0:0:
64,192,28131,128,0,28325:0:0:0:0:
320,192,28131,1,0,0:0:0:0:
320,192,28325,128,0,28519:0:0:0:0:
448,192,28325,1,0,0:0:0:0:
64,192,28519,1,0,0:0:0:0:
64,192,28712,1,0,0:0:0:0:
448,192,28906,128,0,29099:0:0:0:0:
192,192,29099,128,0,29293:0:0:0:0:
448,192,29293,1,0,0:0:0:0:
64,192,29390,1,0,0:0:0:0:
448,192,29486,1,0,0:0:0:0:
320,192,29583,1,0,0:0:0:0:
192,192,29680,1,0,0:0:0:0:
64,192,29680,1,0,0:0:0:0:
320,192,29970,1,0,0:0:0:0:
448,192,29970,1,0,0:0:0:0:
64,192,30260,1,0,0:0:0:0:
448,192,30260,1,0,0:0:0:0:
320,192,30551,128,0,30648:0:0:0:0:
192,192,30648,128,0,30744:0:0:0:0:
320,192,30744,128,0,30841:0:0:0:0:
64,192,30841,128,0,31035:0:0:0:0:
448,192,31035,128,0,31228:0:0:0:0:
64,192,31228,128,0,31325:0:0:0:0:
448,192,31422,128,0,31519:0:0:0:0:
320,192,31615,128,0,31712:0:0:0:0:
64,192,31712,128,0,31809:0:0:0:0:
320,192,31809,128,0,31906:0:0:0:0:
64,192,31906,128,0,32002:0:0:0:0:
448,192,32002,128,0,32390:0:0:0:0:
320,192,32002,1,0,0:0:0:0:
64,192,32390,128,0,32777:0:0:0:0:
192,192,32390,1,0,0:0:0:0:
320,192,32777,1,0,0:0:0:0:
448,192,32777,1,0,0:0:0:0:
320,192,32970,1,0,0:0:0:0:
320,192,33067,1,0,0:0:0:0:
192,192,33164,1,0,0:0:0:0:
192,192,33260,1,0,0:0:0:0:
320,192,33357,1,0,0:0:0:0:
320,192,33454,1,0,0:0:0:0:
64,192,33551,128,0,33744:0:0:0:0:
192,192,33551,1,0,0:0:0:0:
448,192,33744,128,0,33938:0:0:0:0:
320,192,33744,1,0,0:0:0:0:
192,192,33938,128,0,34035:0:0:0:0:
320,192,34131,128,0,34228:0:0:0:0:
64,192,34325,128,0,34712:0:0:0:0:
448,192,34422,1,0,0:0:0:0:
448,192,34615,1,0,0:0:0:0:
192,192,34712,1,0,0:0:0:0:
192,192,34906,1,0,0:0:0:0:
448,192,35002,1,0,0:0:0:0:
64,192,35099,1,0,0:0:0:0:
320,192,35196,1,0,0:0:0:0:
64,192,35293,1,0,0:0:0:0:
320,192,35390,1,0,0:0:0:0:
192,192,35486,128,0,35680:0:0:0:0:
320,192,35680,128,0,35873:0:0:0:0:
64,192,35873,1,0,0:0:0:0:
192,192,35970,1,0,0:0:0:0:
320,192,36067,1,0,0:0:0:0:
448,192,36164,1,0,0:0:0:0:
64,192,36260,128,0,36454:0:0:0:0:
192,192,36454,1,0,0:0:0:0:
320,192,36648,128,0,36841:0:0:0:0:
448,192,36841,1,0,0:0:0:0:
192,192,36938,1,0,0:0:0:0:
64,192,37035,128,0,37131:0:0:0:0:
192,192,37131,128,0,37228:0:0:0:0:
320,192,37228,128,0,37325:0:0:0:0:
448,192,37325,128,0,37422:0:0:0:0:
64,192,37422,128,0,37809:0:0:0:0:
192,192,37422,1,0,0:0:0:0:
320,192,37519,1,0,0:0:0:0:
448,192,37615,1,0,0:0:0:0:
192,192,37809,128,0,38196:0:0:0:0:
448,192,37809,1,0,0:0:0:0:
320,192,37906,1,0,0:0:0:0:
64,192,38002,1,0,0:0:0:0:
320,192,38196,128,0,38583:0:0:0:0:
448,192,38196,1,0,0:0:0:0:
192,192,38293,1,0,0:0:0:0:
64,192,38390,1,0,0:0:0:0:
448,192,38583,128,0,38970:0:0:0:0:
64,192,38583,1,0,0:0:0:0:
192,192,38680,1,0,0:0:0:0:
320,192,38777,1,0,0:0:0:0:
192,192,38970,1,0,0:0:0:0:
64,192,38970,128,0,39357:0:0:0:0:
320,192,39067,1,0,0:0:0:0:
448,192,39164,1,0,0:0:0:0:
448,192,39357,1,0,0:0:0:0:
192,192,39357,128,0,39744:0:0:0:0:
320,192,39454,1,0,0:0:0:0:
64,192,39551,1,0,0:0:0:0:
320,192,39744,128,0,40131:0:0:0:0:
448,192,39744,1,0,0:0:0:0:
192,192,39841,1,0,0:0:0:0:
64,192,39938,1,0,0:0:0:0:
64,192,40131,1,0,0:0:0:0:
448,192,40131,128,0,40519:0:0:0:0:
192,192,40228,1,0,0:0:0:0:
320,192,40325,1,0,0:0:0:0:
192,192,40519,1,0,0:0:0:0:
64,192,40519,128,0,40615:0:0:0:0:
320,192,40615,128,0,40712:0:0:0:0:
64,192,40712,128,0,40809:0:0:0:0:
320,192,40809,128,0,40906:0:0:0:0:
192,192,40906,128,0,41099:0:0:0:0:
448,192,40906,1,0,0:0:0:0:
320,192,41099,128,0,41196:0:0:0:0:
64,192,41196,128,0,41293:0:0:0:0:
320,192,41293,128,0,41390:0:0:0:0:
448,192,41293,1,0,0:0:0:0:
64,192,41390,128,0,41486:0:0:0:0:
320,192,41486,128,0,41680:0:0:0:0:
448,192,41680,128,0,41777:0:0:0:0:
320,192,41777,128,0,41873:0:0:0:0:
192,192,41873,128,0,41970:0:0:0:0:
64,192,41970,128,0,42067:0:0:0:0:
320,192,42067,1,0,0:0:0:0:
448,192,42067,1,0,0:0:0:0:
192,192,42260,1,0,0:0:0:0:
64,192,42260,1,0,0:0:0:0:
320,192,42454,1,0,0:0:0:0:
448,192,42454,1,0,0:0:0:0:
192,192,42551,1,0,0:0:0:0:
64,192,42551,1,0,0:0:0:0:
320,192,42744,1,0,0:0:0:0:
448,192,42744,1,0,0:0:0:0:
64,192,43035,128,0,43422:0:0:0:0:
448,192,43035,128,0,43422:0:0:0:0:
320,192,43422,1,0,0:0:0:0:
192,192,43519,1,0,0:0:0:0:
320,192,43615,1,0,0:0:0:0:
448,192,43615,128,0,44002:0:0:0:0:
192,192,43712,1,0,0:0:0:0:
64,192,43809,1,0,0:0:0:0:
64,192,44002,1,0,0:0:0:0:
320,192,44002,128,0,44390:0:0:0:0:
192,192,44099,1,0,0:0:0:0:
448,192,44196,1,0,0:0:0:0:
192,192,44390,128,0,44777:0:0:0:0:
64,192,44390,128,0,44486:0:0:0:0:
320,192,44486,128,0,44583:0:0:0:0:
448,192,44583,128,0,44680:0:0:0:0:
64,192,44777,128,0,45164:0:0:0:0:
448,192,44777,128,0,44873:0:0:0:0:
320,192,44873,128,0,44970:0:0:0:0:
192,192,44970,128,0,45067:0:0:0:0:
448,192,45164,128,0,45551:0:0:0:0:
320,192,45164,128,0,45260:0:0:0:0:
192,192,45260,128,0,45357:0:0:0:0:
64,192,45357,128,0,45454:0:0:0:0:
320,192,45551,128,0,45938:0:0:0:0:
64,192,45551,128,0,45648:0:0:0:0:
192,192,45648,128,0,45744:0:0:0:0:
448,192,45744,128,0,45841:0:0:0:0:
192,192,45938,128,0,46325:0:0:0:0:
64,192,45938,128,0,46035:0:0:0:0:
320,192,46035,128,0,46131:0:0:0:0:
448,192,46131,128,0,46228:0:0:0:0:
64,192,46325,128,0,46712:0:0:0:0:
448,192,46325,128,0,46422:0:0:0:0:
320,192,46422,128,0,46519:0:0:0:0:
192,192,46519,128,0,46615:0:0:0:0:
448,192,46712,128,0,47099:0:0:0:0:
192,192,47099,1,0,0:0:0:0:
64,192,47099,1,0,0:0:0:0:
320,192,47196,1,0,0:0:0:0:
448,192,47196,1,0,0:0:0:0:
192,192,47390,1,0,0:0:0:0:
64,192,47390,1,0,0:0:0:0:
320,192,47583,1,0,0:0:0:0:
448,192,47583,1,0,0:0:0:0:
192,192,47777,1,0,0:0:0:0:
64,192,47777,1,0,0:0:0:0:
320,192,47873,1,0,0:0:0:0:
448,192,47873,128,0,48067:0:0:0:0:
64,192,48067,128,0,48260:0:0:0:0:
320,192,48260,128,0,48357:0:0:0:0:
192,192,48454,128,0,48551:0:0:0:0:
448,192,48648,1,0,0:0:0:0:
64,192,48744,1,0,0:0:0:0:
320,192,48841,1,0,0:0:0:0:
192,192,48938,1,0,0:0:0:0:
448,192,49035,1,0,0:0:0:0:
320,192,49131,1,0,0:0:0:0:
192,192,49228,1,0,0:0:0:0:
64,192,49325,1,0,0:0:0:0:
320,192,49422,1,0,0:0:0:0:
320,192,49519,1,0,0:0:0:0:
192,192,49615,1,0,0:0:0:0:
192,192,49712,1,0,0:0:0:0:
64,192,49809,1,0,0:0:0:0:
448,192,49809,128,0,50002:0:0:0:0:
320,192,50002,1,0,0:0:0:0:
64,192,50196,128,0,50390:0:0:0:0:
448,192,50196,1,0,0:0:0:0:
192,192,50390,1,0,0:0:0:0:
192,192,50486,1,0,0:0:0:0:
448,192,50583,1,0,0:0:0:0:
64,192,50583,1,0,0:0:0:0:
320,192,50680,1,0,0:0:0:0:
192,192,50777,1,0,0:0:0:0:
64,192,50873,1,0,0:0:0:0:
448,192,50970,128,0,51164:0:0:0:0:
320,192,50970,1,0,0:0:0:0:
192,192,51164,128,0,51357:0:0:0:0:
448,192,51357,1,0,0:0:0:0:
64,192,51357,128,0,51551:0:0:0:0:
192,192,51551,1,0,0:0:0:0:
448,192,51744,128,0,51938:0:0:0:0:
64,192,51744,1,0,0:0:0:0:
320,192,51938,128,0,52131:0:0:0:0:
64,192,52131,1,0,0:0:0:0:
448,192,52131,1,0,0:0:0:0:
192,192,52228,1,0,0:0:0:0:
320,192,52325,1,0,0:0:0:0:
448,192,52422,1,0,0:0:0:0:
64,192,52519,128,0,52712:0:0:0:0:
192,192,52519,1,0,0:0:0:0:
320,192,52712,1,0,0:0:0:0:
320,192,52809,1,0,0:0:0:0:
64,192,52906,1,0,0:0:0:0:
448,192,52906,128,0,53099:0:0:0:0:
320,192,53099,1,0,0:0:0:0:
64,192,53293,128,0,53486:0:0:0:0:
448,192,53293,1,0,0:0:0:0:
192,192,53486,128,0,53680:0:0:0:0:
448,192,53680,1,0,0:0:0:0:
64,192,53680,1,0,0:0:0:0:
320,192,53777,1,0,0:0:0:0:
192,192,53873,1,0,0:0:0:0:
64,192,53970,1,0,0:0:0:0:
448,192,54067,128,0,54260:0:0:0:0:
320,192,54067,1,0,0:0:0:0:
192,192,54260,128,0,54454:0:0:0:0:
64,192,54454,128,0,54648:0:0:0:0:
448,192,54454,1,0,0:0:0:0:
320,192,54648,1,0,0:0:0:0:
448,192,54841,128,0,55035:0:0:0:0:
64,192,54841,1,0,0:0:0:0:
192,192,55035,1,0,0:0:0:0:
320,192,55228,1,0,0:0:0:0:
320,192,55325,1,0,0:0:0:0:
192,192,55422,1,0,0:0:0:0:
192,192,55519,1,0,0:0:0:0:
448,192,55615,1,0,0:0:0:0:
448,192,55712,1,0,0:0:0:0:
64,192,55809,1,0,0:0:0:0:
64,192,55906,1,0,0:0:0:0:
320,192,56002,1,0,0:0:0:0:
448,192,56002,128,0,56293:0:0:0:0:
192,192,56293,1,0,0:0:0:0:
64,192,56293,128,0,56583:0:0:0:0:
320,192,56583,1,0,0:0:0:0:
448,192,56583,1,0,0:0:0:0:
192,192,56777,1,0,0:0:0:0:
64,192,56777,128,0,57067:0:0:0:0:
448,192,57067,128,0,57357:0:0:0:0:
320,192,57067,1,0,0:0:0:0:
192,192,57357,1,0,0:0:0:0:
64,192,57357,1,0,0:0:0:0:
320,192,57551,128,0,57841:0:0:0:0:
448,192,57551,1,0,0:0:0:0:
64,192,57841,1,0,0:0:0:0:
192,192,57841,128,0,58131:0:0:0:0:
448,192,58131,1,0,0:0:0:0:
320,192,58131,1,0,0:0:0:0:
64,192,58325,1,0,0:0:0:0:
192,192,58325,128,0,58615:0:0:0:0:
320,192,58615,128,0,58906:0:0:0:0:
448,192,58615,1,0,0:0:0:0:
192,192,58906,1,0,0:0:0:0:
64,192,58906,1,0,0:0:0:0:
320,192,59099,1,0,0:0:0:0:
320,192,59196,1,0,0:0:0:0:
64,192,59293,1,0,0:0:0:0:
64,192,59390,1,0,0:0:0:0:
448,192,59486,1,0,0:0:0:0:
448,192,59583,1,0,0:0:0:0:
192,192,59680,1,0,0:0:0:0:
192,192,59777,1,0,0:0:0:0:
448,192,59873,128,0,59970:0:0:0:0:
320,192,59970,1,0,0:0:0:0:
192,192,60067,128,0,60164:0:0:0:0:
64,192,60164,1,0,0:0:0:0:
320,192,60260,128,0,60357:0:0:0:0:
448,192,60357,1,0,0:0:0:0:
64,192,60454,128,0,60551:0:0:0:0:
192,192,60551,1,0,0:0:0:0:
320,192,60648,128,0,60841:0:0:0:0:
448,192,60648,1,0,0:0:0:0:
192,192,60841,128,0,61035:0:0:0:0:
320,192,61035,128,0,61228:0:0:0:0:
192,192,61228,128,0,61422:0:0:0:0:
448,192,61422,128,0,61615:0:0:0:0:
64,192,61615,128,0,61809:0:0:0:0:
448,192,61809,128,0,62196:0:0:0:0:
64,192,62196,128,0,62583:0:0:0:0:
192,192,62196,128,0,62583:0:0:0:0:
448,192,62583,1,0,0:0:0:0:
64,192,62777,1,0,0:0:0:0:
64,192,62873,1,0,0:0:0:0:
448,192,62970,1,0,0:0:0:0:
192,192,62970,1,0,0:0:0:0:
320,192,63067,1,0,0:0:0:0:
448,192,63164,1,0,0:0:0:0:
320,192,63260,1,0,0:0:0:0:
192,192,63357,1,0,0:0:0:0:
64,192,63454,1,0,0:0:0:0:
192,192,63551,1,0,0:0:0:0:
64,192,63648,1,0,0:0:0:0:
320,192,63744,128,0,63841:0:0:0:0:
448,192,63744,1,0,0:0:0:0:
320,192,63938,128,0,64035:0:0:0:0:
192,192,64131,128,0,64228:0:0:0:0:
320,192,64325,1,0,0:0:0:0:
192,192,64422,1,0,0:0:0:0:
64,192,64519,1,0,0:0:0:0:
448,192,64519,128,0,64906:0:0:0:0:
192,192,64906,128,0,65293:0:0:0:0:
64,192,65293,1,0,0:0:0:0:
320,192,65293,128,0,65680:0:0:0:0:
192,192,65680,1,0,0:0:0:0:
64,192,65680,1,0,0:0:0:0:
64,192,65970,1,0,0:0:0:0:
192,192,65970,1,0,0:0:0:0:
192,192,66164,1,0,0:0:0:0:
64,192,66164,1,0,0:0:0:0:
64,192,66357,1,0,0:0:0:0:
192,192,66357,1,0,0:0:0:0:
64,192,66454,1,0,0:0:0:0:
192,192,66454,1,0,0:0:0:0:
64,192,66648,1,0,0:0:0:0:
192,192,66648,1,0,0:0:0:0:
320,192,66841,1,0,0:0:0:0:
448,192,66841,1,0,0:0:0:0:
320,192,67228,1,0,0:0:0:0:
448,192,67228,1,0,0:0:0:0:
448,192,67519,1,0,0:0:0:0:
320,192,67519,128,0,68002:0:0:0:0:
192,192,68002,1,0,0:0:0:0:
192,192,68196,1,0,0:0:0:0:
64,192,68390,1,0,0:0:0:0:
448,192,68390,1,0,0:0:0:0:
64,192,68583,1,0,0:0:0:0:
448,192,68583,1,0,0:0:0:0:
64,192,68777,1,0,0:0:0:0:
448,192,68777,1,0,0:0:0:0:
320,192,68873,1,0,0:0:0:0:
192,192,68970,1,0,0:0:0:0:
320,192,69067,1,0,0:0:0:0:
64,192,69164,1,0,0:0:0:0:
448,192,69164,1,0,0:0:0:0:
192,192,69260,1,0,0:0:0:0:
320,192,69357,1,0,0:0:0:0:
192,192,69454,1,0,0:0:0:0:
64,192,69551,1,0,0:0:0:0:
448,192,69551,1,0,0:0:0:0:
320,192,69648,1,0,0:0:0:0:
192,192,69744,1,0,0:0:0:0:
320,192,69841,1,0,0:0:0:0:
64,192,69938,1,0,0:0:0:0:
448,192,69938,1,0,0:0:0:0:
192,192,70035,1,0,0:0:0:0:
320,192,70131,1,0,0:0:0:0:
192,192,70228,1,0,0:0:0:0:
64,192,70325,1,0,0:0:0:0:
448,192,70325,1,0,0:0:0:0:
320,192,70422,1,0,0:0:0:0:
192,192,70519,1,0,0:0:0:0:
320,192,70615,1,0,0:0:0:0:
64,192,70712,1,0,0:0:0:0:
192,192,70712,1,0,0:0:0:0:
320,192,70809,1,0,0:0:0:0:
448,192,70809,1,0,0:0:0:0:
192,192,70906,1,0,0:0:0:0:
64,192,70906,1,0,0:0:0:0:
320,192,71002,1,0,0:0:0:0:
448,192,71002,1,0,0:0:0:0:
64,192,71099,128,0,71293:0:0:0:0:
192,192,71099,1,0,0:0:0:0:
192,192,71486,128,0,71583:0:0:0:0:
320,192,71486,128,0,71583:0:0:0:0:
448,192,71873,128,0,72260:0:0:0:0:
64,192,72067,128,0,72260:0:0:0:0:
192,192,72260,128,0,72648:0:0:0:0:
320,192,72454,1,0,0:0:0:0:
64,192,72648,128,0,73035:0:0:0:0:
448,192,72841,128,0,73035:0:0:0:0:
320,192,73035,128,0,73422:0:0:0:0:
64,192,73228,1,0,0:0:0:0:
192,192,73422,128,0,73809:0:0:0:0:
448,192,73615,128,0,73809:0:0:0:0:
64,192,73809,1,0,0:0:0:0:
448,192,74002,1,0,0:0:0:0:
64,192,74196,1,0,0:0:0:0:
448,192,74390,128,0,74583:0:0:0:0:
64,192,74583,128,0,74970:0:0:0:0:
192,192,74583,1,0,0:0:0:0:
320,192,74777,1,0,0:0:0:0:
448,192,74970,1,0,0:0:0:0:
320,192,74970,1,0,0:0:0:0:
192,192,75067,1,0,0:0:0:0:
64,192,75164,1,0,0:0:0:0:
448,192,75260,1,0,0:0:0:0:
192,192,75357,1,0,0:0:0:0:
64,192,75357,1,0,0:0:0:0:
320,192,75454,1,0,0:0:0:0:
448,192,75551,1,0,0:0:0:0:
64,192,75648,1,0,0:0:0:0:
320,192,75744,1,0,0:0:0:0:
448,192,75744,1,0,0:0:0:0:
192,192,75841,1,0,0:0:0:0:
64,192,75938,1,0,0:0:0:0:
448,192,76035,1,0,0:0:0:0:
64,192,76131,1,0,0:0:0:0:
192,192,76131,1,0,0:0:0:0:
320,192,76228,1,0,0:0:0:0:
448,192,76325,1,0,0:0:0:0:
64,192,76422,1,0,0:0:0:0:
320,192,76519,1,0,0:0:0:0:
448,192,76519,1,0,0:0:0:0:
192,192,76615,1,0,0:0:0:0:
64,192,76712,1,0,0:0:0:0:
448,192,76809,1,0,0:0:0:0:
64,192,76906,128,0,77002:0:0:0:0:
192,192,76906,1,0,0:0:0:0:
448,192,77002,128,0,77099:0:0:0:0:
320,192,77002,1,0,0:0:0:0:
64,192,77099,128,0,77196:0:0:0:0:
192,192,77099,1,0,0:0:0:0:
448,192,77196,128,0,77293:0:0:0:0:
320,192,77196,1,0,0:0:0:0:
192,192,77293,128,0,77390:0:0:0:0:
64,192,77293,1,0,0:0:0:0:
320,192,77390,128,0,77486:0:0:0:0:
192,192,77486,128,0,77583:0:0:0:0:
320,192,77583,128,0,77680:0:0:0:0:
64,192,77680,128,0,78067:0:0:0:0:
320,192,78067,1,0,0:0:0:0:
448,192,78067,1,0,0:0:0:0:
320,192,78260,1,0,0:0:0:0:
448,192,78260,1,0,0:0:0:0:
320,192,78357,1,0,0:0:0:0:
448,192,78357,1,0,0:0:0:0:
320,192,78551,1,0,0:0:0:0:
448,192,78551,1,0,0:0:0:0:
320,192,78744,1,0,0:0:0:0:
448,192,78744,1,0,0:0:0:0:
320,192,78841,1,0,0:0:0:0:
448,192,78841,1,0,0:0:0:0:
320,192,79035,1,0,0:0:0:0:
448,192,79035,1,0,0:0:0:0:
192,192,79228,1,0,0:0:0:0:
64,192,79228,1,0,0:0:0:0:
64,192,79615,1,0,0:0:0:0:
192,192,79615,1,0,0:0:0:0:
64,192,79906,1,0,0:0:0:0:
192,192,79906,128,0,80196:0:0:0:0:
320,192,80196,1,0,0:0:0:0:
320,192,80390,1,0,0:0:0:0:
64,192,80486,1,0,0:0:0:0:
448,192,80583,1,0,0:0:0:0:
192,192,80680,1,0,0:0:0:0:
64,192,80777,1,0,0:0:0:0:
448,192,80777,1,0,0:0:0:0:
448,192,80970,1,0,0:0:0:0:
64,192,80970,1,0,0:0:0:0:
64,192,81164,1,0,0:0:0:0:
448,192,81164,1,0,0:0:0:0:
192,192,81260,1,0,0:0:0:0:
320,192,81357,1,0,0:0:0:0:
192,192,81454,1,0,0:0:0:0:
64,192,81551,1,0,0:0:0:0:
448,192,81551,1,0,0:0:0:0:
320,192,81648,1,0,0:0:0:0:
192,192,81744,1,0,0:0:0:0:
320,192,81841,1,0,0:0:0:0:
64,192,81938,1,0,0:0:0:0:
448,192,81938,1,0,0:0:0:0:
192,192,82035,1,0,0:0:0:0:
320,192,82131,1,0,0:0:0:0:
192,192,82228,1,0,0:0:0:0:
64,192,82325,1,0,0:0:0:0:
448,192,82325,1,0,0:0:0:0:
320,192,82422,1,0,0:0:0:0:
192,192,82519,1,0,0:0:0:0:
64,192,82615,1,0,0:0:0:0:
448,192,82712,1,0,0:0:0:0:
320,192,82712,1,0,0:0:0:0:
192,192,82809,1,0,0:0:0:0:
64,192,82906,1,0,0:0:0:0:
448,192,83002,1,0,0:0:0:0:
192,192,83099,1,0,0:0:0:0:
64,192,83099,1,0,0:0:0:0:
320,192,83196,1,0,0:0:0:0:
448,192,83196,1,0,0:0:0:0:
192,192,83293,1,0,0:0:0:0:
64,192,83293,1,0,0:0:0:0:
448,192,83390,1,0,0:0:0:0:
320,192,83390,1,0,0:0:0:0:
192,192,83486,1,0,0:0:0:0:
64,192,83486,128,0,83680:0:0:0:0:
192,192,83873,128,0,83970:0:0:0:0:
320,192,83873,128,0,83970:0:0:0:0:
448,192,84067,128,0,84260:0:0:0:0:
64,192,84260,128,0,84648:0:0:0:0:
320,192,84454,128,0,84648:0:0:0:0:
192,192,84648,128,0,85035:0:0:0:0:
448,192,84841,1,0,0:0:0:0:
320,192,85035,128,0,85422:0:0:0:0:
64,192,85228,128,0,85422:0:0:0:0:
448,192,85422,128,0,85809:0:0:0:0:
192,192,85615,1,0,0:0:0:0:
64,192,85809,128,0,86196:0:0:0:0:
320,192,86002,128,0,86196:0:0:0:0:
448,192,86196,128,0,86293:0:0:0:0:
64,192,86390,128,0,86486:0:0:0:0:
448,192,86583,128,0,86680:0:0:0:0:
64,192,86777,128,0,86873:0:0:0:0:
448,192,86970,128,0,93164:0:0:0:0:
192,192,86970,1,0,0:0:0:0:
64,192,93164,128,0,94712:0:0:0:0:
192,192,94712,128,0,96260:0:0:0:0:
320,192,96260,128,0,98970:0:0:0:0:
448,192,96260,128,0,98970:0:0:0:0:
64,192,98970,1,0,0:0:0:0:
192,192,99067,1,0,0:0:0:0:
320,192,99164,1,0,0:0:0:0:
448,192,99260,1,0,0:0:0:0:
64,192,99357,128,0,99744:0:0:0:0:
192,192,99357,1,0,0:0:0:0:
448,192,99551,1,0,0:0:0:0:
320,192,99648,1,0,0:0:0:0:
192,192,99744,1,0,0:0:0:0:
320,192,99841,1,0,0:0:0:0:
448,192,99938,1,0,0:0:0:0:
64,192,100131,1,0,0:0:0:0:
192,192,100325,1,0,0:0:0:0:
448,192,100325,1,0,0:0:0:0:
320,192,100519,1,0,0:0:0:0:
192,192,100712,1,0,0:0:0:0:
64,192,100712,128,0,101099:0:0:0:0:
448,192,100906,1,0,0:0:0:0:
320,192,101099,1,0,0:0:0:0:
192,192,101293,128,0,101680:0:0:0:0:
320,192,101680,1,0,0:0:0:0:
448,192,101680,128,0,102067:0:0:0:0:
64,192,102067,128,0,102164:0:0:0:0:
192,192,102164,128,0,102260:0:0:0:0:
320,192,102260,128,0,102357:0:0:0:0:
448,192,102357,128,0,102454:0:0:0:0:
64,192,102454,128,0,102648:0:0:0:0:
192,192,102454,1,0,0:0:0:0:
448,192,102648,128,0,102841:0:0:0:0:
192,192,102841,1,0,0:0:0:0:
320,192,102938,1,0,0:0:0:0:
192,192,103035,1,0,0:0:0:0:
320,192,103131,1,0,0:0:0:0:
64,192,103228,128,0,103325:0:0:0:0:
320,192,103422,1,0,0:0:0:0:
448,192,103422,128,0,103519:0:0:0:0:
64,192,103519,128,0,103615:0:0:0:0:
448,192,103615,128,0,103712:0:0:0:0:
64,192,103712,128,0,103809:0:0:0:0:
448,192,103809,128,0,103906:0:0:0:0:
320,192,103809,1,0,0:0:0:0:
64,192,103906,128,0,104002:0:0:0:0:
192,192,104002,128,0,104196:0:0:0:0:
320,192,104196,128,0,104390:0:0:0:0:
64,192,104390,128,0,104583:0:0:0:0:
448,192,104583,128,0,104777:0:0:0:0:
320,192,104583,1,0,0:0:0:0:
192,192,104777,128,0,104970:0:0:0:0:
320,192,104970,128,0,105164:0:0:0:0:
64,192,105164,1,0,0:0:0:0:
192,192,105260,1,0,0:0:0:0:
320,192,105357,1,0,0:0:0:0:
448,192,105454,1,0,0:0:0:0:
192,192,105551,1,0,0:0:0:0:
64,192,105551,1,0,0:0:0:0:
192,192,105841,1,0,0:0:0:0:
320,192,105841,1,0,0:0:0:0:
320,192,106131,1,0,0:0:0:0:
448,192,106131,1,0,0:0:0:0:
320,192,106325,1,0,0:0:0:0:
448,192,106325,1,0,0:0:0:0:
320,192,106615,1,0,0:0:0:0:
192,192,106615,1,0,0:0:0:0:
64,192,106906,1,0,0:0:0:0:
192,192,106906,1,0,0:0:0:0:
64,192,107099,1,0,0:0:0:0:
192,192,107099,1,0,0:0:0:0:
192,192,107390,1,0,0:0:0:0:
320,192,107390,1,0,0:0:0:0:
320,192,107680,1,0,0:0:0:0:
448,192,107680,1,0,0:0:0:0:
320,192,107873,1,0,0:0:0:0:
448,192,107873,1,0,0:0:0:0:
192,192,108164,1,0,0:0:0:0:
320,192,108164,1,0,0:0:0:0:
192,192,108454,1,0,0:0:0:0:
64,192,108454,128,0,108648:0:0:0:0:
320,192,108648,1,0,0:0:0:0:
448,192,108744,1,0,0:0:0:0:
192,192,108841,1,0,0:0:0:0:
64,192,108938,1,0,0:0:0:0:
448,192,109035,1,0,0:0:0:0:
320,192,109131,1,0,0:0:0:0:
64,192,109228,1,0,0:0:0:0:
192,192,109325,1,0,0:0:0:0:
448,192,109422,1,0,0:0:0:0:
320,192,109519,1,0,0:0:0:0:
192,192,109615,1,0,0:0:0:0:
64,192,109712,1,0,0:0:0:0:
448,192,109809,1,0,0:0:0:0:
320,192,109906,1,0,0:0:0:0:
192,192,110002,1,0,0:0:0:0:
64,192,110099,1,0,0:0:0:0:
448,192,110196,128,0,111357:0:0:0:0:
192,192,111357,1,0,0:0:0:0:
320,192,111454,1,0,0:0:0:0:
448,192,111551,1,0,0:0:0:0:
320,192,111648,1,0,0:0:0:0:
192,192,111744,1,0,0:0:0:0:
448,192,111841,1,0,0:0:0:0:
192,192,111938,1,0,0:0:0:0:
448,192,112035,1,0,0:0:0:0:
192,192,112131,1,0,0:0:0:0:
320,192,112228,1,0,0:0:0:0:
64,192,112325,1,0,0:0:0:0:
448,192,112422,1,0,0:0:0:0:
192,192,112519,128,0,112809:0:0:0:0:
448,192,112712,1,0,0:0:0:0:
320,192,112809,128,0,113099:0:0:0:0:
448,192,113099,1,0,0:0:0:0:
192,192,113196,1,0,0:0:0:0:
320,192,113293,1,0,0:0:0:0:
64,192,113390,1,0,0:0:0:0:
320,192,113486,1,0,0:0:0:0:
64,192,113583,1,0,0:0:0:0:
320,192,113680,1,0,0:0:0:0:
192,192,113777,1,0,0:0:0:0:
448,192,113873,1,0,0:0:0:0:
320,192,113970,1,0,0:0:0:0:
64,192,114067,128,0,114260:0:0:0:0:
192,192,114260,1,0,0:0:0:0:
320,192,114357,128,0,114551:0:0:0:0:
64,192,114454,1,0,0:0:0:0:
192,192,114551,1,0,0:0:0:0:
448,192,114648,1,0,0:0:0:0:
192,192,114744,1,0,0:0:0:0:
448,192,114841,1,0,0:0:0:0:
320,192,114938,1,0,0:0:0:0:
192,192,115035,1,0,0:0:0:0:
64,192,115131,1,0,0:0:0:0:
448,192,115228,1,0,0:0:0:0:
64,192,115422,1,0,0:0:0:0:
192,192,115519,1,0,0:0:0:0:
320,192,115615,1,0,0:0:0:0:
448,192,115712,1,0,0:0:0:0:
64,192,115809,1,0,0:0:0:0:
448,192,116002,128,0,116099:0:0:0:0:
320,192,116099,128,0,116196:0:0:0:0:
192,192,116196,128,0,116293:0:0:0:0:
64,192,116293,128,0,116390:0:0:0:0:
320,192,116390,1,0,0:0:0:0:
448,192,116390,1,0,0:0:0:0:
64,192,116583,1,0,0:0:0:0:
192,192,116583,1,0,0:0:0:0:
448,192,116777,1,0,0:0:0:0:
320,192,116777,1,0,0:0:0:0:
192,192,116873,1,0,0:0:0:0:
64,192,116873,1,0,0:0:0:0:
320,192,117067,1,0,0:0:0:0:
448,192,117067,1,0,0:0:0:0:
64,192,117357,128,0,117841:0:0:0:0:
448,192,117357,128,0,117841:0:0:0:0:
192,192,117938,1,0,0:0:0:0:
64,192,117938,128,0,118325:0:0:0:0:
320,192,118035,1,0,0:0:0:0:
448,192,118131,1,0,0:0:0:0:
448,192,118325,1,0,0:0:0:0:
192,192,118325,128,0,118712:0:0:0:0:
320,192,118422,1,0,0:0:0:0:
64,192,118519,1,0,0:0:0:0:
448,192,118712,1,0,0:0:0:0:
320,192,118712,128,0,119099:0:0:0:0:
192,192,118809,1,0,0:0:0:0:
64,192,118906,1,0,0:0:0:0:
64,192,119099,1,0,0:0:0:0:
448,192,119099,128,0,119486:0:0:0:0:
192,192,119196,1,0,0:0:0:0:
320,192,119293,1,0,0:0:0:0:
192,192,119486,1,0,0:0:0:0:
64,192,119486,128,0,119873:0:0:0:0:
320,192,119583,1,0,0:0:0:0:
448,192,119680,1,0,0:0:0:0:
448,192,119873,1,0,0:0:0:0:
192,192,119873,128,0,120260:0:0:0:0:
320,192,119970,1,0,0:0:0:0:
64,192,120067,1,0,0:0:0:0:
448,192,120260,1,0,0:0:0:0:
320,192,120260,128,0,120648:0:0:0:0:
192,192,120357,1,0,0:0:0:0:
64,192,120454,1,0,0:0:0:0:
448,192,120648,128,0,121035:0:0:0:0:
64,192,120648,1,0,0:0:0:0:
192,192,120744,1,0,0:0:0:0:
320,192,120841,1,0,0:0:0:0:
64,192,121035,128,0,121422:0:0:0:0:
320,192,121422,1,0,0:0:0:0:
448,192,121422,1,0,0:0:0:0:
192,192,121519,1,0,0:0:0:0:
64,192,121519,1,0,0:0:0:0:
320,192,121712,1,0,0:0:0:0:
448,192,121712,1,0,0:0:0:0:
192,192,121906,1,0,0:0:0:0:
64,192,121906,1,0,0:0:0:0:
320,192,122099,1,0,0:0:0:0:
448,192,122099,1,0,0:0:0:0:
192,192,122196,1,0,0:0:0:0:
64,192,122196,128,0,122390:0:0:0:0:
448,192,122390,128,0,122583:0:0:0:0:
192,192,122583,128,0,122680:0:0:0:0:
320,192,122777,128,0,122873:0:0:0:0:
64,192,122970,1,0,0:0:0:0:
448,192,123067,1,0,0:0:0:0:
192,192,123164,1,0,0:0:0:0:
320,192,123260,1,0,0:0:0:0:
64,192,123357,1,0,0:0:0:0:
192,192,123454,1,0,0:0:0:0:
320,192,123551,1,0,0:0:0:0:
448,192,123648,1,0,0:0:0:0:
64,192,123744,128,0,123841:0:0:0:0:
192,192,123841,128,0,123938:0:0:0:0:
320,192,123938,128,0,124035:0:0:0:0:
448,192,124035,128,0,124131:0:0:0:0:
192,192,124131,1,0,0:0:0:0:
320,192,124228,128,0,124422:0:0:0:0:
64,192,124519,1,0,0:0:0:0:
320,192,124519,128,0,124906:0:0:0:0:
192,192,124615,1,0,0:0:0:0:
448,192,124712,1,0,0:0:0:0:
192,192,124906,128,0,125293:0:0:0:0:
64,192,124906,1,0,0:0:0:0:
320,192,125002,1,0,0:0:0:0:
448,192,125099,1,0,0:0:0:0:
64,192,125293,128,0,125680:0:0:0:0:
448,192,125293,1,0,0:0:0:0:
320,192,125390,1,0,0:0:0:0:
192,192,125486,1,0,0:0:0:0:
320,192,125680,1,0,0:0:0:0:
448,192,125680,128,0,126067:0:0:0:0:
192,192,125777,1,0,0:0:0:0:
64,192,125873,1,0,0:0:0:0:
320,192,126067,128,0,126454:0:0:0:0:
64,192,126067,1,0,0:0:0:0:
192,192,126164,1,0,0:0:0:0:
448,192,126260,1,0,0:0:0:0:
192,192,126454,128,0,126841:0:0:0:0:
64,192,126454,1,0,0:0:0:0:
320,192,126551,1,0,0:0:0:0:
448,192,126648,1,0,0:0:0:0:
448,192,126841,1,0,0:0:0:0:
64,192,126841,128,0,127228:0:0:0:0:
320,192,126938,1,0,0:0:0:0:
192,192,127035,1,0,0:0:0:0:
320,192,127228,1,0,0:0:0:0:
448,192,127228,128,0,127325:0:0:0:0:
192,192,127325,128,0,127422:0:0:0:0:
448,192,127422,128,0,127519:0:0:0:0:
192,192,127519,128,0,127615:0:0:0:0:
320,192,127615,128,0,127809:0:0:0:0:
64,192,127615,1,0,0:0:0:0:
192,192,127809,128,0,127906:0:0:0:0:
448,192,127906,128,0,128002:0:0:0:0:
64,192,128002,1,0,0:0:0:0:
192,192,128002,128,0,128099:0:0:0:0:
448,192,128099,128,0,128196:0:0:0:0:
192,192,128196,128,0,128390:0:0:0:0:
64,192,128390,128,0,128486:0:0:0:0:
192,192,128486,128,0,128583:0:0:0:0:
320,192,128583,128,0,128680:0:0:0:0:
448,192,128680,128,0,128777:0:0:0:0:
64,192,128777,1,0,0:0:0:0:
192,192,128777,1,0,0:0:0:0:
320,192,128970,1,0,0:0:0:0:
448,192,128970,1,0,0:0:0:0:
192,192,129164,1,0,0:0:0:0:
64,192,129164,1,0,0:0:0:0:
320,192,129260,1,0,0:0:0:0:
448,192,129260,1,0,0:0:0:0:
64,192,129454,1,0,0:0:0:0:
192,192,129454,1,0,0:0:0:0:
448,192,129744,128,0,130131:0:0:0:0:
64,192,129744,128,0,130131:0:0:0:0:
192,192,130131,1,0,0:0:0:0:
320,192,130228,1,0,0:0:0:0:
192,192,130325,1,0,0:0:0:0:
64,192,130325,128,0,130712:0:0:0:0:
320,192,130422,1,0,0:0:0:0:
448,192,130519,1,0,0:0:0:0:
448,192,130712,1,0,0:0:0:0:
192,192,130712,128,0,131099:0:0:0:0:
320,192,130809,1,0,0:0:0:0:
64,192,130906,1,0,0:0:0:0:
320,192,131099,128,0,131486:0:0:0:0:
448,192,131099,128,0,131196:0:0:0:0:
192,192,131196,128,0,131293:0:0:0:0:
64,192,131293,128,0,131390:0:0:0:0:
448,192,131486,128,0,131873:0:0:0:0:
64,192,131486,128,0,131583:0:0:0:0:
192,192,131583,128,0,131680:0:0:0:0:
320,192,131680,128,0,131777:0:0:0:0:
64,192,131873,128,0,132260:0:0:0:0:
192,192,131873,128,0,131970:0:0:0:0:
320,192,131970,128,0,132067:0:0:0:0:
448,192,132067,128,0,132164:0:0:0:0:
192,192,132260,128,0,132648:0:0:0:0:
448,192,132260,128,0,132357:0:0:0:0:
320,192,132357,128,0,132454:0:0:0:0:
64,192,132454,128,0,132551:0:0:0:0:
320,192,132648,1,0,0:0:0:0:
448,192,132648,1,0,0:0:0:0:
192,192,132938,1,0,0:0:0:0:
64,192,132938,1,0,0:0:0:0:
320,192,133228,1,0,0:0:0:0:
448,192,133228,1,0,0:0:0:0:
64,192,133422,128,0,133809:0:0:0:0:
320,192,133809,1,0,0:0:0:0:
448,192,133809,1,0,0:0:0:0:
192,192,133906,1,0,0:0:0:0:
64,192,133906,1,0,0:0:0:0:
320,192,134099,1,0,0:0:0:0:
448,192,134099,1,0,0:0:0:0:
192,192,134293,1,0,0:0:0:0:
64,192,134293,1,0,0:0:0:0:
448,192,134486,1,0,0:0:0:0:
320,192,134486,1,0,0:0:0:0:
192,192,134583,1,0,0:0:0:0:
64,192,134583,128,0,134777:0:0:0:0:
448,192,134777,128,0,134970:0:0:0:0:
192,192,134970,128,0,135067:0:0:0:0:
320,192,135164,128,0,135260:0:0:0:0:
64,192,135357,1,0,0:0:0:0:
448,192,135454,1,0,0:0:0:0:
192,192,135551,1,0,0:0:0:0:
320,192,135648,1,0,0:0:0:0:
64,192,135744,1,0,0:0:0:0:
192,192,135841,1,0,0:0:0:0:
320,192,135938,1,0,0:0:0:0:
448,192,136035,1,0,0:0:0:0:
192,192,136131,128,0,136228:0:0:0:0:
64,192,136228,128,0,136325:0:0:0:0:
320,192,136325,128,0,136422:0:0:0:0:
448,192,136422,128,0,136519:0:0:0:0:
64,192,136519,1,0,0:0:0:0:
192,192,136519,1,0,0:0:0:0:
320,192,136615,1,0,0:0:0:0:
192,192,136712,1,0,0:0:0:0:
64,192,136809,1,0,0:0:0:0:
320,192,136906,128,0,137099:0:0:0:0:
64,192,137099,128,0,137293:0:0:0:0:
320,192,137293,1,0,0:0:0:0:
448,192,137293,1,0,0:0:0:0:
192,192,137390,1,0,0:0:0:0:
320,192,137486,1,0,0:0:0:0:
448,192,137583,1,0,0:0:0:0:
192,192,137680,128,0,137873:0:0:0:0:
448,192,137873,128,0,138067:0:0:0:0:
64,192,138067,128,0,138164:0:0:0:0:
320,192,138164,128,0,138260:0:0:0:0:
192,192,138260,128,0,138357:0:0:0:0:
64,192,138357,128,0,138454:0:0:0:0:
448,192,138454,128,0,138551:0:0:0:0:
192,192,138551,128,0,138648:0:0:0:0:
320,192,138648,128,0,138744:0:0:0:0:
448,192,138744,128,0,138841:0:0:0:0:
64,192,138841,128,0,138938:0:0:0:0:
320,192,138938,128,0,139035:0:0:0:0:
192,192,139035,128,0,139131:0:0:0:0:
448,192,139131,128,0,139228:0:0:0:0:
64,192,139228,128,0,139615:0:0:0:0:
320,192,139615,1,0,0:0:0:0:
448,192,139615,1,0,0:0:0:0:
192,192,139712,1,0,0:0:0:0:
64,192,139712,1,0,0:0:0:0:
320,192,139809,1,0,0:0:0:0:
448,192,139809,1,0,0:0:0:0:
192,192,139906,1,0,0:0:0:0:
64,192,139906,1,0,0:0:0:0:
320,192,140002,128,0,140390:0:0:0:0:
192,192,140390,1,0,0:0:0:0:
64,192,140390,1,0,0:0:0:0:
320,192,140486,1,0,0:0:0:0:
448,192,140486,1,0,0:0:0:0:
192,192,140583,1,0,0:0:0:0:
64,192,140583,1,0,0:0:0:0:
320,192,140680,1,0,0:0:0:0:
448,192,140680,1,0,0:0:0:0:
192,192,140777,128,0,141164:0:0:0:0:
64,192,141164,1,0,0:0:0:0:
448,192,141164,1,0,0:0:0:0:
320,192,141228,1,0,0:0:0:0:
192,192,141293,1,0,0:0:0:0:
64,192,141357,1,0,0:0:0:0:
448,192,141422,1,0,0:0:0:0:
320,192,141486,1,0,0:0:0:0:
192,192,141551,1,0,0:0:0:0:
64,192,141615,1,0,0:0:0:0:
448,192,141680,1,0,0:0:0:0:
320,192,141744,1,0,0:0:0:0:
192,192,141809,1,0,0:0:0:0:
64,192,141873,1,0,0:0:0:0:
320,192,141938,1,0,0:0:0:0:
448,192,142035,1,0,0:0:0:0:
192,192,142131,1,0,0:0:0:0:
320,192,142228,1,0,0:0:0:0:
64,192,142325,1,0,0:0:0:0:
192,192,142422,1,0,0:0:0:0:
64,192,142519,1,0,0:0:0:0:
192,192,142615,1,0,0:0:0:0:
64,192,142712,128,0,144260:0:0:0:0:
448,192,144260,1,0,0:0:0:0:
448,192,144357,1,0,0:0:0:0:
