osu file format v14

[General]
AudioFilename: audio.mp3
AudioLeadIn: 0
PreviewTime: 37326
Countdown: 0
SampleSet: Normal
StackLeniency: 0.7
Mode: 3
LetterboxInBreaks: 0
SpecialStyle: 0
WidescreenStoryboard: 0

[Editor]
Bookmarks: 25326,37713,50100,62487,74874,87261,99648,102616,112035,118229,124422,136810,143003
DistanceSpacing: 0.8
BeatDivisor: 4
GridSize: 8
TimelineZoom: 2.2

[Metadata]
Title:Trrricksters!!
TitleUnicode:Trrricksters!!
Artist:s-don vs. Hino Isuka
ArtistUnicode:s-don vs. 翡乃イスカ
Creator:Raveille
Version:Crrrrazy!!
Source:CHUNITHM CRYSTAL
Tags:electronic instrumental bouncy techno チュウニズム 音源 sega cytus ii 2 rayark ep. III episode 3 zenza of performai respect V 5 neowiz groove coaster soft6 soft 6 spring time ffa tournament ro16 round of 16 hybrid hb ln long notes maimai でらっくす FESTiVAL DX Deluxe
BeatmapID:3497681
BeatmapSetID:1711751

[Difficulty]
HPDrainRate:8
CircleSize:4
OverallDifficulty:8
ApproachRate:5
SliderMultiplier:1.4
SliderTickRate:1

[Events]
//Background and Video events
0,0,"trrrrr.jpg",0,0
//Break Periods
//Storyboard Layer 0 (Background)
//Storyboard Layer 1 (Fail)
//Storyboard Layer 2 (Pass)
//Storyboard Layer 3 (Foreground)
//Storyboard Layer 4 (Overlay)
//Storyboard Sound Samples

[TimingPoints]
261,387.096774193548,4,1,1,44,1,0
37422,-100,4,1,1,44,0,1
49809,-100,4,1,1,44,0,0
117938,-100,4,1,1,44,0,1
136519,-100,4,1,1,44,0,0

[HitObjects]
192,192,261,5,0,0:0:0:0:
448,192,261,128,0,357:0:0:0:0:
320,192,285,1,0,0:0:0:0:
64,192,454,128,0,648:0:0:0:0:
192,192,454,1,0,0:0:0:0:
448,192,648,1,0,0:0:0:0:
192,192,648,128,0,744:0:0:0:0:
320,192,744,1,0,0:0:0:0:
448,192,841,1,0,0:0:0:0:
192,192,841,128,0,938:0:0:0:0:
320,192,938,1,0,0:0:0:0:
64,192,1035,1,0,0:0:0:0:
64,192,1131,128,0,1325:0:0:0:0:
448,192,1131,128,0,1228:0:0:0:0:
448,192,1325,128,0,1422:0:0:0:0:
192,192,1422,128,0,1519:0:0:0:0:
320,192,1422,128,0,1615:0:0:0:0:
64,192,1519,1,0,0:0:0:0:
192,192,1615,1,0,0:0:0:0:
320,192,1712,1,0,0:0:0:0:
192,192,1809,1,0,0:0:0:0:
448,192,1809,128,0,1906:0:0:0:0:
192,192,2002,128,0,2099:0:0:0:0:
448,192,2002,1,0,0:0:0:0:
64,192,2196,1,0,0:0:0:0:
320,192,2196,128,0,2293:0:0:0:0:
64,192,2390,128,0,2486:0:0:0:0:
320,192,2390,1,0,0:0:0:0:
320,192,2583,1,0,0:0:0:0:
448,192,2583,1,0,0:0:0:0:
192,192,2583,128,0,2777:0:0:0:0:
64,192,2777,128,0,2970:0:0:0:0:
320,192,2777,128,0,2873:0:0:0:0:
448,192,2777,1,0,0:0:0:0:
448,192,3067,128,0,3260:0:0:0:0:
192,192,3067,128,0,3164:0:0:0:0:
64,192,3067,1,0,0:0:0:0:
448,192,3357,128,0,3454:0:0:0:0:
192,192,3357,1,0,0:0:0:0:
320,192,3381,1,0,0:0:0:0:
64,192,3551,128,0,3744:0:0:0:0:
448,192,3648,1,0,0:0:0:0:
320,192,3744,128,0,3841:0:0:0:0:
192,192,3744,1,0,0:0:0:0:
64,192,3841,1,0,0:0:0:0:
320,192,3938,128,0,4035:0:0:0:0:
192,192,3938,1,0,0:0:0:0:
64,192,4035,1,0,0:0:0:0:
192,192,4131,1,0,0:0:0:0:
448,192,4131,1,0,0:0:0:0:
320,192,4196,1,0,0:0:0:0:
64,192,4260,1,0,0:0:0:0:
192,192,4325,1,0,0:0:0:0:
448,192,4390,1,0,0:0:0:0:
320,192,4454,1,0,0:0:0:0:
192,192,4519,1,0,0:0:0:0:
64,192,4583,1,0,0:0:0:0:
320,192,4648,1,0,0:0:0:0:
448,192,4712,1,0,0:0:0:0:
192,192,4777,1,0,0:0:0:0:
64,192,4841,1,0,0:0:0:0:
320,192,4906,1,0,0:0:0:0:
448,192,4906,1,0,0:0:0:0:
320,192,5002,1,0,0:0:0:0:
448,192,5002,1,0,0:0:0:0:
192,192,5099,1,0,0:0:0:0:
64,192,5099,1,0,0:0:0:0:
64,192,5196,1,0,0:0:0:0:
192,192,5196,1,0,0:0:0:0:
320,192,5293,128,0,5486:0:0:0:0:
448,192,5293,128,0,5486:0:0:0:0:
64,192,5486,1,0,0:0:0:0:
192,192,5486,1,0,0:0:0:0:
64,192,5583,1,0,0:0:0:0:
192,192,5583,1,0,0:0:0:0:
320,192,5680,1,0,0:0:0:0:
448,192,5680,1,0,0:0:0:0:
320,192,5777,1,0,0:0:0:0:
448,192,5777,1,0,0:0:0:0:
64,192,5873,128,0,6067:0:0:0:0:
192,192,5873,128,0,6067:0:0:0:0:
320,192,6067,128,0,6357:0:0:0:0:
448,192,6067,128,0,6357:0:0:0:0:
64,192,6260,1,0,0:0:0:0:
192,192,6260,1,0,0:0:0:0:
320,192,6454,1,0,0:0:0:0:
448,192,6454,1,0,0:0:0:0:
192,192,6454,1,0,0:0:0:0:
448,192,6648,1,0,0:0:0:0:
64,192,6841,1,0,0:0:0:0:
192,192,6841,1,0,0:0:0:0:
320,192,6841,128,0,7035:0:0:0:0:
448,192,6938,128,0,7035:0:0:0:0:
192,192,7035,128,0,7131:0:0:0:0:
320,192,7131,128,0,7228:0:0:0:0:
192,192,7228,1,0,0:0:0:0:
448,192,7228,1,0,0:0:0:0:
64,192,7228,128,0,7422:0:0:0:0:
320,192,7325,128,0,7422:0:0:0:0:
192,192,7519,128,0,7712:0:0:0:0:
64,192,7615,1,0,0:0:0:0:
448,192,7615,1,0,0:0:0:0:
320,192,7615,1,0,0:0:0:0:
320,192,7712,128,0,7809:0:0:0:0:
192,192,7809,128,0,7906:0:0:0:0:
64,192,7906,128,0,8002:0:0:0:0:
448,192,8002,1,0,0:0:0:0:
320,192,8002,1,0,0:0:0:0:
192,192,8002,128,0,8196:0:0:0:0:
448,192,8196,128,0,8390:0:0:0:0:
320,192,8390,1,0,0:0:0:0:
192,192,8390,1,0,0:0:0:0:
64,192,8390,128,0,8583:0:0:0:0:
320,192,8583,128,0,8777:0:0:0:0:
64,192,8777,1,0,0:0:0:0:
448,192,8777,1,0,0:0:0:0:
192,192,8777,128,0,8970:0:0:0:0:
64,192,8970,128,0,9067:0:0:0:0:
448,192,8970,128,0,9067:0:0:0:0:
64,192,9164,1,0,0:0:0:0:
448,192,9164,1,0,0:0:0:0:
320,192,9164,1,0,0:0:0:0:
320,192,9260,128,0,9454:0:0:0:0:
448,192,9260,128,0,9454:0:0:0:0:
320,192,9551,1,0,0:0:0:0:
448,192,9551,1,0,0:0:0:0:
192,192,9551,128,0,9744:0:0:0:0:
448,192,9744,128,0,9938:0:0:0:0:
320,192,9938,1,0,0:0:0:0:
64,192,9938,1,0,0:0:0:0:
192,192,9986,1,0,0:0:0:0:
320,192,10035,1,0,0:0:0:0:
448,192,10131,128,0,10228:0:0:0:0:
192,192,10228,128,0,10325:0:0:0:0:
320,192,10325,1,0,0:0:0:0:
448,192,10325,1,0,0:0:0:0:
64,192,10325,128,0,10422:0:0:0:0:
192,192,10422,128,0,10615:0:0:0:0:
320,192,10615,128,0,10906:0:0:0:0:
448,192,10615,128,0,10906:0:0:0:0:
192,192,10712,1,0,0:0:0:0:
64,192,10712,1,0,0:0:0:0:
64,192,10906,1,0,0:0:0:0:
192,192,11002,1,0,0:0:0:0:
64,192,11099,128,0,11873:0:0:0:0:
320,192,11099,128,0,11196:0:0:0:0:
448,192,11196,1,0,0:0:0:0:
320,192,11293,128,0,11390:0:0:0:0:
192,192,11390,1,0,0:0:0:0:
320,192,11486,128,0,11583:0:0:0:0:
448,192,11583,1,0,0:0:0:0:
320,192,11680,128,0,11777:0:0:0:0:
192,192,11777,1,0,0:0:0:0:
320,192,11873,128,0,11970:0:0:0:0:
448,192,11873,128,0,12067:0:0:0:0:
192,192,11970,1,0,0:0:0:0:
64,192,12067,1,0,0:0:0:0:
320,192,12067,1,0,0:0:0:0:
64,192,12164,1,0,0:0:0:0:
320,192,12164,1,0,0:0:0:0:
192,192,12260,128,0,12454:0:0:0:0:
448,192,12260,128,0,12357:0:0:0:0:
320,192,12454,1,0,0:0:0:0:
448,192,12454,1,0,0:0:0:0:
64,192,12454,1,0,0:0:0:0:
192,192,12648,1,0,0:0:0:0:
64,192,12648,128,0,12841:0:0:0:0:
448,192,12648,1,0,0:0:0:0:
320,192,12744,1,0,0:0:0:0:
448,192,12841,1,0,0:0:0:0:
192,192,12938,1,0,0:0:0:0:
64,192,12938,1,0,0:0:0:0:
64,192,13035,1,0,0:0:0:0:
320,192,13035,1,0,0:0:0:0:
448,192,13131,1,0,0:0:0:0:
320,192,13228,1,0,0:0:0:0:
192,192,13228,1,0,0:0:0:0:
64,192,13325,1,0,0:0:0:0:
448,192,13422,1,0,0:0:0:0:
320,192,13422,1,0,0:0:0:0:
192,192,13519,1,0,0:0:0:0:
64,192,13519,1,0,0:0:0:0:
64,192,13615,1,0,0:0:0:0:
192,192,13615,1,0,0:0:0:0:
320,192,13712,1,0,0:0:0:0:
448,192,13712,1,0,0:0:0:0:
64,192,13809,1,0,0:0:0:0:
448,192,13809,1,0,0:0:0:0:
192,192,13906,1,0,0:0:0:0:
320,192,13906,1,0,0:0:0:0:
64,192,14002,1,0,0:0:0:0:
448,192,14002,1,0,0:0:0:0:
64,192,14099,1,0,0:0:0:0:
448,192,14099,1,0,0:0:0:0:
192,192,14196,1,0,0:0:0:0:
320,192,14196,128,0,14390:0:0:0:0:
192,192,14390,1,0,0:0:0:0:
64,192,14390,1,0,0:0:0:0:
320,192,14486,128,0,14583:0:0:0:0:
448,192,14486,128,0,14583:0:0:0:0:
64,192,14583,1,0,0:0:0:0:
192,192,14583,1,0,0:0:0:0:
192,192,14777,1,0,0:0:0:0:
448,192,14777,1,0,0:0:0:0:
320,192,14970,1,0,0:0:0:0:
448,192,14970,1,0,0:0:0:0:
192,192,15067,1,0,0:0:0:0:
64,192,15067,1,0,0:0:0:0:
64,192,15164,1,0,0:0:0:0:
192,192,15164,1,0,0:0:0:0:
320,192,15260,1,0,0:0:0:0:
448,192,15260,1,0,0:0:0:0:
192,192,15357,1,0,0:0:0:0:
64,192,15357,128,0,15551:0:0:0:0:
320,192,15454,1,0,0:0:0:0:
448,192,15454,1,0,0:0:0:0:
320,192,15551,1,0,0:0:0:0:
448,192,15551,1,0,0:0:0:0:
64,192,15648,1,0,0:0:0:0:
192,192,15648,1,0,0:0:0:0:
320,192,15744,1,0,0:0:0:0:
448,192,15744,128,0,15938:0:0:0:0:
64,192,15744,1,0,0:0:0:0:
192,192,15841,1,0,0:0:0:0:
64,192,15938,1,0,0:0:0:0:
320,192,16035,1,0,0:0:0:0:
448,192,16035,1,0,0:0:0:0:
448,192,16131,1,0,0:0:0:0:
192,192,16131,1,0,0:0:0:0:
64,192,16228,1,0,0:0:0:0:
192,192,16325,1,0,0:0:0:0:
320,192,16325,1,0,0:0:0:0:
448,192,16422,1,0,0:0:0:0:
64,192,16519,1,0,0:0:0:0:
192,192,16519,1,0,0:0:0:0:
320,192,16615,1,0,0:0:0:0:
448,192,16615,1,0,0:0:0:0:
448,192,16712,1,0,0:0:0:0:
320,192,16712,1,0,0:0:0:0:
192,192,16809,1,0,0:0:0:0:
64,192,16809,1,0,0:0:0:0:
448,192,16906,1,0,0:0:0:0:
64,192,16906,1,0,0:0:0:0:
320,192,17002,1,0,0:0:0:0:
192,192,17002,1,0,0:0:0:0:
448,192,17099,1,0,0:0:0:0:
64,192,17099,1,0,0:0:0:0:
448,192,17196,1,0,0:0:0:0:
320,192,17196,1,0,0:0:0:0:
192,192,17293,128,0,17486:0:0:0:0:
64,192,17293,1,0,0:0:0:0:
320,192,17390,128,0,17583:0:0:0:0:
448,192,17486,128,0,17680:0:0:0:0:
192,192,17583,1,0,0:0:0:0:
320,192,17680,128,0,17873:0:0:0:0:
64,192,17680,1,0,0:0:0:0:
192,192,17777,128,0,17970:0:0:0:0:
64,192,17873,128,0,17970:0:0:0:0:
320,192,17970,1,0,0:0:0:0:
192,192,18067,1,0,0:0:0:0:
448,192,18067,1,0,0:0:0:0:
320,192,18164,1,0,0:0:0:0:
448,192,18164,1,0,0:0:0:0:
64,192,18260,1,0,0:0:0:0:
192,192,18260,1,0,0:0:0:0:
192,192,18357,1,0,0:0:0:0:
320,192,18357,1,0,0:0:0:0:
64,192,18454,128,0,18744:0:0:0:0:
448,192,18454,128,0,18744:0:0:0:0:
192,192,18551,1,0,0:0:0:0:
320,192,18551,1,0,0:0:0:0:
64,192,18841,1,0,0:0:0:0:
192,192,18841,1,0,0:0:0:0:
320,192,18841,1,0,0:0:0:0:
320,192,19035,1,0,0:0:0:0:
448,192,19035,1,0,0:0:0:0:
320,192,19228,128,0,19325:0:0:0:0:
64,192,19228,128,0,19615:0:0:0:0:
192,192,19228,1,0,0:0:0:0:
192,192,19325,1,0,0:0:0:0:
320,192,19422,1,0,0:0:0:0:
192,192,19519,1,0,0:0:0:0:
448,192,19615,1,0,0:0:0:0:
320,192,19615,1,0,0:0:0:0:
192,192,19615,1,0,0:0:0:0:
448,192,19712,1,0,0:0:0:0:
192,192,19809,1,0,0:0:0:0:
64,192,19809,1,0,0:0:0:0:
320,192,20002,1,0,0:0:0:0:
192,192,20002,128,0,20099:0:0:0:0:
448,192,20002,128,0,20390:0:0:0:0:
320,192,20099,1,0,0:0:0:0:
192,192,20196,1,0,0:0:0:0:
320,192,20293,1,0,0:0:0:0:
192,192,20390,1,0,0:0:0:0:
64,192,20390,1,0,0:0:0:0:
320,192,20390,1,0,0:0:0:0:
448,192,20486,1,0,0:0:0:0:
320,192,20583,1,0,0:0:0:0:
64,192,20680,1,0,0:0:0:0:
192,192,20777,1,0,0:0:0:0:
320,192,20777,1,0,0:0:0:0:
448,192,20777,1,0,0:0:0:0:
64,192,20841,1,0,0:0:0:0:
192,192,20906,1,0,0:0:0:0:
320,192,20970,1,0,0:0:0:0:
448,192,21035,1,0,0:0:0:0:
64,192,21099,1,0,0:0:0:0:
192,192,21164,1,0,0:0:0:0:
320,192,21196,1,0,0:0:0:0:
448,192,21228,1,0,0:0:0:0:
64,192,21260,1,0,0:0:0:0:
192,192,21293,1,0,0:0:0:0:
320,192,21325,1,0,0:0:0:0:
448,192,21357,1,0,0:0:0:0:
192,192,21454,1,0,0:0:0:0:
64,192,21454,1,0,0:0:0:0:
320,192,21551,1,0,0:0:0:0:
192,192,21583,1,0,0:0:0:0:
64,192,21615,1,0,0:0:0:0:
448,192,21648,1,0,0:0:0:0:
320,192,21680,1,0,0:0:0:0:
192,192,21712,1,0,0:0:0:0:
64,192,21744,1,0,0:0:0:0:
320,192,21841,1,0,0:0:0:0:
448,192,21841,1,0,0:0:0:0:
192,192,21938,128,0,22131:0:0:0:0:
64,192,21938,1,0,0:0:0:0:
320,192,22131,128,0,22325:0:0:0:0:
448,192,22131,1,0,0:0:0:0:
64,192,22228,1,0,0:0:0:0:
192,192,22325,128,0,22519:0:0:0:0:
448,192,22325,1,0,0:0:0:0:
320,192,22519,128,0,22712:0:0:0:0:
64,192,22519,1,0,0:0:0:0:
448,192,22615,1,0,0:0:0:0:
192,192,22712,128,0,23099:0:0:0:0:
64,192,22712,1,0,0:0:0:0:
64,192,22809,1,0,0:0:0:0:
448,192,22906,1,0,0:0:0:0:
448,192,23002,1,0,0:0:0:0:
320,192,23099,128,0,23486:0:0:0:0:
64,192,23099,1,0,0:0:0:0:
64,192,23196,1,0,0:0:0:0:
448,192,23293,1,0,0:0:0:0:
448,192,23390,1,0,0:0:0:0:
192,192,23486,128,0,23583:0:0:0:0:
64,192,23486,128,0,23583:0:0:0:0:
64,192,23873,128,0,23970:0:0:0:0:
192,192,23873,128,0,23970:0:0:0:0:
320,192,23873,128,0,23970:0:0:0:0:
64,192,24260,128,0,24357:0:0:0:0:
192,192,24260,128,0,24357:0:0:0:0:
320,192,24260,128,0,24357:0:0:0:0:
448,192,24260,128,0,24357:0:0:0:0:
192,192,24454,1,0,0:0:0:0:
320,192,24454,1,0,0:0:0:0:
64,192,24648,128,0,24841:0:0:0:0:
448,192,24648,128,0,24841:0:0:0:0:
320,192,24648,1,0,0:0:0:0:
192,192,24744,1,0,0:0:0:0:
192,192,24841,1,0,0:0:0:0:
320,192,24938,1,0,0:0:0:0:
192,192,25035,128,0,25228:0:0:0:0:
448,192,25035,128,0,25228:0:0:0:0:
64,192,25131,1,0,0:0:0:0:
64,192,25228,1,0,0:0:0:0:
320,192,25325,1,0,0:0:0:0:
192,192,25422,128,0,25615:0:0:0:0:
448,192,25422,128,0,25519:0:0:0:0:
64,192,25519,1,0,0:0:0:0:
320,192,25615,1,0,0:0:0:0:
448,192,25615,1,0,0:0:0:0:
320,192,25712,1,0,0:0:0:0:
64,192,25809,1,0,0:0:0:0:
192,192,25857,1,0,0:0:0:0:
320,192,25906,1,0,0:0:0:0:
448,192,25954,1,0,0:0:0:0:
64,192,26002,1,0,0:0:0:0:
192,192,26051,1,0,0:0:0:0:
320,192,26099,1,0,0:0:0:0:
448,192,26148,1,0,0:0:0:0:
192,192,26196,1,0,0:0:0:0:
64,192,26196,128,0,26293:0:0:0:0:
320,192,26293,1,0,0:0:0:0:
448,192,26293,1,0,0:0:0:0:
64,192,26390,128,0,26486:0:0:0:0:
192,192,26390,1,0,0:0:0:0:
320,192,26486,1,0,0:0:0:0:
448,192,26486,1,0,0:0:0:0:
64,192,26583,128,0,26777:0:0:0:0:
192,192,26583,128,0,26970:0:0:0:0:
320,192,26777,128,0,26970:0:0:0:0:
448,192,26777,1,0,0:0:0:0:
64,192,26970,128,0,27067:0:0:0:0:
448,192,26970,128,0,27067:0:0:0:0:
64,192,27260,128,0,27357:0:0:0:0:
320,192,27260,128,0,27357:0:0:0:0:
64,192,27551,128,0,27648:0:0:0:0:
192,192,27551,128,0,27648:0:0:0:0:
64,192,27744,1,0,0:0:0:0:
192,192,27744,1,0,0:0:0:0:
320,192,27793,1,0,0:0:0:0:
448,192,27841,1,0,0:0:0:0:
64,192,27890,1,0,0:0:0:0:
192,192,27938,1,0,0:0:0:0:
320,192,27938,1,0,0:0:0:0:
448,192,27986,1,0,0:0:0:0:
64,192,28035,1,0,0:0:0:0:
192,192,28083,1,0,0:0:0:0:
320,192,28131,1,0,0:0:0:0:
448,192,28131,128,0,28325:0:0:0:0:
64,192,28325,128,0,28519:0:0:0:0:
192,192,28325,1,0,0:0:0:0:
192,192,28519,128,0,28615:0:0:0:0:
320,192,28615,1,0,0:0:0:0:
192,192,28712,128,0,28809:0:0:0:0:
320,192,28809,1,0,0:0:0:0:
64,192,28906,128,0,29099:0:0:0:0:
448,192,28906,1,0,0:0:0:0:
192,192,29099,1,0,0:0:0:0:
320,192,29099,128,0,29293:0:0:0:0:
64,192,29293,1,0,0:0:0:0:
448,192,29293,128,0,29583:0:0:0:0:
192,192,29341,1,0,0:0:0:0:
320,192,29390,1,0,0:0:0:0:
192,192,29438,1,0,0:0:0:0:
64,192,29486,1,0,0:0:0:0:
320,192,29583,1,0,0:0:0:0:
192,192,29680,128,0,29777:0:0:0:0:
64,192,29680,128,0,29777:0:0:0:0:
448,192,29680,128,0,29777:0:0:0:0:
64,192,29970,128,0,30067:0:0:0:0:
192,192,29970,128,0,30067:0:0:0:0:
448,192,29970,128,0,30067:0:0:0:0:
64,192,30260,128,0,30357:0:0:0:0:
320,192,30260,128,0,30357:0:0:0:0:
448,192,30260,128,0,30357:0:0:0:0:
320,192,30551,1,0,0:0:0:0:
64,192,30599,1,0,0:0:0:0:
320,192,30648,1,0,0:0:0:0:
64,192,30696,1,0,0:0:0:0:
448,192,30744,1,0,0:0:0:0:
192,192,30793,1,0,0:0:0:0:
64,192,30841,128,0,31035:0:0:0:0:
448,192,30841,128,0,31035:0:0:0:0:
192,192,31035,128,0,31228:0:0:0:0:
320,192,31035,128,0,31228:0:0:0:0:
64,192,31228,1,0,0:0:0:0:
192,192,31277,1,0,0:0:0:0:
320,192,31325,1,0,0:0:0:0:
448,192,31422,1,0,0:0:0:0:
320,192,31470,1,0,0:0:0:0:
192,192,31519,1,0,0:0:0:0:
64,192,31615,128,0,31712:0:0:0:0:
320,192,31615,128,0,31712:0:0:0:0:
192,192,31712,128,0,31809:0:0:0:0:
320,192,31809,128,0,31906:0:0:0:0:
192,192,31906,128,0,32002:0:0:0:0:
448,192,31906,128,0,32002:0:0:0:0:
64,192,32002,1,0,0:0:0:0:
192,192,32051,1,0,0:0:0:0:
320,192,32099,1,0,0:0:0:0:
64,192,32148,1,0,0:0:0:0:
448,192,32196,1,0,0:0:0:0:
320,192,32244,1,0,0:0:0:0:
192,192,32293,1,0,0:0:0:0:
448,192,32341,1,0,0:0:0:0:
320,192,32390,1,0,0:0:0:0:
192,192,32438,1,0,0:0:0:0:
64,192,32486,1,0,0:0:0:0:
320,192,32535,1,0,0:0:0:0:
192,192,32583,1,0,0:0:0:0:
320,192,32631,1,0,0:0:0:0:
448,192,32680,1,0,0:0:0:0:
192,192,32728,1,0,0:0:0:0:
320,192,32777,1,0,0:0:0:0:
64,192,32777,128,0,32970:0:0:0:0:
192,192,32970,128,0,33067:0:0:0:0:
320,192,32970,1,0,0:0:0:0:
320,192,33067,1,0,0:0:0:0:
192,192,33164,128,0,33260:0:0:0:0:
448,192,33164,1,0,0:0:0:0:
448,192,33260,1,0,0:0:0:0:
320,192,33357,128,0,33454:0:0:0:0:
64,192,33357,1,0,0:0:0:0:
64,192,33454,1,0,0:0:0:0:
192,192,33551,128,0,33648:0:0:0:0:
448,192,33551,128,0,33744:0:0:0:0:
320,192,33551,128,0,33648:0:0:0:0:
64,192,33744,128,0,33938:0:0:0:0:
192,192,33744,128,0,33841:0:0:0:0:
320,192,33744,128,0,33841:0:0:0:0:
192,192,33938,1,0,0:0:0:0:
320,192,33970,1,0,0:0:0:0:
448,192,34002,1,0,0:0:0:0:
320,192,34131,1,0,0:0:0:0:
192,192,34164,1,0,0:0:0:0:
64,192,34196,1,0,0:0:0:0:
192,192,34325,128,0,34422:0:0:0:0:
448,192,34325,128,0,34519:0:0:0:0:
320,192,34422,1,0,0:0:0:0:
64,192,34519,128,0,34615:0:0:0:0:
192,192,34615,1,0,0:0:0:0:
192,192,34712,1,0,0:0:0:0:
320,192,34712,128,0,34906:0:0:0:0:
64,192,34906,128,0,35099:0:0:0:0:
192,192,34906,1,0,0:0:0:0:
448,192,35002,1,0,0:0:0:0:
192,192,35099,1,0,0:0:0:0:
320,192,35099,1,0,0:0:0:0:
64,192,35196,1,0,0:0:0:0:
448,192,35196,1,0,0:0:0:0:
192,192,35293,1,0,0:0:0:0:
64,192,35390,1,0,0:0:0:0:
448,192,35486,1,0,0:0:0:0:
320,192,35486,128,0,35680:0:0:0:0:
192,192,35583,128,0,35680:0:0:0:0:
64,192,35680,1,0,0:0:0:0:
448,192,35728,1,0,0:0:0:0:
320,192,35777,1,0,0:0:0:0:
192,192,35825,1,0,0:0:0:0:
64,192,35873,1,0,0:0:0:0:
192,192,35970,1,0,0:0:0:0:
64,192,36067,1,0,0:0:0:0:
192,192,36164,1,0,0:0:0:0:
64,192,36260,128,0,36454:0:0:0:0:
192,192,36454,1,0,0:0:0:0:
192,192,36648,128,0,36841:0:0:0:0:
320,192,36744,1,0,0:0:0:0:
448,192,36841,1,0,0:0:0:0:
192,192,36938,1,0,0:0:0:0:
448,192,37035,128,0,37325:0:0:0:0:
64,192,37035,128,0,37228:0:0:0:0:
320,192,37131,128,0,37325:0:0:0:0:
192,192,37228,128,0,37325:0:0:0:0:
64,192,37325,1,0,0:0:0:0:
192,192,37422,128,0,37519:0:0:0:0:
320,192,37422,128,0,37615:0:0:0:0:
448,192,37422,128,0,37712:0:0:0:0:
64,192,37519,1,0,0:0:0:0:
192,192,37615,1,0,0:0:0:0:
320,192,37712,1,0,0:0:0:0:
64,192,37809,128,0,38099:0:0:0:0:
192,192,37809,128,0,38002:0:0:0:0:
448,192,37809,128,0,37906:0:0:0:0:
320,192,37906,1,0,0:0:0:0:
448,192,38002,1,0,0:0:0:0:
192,192,38099,1,0,0:0:0:0:
64,192,38196,128,0,38293:0:0:0:0:
320,192,38196,128,0,38390:0:0:0:0:
448,192,38196,128,0,38486:0:0:0:0:
192,192,38293,1,0,0:0:0:0:
64,192,38390,1,0,0:0:0:0:
320,192,38486,1,0,0:0:0:0:
192,192,38486,1,0,0:0:0:0:
64,192,38583,128,0,38680:0:0:0:0:
192,192,38583,128,0,38777:0:0:0:0:
448,192,38583,128,0,38873:0:0:0:0:
320,192,38680,1,0,0:0:0:0:
64,192,38777,1,0,0:0:0:0:
192,192,38873,1,0,0:0:0:0:
64,192,38970,128,0,39260:0:0:0:0:
320,192,38970,128,0,39164:0:0:0:0:
448,192,38970,128,0,39067:0:0:0:0:
192,192,39067,1,0,0:0:0:0:
448,192,39164,1,0,0:0:0:0:
320,192,39260,1,0,0:0:0:0:
64,192,39357,128,0,39454:0:0:0:0:
192,192,39357,128,0,39551:0:0:0:0:
448,192,39357,128,0,39648:0:0:0:0:
320,192,39454,1,0,0:0:0:0:
64,192,39551,1,0,0:0:0:0:
320,192,39648,1,0,0:0:0:0:
192,192,39648,1,0,0:0:0:0:
64,192,39744,128,0,39938:0:0:0:0:
192,192,39744,128,0,40035:0:0:0:0:
448,192,39744,128,0,39841:0:0:0:0:
320,192,39841,1,0,0:0:0:0:
448,192,39938,1,0,0:0:0:0:
64,192,40035,1,0,0:0:0:0:
192,192,40131,128,0,40228:0:0:0:0:
448,192,40131,128,0,40422:0:0:0:0:
320,192,40131,128,0,40325:0:0:0:0:
64,192,40228,1,0,0:0:0:0:
192,192,40325,1,0,0:0:0:0:
320,192,40422,1,0,0:0:0:0:
192,192,40519,1,0,0:0:0:0:
64,192,40519,128,0,40712:0:0:0:0:
448,192,40519,128,0,40615:0:0:0:0:
320,192,40615,128,0,40712:0:0:0:0:
192,192,40712,128,0,40809:0:0:0:0:
64,192,40809,128,0,40906:0:0:0:0:
448,192,40809,1,0,0:0:0:0:
192,192,40906,1,0,0:0:0:0:
320,192,40906,128,0,41002:0:0:0:0:
448,192,40906,128,0,41002:0:0:0:0:
64,192,41099,128,0,41293:0:0:0:0:
448,192,41099,128,0,41196:0:0:0:0:
192,192,41099,1,0,0:0:0:0:
320,192,41196,128,0,41293:0:0:0:0:
192,192,41293,128,0,41390:0:0:0:0:
64,192,41390,128,0,41486:0:0:0:0:
448,192,41390,1,0,0:0:0:0:
448,192,41486,128,0,41583:0:0:0:0:
320,192,41486,128,0,41583:0:0:0:0:
192,192,41486,1,0,0:0:0:0:
448,192,41680,1,0,0:0:0:0:
320,192,41728,1,0,0:0:0:0:
192,192,41777,1,0,0:0:0:0:
64,192,41825,1,0,0:0:0:0:
448,192,41873,1,0,0:0:0:0:
320,192,41922,1,0,0:0:0:0:
192,192,41970,1,0,0:0:0:0:
64,192,42019,1,0,0:0:0:0:
320,192,42067,1,0,0:0:0:0:
448,192,42067,1,0,0:0:0:0:
192,192,42260,1,0,0:0:0:0:
320,192,42260,1,0,0:0:0:0:
64,192,42260,1,0,0:0:0:0:
192,192,42454,1,0,0:0:0:0:
64,192,42454,1,0,0:0:0:0:
448,192,42454,1,0,0:0:0:0:
448,192,42551,1,0,0:0:0:0:
64,192,42551,1,0,0:0:0:0:
320,192,42551,1,0,0:0:0:0:
192,192,42744,1,0,0:0:0:0:
320,192,42744,1,0,0:0:0:0:
448,192,42744,1,0,0:0:0:0:
64,192,43035,128,0,43422:0:0:0:0:
192,192,43035,128,0,43325:0:0:0:0:
320,192,43035,128,0,43325:0:0:0:0:
448,192,43035,128,0,43422:0:0:0:0:
192,192,43422,1,0,0:0:0:0:
448,192,43519,1,0,0:0:0:0:
320,192,43615,128,0,43712:0:0:0:0:
192,192,43615,128,0,43809:0:0:0:0:
64,192,43615,128,0,43906:0:0:0:0:
448,192,43712,1,0,0:0:0:0:
320,192,43809,1,0,0:0:0:0:
192,192,43906,1,0,0:0:0:0:
448,192,44002,128,0,44293:0:0:0:0:
320,192,44002,128,0,44196:0:0:0:0:
64,192,44002,128,0,44099:0:0:0:0:
192,192,44099,1,0,0:0:0:0:
64,192,44196,1,0,0:0:0:0:
320,192,44293,1,0,0:0:0:0:
448,192,44390,128,0,44486:0:0:0:0:
192,192,44390,128,0,44583:0:0:0:0:
64,192,44390,128,0,44680:0:0:0:0:
320,192,44486,1,0,0:0:0:0:
448,192,44583,1,0,0:0:0:0:
192,192,44680,1,0,0:0:0:0:
320,192,44777,128,0,44970:0:0:0:0:
64,192,44777,128,0,45067:0:0:0:0:
448,192,44777,1,0,0:0:0:0:
192,192,44841,1,0,0:0:0:0:
448,192,44906,1,0,0:0:0:0:
192,192,44970,1,0,0:0:0:0:
320,192,45067,1,0,0:0:0:0:
448,192,45164,128,0,45454:0:0:0:0:
192,192,45164,128,0,45357:0:0:0:0:
64,192,45164,128,0,45260:0:0:0:0:
320,192,45260,128,0,45357:0:0:0:0:
64,192,45357,128,0,45454:0:0:0:0:
192,192,45454,128,0,45551:0:0:0:0:
448,192,45551,128,0,45648:0:0:0:0:
320,192,45551,128,0,45744:0:0:0:0:
64,192,45551,128,0,45841:0:0:0:0:
192,192,45648,128,0,45744:0:0:0:0:
448,192,45744,128,0,45841:0:0:0:0:
192,192,45841,128,0,45938:0:0:0:0:
448,192,45938,128,0,46131:0:0:0:0:
320,192,45938,128,0,46228:0:0:0:0:
64,192,45938,128,0,46035:0:0:0:0:
192,192,46035,128,0,46131:0:0:0:0:
64,192,46131,128,0,46228:0:0:0:0:
448,192,46228,128,0,46325:0:0:0:0:
320,192,46325,128,0,46422:0:0:0:0:
64,192,46325,128,0,46615:0:0:0:0:
192,192,46325,128,0,46519:0:0:0:0:
448,192,46422,128,0,46519:0:0:0:0:
320,192,46519,128,0,46615:0:0:0:0:
192,192,46615,128,0,46712:0:0:0:0:
448,192,46712,128,0,47002:0:0:0:0:
320,192,46809,128,0,47002:0:0:0:0:
192,192,46906,128,0,47002:0:0:0:0:
64,192,47002,1,0,0:0:0:0:
192,192,47099,1,0,0:0:0:0:
320,192,47099,1,0,0:0:0:0:
448,192,47099,1,0,0:0:0:0:
192,192,47196,1,0,0:0:0:0:
64,192,47196,1,0,0:0:0:0:
320,192,47196,1,0,0:0:0:0:
64,192,47390,1,0,0:0:0:0:
192,192,47390,1,0,0:0:0:0:
448,192,47390,1,0,0:0:0:0:
64,192,47583,1,0,0:0:0:0:
320,192,47583,1,0,0:0:0:0:
448,192,47583,1,0,0:0:0:0:
64,192,47777,1,0,0:0:0:0:
192,192,47777,1,0,0:0:0:0:
320,192,47777,1,0,0:0:0:0:
192,192,47873,1,0,0:0:0:0:
320,192,47873,1,0,0:0:0:0:
448,192,47873,128,0,48067:0:0:0:0:
64,192,48067,128,0,48260:0:0:0:0:
320,192,48164,1,0,0:0:0:0:
192,192,48260,128,0,48357:0:0:0:0:
448,192,48260,128,0,48454:0:0:0:0:
320,192,48357,1,0,0:0:0:0:
192,192,48454,128,0,48551:0:0:0:0:
64,192,48551,1,0,0:0:0:0:
320,192,48648,128,0,48841:0:0:0:0:
448,192,48648,128,0,48744:0:0:0:0:
192,192,48744,1,0,0:0:0:0:
64,192,48841,128,0,48938:0:0:0:0:
320,192,48938,1,0,0:0:0:0:
192,192,49035,128,0,49131:0:0:0:0:
64,192,49035,1,0,0:0:0:0:
448,192,49131,128,0,49228:0:0:0:0:
64,192,49228,128,0,49325:0:0:0:0:
192,192,49228,1,0,0:0:0:0:
320,192,49325,128,0,49422:0:0:0:0:
64,192,49422,1,0,0:0:0:0:
192,192,49422,1,0,0:0:0:0:
64,192,49519,1,0,0:0:0:0:
192,192,49519,1,0,0:0:0:0:
320,192,49615,1,0,0:0:0:0:
448,192,49615,1,0,0:0:0:0:
320,192,49712,1,0,0:0:0:0:
448,192,49712,1,0,0:0:0:0:
64,192,49809,128,0,50196:0:0:0:0:
192,192,49809,128,0,49906:0:0:0:0:
448,192,50002,1,0,0:0:0:0:
320,192,50002,1,0,0:0:0:0:
192,192,50099,1,0,0:0:0:0:
320,192,50196,1,0,0:0:0:0:
448,192,50196,128,0,50390:0:0:0:0:
64,192,50390,1,0,0:0:0:0:
192,192,50438,1,0,0:0:0:0:
320,192,50486,1,0,0:0:0:0:
448,192,50535,1,0,0:0:0:0:
192,192,50583,1,0,0:0:0:0:
64,192,50680,128,0,50777:0:0:0:0:
320,192,50680,128,0,50777:0:0:0:0:
448,192,50777,1,0,0:0:0:0:
192,192,50873,128,0,50970:0:0:0:0:
320,192,50873,128,0,50970:0:0:0:0:
64,192,50970,128,0,51164:0:0:0:0:
448,192,50970,1,0,0:0:0:0:
192,192,51067,1,0,0:0:0:0:
320,192,51164,128,0,51357:0:0:0:0:
448,192,51164,1,0,0:0:0:0:
192,192,51260,1,0,0:0:0:0:
448,192,51357,128,0,51744:0:0:0:0:
64,192,51357,128,0,51454:0:0:0:0:
320,192,51454,1,0,0:0:0:0:
64,192,51551,1,0,0:0:0:0:
192,192,51551,1,0,0:0:0:0:
320,192,51648,1,0,0:0:0:0:
192,192,51744,1,0,0:0:0:0:
64,192,51744,128,0,52131:0:0:0:0:
448,192,51841,1,0,0:0:0:0:
320,192,51938,1,0,0:0:0:0:
192,192,51938,1,0,0:0:0:0:
448,192,52035,128,0,52131:0:0:0:0:
320,192,52131,1,0,0:0:0:0:
448,192,52228,128,0,52325:0:0:0:0:
192,192,52228,128,0,52325:0:0:0:0:
64,192,52325,1,0,0:0:0:0:
320,192,52422,128,0,52519:0:0:0:0:
192,192,52422,128,0,52519:0:0:0:0:
448,192,52519,128,0,52712:0:0:0:0:
64,192,52519,1,0,0:0:0:0:
320,192,52615,1,0,0:0:0:0:
64,192,52712,1,0,0:0:0:0:
192,192,52760,1,0,0:0:0:0:
320,192,52809,1,0,0:0:0:0:
448,192,52857,1,0,0:0:0:0:
64,192,52906,128,0,53293:0:0:0:0:
192,192,52906,128,0,53099:0:0:0:0:
192,192,53196,1,0,0:0:0:0:
320,192,53293,1,0,0:0:0:0:
448,192,53293,128,0,53680:0:0:0:0:
64,192,53390,1,0,0:0:0:0:
192,192,53486,1,0,0:0:0:0:
320,192,53486,1,0,0:0:0:0:
64,192,53583,1,0,0:0:0:0:
192,192,53680,1,0,0:0:0:0:
320,192,53777,128,0,53873:0:0:0:0:
64,192,53777,128,0,53873:0:0:0:0:
448,192,53873,1,0,0:0:0:0:
320,192,53970,128,0,54067:0:0:0:0:
64,192,53970,128,0,54067:0:0:0:0:
448,192,54067,1,0,0:0:0:0:
192,192,54067,128,0,54260:0:0:0:0:
64,192,54164,1,0,0:0:0:0:
320,192,54260,128,0,54454:0:0:0:0:
448,192,54260,1,0,0:0:0:0:
448,192,54454,128,0,54841:0:0:0:0:
192,192,54454,128,0,54744:0:0:0:0:
320,192,54744,1,0,0:0:0:0:
192,192,54841,1,0,0:0:0:0:
64,192,54841,128,0,55131:0:0:0:0:
448,192,55035,1,0,0:0:0:0:
320,192,55099,1,0,0:0:0:0:
192,192,55164,1,0,0:0:0:0:
448,192,55228,1,0,0:0:0:0:
64,192,55228,1,0,0:0:0:0:
448,192,55325,1,0,0:0:0:0:
64,192,55325,1,0,0:0:0:0:
192,192,55422,1,0,0:0:0:0:
320,192,55422,1,0,0:0:0:0:
192,192,55519,1,0,0:0:0:0:
320,192,55519,1,0,0:0:0:0:
448,192,55615,128,0,55809:0:0:0:0:
64,192,55615,1,0,0:0:0:0:
192,192,55664,1,0,0:0:0:0:
320,192,55712,1,0,0:0:0:0:
192,192,55809,128,0,56002:0:0:0:0:
64,192,55809,1,0,0:0:0:0:
64,192,55906,1,0,0:0:0:0:
448,192,56002,128,0,56293:0:0:0:0:
320,192,56002,1,0,0:0:0:0:
192,192,56099,1,0,0:0:0:0:
64,192,56196,1,0,0:0:0:0:
320,192,56293,128,0,56583:0:0:0:0:
192,192,56293,1,0,0:0:0:0:
64,192,56390,1,0,0:0:0:0:
448,192,56486,1,0,0:0:0:0:
192,192,56583,128,0,56777:0:0:0:0:
64,192,56583,1,0,0:0:0:0:
320,192,56680,1,0,0:0:0:0:
64,192,56777,128,0,57067:0:0:0:0:
448,192,56777,1,0,0:0:0:0:
320,192,56873,1,0,0:0:0:0:
448,192,56970,1,0,0:0:0:0:
320,192,57067,1,0,0:0:0:0:
192,192,57067,128,0,57357:0:0:0:0:
448,192,57164,1,0,0:0:0:0:
64,192,57260,1,0,0:0:0:0:
448,192,57357,1,0,0:0:0:0:
320,192,57357,128,0,57551:0:0:0:0:
192,192,57454,1,0,0:0:0:0:
448,192,57551,128,0,57841:0:0:0:0:
64,192,57551,1,0,0:0:0:0:
192,192,57648,1,0,0:0:0:0:
64,192,57744,1,0,0:0:0:0:
320,192,57841,128,0,58131:0:0:0:0:
192,192,57841,1,0,0:0:0:0:
64,192,57938,1,0,0:0:0:0:
448,192,58035,1,0,0:0:0:0:
192,192,58131,128,0,58325:0:0:0:0:
64,192,58131,1,0,0:0:0:0:
320,192,58228,1,0,0:0:0:0:
64,192,58325,128,0,58615:0:0:0:0:
448,192,58325,1,0,0:0:0:0:
320,192,58422,1,0,0:0:0:0:
448,192,58519,1,0,0:0:0:0:
320,192,58615,1,0,0:0:0:0:
192,192,58615,128,0,58906:0:0:0:0:
448,192,58712,1,0,0:0:0:0:
64,192,58809,1,0,0:0:0:0:
448,192,58906,1,0,0:0:0:0:
320,192,58954,1,0,0:0:0:0:
192,192,59002,1,0,0:0:0:0:
64,192,59051,1,0,0:0:0:0:
320,192,59099,1,0,0:0:0:0:
448,192,59099,1,0,0:0:0:0:
448,192,59196,1,0,0:0:0:0:
320,192,59196,1,0,0:0:0:0:
64,192,59293,1,0,0:0:0:0:
192,192,59293,1,0,0:0:0:0:
64,192,59390,1,0,0:0:0:0:
192,192,59390,1,0,0:0:0:0:
192,192,59486,1,0,0:0:0:0:
448,192,59486,1,0,0:0:0:0:
192,192,59583,1,0,0:0:0:0:
448,192,59583,1,0,0:0:0:0:
64,192,59680,1,0,0:0:0:0:
320,192,59680,1,0,0:0:0:0:
64,192,59777,1,0,0:0:0:0:
320,192,59777,1,0,0:0:0:0:
192,192,59873,1,0,0:0:0:0:
320,192,59922,1,0,0:0:0:0:
448,192,59970,1,0,0:0:0:0:
192,192,60067,1,0,0:0:0:0:
64,192,60067,1,0,0:0:0:0:
320,192,60115,1,0,0:0:0:0:
64,192,60164,1,0,0:0:0:0:
192,192,60164,1,0,0:0:0:0:
320,192,60260,1,0,0:0:0:0:
192,192,60309,1,0,0:0:0:0:
64,192,60357,1,0,0:0:0:0:
320,192,60454,1,0,0:0:0:0:
448,192,60454,1,0,0:0:0:0:
192,192,60502,1,0,0:0:0:0:
320,192,60551,1,0,0:0:0:0:
448,192,60551,1,0,0:0:0:0:
64,192,60648,128,0,60841:0:0:0:0:
192,192,60648,1,0,0:0:0:0:
192,192,60841,128,0,61035:0:0:0:0:
320,192,61035,1,0,0:0:0:0:
448,192,61035,128,0,61228:0:0:0:0:
320,192,61228,128,0,61422:0:0:0:0:
192,192,61422,128,0,61809:0:0:0:0:
64,192,61422,1,0,0:0:0:0:
320,192,61615,128,0,61809:0:0:0:0:
448,192,61615,1,0,0:0:0:0:
64,192,61809,128,0,62099:0:0:0:0:
448,192,61809,128,0,62099:0:0:0:0:
192,192,62196,128,0,62680:0:0:0:0:
64,192,62196,128,0,62777:0:0:0:0:
320,192,62196,128,0,62486:0:0:0:0:
448,192,62196,128,0,62583:0:0:0:0:
320,192,62583,128,0,62873:0:0:0:0:
448,192,62680,128,0,63260:0:0:0:0:
192,192,62777,128,0,63067:0:0:0:0:
64,192,62873,128,0,63454:0:0:0:0:
320,192,62970,1,0,0:0:0:0:
320,192,63067,1,0,0:0:0:0:
192,192,63164,1,0,0:0:0:0:
192,192,63260,1,0,0:0:0:0:
448,192,63357,1,0,0:0:0:0:
320,192,63357,1,0,0:0:0:0:
448,192,63454,1,0,0:0:0:0:
192,192,63551,1,0,0:0:0:0:
64,192,63648,1,0,0:0:0:0:
192,192,63744,128,0,63873:0:0:0:0:
448,192,63744,1,0,0:0:0:0:
320,192,63787,128,0,63916:0:0:0:0:
64,192,63938,128,0,64067:0:0:0:0:
192,192,63986,128,0,64107:0:0:0:0:
320,192,64035,128,0,64156:0:0:0:0:
448,192,64131,1,0,0:0:0:0:
64,192,64180,1,0,0:0:0:0:
320,192,64228,1,0,0:0:0:0:
192,192,64325,128,0,64422:0:0:0:0:
320,192,64422,1,0,0:0:0:0:
64,192,64519,128,0,64906:0:0:0:0:
192,192,64519,128,0,64615:0:0:0:0:
192,192,64906,1,0,0:0:0:0:
320,192,64906,128,0,65099:0:0:0:0:
192,192,65099,128,0,65293:0:0:0:0:
64,192,65293,128,0,65583:0:0:0:0:
448,192,65293,128,0,65583:0:0:0:0:
320,192,65341,128,0,65583:0:0:0:0:
192,192,65390,128,0,65583:0:0:0:0:
64,192,65680,1,0,0:0:0:0:
192,192,65680,1,0,0:0:0:0:
320,192,65680,1,0,0:0:0:0:
448,192,65680,1,0,0:0:0:0:
64,192,65970,1,0,0:0:0:0:
192,192,65970,1,0,0:0:0:0:
320,192,65970,1,0,0:0:0:0:
448,192,65970,1,0,0:0:0:0:
64,192,66164,1,0,0:0:0:0:
192,192,66164,1,0,0:0:0:0:
320,192,66164,1,0,0:0:0:0:
448,192,66164,1,0,0:0:0:0:
64,192,66357,1,0,0:0:0:0:
192,192,66357,1,0,0:0:0:0:
320,192,66357,1,0,0:0:0:0:
448,192,66357,1,0,0:0:0:0:
64,192,66454,1,0,0:0:0:0:
192,192,66454,1,0,0:0:0:0:
320,192,66454,1,0,0:0:0:0:
448,192,66454,1,0,0:0:0:0:
64,192,66648,1,0,0:0:0:0:
192,192,66648,1,0,0:0:0:0:
320,192,66648,1,0,0:0:0:0:
448,192,66648,1,0,0:0:0:0:
448,192,66841,128,0,67228:0:0:0:0:
64,192,66841,1,0,0:0:0:0:
192,192,66841,1,0,0:0:0:0:
320,192,66841,1,0,0:0:0:0:
320,192,67228,128,0,67519:0:0:0:0:
192,192,67228,1,0,0:0:0:0:
64,192,67228,1,0,0:0:0:0:
64,192,67519,1,0,0:0:0:0:
448,192,67519,1,0,0:0:0:0:
192,192,67519,128,0,67906:0:0:0:0:
320,192,67712,128,0,68099:0:0:0:0:
192,192,68002,1,0,0:0:0:0:
320,192,68196,1,0,0:0:0:0:
64,192,68390,1,0,0:0:0:0:
192,192,68390,1,0,0:0:0:0:
320,192,68390,1,0,0:0:0:0:
64,192,68583,1,0,0:0:0:0:
192,192,68583,1,0,0:0:0:0:
320,192,68583,1,0,0:0:0:0:
64,192,68777,1,0,0:0:0:0:
192,192,68777,1,0,0:0:0:0:
320,192,68777,128,0,68873:0:0:0:0:
448,192,68873,128,0,68970:0:0:0:0:
320,192,68970,128,0,69067:0:0:0:0:
448,192,69067,128,0,69164:0:0:0:0:
64,192,69164,1,0,0:0:0:0:
320,192,69164,1,0,0:0:0:0:
192,192,69164,128,0,69260:0:0:0:0:
448,192,69260,128,0,69357:0:0:0:0:
192,192,69357,128,0,69454:0:0:0:0:
320,192,69454,128,0,69551:0:0:0:0:
192,192,69551,1,0,0:0:0:0:
448,192,69551,1,0,0:0:0:0:
64,192,69551,128,0,69648:0:0:0:0:
320,192,69648,128,0,69744:0:0:0:0:
64,192,69744,128,0,69841:0:0:0:0:
320,192,69841,128,0,69938:0:0:0:0:
64,192,69938,1,0,0:0:0:0:
448,192,69938,1,0,0:0:0:0:
192,192,69938,128,0,70035:0:0:0:0:
320,192,70035,128,0,70131:0:0:0:0:
192,192,70131,128,0,70228:0:0:0:0:
320,192,70228,128,0,70325:0:0:0:0:
64,192,70325,1,0,0:0:0:0:
448,192,70325,1,0,0:0:0:0:
192,192,70325,128,0,70422:0:0:0:0:
320,192,70422,128,0,70519:0:0:0:0:
64,192,70519,128,0,70615:0:0:0:0:
448,192,70615,128,0,70712:0:0:0:0:
64,192,70712,128,0,70809:0:0:0:0:
192,192,70712,128,0,70809:0:0:0:0:
448,192,70809,128,0,70906:0:0:0:0:
320,192,70809,128,0,70906:0:0:0:0:
64,192,70906,128,0,71002:0:0:0:0:
192,192,70906,128,0,71002:0:0:0:0:
448,192,71002,128,0,71099:0:0:0:0:
320,192,71002,128,0,71099:0:0:0:0:
192,192,71099,128,0,71293:0:0:0:0:
64,192,71099,1,0,0:0:0:0:
192,192,71486,128,0,71559:0:0:0:0:
320,192,71510,128,0,71583:0:0:0:0:
448,192,71873,128,0,71970:0:0:0:0:
320,192,71970,128,0,72067:0:0:0:0:
192,192,72067,128,0,72164:0:0:0:0:
64,192,72067,1,0,0:0:0:0:
448,192,72164,1,0,0:0:0:0:
64,192,72260,128,0,72357:0:0:0:0:
320,192,72260,1,0,0:0:0:0:
192,192,72357,128,0,72454:0:0:0:0:
320,192,72454,128,0,72744:0:0:0:0:
64,192,72551,1,0,0:0:0:0:
448,192,72648,128,0,72744:0:0:0:0:
192,192,72744,128,0,72841:0:0:0:0:
448,192,72841,1,0,0:0:0:0:
64,192,72841,128,0,73519:0:0:0:0:
320,192,72938,1,0,0:0:0:0:
448,192,73035,1,0,0:0:0:0:
192,192,73035,128,0,73325:0:0:0:0:
320,192,73228,128,0,73325:0:0:0:0:
448,192,73325,1,0,0:0:0:0:
320,192,73422,128,0,73809:0:0:0:0:
448,192,73519,128,0,73712:0:0:0:0:
192,192,73615,128,0,73809:0:0:0:0:
64,192,73615,1,0,0:0:0:0:
448,192,73809,128,0,73906:0:0:0:0:
320,192,73881,1,0,0:0:0:0:
64,192,74002,128,0,74099:0:0:0:0:
192,192,74075,1,0,0:0:0:0:
320,192,74196,128,0,74390:0:0:0:0:
448,192,74196,128,0,74486:0:0:0:0:
64,192,74293,128,0,74486:0:0:0:0:
192,192,74390,128,0,74486:0:0:0:0:
320,192,74486,1,0,0:0:0:0:
64,192,74583,128,0,74873:0:0:0:0:
192,192,74615,1,0,0:0:0:0:
320,192,74648,1,0,0:0:0:0:
448,192,74680,128,0,74873:0:0:0:0:
192,192,74777,1,0,0:0:0:0:
320,192,74873,1,0,0:0:0:0:
192,192,74970,1,0,0:0:0:0:
64,192,74970,1,0,0:0:0:0:
448,192,74970,1,0,0:0:0:0:
192,192,75067,1,0,0:0:0:0:
64,192,75067,1,0,0:0:0:0:
320,192,75164,1,0,0:0:0:0:
448,192,75164,1,0,0:0:0:0:
192,192,75260,1,0,0:0:0:0:
320,192,75260,1,0,0:0:0:0:
64,192,75357,1,0,0:0:0:0:
192,192,75357,1,0,0:0:0:0:
448,192,75357,1,0,0:0:0:0:
320,192,75454,1,0,0:0:0:0:
448,192,75454,1,0,0:0:0:0:
192,192,75551,1,0,0:0:0:0:
320,192,75551,1,0,0:0:0:0:
64,192,75648,1,0,0:0:0:0:
192,192,75648,1,0,0:0:0:0:
64,192,75744,1,0,0:0:0:0:
320,192,75744,1,0,0:0:0:0:
448,192,75744,1,0,0:0:0:0:
320,192,75841,1,0,0:0:0:0:
192,192,75841,1,0,0:0:0:0:
192,192,75938,1,0,0:0:0:0:
64,192,75938,1,0,0:0:0:0:
448,192,76035,1,0,0:0:0:0:
320,192,76035,1,0,0:0:0:0:
320,192,76131,1,0,0:0:0:0:
448,192,76131,1,0,0:0:0:0:
192,192,76131,1,0,0:0:0:0:
64,192,76228,1,0,0:0:0:0:
192,192,76228,1,0,0:0:0:0:
64,192,76325,1,0,0:0:0:0:
320,192,76325,1,0,0:0:0:0:
320,192,76422,1,0,0:0:0:0:
448,192,76422,1,0,0:0:0:0:
192,192,76519,1,0,0:0:0:0:
64,192,76519,1,0,0:0:0:0:
448,192,76519,1,0,0:0:0:0:
192,192,76615,1,0,0:0:0:0:
320,192,76615,1,0,0:0:0:0:
320,192,76712,1,0,0:0:0:0:
448,192,76712,1,0,0:0:0:0:
192,192,76809,1,0,0:0:0:0:
64,192,76809,1,0,0:0:0:0:
320,192,76906,128,0,77002:0:0:0:0:
448,192,76906,128,0,77099:0:0:0:0:
192,192,77002,128,0,77099:0:0:0:0:
64,192,77002,128,0,77196:0:0:0:0:
320,192,77099,128,0,77196:0:0:0:0:
192,192,77196,128,0,77293:0:0:0:0:
448,192,77196,128,0,77293:0:0:0:0:
64,192,77293,128,0,77390:0:0:0:0:
320,192,77293,1,0,0:0:0:0:
192,192,77390,1,0,0:0:0:0:
320,192,77486,1,0,0:0:0:0:
448,192,77583,1,0,0:0:0:0:
64,192,77680,128,0,78002:0:0:0:0:
448,192,77712,128,0,78002:0:0:0:0:
64,192,78067,1,0,0:0:0:0:
192,192,78067,1,0,0:0:0:0:
320,192,78067,1,0,0:0:0:0:
448,192,78067,1,0,0:0:0:0:
64,192,78260,1,0,0:0:0:0:
192,192,78260,1,0,0:0:0:0:
320,192,78260,1,0,0:0:0:0:
448,192,78260,1,0,0:0:0:0:
64,192,78357,1,0,0:0:0:0:
192,192,78357,1,0,0:0:0:0:
320,192,78357,1,0,0:0:0:0:
448,192,78357,1,0,0:0:0:0:
64,192,78551,1,0,0:0:0:0:
192,192,78551,1,0,0:0:0:0:
320,192,78551,1,0,0:0:0:0:
448,192,78551,1,0,0:0:0:0:
64,192,78744,1,0,0:0:0:0:
192,192,78744,1,0,0:0:0:0:
320,192,78744,1,0,0:0:0:0:
448,192,78744,1,0,0:0:0:0:
64,192,78841,1,0,0:0:0:0:
192,192,78841,1,0,0:0:0:0:
320,192,78841,1,0,0:0:0:0:
448,192,78841,1,0,0:0:0:0:
64,192,79035,1,0,0:0:0:0:
192,192,79035,1,0,0:0:0:0:
320,192,79035,1,0,0:0:0:0:
448,192,79035,1,0,0:0:0:0:
448,192,79228,128,0,79615:0:0:0:0:
64,192,79228,1,0,0:0:0:0:
192,192,79228,1,0,0:0:0:0:
320,192,79228,1,0,0:0:0:0:
320,192,79615,128,0,79906:0:0:0:0:
192,192,79615,1,0,0:0:0:0:
64,192,79615,1,0,0:0:0:0:
64,192,79906,1,0,0:0:0:0:
448,192,79906,1,0,0:0:0:0:
192,192,79906,128,0,80099:0:0:0:0:
320,192,80002,128,0,80390:0:0:0:0:
192,192,80196,1,0,0:0:0:0:
192,192,80390,1,0,0:0:0:0:
448,192,80390,128,0,80680:0:0:0:0:
320,192,80486,128,0,80680:0:0:0:0:
192,192,80583,128,0,80680:0:0:0:0:
64,192,80680,1,0,0:0:0:0:
448,192,80777,1,0,0:0:0:0:
320,192,80777,1,0,0:0:0:0:
192,192,80777,1,0,0:0:0:0:
448,192,80970,1,0,0:0:0:0:
320,192,80970,1,0,0:0:0:0:
192,192,80970,1,0,0:0:0:0:
448,192,81164,1,0,0:0:0:0:
320,192,81164,1,0,0:0:0:0:
192,192,81164,128,0,81260:0:0:0:0:
64,192,81260,128,0,81357:0:0:0:0:
192,192,81357,128,0,81454:0:0:0:0:
64,192,81454,128,0,81551:0:0:0:0:
448,192,81551,1,0,0:0:0:0:
192,192,81551,1,0,0:0:0:0:
320,192,81551,128,0,81648:0:0:0:0:
64,192,81648,128,0,81744:0:0:0:0:
320,192,81744,128,0,81841:0:0:0:0:
192,192,81841,128,0,81938:0:0:0:0:
320,192,81938,1,0,0:0:0:0:
64,192,81938,1,0,0:0:0:0:
448,192,81938,128,0,82035:0:0:0:0:
192,192,82035,128,0,82131:0:0:0:0:
448,192,82131,128,0,82228:0:0:0:0:
192,192,82228,128,0,82325:0:0:0:0:
448,192,82325,1,0,0:0:0:0:
64,192,82325,1,0,0:0:0:0:
320,192,82325,1,0,0:0:0:0:
320,192,82422,1,0,0:0:0:0:
192,192,82422,1,0,0:0:0:0:
64,192,82519,1,0,0:0:0:0:
448,192,82519,1,0,0:0:0:0:
192,192,82615,1,0,0:0:0:0:
320,192,82615,1,0,0:0:0:0:
64,192,82712,1,0,0:0:0:0:
192,192,82712,1,0,0:0:0:0:
448,192,82712,128,0,82809:0:0:0:0:
64,192,82809,128,0,82906:0:0:0:0:
448,192,82906,128,0,83002:0:0:0:0:
320,192,82906,1,0,0:0:0:0:
64,192,83002,128,0,83099:0:0:0:0:
192,192,83002,1,0,0:0:0:0:
448,192,83099,128,0,83196:0:0:0:0:
320,192,83099,128,0,83196:0:0:0:0:
64,192,83196,128,0,83293:0:0:0:0:
192,192,83196,128,0,83293:0:0:0:0:
448,192,83293,128,0,83390:0:0:0:0:
320,192,83293,128,0,83390:0:0:0:0:
64,192,83390,128,0,83486:0:0:0:0:
192,192,83390,128,0,83486:0:0:0:0:
320,192,83486,128,0,83680:0:0:0:0:
448,192,83486,1,0,0:0:0:0:
320,192,83873,128,0,83946:0:0:0:0:
192,192,83898,128,0,83970:0:0:0:0:
64,192,84067,1,0,0:0:0:0:
192,192,84115,1,0,0:0:0:0:
320,192,84164,1,0,0:0:0:0:
448,192,84212,1,0,0:0:0:0:
64,192,84260,128,0,84357:0:0:0:0:
192,192,84260,1,0,0:0:0:0:
448,192,84357,128,0,84454:0:0:0:0:
192,192,84454,128,0,84648:0:0:0:0:
320,192,84551,1,0,0:0:0:0:
448,192,84648,128,0,84744:0:0:0:0:
64,192,84648,1,0,0:0:0:0:
320,192,84744,128,0,84841:0:0:0:0:
64,192,84841,1,0,0:0:0:0:
192,192,84841,128,0,85035:0:0:0:0:
448,192,84938,1,0,0:0:0:0:
320,192,85035,1,0,0:0:0:0:
64,192,85035,128,0,85422:0:0:0:0:
192,192,85131,1,0,0:0:0:0:
320,192,85228,128,0,85325:0:0:0:0:
448,192,85325,128,0,85712:0:0:0:0:
320,192,85422,128,0,85809:0:0:0:0:
192,192,85422,1,0,0:0:0:0:
64,192,85615,128,0,85712:0:0:0:0:
192,192,85712,128,0,85809:0:0:0:0:
64,192,85809,128,0,86099:0:0:0:0:
448,192,85809,128,0,86002:0:0:0:0:
192,192,85906,128,0,86099:0:0:0:0:
320,192,86002,128,0,86196:0:0:0:0:
448,192,86099,128,0,86196:0:0:0:0:
64,192,86196,128,0,86293:0:0:0:0:
192,192,86269,1,0,0:0:0:0:
448,192,86390,128,0,86486:0:0:0:0:
320,192,86462,1,0,0:0:0:0:
64,192,86583,128,0,86680:0:0:0:0:
192,192,86656,1,0,0:0:0:0:
448,192,86777,128,0,86873:0:0:0:0:
320,192,86849,1,0,0:0:0:0:
448,192,86970,128,0,96164:0:0:0:0:
320,192,86970,128,0,96164:0:0:0:0:
192,192,86970,128,0,94615:0:0:0:0:
64,192,86970,128,0,93067:0:0:0:0:
64,192,93164,128,0,96164:0:0:0:0:
192,192,94712,128,0,96164:0:0:0:0:
448,192,96260,1,0,0:0:0:0:
320,192,96325,1,0,0:0:0:0:
192,192,96390,1,0,0:0:0:0:
448,192,96454,1,0,0:0:0:0:
64,192,96519,1,0,0:0:0:0:
192,192,96583,1,0,0:0:0:0:
320,192,96648,1,0,0:0:0:0:
64,192,96712,1,0,0:0:0:0:
448,192,96777,1,0,0:0:0:0:
320,192,96841,1,0,0:0:0:0:
192,192,96906,1,0,0:0:0:0:
448,192,96970,1,0,0:0:0:0:
64,192,97035,1,0,0:0:0:0:
192,192,97083,1,0,0:0:0:0:
320,192,97131,1,0,0:0:0:0:
64,192,97180,1,0,0:0:0:0:
448,192,97228,1,0,0:0:0:0:
320,192,97277,1,0,0:0:0:0:
192,192,97325,1,0,0:0:0:0:
448,192,97373,1,0,0:0:0:0:
64,192,97422,1,0,0:0:0:0:
192,192,97470,1,0,0:0:0:0:
320,192,97519,1,0,0:0:0:0:
64,192,97567,1,0,0:0:0:0:
448,192,97615,1,0,0:0:0:0:
320,192,97664,1,0,0:0:0:0:
192,192,97712,1,0,0:0:0:0:
448,192,97760,1,0,0:0:0:0:
64,192,97809,1,0,0:0:0:0:
192,192,97852,1,0,0:0:0:0:
320,192,97895,1,0,0:0:0:0:
448,192,97938,1,0,0:0:0:0:
64,192,97981,1,0,0:0:0:0:
192,192,98024,1,0,0:0:0:0:
320,192,98067,1,0,0:0:0:0:
448,192,98110,1,0,0:0:0:0:
64,192,98153,1,0,0:0:0:0:
192,192,98196,1,0,0:0:0:0:
320,192,98239,1,0,0:0:0:0:
448,192,98282,1,0,0:0:0:0:
64,192,98325,1,0,0:0:0:0:
192,192,98368,1,0,0:0:0:0:
320,192,98411,1,0,0:0:0:0:
448,192,98454,1,0,0:0:0:0:
64,192,98497,1,0,0:0:0:0:
192,192,98540,1,0,0:0:0:0:
320,192,98583,1,0,0:0:0:0:
448,192,98626,1,0,0:0:0:0:
64,192,98669,1,0,0:0:0:0:
192,192,98712,1,0,0:0:0:0:
320,192,98755,1,0,0:0:0:0:
448,192,98798,1,0,0:0:0:0:
64,192,98841,1,0,0:0:0:0:
192,192,98884,1,0,0:0:0:0:
320,192,98927,1,0,0:0:0:0:
448,192,98970,1,0,0:0:0:0:
64,192,98970,128,0,99260:0:0:0:0:
192,192,99067,128,0,99260:0:0:0:0:
448,192,99164,128,0,99260:0:0:0:0:
320,192,99260,128,0,99357:0:0:0:0:
192,192,99357,1,0,0:0:0:0:
64,192,99357,128,0,99551:0:0:0:0:
448,192,99357,128,0,99551:0:0:0:0:
192,192,99551,1,0,0:0:0:0:
320,192,99599,1,0,0:0:0:0:
192,192,99648,1,0,0:0:0:0:
320,192,99696,1,0,0:0:0:0:
64,192,99744,1,0,0:0:0:0:
192,192,99793,1,0,0:0:0:0:
320,192,99841,128,0,99938:0:0:0:0:
192,192,99938,128,0,100035:0:0:0:0:
320,192,100035,128,0,100131:0:0:0:0:
448,192,100131,128,0,100228:0:0:0:0:
64,192,100131,128,0,100228:0:0:0:0:
192,192,100325,128,0,100422:0:0:0:0:
320,192,100325,128,0,100519:0:0:0:0:
448,192,100325,128,0,100615:0:0:0:0:
64,192,100325,1,0,0:0:0:0:
64,192,100712,128,0,101196:0:0:0:0:
192,192,100712,128,0,101002:0:0:0:0:
320,192,100712,128,0,100809:0:0:0:0:
448,192,100712,1,0,0:0:0:0:
448,192,100906,1,0,0:0:0:0:
448,192,101002,1,0,0:0:0:0:
320,192,101099,1,0,0:0:0:0:
192,192,101148,1,0,0:0:0:0:
320,192,101196,1,0,0:0:0:0:
64,192,101293,1,0,0:0:0:0:
192,192,101293,128,0,101390:0:0:0:0:
320,192,101390,128,0,101486:0:0:0:0:
320,192,101583,128,0,101680:0:0:0:0:
64,192,101680,128,0,102067:0:0:0:0:
448,192,101680,128,0,101970:0:0:0:0:
192,192,101680,128,0,101873:0:0:0:0:
320,192,101873,1,0,0:0:0:0:
192,192,101970,1,0,0:0:0:0:
320,192,102067,128,0,102164:0:0:0:0:
192,192,102131,1,0,0:0:0:0:
64,192,102196,128,0,102293:0:0:0:0:
320,192,102260,1,0,0:0:0:0:
192,192,102309,1,0,0:0:0:0:
448,192,102325,128,0,102422:0:0:0:0:
320,192,102390,1,0,0:0:0:0:
192,192,102454,1,0,0:0:0:0:
64,192,102454,128,0,102551:0:0:0:0:
192,192,102648,1,0,0:0:0:0:
64,192,102648,128,0,102744:0:0:0:0:
320,192,102744,1,0,0:0:0:0:
448,192,102744,128,0,102841:0:0:0:0:
64,192,102841,128,0,102938:0:0:0:0:
192,192,102890,1,0,0:0:0:0:
320,192,102938,1,0,0:0:0:0:
192,192,103035,128,0,103131:0:0:0:0:
320,192,103083,1,0,0:0:0:0:
448,192,103131,1,0,0:0:0:0:
64,192,103228,128,0,103325:0:0:0:0:
192,192,103252,1,0,0:0:0:0:
64,192,103422,128,0,103519:0:0:0:0:
192,192,103422,1,0,0:0:0:0:
320,192,103422,1,0,0:0:0:0:
448,192,103519,128,0,103615:0:0:0:0:
64,192,103615,128,0,103712:0:0:0:0:
448,192,103712,128,0,103809:0:0:0:0:
64,192,103809,128,0,103906:0:0:0:0:
320,192,103809,128,0,104196:0:0:0:0:
192,192,103809,128,0,103954:0:0:0:0:
448,192,103906,128,0,104002:0:0:0:0:
64,192,104002,1,0,0:0:0:0:
192,192,104051,1,0,0:0:0:0:
448,192,104099,1,0,0:0:0:0:
448,192,104196,1,0,0:0:0:0:
192,192,104244,1,0,0:0:0:0:
64,192,104293,1,0,0:0:0:0:
448,192,104390,1,0,0:0:0:0:
320,192,104390,128,0,104486:0:0:0:0:
192,192,104486,1,0,0:0:0:0:
64,192,104583,1,0,0:0:0:0:
320,192,104583,128,0,104680:0:0:0:0:
448,192,104583,1,0,0:0:0:0:
192,192,104680,1,0,0:0:0:0:
64,192,104777,128,0,104873:0:0:0:0:
448,192,104777,1,0,0:0:0:0:
320,192,104873,1,0,0:0:0:0:
192,192,104970,128,0,105067:0:0:0:0:
64,192,104970,1,0,0:0:0:0:
448,192,105067,1,0,0:0:0:0:
320,192,105164,1,0,0:0:0:0:
64,192,105164,1,0,0:0:0:0:
192,192,105212,1,0,0:0:0:0:
320,192,105260,1,0,0:0:0:0:
64,192,105357,1,0,0:0:0:0:
192,192,105357,1,0,0:0:0:0:
320,192,105454,1,0,0:0:0:0:
448,192,105454,1,0,0:0:0:0:
64,192,105551,128,0,105841:0:0:0:0:
192,192,105551,128,0,105744:0:0:0:0:
320,192,105648,1,0,0:0:0:0:
448,192,105744,1,0,0:0:0:0:
192,192,105841,128,0,106131:0:0:0:0:
320,192,105841,128,0,106035:0:0:0:0:
448,192,105938,1,0,0:0:0:0:
64,192,106035,1,0,0:0:0:0:
320,192,106131,128,0,106325:0:0:0:0:
448,192,106131,128,0,106228:0:0:0:0:
192,192,106228,1,0,0:0:0:0:
448,192,106325,128,0,106615:0:0:0:0:
64,192,106325,128,0,106519:0:0:0:0:
320,192,106422,1,0,0:0:0:0:
192,192,106519,1,0,0:0:0:0:
320,192,106615,128,0,106906:0:0:0:0:
64,192,106615,128,0,106809:0:0:0:0:
192,192,106712,1,0,0:0:0:0:
448,192,106809,1,0,0:0:0:0:
192,192,106906,128,0,107099:0:0:0:0:
64,192,106906,128,0,107002:0:0:0:0:
320,192,107002,1,0,0:0:0:0:
64,192,107099,128,0,107390:0:0:0:0:
448,192,107099,128,0,107293:0:0:0:0:
192,192,107196,1,0,0:0:0:0:
320,192,107293,1,0,0:0:0:0:
192,192,107390,128,0,107680:0:0:0:0:
448,192,107390,128,0,107583:0:0:0:0:
320,192,107486,1,0,0:0:0:0:
64,192,107583,1,0,0:0:0:0:
320,192,107680,128,0,107873:0:0:0:0:
448,192,107680,128,0,107777:0:0:0:0:
192,192,107777,1,0,0:0:0:0:
448,192,107873,128,0,108164:0:0:0:0:
64,192,107873,128,0,108067:0:0:0:0:
320,192,107970,1,0,0:0:0:0:
192,192,108067,1,0,0:0:0:0:
320,192,108164,128,0,108454:0:0:0:0:
64,192,108164,128,0,108357:0:0:0:0:
192,192,108260,1,0,0:0:0:0:
448,192,108357,1,0,0:0:0:0:
64,192,108454,1,0,0:0:0:0:
192,192,108502,1,0,0:0:0:0:
320,192,108551,1,0,0:0:0:0:
448,192,108599,1,0,0:0:0:0:
64,192,108648,1,0,0:0:0:0:
192,192,108648,1,0,0:0:0:0:
64,192,108744,1,0,0:0:0:0:
320,192,108744,1,0,0:0:0:0:
320,192,108841,1,0,0:0:0:0:
448,192,108841,1,0,0:0:0:0:
192,192,108938,1,0,0:0:0:0:
448,192,108938,1,0,0:0:0:0:
64,192,109035,1,0,0:0:0:0:
192,192,109035,1,0,0:0:0:0:
64,192,109131,1,0,0:0:0:0:
320,192,109131,1,0,0:0:0:0:
320,192,109228,1,0,0:0:0:0:
448,192,109228,1,0,0:0:0:0:
192,192,109325,1,0,0:0:0:0:
448,192,109325,1,0,0:0:0:0:
64,192,109422,1,0,0:0:0:0:
192,192,109470,1,0,0:0:0:0:
320,192,109519,1,0,0:0:0:0:
64,192,109567,1,0,0:0:0:0:
448,192,109615,1,0,0:0:0:0:
320,192,109664,1,0,0:0:0:0:
192,192,109712,1,0,0:0:0:0:
448,192,109760,1,0,0:0:0:0:
64,192,109809,1,0,0:0:0:0:
192,192,109857,1,0,0:0:0:0:
320,192,109906,1,0,0:0:0:0:
448,192,109954,1,0,0:0:0:0:
192,192,110002,128,0,111260:0:0:0:0:
320,192,110099,128,0,111357:0:0:0:0:
64,192,110196,128,0,111357:0:0:0:0:
448,192,110196,128,0,111357:0:0:0:0:
192,192,111357,1,0,0:0:0:0:
320,192,111454,1,0,0:0:0:0:
448,192,111551,1,0,0:0:0:0:
320,192,111648,1,0,0:0:0:0:
192,192,111744,128,0,112131:0:0:0:0:
448,192,111841,1,0,0:0:0:0:
448,192,111938,1,0,0:0:0:0:
320,192,112035,1,0,0:0:0:0:
320,192,112131,1,0,0:0:0:0:
448,192,112228,1,0,0:0:0:0:
192,192,112325,1,0,0:0:0:0:
320,192,112422,1,0,0:0:0:0:
448,192,112519,128,0,112712:0:0:0:0:
192,192,112615,1,0,0:0:0:0:
320,192,112712,1,0,0:0:0:0:
448,192,112809,128,0,113002:0:0:0:0:
192,192,112906,128,0,113002:0:0:0:0:
320,192,113002,1,0,0:0:0:0:
448,192,113099,1,0,0:0:0:0:
192,192,113196,1,0,0:0:0:0:
320,192,113293,128,0,113680:0:0:0:0:
64,192,113390,1,0,0:0:0:0:
64,192,113486,1,0,0:0:0:0:
192,192,113583,1,0,0:0:0:0:
192,192,113680,1,0,0:0:0:0:
64,192,113777,1,0,0:0:0:0:
320,192,113873,1,0,0:0:0:0:
192,192,113970,1,0,0:0:0:0:
64,192,114067,128,0,114260:0:0:0:0:
320,192,114164,1,0,0:0:0:0:
192,192,114260,1,0,0:0:0:0:
64,192,114357,128,0,114551:0:0:0:0:
320,192,114454,128,0,114551:0:0:0:0:
192,192,114551,1,0,0:0:0:0:
320,192,114648,128,0,114744:0:0:0:0:
192,192,114744,1,0,0:0:0:0:
448,192,114841,128,0,115131:0:0:0:0:
320,192,114938,128,0,115131:0:0:0:0:
192,192,115035,128,0,115131:0:0:0:0:
64,192,115131,1,0,0:0:0:0:
320,192,115228,128,0,115422:0:0:0:0:
448,192,115228,128,0,115422:0:0:0:0:
64,192,115422,128,0,115712:0:0:0:0:
192,192,115519,128,0,115712:0:0:0:0:
320,192,115615,128,0,115712:0:0:0:0:
448,192,115712,1,0,0:0:0:0:
64,192,115809,128,0,116002:0:0:0:0:
192,192,115809,128,0,116002:0:0:0:0:
448,192,116002,1,0,0:0:0:0:
320,192,116051,1,0,0:0:0:0:
192,192,116099,1,0,0:0:0:0:
64,192,116148,1,0,0:0:0:0:
448,192,116196,1,0,0:0:0:0:
320,192,116244,1,0,0:0:0:0:
192,192,116293,1,0,0:0:0:0:
64,192,116341,1,0,0:0:0:0:
192,192,116390,1,0,0:0:0:0:
320,192,116390,1,0,0:0:0:0:
448,192,116390,1,0,0:0:0:0:
320,192,116583,1,0,0:0:0:0:
192,192,116583,1,0,0:0:0:0:
64,192,116583,1,0,0:0:0:0:
64,192,116777,1,0,0:0:0:0:
320,192,116777,1,0,0:0:0:0:
448,192,116777,1,0,0:0:0:0:
192,192,116873,1,0,0:0:0:0:
64,192,116873,1,0,0:0:0:0:
448,192,116873,1,0,0:0:0:0:
192,192,117067,1,0,0:0:0:0:
320,192,117067,1,0,0:0:0:0:
448,192,117067,1,0,0:0:0:0:
64,192,117357,128,0,117841:0:0:0:0:
192,192,117357,128,0,117841:0:0:0:0:
320,192,117357,128,0,117841:0:0:0:0:
448,192,117357,128,0,117841:0:0:0:0:
192,192,117938,128,0,118035:0:0:0:0:
320,192,117938,128,0,118131:0:0:0:0:
448,192,117938,128,0,118228:0:0:0:0:
64,192,118035,1,0,0:0:0:0:
192,192,118131,1,0,0:0:0:0:
320,192,118228,1,0,0:0:0:0:
64,192,118325,128,0,118615:0:0:0:0:
192,192,118325,128,0,118519:0:0:0:0:
448,192,118325,128,0,118422:0:0:0:0:
320,192,118422,1,0,0:0:0:0:
448,192,118519,1,0,0:0:0:0:
192,192,118615,1,0,0:0:0:0:
64,192,118712,128,0,118809:0:0:0:0:
320,192,118712,128,0,118906:0:0:0:0:
448,192,118712,128,0,119002:0:0:0:0:
192,192,118809,1,0,0:0:0:0:
64,192,118906,1,0,0:0:0:0:
320,192,119002,1,0,0:0:0:0:
192,192,119099,128,0,119293:0:0:0:0:
448,192,119099,128,0,119390:0:0:0:0:
64,192,119099,1,0,0:0:0:0:
320,192,119164,1,0,0:0:0:0:
64,192,119228,1,0,0:0:0:0:
320,192,119293,1,0,0:0:0:0:
192,192,119390,1,0,0:0:0:0:
64,192,119486,128,0,119777:0:0:0:0:
320,192,119486,128,0,119680:0:0:0:0:
448,192,119486,128,0,119583:0:0:0:0:
192,192,119583,128,0,119680:0:0:0:0:
448,192,119680,128,0,119777:0:0:0:0:
320,192,119777,128,0,119873:0:0:0:0:
64,192,119873,128,0,119970:0:0:0:0:
192,192,119873,128,0,120067:0:0:0:0:
448,192,119873,128,0,120164:0:0:0:0:
320,192,119970,128,0,120067:0:0:0:0:
64,192,120067,128,0,120164:0:0:0:0:
320,192,120164,128,0,120260:0:0:0:0:
64,192,120260,128,0,120454:0:0:0:0:
192,192,120260,128,0,120551:0:0:0:0:
448,192,120260,128,0,120357:0:0:0:0:
320,192,120357,1,0,0:0:0:0:
448,192,120454,1,0,0:0:0:0:
64,192,120551,128,0,120841:0:0:0:0:
192,192,120648,128,0,120744:0:0:0:0:
448,192,120648,128,0,120938:0:0:0:0:
320,192,120648,128,0,120841:0:0:0:0:
192,192,120841,128,0,121035:0:0:0:0:
320,192,120938,1,0,0:0:0:0:
64,192,121035,128,0,121325:0:0:0:0:
192,192,121131,128,0,121325:0:0:0:0:
320,192,121228,128,0,121325:0:0:0:0:
448,192,121325,1,0,0:0:0:0:
320,192,121422,1,0,0:0:0:0:
192,192,121422,1,0,0:0:0:0:
64,192,121422,1,0,0:0:0:0:
320,192,121519,1,0,0:0:0:0:
448,192,121519,1,0,0:0:0:0:
192,192,121519,1,0,0:0:0:0:
448,192,121712,1,0,0:0:0:0:
320,192,121712,1,0,0:0:0:0:
64,192,121712,1,0,0:0:0:0:
448,192,121906,1,0,0:0:0:0:
192,192,121906,1,0,0:0:0:0:
64,192,121906,1,0,0:0:0:0:
448,192,122099,1,0,0:0:0:0:
320,192,122099,1,0,0:0:0:0:
192,192,122099,1,0,0:0:0:0:
320,192,122196,1,0,0:0:0:0:
192,192,122196,1,0,0:0:0:0:
64,192,122196,128,0,122390:0:0:0:0:
448,192,122390,128,0,122583:0:0:0:0:
192,192,122486,1,0,0:0:0:0:
320,192,122583,128,0,122680:0:0:0:0:
64,192,122583,128,0,122777:0:0:0:0:
192,192,122680,1,0,0:0:0:0:
320,192,122777,128,0,122873:0:0:0:0:
448,192,122873,1,0,0:0:0:0:
192,192,122970,128,0,123164:0:0:0:0:
64,192,122970,128,0,123067:0:0:0:0:
320,192,123067,1,0,0:0:0:0:
448,192,123164,128,0,123260:0:0:0:0:
192,192,123260,1,0,0:0:0:0:
320,192,123357,128,0,123454:0:0:0:0:
448,192,123357,1,0,0:0:0:0:
64,192,123357,128,0,123551:0:0:0:0:
192,192,123454,128,0,123551:0:0:0:0:
448,192,123551,128,0,123648:0:0:0:0:
320,192,123551,128,0,123744:0:0:0:0:
192,192,123648,128,0,123744:0:0:0:0:
448,192,123744,1,0,0:0:0:0:
64,192,123793,1,0,0:0:0:0:
192,192,123841,1,0,0:0:0:0:
320,192,123890,1,0,0:0:0:0:
64,192,123938,1,0,0:0:0:0:
448,192,123986,1,0,0:0:0:0:
320,192,124035,1,0,0:0:0:0:
192,192,124083,1,0,0:0:0:0:
64,192,124131,1,0,0:0:0:0:
448,192,124131,128,0,124422:0:0:0:0:
320,192,124228,128,0,124519:0:0:0:0:
64,192,124519,128,0,124809:0:0:0:0:
192,192,124519,128,0,124712:0:0:0:0:
448,192,124519,128,0,124615:0:0:0:0:
320,192,124615,1,0,0:0:0:0:
448,192,124712,1,0,0:0:0:0:
192,192,124809,1,0,0:0:0:0:
64,192,124906,128,0,125002:0:0:0:0:
320,192,124906,128,0,125099:0:0:0:0:
448,192,124906,128,0,125196:0:0:0:0:
192,192,125002,1,0,0:0:0:0:
64,192,125099,1,0,0:0:0:0:
320,192,125196,1,0,0:0:0:0:
64,192,125293,128,0,125390:0:0:0:0:
192,192,125293,128,0,125486:0:0:0:0:
448,192,125293,128,0,125583:0:0:0:0:
320,192,125390,1,0,0:0:0:0:
64,192,125486,1,0,0:0:0:0:
192,192,125583,1,0,0:0:0:0:
64,192,125680,128,0,125970:0:0:0:0:
320,192,125680,128,0,125873:0:0:0:0:
448,192,125680,128,0,125777:0:0:0:0:
192,192,125777,1,0,0:0:0:0:
448,192,125873,1,0,0:0:0:0:
320,192,125970,1,0,0:0:0:0:
64,192,126067,128,0,126164:0:0:0:0:
192,192,126067,128,0,126260:0:0:0:0:
448,192,126067,128,0,126357:0:0:0:0:
320,192,126164,1,0,0:0:0:0:
64,192,126260,1,0,0:0:0:0:
320,192,126357,1,0,0:0:0:0:
64,192,126454,128,0,126648:0:0:0:0:
192,192,126454,128,0,126744:0:0:0:0:
448,192,126454,128,0,126551:0:0:0:0:
320,192,126551,1,0,0:0:0:0:
448,192,126648,1,0,0:0:0:0:
64,192,126744,1,0,0:0:0:0:
192,192,126841,128,0,126938:0:0:0:0:
448,192,126841,128,0,127131:0:0:0:0:
320,192,126841,128,0,127035:0:0:0:0:
64,192,126938,1,0,0:0:0:0:
192,192,127035,1,0,0:0:0:0:
320,192,127131,1,0,0:0:0:0:
192,192,127228,1,0,0:0:0:0:
448,192,127228,128,0,127325:0:0:0:0:
64,192,127228,128,0,127422:0:0:0:0:
320,192,127325,128,0,127422:0:0:0:0:
192,192,127422,128,0,127519:0:0:0:0:
448,192,127519,1,0,0:0:0:0:
64,192,127519,128,0,127615:0:0:0:0:
192,192,127615,1,0,0:0:0:0:
320,192,127615,128,0,127712:0:0:0:0:
448,192,127615,128,0,127712:0:0:0:0:
64,192,127809,128,0,128002:0:0:0:0:
448,192,127809,128,0,127906:0:0:0:0:
192,192,127809,1,0,0:0:0:0:
320,192,127906,128,0,128002:0:0:0:0:
192,192,128002,128,0,128099:0:0:0:0:
64,192,128099,128,0,128196:0:0:0:0:
448,192,128099,1,0,0:0:0:0:
448,192,128196,128,0,128293:0:0:0:0:
320,192,128196,128,0,128293:0:0:0:0:
192,192,128196,1,0,0:0:0:0:
320,192,128390,128,0,128486:0:0:0:0:
448,192,128390,128,0,128680:0:0:0:0:
192,192,128486,128,0,128680:0:0:0:0:
320,192,128583,128,0,128680:0:0:0:0:
64,192,128680,128,0,128777:0:0:0:0:
320,192,128777,1,0,0:0:0:0:
448,192,128777,1,0,0:0:0:0:
192,192,128777,1,0,0:0:0:0:
192,192,128970,1,0,0:0:0:0:
320,192,128970,1,0,0:0:0:0:
64,192,128970,1,0,0:0:0:0:
192,192,129164,1,0,0:0:0:0:
64,192,129164,1,0,0:0:0:0:
448,192,129164,1,0,0:0:0:0:
448,192,129260,1,0,0:0:0:0:
64,192,129260,1,0,0:0:0:0:
320,192,129260,1,0,0:0:0:0:
192,192,129454,1,0,0:0:0:0:
320,192,129454,1,0,0:0:0:0:
448,192,129454,1,0,0:0:0:0:
64,192,129744,128,0,130131:0:0:0:0:
192,192,129744,128,0,129841:0:0:0:0:
320,192,129744,128,0,129841:0:0:0:0:
448,192,129744,128,0,130131:0:0:0:0:
192,192,130131,1,0,0:0:0:0:
448,192,130228,1,0,0:0:0:0:
320,192,130325,128,0,130422:0:0:0:0:
192,192,130325,128,0,130519:0:0:0:0:
64,192,130325,128,0,130615:0:0:0:0:
448,192,130422,1,0,0:0:0:0:
320,192,130519,1,0,0:0:0:0:
192,192,130615,1,0,0:0:0:0:
448,192,130712,128,0,131002:0:0:0:0:
320,192,130712,128,0,130906:0:0:0:0:
64,192,130712,128,0,130809:0:0:0:0:
192,192,130809,1,0,0:0:0:0:
64,192,130906,1,0,0:0:0:0:
320,192,131002,1,0,0:0:0:0:
448,192,131099,128,0,131196:0:0:0:0:
192,192,131099,128,0,131293:0:0:0:0:
64,192,131099,128,0,131390:0:0:0:0:
320,192,131196,1,0,0:0:0:0:
320,192,131293,1,0,0:0:0:0:
192,192,131390,1,0,0:0:0:0:
320,192,131486,128,0,131680:0:0:0:0:
64,192,131486,128,0,131777:0:0:0:0:
448,192,131486,1,0,0:0:0:0:
192,192,131551,1,0,0:0:0:0:
448,192,131615,1,0,0:0:0:0:
192,192,131680,1,0,0:0:0:0:
320,192,131777,1,0,0:0:0:0:
448,192,131873,128,0,132164:0:0:0:0:
192,192,131873,128,0,132067:0:0:0:0:
64,192,131873,128,0,131970:0:0:0:0:
320,192,131970,128,0,132067:0:0:0:0:
64,192,132067,1,0,0:0:0:0:
320,192,132131,1,0,0:0:0:0:
192,192,132196,1,0,0:0:0:0:
448,192,132260,128,0,132357:0:0:0:0:
320,192,132260,128,0,132454:0:0:0:0:
64,192,132260,128,0,132551:0:0:0:0:
192,192,132357,128,0,132454:0:0:0:0:
448,192,132454,1,0,0:0:0:0:
320,192,132519,1,0,0:0:0:0:
192,192,132583,1,0,0:0:0:0:
448,192,132648,128,0,132841:0:0:0:0:
320,192,132648,128,0,132938:0:0:0:0:
64,192,132648,128,0,132744:0:0:0:0:
64,192,132938,128,0,133228:0:0:0:0:
192,192,132938,128,0,133035:0:0:0:0:
448,192,132938,128,0,133131:0:0:0:0:
192,192,133228,128,0,133422:0:0:0:0:
320,192,133228,128,0,133325:0:0:0:0:
448,192,133228,1,0,0:0:0:0:
448,192,133422,128,0,133712:0:0:0:0:
64,192,133422,1,0,0:0:0:0:
320,192,133519,128,0,133712:0:0:0:0:
192,192,133615,128,0,133712:0:0:0:0:
64,192,133712,1,0,0:0:0:0:
192,192,133809,1,0,0:0:0:0:
320,192,133809,1,0,0:0:0:0:
448,192,133809,1,0,0:0:0:0:
192,192,133906,1,0,0:0:0:0:
448,192,133906,1,0,0:0:0:0:
64,192,133906,1,0,0:0:0:0:
320,192,134099,1,0,0:0:0:0:
192,192,134099,1,0,0:0:0:0:
64,192,134099,1,0,0:0:0:0:
64,192,134293,1,0,0:0:0:0:
320,192,134293,1,0,0:0:0:0:
448,192,134293,1,0,0:0:0:0:
64,192,134486,1,0,0:0:0:0:
192,192,134486,1,0,0:0:0:0:
448,192,134486,1,0,0:0:0:0:
192,192,134583,1,0,0:0:0:0:
320,192,134583,1,0,0:0:0:0:
448,192,134583,128,0,134777:0:0:0:0:
64,192,134777,128,0,134970:0:0:0:0:
320,192,134873,1,0,0:0:0:0:
192,192,134970,128,0,135067:0:0:0:0:
448,192,134970,128,0,135164:0:0:0:0:
320,192,135067,1,0,0:0:0:0:
192,192,135164,128,0,135260:0:0:0:0:
64,192,135260,1,0,0:0:0:0:
320,192,135357,128,0,135551:0:0:0:0:
448,192,135357,128,0,135454:0:0:0:0:
192,192,135454,1,0,0:0:0:0:
64,192,135551,128,0,135648:0:0:0:0:
320,192,135648,1,0,0:0:0:0:
192,192,135744,128,0,135841:0:0:0:0:
64,192,135744,1,0,0:0:0:0:
448,192,135841,128,0,135938:0:0:0:0:
64,192,135938,128,0,136035:0:0:0:0:
192,192,135938,1,0,0:0:0:0:
320,192,136035,128,0,136131:0:0:0:0:
64,192,136131,1,0,0:0:0:0:
192,192,136131,1,0,0:0:0:0:
320,192,136180,1,0,0:0:0:0:
448,192,136228,1,0,0:0:0:0:
64,192,136277,1,0,0:0:0:0:
192,192,136325,1,0,0:0:0:0:
320,192,136325,1,0,0:0:0:0:
448,192,136373,1,0,0:0:0:0:
64,192,136422,1,0,0:0:0:0:
192,192,136470,1,0,0:0:0:0:
320,192,136519,1,0,0:0:0:0:
448,192,136519,128,0,136906:0:0:0:0:
64,192,136615,1,0,0:0:0:0:
64,192,136712,128,0,137002:0:0:0:0:
192,192,136809,1,0,0:0:0:0:
320,192,136906,128,0,137099:0:0:0:0:
64,192,137099,1,0,0:0:0:0:
192,192,137148,1,0,0:0:0:0:
320,192,137196,1,0,0:0:0:0:
448,192,137244,1,0,0:0:0:0:
64,192,137293,128,0,137680:0:0:0:0:
192,192,137293,1,0,0:0:0:0:
448,192,137390,1,0,0:0:0:0:
448,192,137486,128,0,137777:0:0:0:0:
320,192,137583,1,0,0:0:0:0:
192,192,137680,128,0,137873:0:0:0:0:
448,192,137873,1,0,0:0:0:0:
320,192,137922,1,0,0:0:0:0:
192,192,137970,1,0,0:0:0:0:
64,192,138019,1,0,0:0:0:0:
448,192,138067,128,0,138260:0:0:0:0:
320,192,138067,1,0,0:0:0:0:
192,192,138164,128,0,138357:0:0:0:0:
64,192,138260,128,0,138454:0:0:0:0:
320,192,138260,1,0,0:0:0:0:
448,192,138357,128,0,138551:0:0:0:0:
192,192,138454,128,0,138648:0:0:0:0:
320,192,138454,1,0,0:0:0:0:
64,192,138551,128,0,138744:0:0:0:0:
320,192,138648,128,0,138841:0:0:0:0:
192,192,138744,128,0,138938:0:0:0:0:
448,192,138841,128,0,139035:0:0:0:0:
64,192,138841,1,0,0:0:0:0:
320,192,138938,128,0,139131:0:0:0:0:
64,192,139035,128,0,139228:0:0:0:0:
192,192,139131,128,0,139228:0:0:0:0:
448,192,139131,1,0,0:0:0:0:
320,192,139228,1,0,0:0:0:0:
448,192,139277,1,0,0:0:0:0:
192,192,139325,1,0,0:0:0:0:
64,192,139373,1,0,0:0:0:0:
448,192,139422,1,0,0:0:0:0:
320,192,139470,1,0,0:0:0:0:
192,192,139519,1,0,0:0:0:0:
64,192,139567,1,0,0:0:0:0:
320,192,139615,1,0,0:0:0:0:
448,192,139615,1,0,0:0:0:0:
192,192,139712,1,0,0:0:0:0:
64,192,139712,1,0,0:0:0:0:
64,192,139809,1,0,0:0:0:0:
192,192,139809,1,0,0:0:0:0:
320,192,139906,1,0,0:0:0:0:
448,192,139906,1,0,0:0:0:0:
448,192,140002,128,0,140334:0:0:0:0:
320,192,140058,128,0,140334:0:0:0:0:
192,192,140113,128,0,140334:0:0:0:0:
64,192,140168,128,0,140334:0:0:0:0:
64,192,140390,1,0,0:0:0:0:
192,192,140390,1,0,0:0:0:0:
320,192,140486,1,0,0:0:0:0:
448,192,140486,1,0,0:0:0:0:
320,192,140583,1,0,0:0:0:0:
448,192,140583,1,0,0:0:0:0:
192,192,140680,1,0,0:0:0:0:
64,192,140680,1,0,0:0:0:0:
64,192,140777,128,0,141108:0:0:0:0:
192,192,140832,128,0,141108:0:0:0:0:
320,192,140887,128,0,141108:0:0:0:0:
448,192,140943,128,0,141108:0:0:0:0:
64,192,141164,1,0,0:0:0:0:
192,192,141164,1,0,0:0:0:0:
448,192,141228,1,0,0:0:0:0:
320,192,141293,1,0,0:0:0:0:
192,192,141357,1,0,0:0:0:0:
448,192,141357,1,0,0:0:0:0:
64,192,141422,1,0,0:0:0:0:
320,192,141454,1,0,0:0:0:0:
192,192,141486,1,0,0:0:0:0:
320,192,141551,1,0,0:0:0:0:
448,192,141551,1,0,0:0:0:0:
64,192,141615,1,0,0:0:0:0:
192,192,141680,1,0,0:0:0:0:
320,192,141744,1,0,0:0:0:0:
64,192,141744,1,0,0:0:0:0:
448,192,141809,1,0,0:0:0:0:
320,192,141841,1,0,0:0:0:0:
64,192,141873,1,0,0:0:0:0:
192,192,141938,1,0,0:0:0:0:
448,192,141938,1,0,0:0:0:0:
320,192,142035,1,0,0:0:0:0:
192,192,142131,1,0,0:0:0:0:
64,192,142228,1,0,0:0:0:0:
192,192,142325,1,0,0:0:0:0:
64,192,142422,1,0,0:0:0:0:
192,192,142519,1,0,0:0:0:0:
64,192,142615,1,0,0:0:0:0:
192,192,142712,128,0,144260:0:0:0:0:
64,192,144260,1,0,0:0:0:0:
64,192,144357,1,0,0:0:0:0:
