osu file format v14

[General]
AudioFilename: audio.mp3
AudioLeadIn: 0
PreviewTime: 37326
Countdown: 0
SampleSet: Normal
StackLeniency: 0.7
Mode: 3
LetterboxInBreaks: 0
SpecialStyle: 0
WidescreenStoryboard: 1

[Editor]
Bookmarks: 25326,37713,50100,62487,74874,87261,99648,102616,112035,118229,124422,136810,143003
DistanceSpacing: 0.8
BeatDivisor: 4
GridSize: 8
TimelineZoom: 1.1

[Metadata]
Title:Trrricksters!!
TitleUnicode:Trrricksters!!
Artist:s-don vs. Hino Isuka
ArtistUnicode:s-don vs. 翡乃イスカ
Creator:Raveille
Version:Basic!!
Source:CHUNITHM CRYSTAL
Tags:electronic instrumental bouncy techno チュウニズム 音源 sega cytus ii 2 rayark ep. III episode 3 zenza of performai respect V 5 neowiz groove coaster soft6 soft 6 spring time ffa tournament ro16 round of 16 hybrid hb ln long notes maimai でらっくす FESTiVAL DX Deluxe
BeatmapID:3894610
BeatmapSetID:1711751

[Difficulty]
HPDrainRate:6.5
CircleSize:4
OverallDifficulty:6.5
ApproachRate:5
SliderMultiplier:1.4
SliderTickRate:1

[Events]
//Background and Video events
0,0,"trrrrr.jpg",0,0
//Break Periods
//Storyboard Layer 0 (Background)
//Storyboard Layer 1 (Fail)
//Storyboard Layer 2 (Pass)
//Storyboard Layer 3 (Foreground)
//Storyboard Layer 4 (Overlay)
//Storyboard Sound Samples

[TimingPoints]
261,387.096774193548,4,1,1,44,1,0
37422,-100,4,1,1,44,0,1
49809,-100,4,1,1,44,0,0
117938,-100,4,1,1,44,0,1
136519,-100,4,1,1,44,0,0

[HitObjects]
64,192,261,5,0,0:0:0:0:
448,192,261,1,0,0:0:0:0:
192,192,648,1,0,0:0:0:0:
320,192,841,1,0,0:0:0:0:
192,192,1035,1,0,0:0:0:0:
320,192,1422,1,0,0:0:0:0:
192,192,1615,1,0,0:0:0:0:
64,192,1809,1,0,0:0:0:0:
448,192,2002,1,0,0:0:0:0:
64,192,2196,1,0,0:0:0:0:
448,192,2390,1,0,0:0:0:0:
64,192,2583,1,0,0:0:0:0:
320,192,2777,128,0,3357:0:0:0:0:
64,192,3357,1,0,0:0:0:0:
192,192,3744,1,0,0:0:0:0:
320,192,3938,1,0,0:0:0:0:
192,192,4131,1,0,0:0:0:0:
448,192,4519,1,0,0:0:0:0:
320,192,4712,1,0,0:0:0:0:
192,192,4906,1,0,0:0:0:0:
320,192,5099,1,0,0:0:0:0:
192,192,5293,1,0,0:0:0:0:
448,192,5486,1,0,0:0:0:0:
64,192,5680,1,0,0:0:0:0:
448,192,5873,1,0,0:0:0:0:
192,192,6067,1,0,0:0:0:0:
448,192,6454,1,0,0:0:0:0:
64,192,6454,1,0,0:0:0:0:
192,192,6841,1,0,0:0:0:0:
64,192,6841,1,0,0:0:0:0:
64,192,7228,1,0,0:0:0:0:
448,192,7228,1,0,0:0:0:0:
320,192,7615,1,0,0:0:0:0:
448,192,7615,1,0,0:0:0:0:
64,192,8002,1,0,0:0:0:0:
448,192,8002,1,0,0:0:0:0:
192,192,8390,1,0,0:0:0:0:
64,192,8390,1,0,0:0:0:0:
64,192,8777,1,0,0:0:0:0:
448,192,8777,1,0,0:0:0:0:
192,192,8970,128,0,9551:0:0:0:0:
448,192,9551,1,0,0:0:0:0:
320,192,9938,1,0,0:0:0:0:
448,192,9938,1,0,0:0:0:0:
64,192,10325,1,0,0:0:0:0:
448,192,10325,1,0,0:0:0:0:
192,192,10712,1,0,0:0:0:0:
64,192,10712,1,0,0:0:0:0:
448,192,11099,128,0,12260:0:0:0:0:
64,192,12260,1,0,0:0:0:0:
320,192,12648,1,0,0:0:0:0:
448,192,12648,1,0,0:0:0:0:
192,192,13035,1,0,0:0:0:0:
448,192,13035,1,0,0:0:0:0:
192,192,13422,1,0,0:0:0:0:
64,192,13809,1,0,0:0:0:0:
320,192,13809,1,0,0:0:0:0:
192,192,14196,1,0,0:0:0:0:
64,192,14196,1,0,0:0:0:0:
64,192,14583,1,0,0:0:0:0:
320,192,14583,1,0,0:0:0:0:
320,192,14970,1,0,0:0:0:0:
192,192,15357,1,0,0:0:0:0:
448,192,15357,1,0,0:0:0:0:
320,192,15744,1,0,0:0:0:0:
448,192,15744,1,0,0:0:0:0:
192,192,16131,1,0,0:0:0:0:
448,192,16131,1,0,0:0:0:0:
192,192,16519,1,0,0:0:0:0:
64,192,16906,1,0,0:0:0:0:
320,192,16906,1,0,0:0:0:0:
192,192,17293,1,0,0:0:0:0:
64,192,17293,1,0,0:0:0:0:
64,192,17680,1,0,0:0:0:0:
320,192,17680,1,0,0:0:0:0:
320,192,18067,1,0,0:0:0:0:
448,192,18454,1,0,0:0:0:0:
64,192,18841,1,0,0:0:0:0:
320,192,19035,1,0,0:0:0:0:
64,192,19228,1,0,0:0:0:0:
448,192,19615,1,0,0:0:0:0:
192,192,19809,1,0,0:0:0:0:
448,192,20002,1,0,0:0:0:0:
64,192,20390,1,0,0:0:0:0:
320,192,20583,1,0,0:0:0:0:
64,192,20777,1,0,0:0:0:0:
320,192,20970,1,0,0:0:0:0:
192,192,21164,1,0,0:0:0:0:
448,192,21357,1,0,0:0:0:0:
192,192,21551,1,0,0:0:0:0:
448,192,21744,1,0,0:0:0:0:
64,192,21938,128,0,22712:0:0:0:0:
192,192,22712,128,0,23099:0:0:0:0:
64,192,23099,128,0,23486:0:0:0:0:
448,192,23486,1,0,0:0:0:0:
448,192,23873,1,0,0:0:0:0:
448,192,24260,1,0,0:0:0:0:
192,192,24648,128,0,25035:0:0:0:0:
448,192,25035,1,0,0:0:0:0:
448,192,25228,1,0,0:0:0:0:
64,192,25422,1,0,0:0:0:0:
64,192,25615,1,0,0:0:0:0:
320,192,25809,128,0,26583:0:0:0:0:
64,192,26583,1,0,0:0:0:0:
192,192,26970,128,0,27744:0:0:0:0:
320,192,27744,128,0,28131:0:0:0:0:
64,192,28131,1,0,0:0:0:0:
64,192,28325,1,0,0:0:0:0:
448,192,28906,1,0,0:0:0:0:
448,192,29099,1,0,0:0:0:0:
64,192,29680,1,0,0:0:0:0:
320,192,29680,1,0,0:0:0:0:
192,192,29970,1,0,0:0:0:0:
64,192,30260,1,0,0:0:0:0:
448,192,30260,1,0,0:0:0:0:
320,192,30551,128,0,30841:0:0:0:0:
192,192,30841,128,0,31035:0:0:0:0:
320,192,31035,128,0,31228:0:0:0:0:
192,192,31228,1,0,0:0:0:0:
448,192,31615,128,0,32002:0:0:0:0:
64,192,32002,128,0,32390:0:0:0:0:
320,192,32390,128,0,32777:0:0:0:0:
64,192,32777,1,0,0:0:0:0:
64,192,32970,128,0,33551:0:0:0:0:
192,192,33551,1,0,0:0:0:0:
192,192,33744,1,0,0:0:0:0:
320,192,33938,1,0,0:0:0:0:
448,192,34131,1,0,0:0:0:0:
192,192,34325,128,0,34712:0:0:0:0:
320,192,34712,128,0,35099:0:0:0:0:
64,192,35099,128,0,35873:0:0:0:0:
448,192,35873,1,0,0:0:0:0:
320,192,36260,1,0,0:0:0:0:
320,192,36454,1,0,0:0:0:0:
448,192,36648,1,0,0:0:0:0:
192,192,37035,1,0,0:0:0:0:
192,192,37228,1,0,0:0:0:0:
64,192,37422,1,0,0:0:0:0:
448,192,37422,1,0,0:0:0:0:
192,192,37809,1,0,0:0:0:0:
64,192,37809,1,0,0:0:0:0:
64,192,38196,1,0,0:0:0:0:
448,192,38196,1,0,0:0:0:0:
320,192,38583,1,0,0:0:0:0:
448,192,38583,1,0,0:0:0:0:
448,192,38970,1,0,0:0:0:0:
64,192,38970,1,0,0:0:0:0:
192,192,39357,1,0,0:0:0:0:
64,192,39357,1,0,0:0:0:0:
64,192,39744,1,0,0:0:0:0:
448,192,39744,1,0,0:0:0:0:
320,192,40131,1,0,0:0:0:0:
448,192,40131,1,0,0:0:0:0:
320,192,40519,1,0,0:0:0:0:
192,192,40712,1,0,0:0:0:0:
64,192,40906,1,0,0:0:0:0:
320,192,40906,1,0,0:0:0:0:
192,192,41293,1,0,0:0:0:0:
320,192,41486,1,0,0:0:0:0:
192,192,41680,1,0,0:0:0:0:
448,192,41680,1,0,0:0:0:0:
64,192,42067,1,0,0:0:0:0:
192,192,42454,1,0,0:0:0:0:
192,192,42744,1,0,0:0:0:0:
448,192,43035,1,0,0:0:0:0:
448,192,43615,1,0,0:0:0:0:
64,192,43615,1,0,0:0:0:0:
320,192,44002,1,0,0:0:0:0:
448,192,44002,1,0,0:0:0:0:
448,192,44390,1,0,0:0:0:0:
320,192,44583,1,0,0:0:0:0:
192,192,44777,1,0,0:0:0:0:
64,192,44777,1,0,0:0:0:0:
64,192,45164,1,0,0:0:0:0:
192,192,45357,1,0,0:0:0:0:
320,192,45551,1,0,0:0:0:0:
448,192,45551,1,0,0:0:0:0:
448,192,45938,1,0,0:0:0:0:
320,192,46131,1,0,0:0:0:0:
192,192,46325,1,0,0:0:0:0:
64,192,46325,1,0,0:0:0:0:
448,192,46712,128,0,47099:0:0:0:0:
64,192,47099,1,0,0:0:0:0:
192,192,47390,1,0,0:0:0:0:
320,192,47583,1,0,0:0:0:0:
192,192,47873,1,0,0:0:0:0:
320,192,48067,1,0,0:0:0:0:
448,192,48260,1,0,0:0:0:0:
320,192,48648,1,0,0:0:0:0:
192,192,49035,1,0,0:0:0:0:
64,192,49422,1,0,0:0:0:0:
320,192,49809,1,0,0:0:0:0:
192,192,50002,1,0,0:0:0:0:
320,192,50196,1,0,0:0:0:0:
192,192,50390,1,0,0:0:0:0:
320,192,50583,128,0,50970:0:0:0:0:
192,192,50970,1,0,0:0:0:0:
64,192,51357,1,0,0:0:0:0:
448,192,51551,1,0,0:0:0:0:
64,192,51744,1,0,0:0:0:0:
448,192,51938,1,0,0:0:0:0:
64,192,52131,128,0,52519:0:0:0:0:
448,192,52519,1,0,0:0:0:0:
192,192,52906,1,0,0:0:0:0:
320,192,53099,1,0,0:0:0:0:
192,192,53293,1,0,0:0:0:0:
320,192,53486,1,0,0:0:0:0:
192,192,53680,128,0,54067:0:0:0:0:
320,192,54067,1,0,0:0:0:0:
448,192,54454,1,0,0:0:0:0:
64,192,54648,1,0,0:0:0:0:
448,192,54841,1,0,0:0:0:0:
64,192,55035,1,0,0:0:0:0:
448,192,55228,128,0,55615:0:0:0:0:
64,192,55615,128,0,56002:0:0:0:0:
448,192,56002,128,0,56777:0:0:0:0:
320,192,56777,128,0,57551:0:0:0:0:
192,192,57551,128,0,58325:0:0:0:0:
64,192,58325,128,0,59099:0:0:0:0:
448,192,59099,128,0,59486:0:0:0:0:
320,192,59486,128,0,59873:0:0:0:0:
192,192,59873,128,0,60260:0:0:0:0:
64,192,60260,128,0,60648:0:0:0:0:
320,192,60648,1,0,0:0:0:0:
448,192,60841,1,0,0:0:0:0:
192,192,61035,1,0,0:0:0:0:
320,192,61228,1,0,0:0:0:0:
64,192,61422,1,0,0:0:0:0:
192,192,61615,1,0,0:0:0:0:
64,192,61809,128,0,62196:0:0:0:0:
448,192,62196,128,0,62583:0:0:0:0:
192,192,62583,1,0,0:0:0:0:
320,192,62777,1,0,0:0:0:0:
64,192,62970,1,0,0:0:0:0:
448,192,63164,1,0,0:0:0:0:
192,192,63357,1,0,0:0:0:0:
320,192,63551,1,0,0:0:0:0:
64,192,63744,1,0,0:0:0:0:
64,192,63938,1,0,0:0:0:0:
448,192,64131,1,0,0:0:0:0:
448,192,64325,1,0,0:0:0:0:
192,192,64519,128,0,64906:0:0:0:0:
320,192,64906,128,0,65293:0:0:0:0:
64,192,65293,128,0,65680:0:0:0:0:
448,192,65680,1,0,0:0:0:0:
320,192,65970,1,0,0:0:0:0:
320,192,66164,1,0,0:0:0:0:
192,192,66454,1,0,0:0:0:0:
192,192,66648,1,0,0:0:0:0:
64,192,66841,1,0,0:0:0:0:
192,192,67228,1,0,0:0:0:0:
320,192,67519,1,0,0:0:0:0:
192,192,68002,1,0,0:0:0:0:
448,192,68196,1,0,0:0:0:0:
64,192,68390,1,0,0:0:0:0:
64,192,68583,1,0,0:0:0:0:
320,192,68777,128,0,69164:0:0:0:0:
192,192,69164,128,0,69551:0:0:0:0:
320,192,69551,128,0,69938:0:0:0:0:
192,192,69938,128,0,70325:0:0:0:0:
320,192,70325,128,0,70712:0:0:0:0:
192,192,70712,128,0,70906:0:0:0:0:
320,192,70906,128,0,71099:0:0:0:0:
192,192,71099,1,0,0:0:0:0:
320,192,71486,1,0,0:0:0:0:
64,192,71873,128,0,72260:0:0:0:0:
192,192,72260,128,0,72648:0:0:0:0:
320,192,72648,128,0,73035:0:0:0:0:
448,192,73035,128,0,73422:0:0:0:0:
320,192,73422,128,0,73809:0:0:0:0:
192,192,73809,1,0,0:0:0:0:
448,192,74002,1,0,0:0:0:0:
192,192,74196,1,0,0:0:0:0:
448,192,74390,1,0,0:0:0:0:
64,192,74583,128,0,74970:0:0:0:0:
320,192,74970,1,0,0:0:0:0:
192,192,75164,1,0,0:0:0:0:
320,192,75357,1,0,0:0:0:0:
192,192,75551,1,0,0:0:0:0:
320,192,75744,1,0,0:0:0:0:
192,192,75938,1,0,0:0:0:0:
448,192,76131,1,0,0:0:0:0:
64,192,76325,1,0,0:0:0:0:
448,192,76519,1,0,0:0:0:0:
64,192,76712,1,0,0:0:0:0:
448,192,76906,128,0,77099:0:0:0:0:
64,192,77099,128,0,77293:0:0:0:0:
448,192,77293,128,0,77680:0:0:0:0:
192,192,77680,128,0,78067:0:0:0:0:
320,192,78067,1,0,0:0:0:0:
192,192,78357,1,0,0:0:0:0:
192,192,78551,1,0,0:0:0:0:
320,192,78841,1,0,0:0:0:0:
320,192,79035,1,0,0:0:0:0:
64,192,79228,1,0,0:0:0:0:
192,192,79615,1,0,0:0:0:0:
320,192,79906,1,0,0:0:0:0:
448,192,80196,1,0,0:0:0:0:
64,192,80390,1,0,0:0:0:0:
64,192,80777,1,0,0:0:0:0:
448,192,80970,1,0,0:0:0:0:
64,192,81164,128,0,81551:0:0:0:0:
192,192,81551,128,0,81938:0:0:0:0:
320,192,81938,128,0,82325:0:0:0:0:
448,192,82325,128,0,82519:0:0:0:0:
64,192,82519,128,0,82712:0:0:0:0:
192,192,82712,128,0,82906:0:0:0:0:
320,192,82906,128,0,83099:0:0:0:0:
448,192,83099,128,0,83486:0:0:0:0:
64,192,83486,128,0,83873:0:0:0:0:
448,192,83873,1,0,0:0:0:0:
320,192,84067,1,0,0:0:0:0:
192,192,84260,128,0,84648:0:0:0:0:
64,192,84648,128,0,85035:0:0:0:0:
320,192,85035,128,0,85422:0:0:0:0:
448,192,85422,128,0,85809:0:0:0:0:
192,192,85809,128,0,86196:0:0:0:0:
320,192,86196,1,0,0:0:0:0:
320,192,86390,1,0,0:0:0:0:
192,192,86583,1,0,0:0:0:0:
192,192,86777,1,0,0:0:0:0:
64,192,86970,128,0,93164:0:0:0:0:
192,192,93164,128,0,94712:0:0:0:0:
320,192,94712,128,0,96260:0:0:0:0:
448,192,96260,128,0,98970:0:0:0:0:
320,192,98970,128,0,99357:0:0:0:0:
64,192,99357,1,0,0:0:0:0:
192,192,99551,128,0,100131:0:0:0:0:
320,192,100131,1,0,0:0:0:0:
448,192,100325,1,0,0:0:0:0:
320,192,100712,128,0,101293:0:0:0:0:
64,192,101293,128,0,101680:0:0:0:0:
448,192,101680,128,0,102067:0:0:0:0:
192,192,102067,128,0,102454:0:0:0:0:
448,192,102454,128,0,102648:0:0:0:0:
64,192,102648,128,0,102841:0:0:0:0:
320,192,102841,1,0,0:0:0:0:
192,192,103035,1,0,0:0:0:0:
320,192,103228,128,0,103422:0:0:0:0:
192,192,103422,128,0,103615:0:0:0:0:
64,192,103615,1,0,0:0:0:0:
320,192,103809,128,0,104583:0:0:0:0:
64,192,104583,128,0,105164:0:0:0:0:
448,192,105164,128,0,105551:0:0:0:0:
192,192,105551,1,0,0:0:0:0:
64,192,105551,128,0,106131:0:0:0:0:
320,192,106131,1,0,0:0:0:0:
320,192,106325,1,0,0:0:0:0:
448,192,106325,128,0,106906:0:0:0:0:
192,192,106906,1,0,0:0:0:0:
192,192,107099,1,0,0:0:0:0:
64,192,107099,128,0,107680:0:0:0:0:
320,192,107680,1,0,0:0:0:0:
320,192,107873,1,0,0:0:0:0:
448,192,107873,128,0,108454:0:0:0:0:
192,192,108454,1,0,0:0:0:0:
64,192,108648,128,0,108841:0:0:0:0:
192,192,108841,128,0,109035:0:0:0:0:
320,192,109035,128,0,109228:0:0:0:0:
448,192,109228,128,0,109422:0:0:0:0:
64,192,109422,128,0,109615:0:0:0:0:
192,192,109615,128,0,109809:0:0:0:0:
320,192,109809,128,0,110002:0:0:0:0:
448,192,110002,128,0,110196:0:0:0:0:
64,192,110196,128,0,111357:0:0:0:0:
448,192,111357,128,0,111744:0:0:0:0:
192,192,111744,1,0,0:0:0:0:
320,192,111938,1,0,0:0:0:0:
448,192,112131,1,0,0:0:0:0:
320,192,112325,1,0,0:0:0:0:
192,192,112519,128,0,113099:0:0:0:0:
320,192,113099,128,0,113293:0:0:0:0:
64,192,113293,1,0,0:0:0:0:
192,192,113486,1,0,0:0:0:0:
320,192,113680,1,0,0:0:0:0:
192,192,113873,1,0,0:0:0:0:
64,192,114067,128,0,114648:0:0:0:0:
320,192,114648,128,0,114841:0:0:0:0:
192,192,114841,128,0,115228:0:0:0:0:
448,192,115228,1,0,0:0:0:0:
320,192,115422,128,0,115809:0:0:0:0:
64,192,115809,1,0,0:0:0:0:
192,192,116002,128,0,116390:0:0:0:0:
448,192,116390,1,0,0:0:0:0:
320,192,116777,1,0,0:0:0:0:
192,192,117067,1,0,0:0:0:0:
64,192,117357,1,0,0:0:0:0:
64,192,117938,1,0,0:0:0:0:
448,192,117938,1,0,0:0:0:0:
192,192,118325,1,0,0:0:0:0:
64,192,118325,1,0,0:0:0:0:
64,192,118712,1,0,0:0:0:0:
192,192,118906,1,0,0:0:0:0:
320,192,119099,1,0,0:0:0:0:
448,192,119099,1,0,0:0:0:0:
448,192,119486,1,0,0:0:0:0:
320,192,119680,1,0,0:0:0:0:
192,192,119873,1,0,0:0:0:0:
64,192,119873,1,0,0:0:0:0:
64,192,120260,1,0,0:0:0:0:
192,192,120454,1,0,0:0:0:0:
320,192,120648,1,0,0:0:0:0:
448,192,120648,1,0,0:0:0:0:
64,192,121035,128,0,121422:0:0:0:0:
448,192,121422,1,0,0:0:0:0:
320,192,121712,1,0,0:0:0:0:
320,192,121906,1,0,0:0:0:0:
320,192,122099,1,0,0:0:0:0:
192,192,122390,1,0,0:0:0:0:
64,192,122583,1,0,0:0:0:0:
192,192,122970,1,0,0:0:0:0:
320,192,123357,1,0,0:0:0:0:
448,192,123744,1,0,0:0:0:0:
64,192,124131,1,0,0:0:0:0:
320,192,124519,1,0,0:0:0:0:
448,192,124519,1,0,0:0:0:0:
448,192,124906,1,0,0:0:0:0:
64,192,124906,1,0,0:0:0:0:
192,192,125293,1,0,0:0:0:0:
64,192,125293,1,0,0:0:0:0:
64,192,125680,1,0,0:0:0:0:
448,192,125680,1,0,0:0:0:0:
320,192,126067,1,0,0:0:0:0:
448,192,126067,1,0,0:0:0:0:
448,192,126454,1,0,0:0:0:0:
64,192,126454,1,0,0:0:0:0:
192,192,126841,1,0,0:0:0:0:
64,192,126841,1,0,0:0:0:0:
192,192,127228,1,0,0:0:0:0:
320,192,127422,1,0,0:0:0:0:
448,192,127615,1,0,0:0:0:0:
192,192,127615,1,0,0:0:0:0:
320,192,128002,1,0,0:0:0:0:
192,192,128196,1,0,0:0:0:0:
320,192,128390,1,0,0:0:0:0:
64,192,128390,1,0,0:0:0:0:
448,192,128777,1,0,0:0:0:0:
320,192,129164,1,0,0:0:0:0:
320,192,129454,1,0,0:0:0:0:
64,192,129744,1,0,0:0:0:0:
64,192,130325,1,0,0:0:0:0:
448,192,130325,1,0,0:0:0:0:
192,192,130712,1,0,0:0:0:0:
64,192,130712,1,0,0:0:0:0:
64,192,131099,1,0,0:0:0:0:
192,192,131293,1,0,0:0:0:0:
320,192,131486,1,0,0:0:0:0:
448,192,131486,1,0,0:0:0:0:
448,192,131873,1,0,0:0:0:0:
320,192,132067,1,0,0:0:0:0:
192,192,132260,1,0,0:0:0:0:
64,192,132260,1,0,0:0:0:0:
64,192,132648,1,0,0:0:0:0:
448,192,132648,128,0,133422:0:0:0:0:
64,192,133422,128,0,133809:0:0:0:0:
448,192,133809,1,0,0:0:0:0:
320,192,134099,1,0,0:0:0:0:
320,192,134293,1,0,0:0:0:0:
192,192,134583,1,0,0:0:0:0:
192,192,134777,1,0,0:0:0:0:
64,192,134970,1,0,0:0:0:0:
192,192,135357,1,0,0:0:0:0:
320,192,135744,1,0,0:0:0:0:
448,192,136131,1,0,0:0:0:0:
192,192,136519,1,0,0:0:0:0:
320,192,136712,1,0,0:0:0:0:
64,192,136906,128,0,137293:0:0:0:0:
320,192,137293,1,0,0:0:0:0:
192,192,137486,1,0,0:0:0:0:
448,192,137680,128,0,138067:0:0:0:0:
64,192,138067,1,0,0:0:0:0:
320,192,138260,1,0,0:0:0:0:
192,192,138454,1,0,0:0:0:0:
448,192,138648,1,0,0:0:0:0:
64,192,138841,1,0,0:0:0:0:
320,192,139035,1,0,0:0:0:0:
192,192,139228,1,0,0:0:0:0:
448,192,139422,1,0,0:0:0:0:
64,192,139615,1,0,0:0:0:0:
320,192,139809,1,0,0:0:0:0:
64,192,140002,128,0,140390:0:0:0:0:
448,192,140390,1,0,0:0:0:0:
192,192,140583,1,0,0:0:0:0:
448,192,140777,128,0,141164:0:0:0:0:
192,192,141164,1,0,0:0:0:0:
192,192,141357,1,0,0:0:0:0:
320,192,141551,1,0,0:0:0:0:
320,192,141744,1,0,0:0:0:0:
448,192,141938,1,0,0:0:0:0:
320,192,142131,1,0,0:0:0:0:
192,192,142325,1,0,0:0:0:0:
320,192,142519,1,0,0:0:0:0:
64,192,142712,128,0,144260:0:0:0:0:
448,192,144260,1,0,0:0:0:0:
