osu file format v14

[General]
AudioFilename: audio.mp3
AudioLeadIn: 0
PreviewTime: 37326
Countdown: 0
SampleSet: Normal
StackLeniency: 0.7
Mode: 3
LetterboxInBreaks: 0
SpecialStyle: 0
WidescreenStoryboard: 1

[Editor]
Bookmarks: 25326,37713,50100,62487,74874,87261,99648,102616,112035,118229,124422,136810,143003
DistanceSpacing: 0.8
BeatDivisor: 4
GridSize: 8
TimelineZoom: 2.2

[Metadata]
Title:Trrricksters!!
TitleUnicode:Trrricksters!!
Artist:s-don vs. Hino Isuka
ArtistUnicode:s-don vs. 翡乃イスカ
Creator:Raveille
Version:Advanced!!
Source:CHUNITHM CRYSTAL
Tags:electronic instrumental bouncy techno チュウニズム 音源 sega cytus ii 2 rayark ep. III episode 3 zenza of performai respect V 5 neowiz groove coaster soft6 soft 6 spring time ffa tournament ro16 round of 16 hybrid hb ln long notes maimai でらっくす FESTiVAL DX Deluxe
BeatmapID:3894609
BeatmapSetID:1711751

[Difficulty]
HPDrainRate:7
CircleSize:4
OverallDifficulty:7
ApproachRate:5
SliderMultiplier:1.4
SliderTickRate:1

[Events]
//Background and Video events
0,0,"trrrrr.jpg",0,0
//Break Periods
//Storyboard Layer 0 (Background)
//Storyboard Layer 1 (Fail)
//Storyboard Layer 2 (Pass)
//Storyboard Layer 3 (Foreground)
//Storyboard Layer 4 (Overlay)
//Storyboard Sound Samples

[TimingPoints]
261,387.096774193548,4,1,1,44,1,0
37422,-100,4,1,1,44,0,1
49809,-100,4,1,1,44,0,0
117938,-100,4,1,1,44,0,1
136519,-100,4,1,1,44,0,0

[HitObjects]
448,192,261,128,0,648:0:0:0:0:
64,192,261,1,0,0:0:0:0:
64,192,648,128,0,841:0:0:0:0:
320,192,841,128,0,1035:0:0:0:0:
64,192,1035,128,0,1422:0:0:0:0:
448,192,1422,1,0,0:0:0:0:
192,192,1615,1,0,0:0:0:0:
320,192,1809,1,0,0:0:0:0:
320,192,2002,1,0,0:0:0:0:
192,192,2196,1,0,0:0:0:0:
192,192,2390,1,0,0:0:0:0:
320,192,2583,1,0,0:0:0:0:
192,192,2777,1,0,0:0:0:0:
320,192,2777,1,0,0:0:0:0:
64,192,3067,1,0,0:0:0:0:
320,192,3067,1,0,0:0:0:0:
64,192,3357,128,0,3744:0:0:0:0:
448,192,3357,1,0,0:0:0:0:
448,192,3744,128,0,3938:0:0:0:0:
192,192,3938,128,0,4131:0:0:0:0:
448,192,4131,128,0,4519:0:0:0:0:
192,192,4712,1,0,0:0:0:0:
320,192,4906,128,0,5099:0:0:0:0:
192,192,5099,128,0,5293:0:0:0:0:
320,192,5293,1,0,0:0:0:0:
192,192,5486,128,0,5680:0:0:0:0:
320,192,5680,128,0,5873:0:0:0:0:
192,192,5873,1,0,0:0:0:0:
64,192,6067,1,0,0:0:0:0:
448,192,6067,1,0,0:0:0:0:
64,192,6454,1,0,0:0:0:0:
448,192,6454,128,0,6648:0:0:0:0:
64,192,6648,1,0,0:0:0:0:
192,192,6841,1,0,0:0:0:0:
320,192,7035,1,0,0:0:0:0:
448,192,7228,1,0,0:0:0:0:
64,192,7228,128,0,7615:0:0:0:0:
448,192,7422,1,0,0:0:0:0:
448,192,7615,1,0,0:0:0:0:
320,192,7809,1,0,0:0:0:0:
192,192,8002,1,0,0:0:0:0:
448,192,8002,1,0,0:0:0:0:
320,192,8196,1,0,0:0:0:0:
64,192,8390,1,0,0:0:0:0:
448,192,8390,1,0,0:0:0:0:
192,192,8583,1,0,0:0:0:0:
64,192,8777,1,0,0:0:0:0:
320,192,8777,1,0,0:0:0:0:
192,192,8970,1,0,0:0:0:0:
448,192,8970,1,0,0:0:0:0:
64,192,9260,1,0,0:0:0:0:
320,192,9260,1,0,0:0:0:0:
448,192,9551,1,0,0:0:0:0:
64,192,9551,128,0,9744:0:0:0:0:
448,192,9744,1,0,0:0:0:0:
320,192,9938,1,0,0:0:0:0:
192,192,10131,1,0,0:0:0:0:
448,192,10325,128,0,10712:0:0:0:0:
64,192,10325,1,0,0:0:0:0:
64,192,10519,1,0,0:0:0:0:
64,192,10712,1,0,0:0:0:0:
320,192,10906,1,0,0:0:0:0:
192,192,11099,128,0,11486:0:0:0:0:
320,192,11486,128,0,11873:0:0:0:0:
192,192,11873,128,0,12260:0:0:0:0:
448,192,12260,1,0,0:0:0:0:
64,192,12260,1,0,0:0:0:0:
320,192,12454,1,0,0:0:0:0:
192,192,12648,1,0,0:0:0:0:
64,192,12648,1,0,0:0:0:0:
320,192,12841,1,0,0:0:0:0:
64,192,13035,1,0,0:0:0:0:
448,192,13035,1,0,0:0:0:0:
320,192,13228,1,0,0:0:0:0:
192,192,13422,1,0,0:0:0:0:
64,192,13422,1,0,0:0:0:0:
320,192,13615,1,0,0:0:0:0:
64,192,13809,1,0,0:0:0:0:
448,192,13809,1,0,0:0:0:0:
192,192,14002,1,0,0:0:0:0:
320,192,14196,1,0,0:0:0:0:
448,192,14196,1,0,0:0:0:0:
192,192,14390,1,0,0:0:0:0:
448,192,14583,1,0,0:0:0:0:
64,192,14583,1,0,0:0:0:0:
192,192,14777,1,0,0:0:0:0:
320,192,14970,1,0,0:0:0:0:
448,192,14970,1,0,0:0:0:0:
192,192,15164,1,0,0:0:0:0:
448,192,15357,1,0,0:0:0:0:
64,192,15357,1,0,0:0:0:0:
320,192,15551,1,0,0:0:0:0:
64,192,15744,1,0,0:0:0:0:
192,192,15744,1,0,0:0:0:0:
320,192,15938,1,0,0:0:0:0:
448,192,16131,1,0,0:0:0:0:
64,192,16131,1,0,0:0:0:0:
320,192,16325,1,0,0:0:0:0:
64,192,16519,1,0,0:0:0:0:
192,192,16519,1,0,0:0:0:0:
320,192,16712,1,0,0:0:0:0:
448,192,16906,1,0,0:0:0:0:
64,192,16906,1,0,0:0:0:0:
192,192,17099,1,0,0:0:0:0:
320,192,17293,1,0,0:0:0:0:
448,192,17293,1,0,0:0:0:0:
192,192,17486,1,0,0:0:0:0:
64,192,17680,1,0,0:0:0:0:
448,192,17680,1,0,0:0:0:0:
320,192,17873,1,0,0:0:0:0:
64,192,18067,1,0,0:0:0:0:
192,192,18067,128,0,18260:0:0:0:0:
320,192,18260,128,0,18454:0:0:0:0:
192,192,18454,128,0,18841:0:0:0:0:
320,192,18841,1,0,0:0:0:0:
448,192,18841,1,0,0:0:0:0:
64,192,19035,1,0,0:0:0:0:
192,192,19228,1,0,0:0:0:0:
320,192,19325,1,0,0:0:0:0:
192,192,19519,1,0,0:0:0:0:
320,192,19615,1,0,0:0:0:0:
448,192,19615,1,0,0:0:0:0:
64,192,19809,1,0,0:0:0:0:
192,192,20002,1,0,0:0:0:0:
320,192,20099,1,0,0:0:0:0:
192,192,20293,1,0,0:0:0:0:
320,192,20390,1,0,0:0:0:0:
448,192,20390,1,0,0:0:0:0:
64,192,20583,1,0,0:0:0:0:
192,192,20680,1,0,0:0:0:0:
320,192,20777,1,0,0:0:0:0:
448,192,20777,1,0,0:0:0:0:
64,192,20970,1,0,0:0:0:0:
192,192,21067,1,0,0:0:0:0:
320,192,21164,1,0,0:0:0:0:
448,192,21164,1,0,0:0:0:0:
320,192,21357,1,0,0:0:0:0:
448,192,21357,1,0,0:0:0:0:
192,192,21551,1,0,0:0:0:0:
64,192,21551,1,0,0:0:0:0:
64,192,21744,1,0,0:0:0:0:
192,192,21744,1,0,0:0:0:0:
320,192,21938,128,0,22131:0:0:0:0:
192,192,22131,128,0,22325:0:0:0:0:
320,192,22325,128,0,22519:0:0:0:0:
192,192,22519,128,0,22712:0:0:0:0:
320,192,22712,128,0,23099:0:0:0:0:
192,192,23099,128,0,23486:0:0:0:0:
320,192,23486,1,0,0:0:0:0:
448,192,23486,1,0,0:0:0:0:
192,192,23873,1,0,0:0:0:0:
64,192,23873,1,0,0:0:0:0:
320,192,24260,1,0,0:0:0:0:
448,192,24260,1,0,0:0:0:0:
192,192,24454,1,0,0:0:0:0:
64,192,24648,128,0,25035:0:0:0:0:
448,192,24648,128,0,25035:0:0:0:0:
320,192,25035,1,0,0:0:0:0:
192,192,25228,1,0,0:0:0:0:
320,192,25422,1,0,0:0:0:0:
192,192,25615,1,0,0:0:0:0:
320,192,25809,128,0,26196:0:0:0:0:
64,192,26196,1,0,0:0:0:0:
192,192,26390,1,0,0:0:0:0:
320,192,26583,1,0,0:0:0:0:
448,192,26583,128,0,26970:0:0:0:0:
64,192,26970,1,0,0:0:0:0:
192,192,26970,1,0,0:0:0:0:
192,192,27260,1,0,0:0:0:0:
320,192,27260,1,0,0:0:0:0:
320,192,27551,1,0,0:0:0:0:
448,192,27551,1,0,0:0:0:0:
64,192,27744,128,0,27938:0:0:0:0:
320,192,27938,128,0,28131:0:0:0:0:
192,192,28131,1,0,0:0:0:0:
64,192,28131,1,0,0:0:0:0:
192,192,28325,1,0,0:0:0:0:
448,192,28519,128,0,28712:0:0:0:0:
64,192,28712,1,0,0:0:0:0:
320,192,28906,1,0,0:0:0:0:
192,192,28906,1,0,0:0:0:0:
320,192,29099,1,0,0:0:0:0:
64,192,29293,128,0,29486:0:0:0:0:
448,192,29486,1,0,0:0:0:0:
192,192,29680,1,0,0:0:0:0:
320,192,29680,1,0,0:0:0:0:
192,192,29970,1,0,0:0:0:0:
320,192,29970,1,0,0:0:0:0:
64,192,30260,1,0,0:0:0:0:
448,192,30260,1,0,0:0:0:0:
320,192,30551,128,0,30841:0:0:0:0:
64,192,30841,128,0,31035:0:0:0:0:
448,192,31035,128,0,31228:0:0:0:0:
64,192,31228,1,0,0:0:0:0:
448,192,31422,1,0,0:0:0:0:
192,192,31615,128,0,31809:0:0:0:0:
64,192,31615,1,0,0:0:0:0:
320,192,31809,128,0,32002:0:0:0:0:
64,192,32002,128,0,32390:0:0:0:0:
448,192,32390,128,0,32777:0:0:0:0:
64,192,32777,1,0,0:0:0:0:
192,192,32777,1,0,0:0:0:0:
320,192,32970,128,0,33164:0:0:0:0:
192,192,33164,128,0,33357:0:0:0:0:
320,192,33357,128,0,33551:0:0:0:0:
64,192,33551,1,0,0:0:0:0:
448,192,33744,1,0,0:0:0:0:
192,192,33938,1,0,0:0:0:0:
320,192,34131,1,0,0:0:0:0:
192,192,34325,128,0,34712:0:0:0:0:
64,192,34325,1,0,0:0:0:0:
320,192,34712,1,0,0:0:0:0:
320,192,34906,1,0,0:0:0:0:
64,192,35099,1,0,0:0:0:0:
192,192,35099,1,0,0:0:0:0:
448,192,35293,1,0,0:0:0:0:
192,192,35486,128,0,35680:0:0:0:0:
320,192,35680,128,0,35873:0:0:0:0:
64,192,35873,128,0,36260:0:0:0:0:
192,192,36260,1,0,0:0:0:0:
192,192,36454,1,0,0:0:0:0:
320,192,36648,1,0,0:0:0:0:
320,192,36841,1,0,0:0:0:0:
64,192,37035,128,0,37228:0:0:0:0:
448,192,37228,128,0,37422:0:0:0:0:
64,192,37422,1,0,0:0:0:0:
192,192,37422,128,0,37615:0:0:0:0:
320,192,37615,1,0,0:0:0:0:
64,192,37809,1,0,0:0:0:0:
448,192,37809,128,0,38002:0:0:0:0:
320,192,38002,1,0,0:0:0:0:
64,192,38196,1,0,0:0:0:0:
192,192,38196,128,0,38390:0:0:0:0:
320,192,38390,1,0,0:0:0:0:
64,192,38583,1,0,0:0:0:0:
448,192,38583,128,0,38777:0:0:0:0:
192,192,38777,1,0,0:0:0:0:
448,192,38970,1,0,0:0:0:0:
320,192,38970,128,0,39164:0:0:0:0:
192,192,39164,1,0,0:0:0:0:
448,192,39357,1,0,0:0:0:0:
64,192,39357,128,0,39551:0:0:0:0:
192,192,39551,1,0,0:0:0:0:
448,192,39744,1,0,0:0:0:0:
320,192,39744,128,0,39938:0:0:0:0:
192,192,39938,1,0,0:0:0:0:
448,192,40131,1,0,0:0:0:0:
64,192,40131,128,0,40325:0:0:0:0:
320,192,40325,1,0,0:0:0:0:
64,192,40519,1,0,0:0:0:0:
192,192,40519,128,0,40712:0:0:0:0:
448,192,40712,1,0,0:0:0:0:
320,192,40712,128,0,40906:0:0:0:0:
64,192,40906,1,0,0:0:0:0:
192,192,40906,1,0,0:0:0:0:
320,192,41099,128,0,41293:0:0:0:0:
64,192,41293,1,0,0:0:0:0:
192,192,41293,128,0,41486:0:0:0:0:
320,192,41486,1,0,0:0:0:0:
64,192,41680,1,0,0:0:0:0:
448,192,41680,128,0,42067:0:0:0:0:
192,192,42067,1,0,0:0:0:0:
64,192,42067,1,0,0:0:0:0:
320,192,42260,1,0,0:0:0:0:
448,192,42260,1,0,0:0:0:0:
64,192,42454,128,0,42744:0:0:0:0:
192,192,42454,1,0,0:0:0:0:
320,192,42744,1,0,0:0:0:0:
448,192,42744,1,0,0:0:0:0:
192,192,43035,128,0,43422:0:0:0:0:
320,192,43035,128,0,43422:0:0:0:0:
448,192,43615,1,0,0:0:0:0:
320,192,43615,128,0,43809:0:0:0:0:
192,192,43809,1,0,0:0:0:0:
448,192,44002,1,0,0:0:0:0:
64,192,44002,128,0,44196:0:0:0:0:
192,192,44196,1,0,0:0:0:0:
448,192,44390,1,0,0:0:0:0:
320,192,44390,128,0,44583:0:0:0:0:
192,192,44583,1,0,0:0:0:0:
448,192,44777,1,0,0:0:0:0:
64,192,44777,128,0,44970:0:0:0:0:
320,192,44970,1,0,0:0:0:0:
64,192,45164,1,0,0:0:0:0:
192,192,45164,128,0,45357:0:0:0:0:
320,192,45357,1,0,0:0:0:0:
64,192,45551,1,0,0:0:0:0:
448,192,45551,128,0,45744:0:0:0:0:
320,192,45744,1,0,0:0:0:0:
64,192,45938,1,0,0:0:0:0:
192,192,45938,128,0,46131:0:0:0:0:
320,192,46131,1,0,0:0:0:0:
64,192,46325,1,0,0:0:0:0:
448,192,46325,128,0,46519:0:0:0:0:
192,192,46519,1,0,0:0:0:0:
448,192,46712,128,0,47099:0:0:0:0:
192,192,47099,1,0,0:0:0:0:
64,192,47099,128,0,47390:0:0:0:0:
320,192,47390,1,0,0:0:0:0:
448,192,47390,1,0,0:0:0:0:
192,192,47583,1,0,0:0:0:0:
64,192,47583,1,0,0:0:0:0:
320,192,47777,1,0,0:0:0:0:
448,192,47777,128,0,48067:0:0:0:0:
64,192,48067,128,0,48260:0:0:0:0:
320,192,48260,128,0,48648:0:0:0:0:
448,192,48260,1,0,0:0:0:0:
192,192,48648,128,0,49035:0:0:0:0:
64,192,48648,1,0,0:0:0:0:
448,192,49035,128,0,49228:0:0:0:0:
320,192,49228,128,0,49422:0:0:0:0:
192,192,49422,128,0,49615:0:0:0:0:
64,192,49615,128,0,49809:0:0:0:0:
320,192,49809,1,0,0:0:0:0:
448,192,49809,1,0,0:0:0:0:
192,192,50002,1,0,0:0:0:0:
448,192,50196,1,0,0:0:0:0:
320,192,50196,1,0,0:0:0:0:
192,192,50390,128,0,50583:0:0:0:0:
64,192,50583,1,0,0:0:0:0:
320,192,50583,128,0,50970:0:0:0:0:
64,192,50970,1,0,0:0:0:0:
192,192,51164,1,0,0:0:0:0:
448,192,51357,1,0,0:0:0:0:
320,192,51357,1,0,0:0:0:0:
192,192,51551,1,0,0:0:0:0:
448,192,51744,1,0,0:0:0:0:
320,192,51744,1,0,0:0:0:0:
192,192,51938,1,0,0:0:0:0:
64,192,52131,1,0,0:0:0:0:
320,192,52131,128,0,52519:0:0:0:0:
64,192,52519,1,0,0:0:0:0:
448,192,52712,128,0,52906:0:0:0:0:
192,192,52906,1,0,0:0:0:0:
64,192,52906,1,0,0:0:0:0:
320,192,53099,1,0,0:0:0:0:
192,192,53293,1,0,0:0:0:0:
64,192,53293,1,0,0:0:0:0:
320,192,53486,1,0,0:0:0:0:
192,192,53680,128,0,54067:0:0:0:0:
448,192,53680,1,0,0:0:0:0:
448,192,54067,1,0,0:0:0:0:
320,192,54260,1,0,0:0:0:0:
64,192,54454,1,0,0:0:0:0:
192,192,54454,1,0,0:0:0:0:
320,192,54648,1,0,0:0:0:0:
64,192,54841,1,0,0:0:0:0:
192,192,54841,1,0,0:0:0:0:
320,192,55035,128,0,55228:0:0:0:0:
64,192,55228,128,0,55422:0:0:0:0:
192,192,55422,128,0,55615:0:0:0:0:
320,192,55615,128,0,55809:0:0:0:0:
448,192,55809,128,0,56002:0:0:0:0:
192,192,56002,1,0,0:0:0:0:
64,192,56002,1,0,0:0:0:0:
64,192,56293,1,0,0:0:0:0:
192,192,56293,1,0,0:0:0:0:
64,192,56583,1,0,0:0:0:0:
192,192,56583,1,0,0:0:0:0:
320,192,56777,1,0,0:0:0:0:
448,192,56777,1,0,0:0:0:0:
320,192,57067,1,0,0:0:0:0:
448,192,57067,1,0,0:0:0:0:
320,192,57357,1,0,0:0:0:0:
448,192,57357,1,0,0:0:0:0:
192,192,57551,1,0,0:0:0:0:
64,192,57551,1,0,0:0:0:0:
64,192,57841,1,0,0:0:0:0:
192,192,57841,1,0,0:0:0:0:
192,192,58131,1,0,0:0:0:0:
64,192,58131,1,0,0:0:0:0:
320,192,58325,1,0,0:0:0:0:
448,192,58325,1,0,0:0:0:0:
320,192,58615,1,0,0:0:0:0:
448,192,58615,1,0,0:0:0:0:
320,192,58906,1,0,0:0:0:0:
448,192,58906,1,0,0:0:0:0:
192,192,59099,1,0,0:0:0:0:
64,192,59099,1,0,0:0:0:0:
320,192,59293,1,0,0:0:0:0:
64,192,59486,1,0,0:0:0:0:
448,192,59486,1,0,0:0:0:0:
192,192,59680,1,0,0:0:0:0:
320,192,59873,1,0,0:0:0:0:
448,192,59873,1,0,0:0:0:0:
64,192,60067,1,0,0:0:0:0:
192,192,60260,1,0,0:0:0:0:
320,192,60260,1,0,0:0:0:0:
448,192,60454,1,0,0:0:0:0:
64,192,60648,1,0,0:0:0:0:
192,192,60648,1,0,0:0:0:0:
64,192,60841,1,0,0:0:0:0:
192,192,61035,1,0,0:0:0:0:
320,192,61035,1,0,0:0:0:0:
192,192,61228,1,0,0:0:0:0:
320,192,61422,1,0,0:0:0:0:
448,192,61422,1,0,0:0:0:0:
320,192,61615,1,0,0:0:0:0:
448,192,61809,128,0,62196:0:0:0:0:
64,192,62196,128,0,62583:0:0:0:0:
192,192,62196,128,0,62583:0:0:0:0:
448,192,62583,1,0,0:0:0:0:
192,192,62777,128,0,62970:0:0:0:0:
448,192,62970,128,0,63164:0:0:0:0:
64,192,63164,128,0,63357:0:0:0:0:
320,192,63357,128,0,63551:0:0:0:0:
192,192,63551,128,0,63744:0:0:0:0:
448,192,63744,128,0,63841:0:0:0:0:
448,192,63938,128,0,64035:0:0:0:0:
64,192,64131,128,0,64228:0:0:0:0:
64,192,64325,128,0,64422:0:0:0:0:
320,192,64519,128,0,64906:0:0:0:0:
192,192,64906,128,0,65293:0:0:0:0:
64,192,65293,128,0,65680:0:0:0:0:
448,192,65680,1,0,0:0:0:0:
320,192,65680,1,0,0:0:0:0:
192,192,65970,1,0,0:0:0:0:
64,192,65970,1,0,0:0:0:0:
64,192,66164,1,0,0:0:0:0:
192,192,66164,1,0,0:0:0:0:
320,192,66454,1,0,0:0:0:0:
448,192,66454,1,0,0:0:0:0:
192,192,66648,1,0,0:0:0:0:
64,192,66648,1,0,0:0:0:0:
320,192,66841,1,0,0:0:0:0:
448,192,66841,1,0,0:0:0:0:
192,192,67228,1,0,0:0:0:0:
320,192,67228,1,0,0:0:0:0:
64,192,67519,1,0,0:0:0:0:
448,192,67519,128,0,68002:0:0:0:0:
64,192,68002,1,0,0:0:0:0:
64,192,68196,1,0,0:0:0:0:
320,192,68390,1,0,0:0:0:0:
448,192,68390,1,0,0:0:0:0:
320,192,68583,1,0,0:0:0:0:
448,192,68583,1,0,0:0:0:0:
64,192,68777,128,0,69164:0:0:0:0:
192,192,68777,1,0,0:0:0:0:
192,192,69164,1,0,0:0:0:0:
320,192,69164,128,0,69551:0:0:0:0:
192,192,69551,128,0,69938:0:0:0:0:
448,192,69551,1,0,0:0:0:0:
448,192,69938,128,0,70325:0:0:0:0:
64,192,69938,1,0,0:0:0:0:
320,192,70325,128,0,70712:0:0:0:0:
192,192,70325,1,0,0:0:0:0:
64,192,70712,128,0,70906:0:0:0:0:
448,192,70906,128,0,71099:0:0:0:0:
64,192,71099,128,0,71293:0:0:0:0:
320,192,71486,128,0,71583:0:0:0:0:
192,192,71486,128,0,71583:0:0:0:0:
448,192,71873,128,0,72260:0:0:0:0:
192,192,72260,128,0,72648:0:0:0:0:
64,192,72260,1,0,0:0:0:0:
448,192,72648,128,0,73035:0:0:0:0:
64,192,73035,128,0,73422:0:0:0:0:
320,192,73615,128,0,73809:0:0:0:0:
64,192,73809,1,0,0:0:0:0:
448,192,74002,1,0,0:0:0:0:
64,192,74196,1,0,0:0:0:0:
448,192,74390,1,0,0:0:0:0:
192,192,74583,128,0,74970:0:0:0:0:
320,192,74970,1,0,0:0:0:0:
320,192,75164,1,0,0:0:0:0:
192,192,75357,1,0,0:0:0:0:
192,192,75551,1,0,0:0:0:0:
320,192,75744,1,0,0:0:0:0:
320,192,75938,1,0,0:0:0:0:
64,192,76131,1,0,0:0:0:0:
64,192,76325,1,0,0:0:0:0:
448,192,76519,1,0,0:0:0:0:
448,192,76712,1,0,0:0:0:0:
64,192,76906,1,0,0:0:0:0:
448,192,77002,1,0,0:0:0:0:
64,192,77099,1,0,0:0:0:0:
448,192,77196,1,0,0:0:0:0:
64,192,77293,128,0,77680:0:0:0:0:
320,192,77680,128,0,78067:0:0:0:0:
192,192,78067,1,0,0:0:0:0:
64,192,78067,1,0,0:0:0:0:
64,192,78357,1,0,0:0:0:0:
192,192,78357,1,0,0:0:0:0:
320,192,78551,1,0,0:0:0:0:
448,192,78551,1,0,0:0:0:0:
320,192,78841,1,0,0:0:0:0:
448,192,78841,1,0,0:0:0:0:
192,192,79035,1,0,0:0:0:0:
64,192,79035,1,0,0:0:0:0:
320,192,79228,1,0,0:0:0:0:
448,192,79228,1,0,0:0:0:0:
192,192,79615,1,0,0:0:0:0:
320,192,79615,1,0,0:0:0:0:
64,192,79906,1,0,0:0:0:0:
448,192,79906,128,0,80390:0:0:0:0:
64,192,80196,1,0,0:0:0:0:
64,192,80390,1,0,0:0:0:0:
320,192,80777,1,0,0:0:0:0:
448,192,80777,1,0,0:0:0:0:
192,192,80970,1,0,0:0:0:0:
64,192,80970,1,0,0:0:0:0:
320,192,81164,1,0,0:0:0:0:
448,192,81164,128,0,81551:0:0:0:0:
192,192,81551,128,0,81938:0:0:0:0:
320,192,81551,1,0,0:0:0:0:
64,192,81938,1,0,0:0:0:0:
320,192,81938,128,0,82325:0:0:0:0:
448,192,82325,1,0,0:0:0:0:
64,192,82325,128,0,82519:0:0:0:0:
192,192,82519,128,0,82712:0:0:0:0:
320,192,82712,128,0,82906:0:0:0:0:
448,192,82906,128,0,83099:0:0:0:0:
64,192,83099,1,0,0:0:0:0:
320,192,83196,1,0,0:0:0:0:
64,192,83293,1,0,0:0:0:0:
320,192,83390,1,0,0:0:0:0:
64,192,83486,128,0,83680:0:0:0:0:
192,192,83873,128,0,83970:0:0:0:0:
320,192,83873,128,0,83970:0:0:0:0:
448,192,84067,128,0,84260:0:0:0:0:
64,192,84260,128,0,84648:0:0:0:0:
448,192,84648,128,0,85035:0:0:0:0:
320,192,84648,1,0,0:0:0:0:
64,192,85035,128,0,85422:0:0:0:0:
320,192,85422,128,0,85809:0:0:0:0:
192,192,86002,128,0,86196:0:0:0:0:
448,192,86196,1,0,0:0:0:0:
64,192,86390,1,0,0:0:0:0:
448,192,86583,1,0,0:0:0:0:
64,192,86777,1,0,0:0:0:0:
448,192,86970,128,0,93164:0:0:0:0:
64,192,93164,128,0,94712:0:0:0:0:
192,192,94712,128,0,96260:0:0:0:0:
320,192,96260,128,0,98970:0:0:0:0:
192,192,98970,128,0,99357:0:0:0:0:
320,192,99357,1,0,0:0:0:0:
448,192,99357,128,0,99551:0:0:0:0:
64,192,99551,128,0,99744:0:0:0:0:
192,192,99744,128,0,99938:0:0:0:0:
320,192,99938,128,0,100131:0:0:0:0:
448,192,100131,1,0,0:0:0:0:
192,192,100325,1,0,0:0:0:0:
320,192,100325,1,0,0:0:0:0:
192,192,100712,1,0,0:0:0:0:
64,192,100712,128,0,101293:0:0:0:0:
320,192,101293,128,0,101680:0:0:0:0:
448,192,101680,128,0,102067:0:0:0:0:
192,192,101680,1,0,0:0:0:0:
192,192,102067,128,0,102454:0:0:0:0:
64,192,102454,128,0,102648:0:0:0:0:
320,192,102454,1,0,0:0:0:0:
448,192,102648,128,0,102841:0:0:0:0:
192,192,102841,1,0,0:0:0:0:
320,192,103035,1,0,0:0:0:0:
192,192,103228,128,0,103422:0:0:0:0:
320,192,103422,128,0,103615:0:0:0:0:
64,192,103615,128,0,103809:0:0:0:0:
448,192,103809,128,0,104002:0:0:0:0:
192,192,104002,128,0,104390:0:0:0:0:
448,192,104390,128,0,104583:0:0:0:0:
64,192,104583,128,0,104777:0:0:0:0:
320,192,104777,128,0,104970:0:0:0:0:
192,192,104970,128,0,105164:0:0:0:0:
448,192,105164,128,0,105551:0:0:0:0:
192,192,105551,1,0,0:0:0:0:
64,192,105551,1,0,0:0:0:0:
64,192,105841,1,0,0:0:0:0:
192,192,105841,1,0,0:0:0:0:
192,192,106131,1,0,0:0:0:0:
64,192,106131,1,0,0:0:0:0:
320,192,106325,1,0,0:0:0:0:
448,192,106325,1,0,0:0:0:0:
320,192,106615,1,0,0:0:0:0:
448,192,106615,1,0,0:0:0:0:
320,192,106906,1,0,0:0:0:0:
448,192,106906,1,0,0:0:0:0:
192,192,107099,1,0,0:0:0:0:
64,192,107099,1,0,0:0:0:0:
64,192,107390,1,0,0:0:0:0:
192,192,107390,1,0,0:0:0:0:
192,192,107680,1,0,0:0:0:0:
64,192,107680,1,0,0:0:0:0:
320,192,107873,1,0,0:0:0:0:
448,192,107873,1,0,0:0:0:0:
320,192,108164,1,0,0:0:0:0:
448,192,108164,1,0,0:0:0:0:
320,192,108454,1,0,0:0:0:0:
448,192,108454,1,0,0:0:0:0:
64,192,108648,128,0,108841:0:0:0:0:
192,192,108841,128,0,109035:0:0:0:0:
320,192,109035,128,0,109228:0:0:0:0:
448,192,109228,128,0,109422:0:0:0:0:
64,192,109422,128,0,109615:0:0:0:0:
192,192,109615,128,0,109809:0:0:0:0:
320,192,109809,128,0,110002:0:0:0:0:
448,192,110002,128,0,110196:0:0:0:0:
64,192,110196,128,0,111357:0:0:0:0:
448,192,111357,128,0,111744:0:0:0:0:
192,192,111744,1,0,0:0:0:0:
320,192,111938,1,0,0:0:0:0:
448,192,112131,1,0,0:0:0:0:
320,192,112325,1,0,0:0:0:0:
192,192,112519,1,0,0:0:0:0:
448,192,112712,1,0,0:0:0:0:
192,192,112809,1,0,0:0:0:0:
448,192,113099,1,0,0:0:0:0:
320,192,113196,1,0,0:0:0:0:
192,192,113293,1,0,0:0:0:0:
64,192,113486,1,0,0:0:0:0:
320,192,113680,1,0,0:0:0:0:
192,192,113873,1,0,0:0:0:0:
64,192,114067,1,0,0:0:0:0:
320,192,114260,1,0,0:0:0:0:
64,192,114357,1,0,0:0:0:0:
192,192,114551,1,0,0:0:0:0:
320,192,114648,1,0,0:0:0:0:
448,192,114744,1,0,0:0:0:0:
64,192,114841,128,0,115035:0:0:0:0:
320,192,115035,128,0,115228:0:0:0:0:
64,192,115228,1,0,0:0:0:0:
448,192,115422,128,0,115615:0:0:0:0:
192,192,115615,128,0,115809:0:0:0:0:
448,192,115809,1,0,0:0:0:0:
64,192,116002,128,0,116390:0:0:0:0:
320,192,116390,1,0,0:0:0:0:
448,192,116390,1,0,0:0:0:0:
320,192,116583,1,0,0:0:0:0:
448,192,116583,1,0,0:0:0:0:
320,192,116777,1,0,0:0:0:0:
448,192,116777,128,0,117067:0:0:0:0:
192,192,117067,1,0,0:0:0:0:
64,192,117067,1,0,0:0:0:0:
192,192,117357,128,0,117744:0:0:0:0:
320,192,117357,128,0,117744:0:0:0:0:
64,192,117938,1,0,0:0:0:0:
192,192,117938,128,0,118131:0:0:0:0:
320,192,118131,1,0,0:0:0:0:
64,192,118325,1,0,0:0:0:0:
448,192,118325,128,0,118519:0:0:0:0:
320,192,118519,1,0,0:0:0:0:
64,192,118712,1,0,0:0:0:0:
192,192,118712,128,0,118906:0:0:0:0:
320,192,118906,1,0,0:0:0:0:
64,192,119099,1,0,0:0:0:0:
448,192,119099,128,0,119293:0:0:0:0:
192,192,119293,1,0,0:0:0:0:
448,192,119486,1,0,0:0:0:0:
320,192,119486,128,0,119680:0:0:0:0:
192,192,119680,1,0,0:0:0:0:
448,192,119873,1,0,0:0:0:0:
64,192,119873,128,0,120067:0:0:0:0:
192,192,120067,1,0,0:0:0:0:
448,192,120260,1,0,0:0:0:0:
320,192,120260,128,0,120454:0:0:0:0:
192,192,120454,1,0,0:0:0:0:
448,192,120648,1,0,0:0:0:0:
64,192,120648,128,0,120841:0:0:0:0:
320,192,120841,1,0,0:0:0:0:
64,192,121035,128,0,121422:0:0:0:0:
320,192,121422,1,0,0:0:0:0:
448,192,121422,128,0,121712:0:0:0:0:
192,192,121712,1,0,0:0:0:0:
64,192,121712,1,0,0:0:0:0:
320,192,121906,1,0,0:0:0:0:
448,192,121906,1,0,0:0:0:0:
192,192,122099,1,0,0:0:0:0:
64,192,122099,128,0,122390:0:0:0:0:
448,192,122390,128,0,122583:0:0:0:0:
192,192,122583,128,0,122970:0:0:0:0:
320,192,122970,128,0,123357:0:0:0:0:
64,192,123357,128,0,123551:0:0:0:0:
192,192,123551,128,0,123744:0:0:0:0:
320,192,123744,128,0,123938:0:0:0:0:
448,192,123938,128,0,124131:0:0:0:0:
192,192,124131,128,0,124519:0:0:0:0:
448,192,124519,1,0,0:0:0:0:
64,192,124519,128,0,124712:0:0:0:0:
192,192,124712,1,0,0:0:0:0:
448,192,124906,1,0,0:0:0:0:
320,192,124906,128,0,125099:0:0:0:0:
192,192,125099,1,0,0:0:0:0:
448,192,125293,1,0,0:0:0:0:
64,192,125293,128,0,125486:0:0:0:0:
320,192,125486,1,0,0:0:0:0:
64,192,125680,1,0,0:0:0:0:
192,192,125680,128,0,125873:0:0:0:0:
320,192,125873,1,0,0:0:0:0:
64,192,126067,1,0,0:0:0:0:
448,192,126067,128,0,126260:0:0:0:0:
320,192,126260,1,0,0:0:0:0:
64,192,126454,1,0,0:0:0:0:
192,192,126454,128,0,126648:0:0:0:0:
320,192,126648,1,0,0:0:0:0:
64,192,126841,1,0,0:0:0:0:
448,192,126841,128,0,127035:0:0:0:0:
192,192,127035,1,0,0:0:0:0:
448,192,127228,1,0,0:0:0:0:
320,192,127228,128,0,127422:0:0:0:0:
64,192,127422,1,0,0:0:0:0:
192,192,127422,128,0,127615:0:0:0:0:
448,192,127615,1,0,0:0:0:0:
320,192,127615,1,0,0:0:0:0:
192,192,127809,128,0,128002:0:0:0:0:
448,192,128002,1,0,0:0:0:0:
320,192,128002,128,0,128196:0:0:0:0:
192,192,128196,1,0,0:0:0:0:
448,192,128390,1,0,0:0:0:0:
64,192,128390,128,0,128777:0:0:0:0:
320,192,128777,1,0,0:0:0:0:
448,192,128777,1,0,0:0:0:0:
192,192,128970,1,0,0:0:0:0:
64,192,128970,1,0,0:0:0:0:
448,192,129164,128,0,129454:0:0:0:0:
320,192,129164,1,0,0:0:0:0:
192,192,129454,1,0,0:0:0:0:
64,192,129454,1,0,0:0:0:0:
320,192,129744,128,0,130131:0:0:0:0:
192,192,129744,128,0,130131:0:0:0:0:
64,192,130325,1,0,0:0:0:0:
192,192,130325,128,0,130519:0:0:0:0:
320,192,130519,1,0,0:0:0:0:
64,192,130712,1,0,0:0:0:0:
448,192,130712,128,0,130906:0:0:0:0:
320,192,130906,1,0,0:0:0:0:
64,192,131099,1,0,0:0:0:0:
192,192,131099,128,0,131293:0:0:0:0:
320,192,131293,1,0,0:0:0:0:
64,192,131486,1,0,0:0:0:0:
448,192,131486,128,0,131680:0:0:0:0:
192,192,131680,1,0,0:0:0:0:
448,192,131873,1,0,0:0:0:0:
320,192,131873,128,0,132067:0:0:0:0:
192,192,132067,1,0,0:0:0:0:
448,192,132260,1,0,0:0:0:0:
64,192,132260,128,0,132454:0:0:0:0:
192,192,132454,1,0,0:0:0:0:
448,192,132648,1,0,0:0:0:0:
320,192,132648,1,0,0:0:0:0:
64,192,132938,1,0,0:0:0:0:
192,192,132938,1,0,0:0:0:0:
320,192,133228,1,0,0:0:0:0:
448,192,133228,1,0,0:0:0:0:
64,192,133422,128,0,133809:0:0:0:0:
320,192,133809,1,0,0:0:0:0:
448,192,133809,128,0,134099:0:0:0:0:
192,192,134099,1,0,0:0:0:0:
64,192,134099,1,0,0:0:0:0:
320,192,134293,1,0,0:0:0:0:
448,192,134293,1,0,0:0:0:0:
192,192,134486,1,0,0:0:0:0:
64,192,134486,128,0,134777:0:0:0:0:
448,192,134777,128,0,134970:0:0:0:0:
192,192,134970,128,0,135357:0:0:0:0:
320,192,135357,128,0,135744:0:0:0:0:
64,192,135744,128,0,135938:0:0:0:0:
192,192,135938,128,0,136131:0:0:0:0:
320,192,136131,128,0,136325:0:0:0:0:
448,192,136325,128,0,136519:0:0:0:0:
64,192,136519,1,0,0:0:0:0:
192,192,136519,1,0,0:0:0:0:
320,192,136712,1,0,0:0:0:0:
64,192,136906,128,0,137099:0:0:0:0:
192,192,137099,128,0,137293:0:0:0:0:
320,192,137293,1,0,0:0:0:0:
448,192,137293,1,0,0:0:0:0:
192,192,137486,1,0,0:0:0:0:
448,192,137680,128,0,137873:0:0:0:0:
320,192,137873,128,0,138067:0:0:0:0:
192,192,138067,128,0,138260:0:0:0:0:
64,192,138067,1,0,0:0:0:0:
448,192,138260,128,0,138454:0:0:0:0:
64,192,138454,128,0,138648:0:0:0:0:
320,192,138648,128,0,138841:0:0:0:0:
192,192,138841,128,0,139035:0:0:0:0:
64,192,138841,1,0,0:0:0:0:
448,192,139035,128,0,139228:0:0:0:0:
64,192,139228,128,0,139615:0:0:0:0:
320,192,139615,1,0,0:0:0:0:
192,192,139712,1,0,0:0:0:0:
448,192,139809,1,0,0:0:0:0:
192,192,139906,1,0,0:0:0:0:
320,192,140002,128,0,140390:0:0:0:0:
64,192,140390,1,0,0:0:0:0:
448,192,140486,1,0,0:0:0:0:
192,192,140583,1,0,0:0:0:0:
448,192,140680,1,0,0:0:0:0:
64,192,140777,128,0,141164:0:0:0:0:
448,192,141164,1,0,0:0:0:0:
320,192,141260,1,0,0:0:0:0:
192,192,141357,1,0,0:0:0:0:
64,192,141454,1,0,0:0:0:0:
448,192,141551,1,0,0:0:0:0:
320,192,141648,1,0,0:0:0:0:
192,192,141744,1,0,0:0:0:0:
64,192,141841,1,0,0:0:0:0:
448,192,141938,128,0,142131:0:0:0:0:
320,192,142131,128,0,142325:0:0:0:0:
192,192,142325,128,0,142519:0:0:0:0:
320,192,142519,128,0,142712:0:0:0:0:
64,192,142712,128,0,144260:0:0:0:0:
448,192,144260,1,0,0:0:0:0:
