osu file format v14

[General]
AudioFilename: audio.mp3
AudioLeadIn: 0
PreviewTime: 73134
Countdown: 0
SampleSet: Soft
StackLeniency: 0.7
Mode: 0
LetterboxInBreaks: 0
WidescreenStoryboard: 1

[Editor]
Bookmarks: 67026
DistanceSpacing: 1.3
BeatDivisor: 4
GridSize: 4
TimelineZoom: 1.2

[Metadata]
Title:Gamegame
TitleUnicode:Gamegame
Artist:s-don
ArtistUnicode:s-don
Creator:jinhang_ang
Version:Normal
Source:VOEZ
Tags:BMS 8-bit electronic video game rayark cytus deemo
BeatmapID:1076427
BeatmapSetID:485354

[Difficulty]
HPDrainRate:4
CircleSize:3
OverallDifficulty:4
ApproachRate:5
SliderMultiplier:1.3
SliderTickRate:1

[Events]
//Background and Video events
0,0,"Gamegame.jpg",0,0
//Break Periods
2,2726,5505
2,44191,49648
//Storyboard Layer 0 (Background)
//Storyboard Layer 1 (Fail)
//Storyboard Layer 2 (Pass)
//Storyboard Layer 3 (Foreground)
//Storyboard Sound Samples

[TimingPoints]
1134,428.571428571429,4,2,0,20,1,0
28562,-100,4,2,0,20,0,0
29848,-100,4,2,0,20,0,0
74848,-100,4,2,0,20,0,1
88562,-100,4,2,0,20,0,0
88991,-100,4,2,0,20,0,1
109134,-100,4,2,0,20,0,0
116419,-100,4,2,0,20,0,1
116634,-100,4,2,0,20,0,0

[Colours]
Combo1 : 128,0,255
Combo2 : 255,128,0
Combo3 : 60,157,255
Combo4 : 255,132,193

[HitObjects]
252,200,2419,6,0,L|256:160,1,32.5,2|0,0:0|0:0,0:0:0:0:
256,192,6705,12,4,9276,0:0:0:0:
164,236,9705,6,0,L|156:164,2,65,8|0|8,0:0|0:0|0:0,0:0:0:0:
236,276,10348,2,0,B|268:288|268:288|312:272,1,65,0|8,0:0|0:0,0:0:0:0:
344,208,10776,2,0,B|352:176|352:176|384:152,1,65,0|8,0:0|0:0,0:0:0:0:
460,148,11205,1,0,0:0:0:0:
432,228,11419,6,0,L|444:360,1,130,4|4,0:0|0:0,0:0:0:0:
296,277,12276,2,0,L|284:147,1,130,4|4,0:0|0:0,0:0:0:0:
156,36,13134,2,0,B|136:68|136:68|128:176,1,130,2|2,0:0|0:0,0:0:0:0:
180,320,13991,2,0,B|200:288|200:288|208:180,1,130,2|2,0:0|0:0,0:0:0:0:
364,136,14848,6,0,P|304:96|304:32,2,130,0|0|2,0:0|0:0|0:0,0:0:0:0:
384,304,16134,1,4,0:0:0:0:
216,324,16562,6,0,P|168:336|144:336,2,65,8|2|8,0:0|0:0|0:0,0:0:0:0:
244,244,17205,2,0,P|240:200|248:164,1,65,2|8,0:0|0:0,0:0:0:0:
160,164,17634,2,0,P|144:128|144:84,1,65,2|8,0:0|0:0,0:0:0:0:
196,36,18062,1,2,0:0:0:0:
260,92,18276,6,0,P|308:92|336:76,2,65,4|2|8,0:0|0:0|0:0,0:0:0:0:
196,36,18919,1,0,0:0:0:0:
144,104,19134,2,0,B|124:132|124:132|72:140,1,65,8|0,0:0|0:0,0:0:0:0:
100,220,19562,2,0,B|130:224|130:224|150:252,1,65,8|2,0:0|0:0,0:0:0:0:
220,300,19991,6,0,P|260:312|296:304,2,65,4|0|8,0:0|0:0|0:0,0:0:0:0:
264,228,20634,1,2,0:0:0:0:
264,144,20848,2,0,B|264:108|264:108|280:80|280:80|280:8,1,130,8|8,0:0|0:0,0:0:0:0:
200,52,21491,1,2,0:0:0:0:
116,40,21705,5,4,0:0:0:0:
96,208,22134,1,8,0:0:0:0:
264,224,22562,1,4,0:0:0:0:
280,56,22991,1,4,0:0:0:0:
412,160,23419,6,0,P|464:160|484:152,2,65,4|2|8,0:0|0:0|0:0,0:0:0:0:
328,152,24062,2,0,B|292:144|292:144|240:152,1,65,2|8,0:0|0:0,0:0:0:0:
184,180,24491,2,0,B|156:184|156:184|120:176,2,65,2|8|0,0:0|0:0|0:0,0:0:0:0:
264,148,25134,6,0,P|276:104|268:76,2,65,4|2|8,0:0|0:0|0:0,0:0:0:0:
260,232,25776,2,0,B|252:264|252:264|260:300,2,65,2|8|0,0:0|0:0|0:0,0:0:0:0:
336,192,26419,2,0,P|416:188|440:128,1,130,2|4,0:0|0:0,0:0:0:0:
412,72,27062,6,0,P|392:36|396:0,1,65,2|8,0:0|0:0,0:0:0:0:
308,28,27491,1,2,0:0:0:0:
228,60,27705,2,0,B|196:60|196:60|168:76|168:76|88:76,1,130,2|4,0:0|0:0,0:0:0:0:
16,76,28348,1,0,0:0:0:0:
44,156,28562,6,0,P|40:248|256:200,1,390,4|0,0:0|0:0,0:0:0:0:
392,124,30276,6,0,L|408:200,2,65,4|2|8,0:0|0:0|0:0,0:0:0:0:
332,64,30919,1,2,0:0:0:0:
284,136,31134,2,0,B|256:152|256:152|204:152,2,65,8|0|2,0:0|0:0|0:0,0:0:0:0:
332,64,31776,1,0,0:0:0:0:
392,124,31991,2,0,P|444:128|476:116,1,65,4|2,0:0|0:0,0:0:0:0:
480,204,32419,2,0,P|472:248|484:284,1,65,8|2,0:0|0:0,0:0:0:0:
404,312,32848,6,0,P|352:296|304:300,1,97.5,8|0,0:0|0:0,0:0:0:0:
252,360,33384,2,0,P|228:316|240:252,1,97.5,2|4,0:0|0:0,0:0:0:0:
276,196,33919,2,0,B|288:168|288:168|280:128,2,65,2|8|0,0:0|0:0|0:0,0:0:0:0:
200,160,34562,2,0,B|168:160|168:160|140:176|140:176|60:176,1,130,2|8,0:0|0:0,0:0:0:0:
24,108,35205,1,0,0:0:0:0:
48,28,35419,5,4,0:0:0:0:
216,40,35848,1,4,0:0:0:0:
204,208,36276,1,4,0:0:0:0:
372,232,36705,1,4,0:0:0:0:
424,72,37134,6,0,P|476:56|492:40,2,65,8|2|8,0:0|0:0|0:0,0:0:0:0:
340,76,37776,2,0,B|304:76|304:76|264:104,1,65,2|8,0:0|0:0,0:0:0:0:
228,160,38205,2,0,B|204:184|204:184|164:196,2,65,2|8|0,0:0|0:0|0:0,0:0:0:0:
156,112,38848,6,0,L|148:40,2,65,4|2|8,0:0|0:0|0:0,0:0:0:0:
92,164,39491,2,0,L|76:272,2,97.5,2|0|8,0:0|0:0|0:0,0:0:0:0:
260,156,40562,5,8,0:0:0:0:
312,224,40776,2,0,B|340:240|340:240|376:240,2,65,0|8|0,0:0|0:0|0:0,0:0:0:0:
360,156,41419,1,8,0:0:0:0:
412,88,41634,2,0,B|384:72|384:72|348:72,2,65,0|8|0,0:0|0:0|0:0,0:0:0:0:
256,192,42276,12,2,43991,0:0:0:0:
144,280,50848,6,0,P|108:244|104:156,1,130,0|8,0:0|0:0,0:0:0:0:
256,108,51705,2,0,P|297:156|300:219,1,130,0|8,0:0|0:0,0:0:0:0:
144,280,52562,2,0,L|8:288,1,130,0|8,0:0|0:0,0:0:0:0:
40,120,53419,2,0,L|176:112,1,130,0|8,0:0|0:0,0:0:0:0:
328,168,54276,6,0,L|400:164,1,65,8|2,0:0|0:0,0:0:0:0:
404,248,54705,2,0,P|444:236|476:152,1,130,8|8,0:0|0:0,0:0:0:0:
432,88,55348,1,2,0:0:0:0:
348,80,55562,2,0,P|296:72|240:16,1,130,8|8,0:0|0:0,0:0:0:0:
160,32,56205,5,2,0:0:0:0:
100,92,56419,2,0,P|76:148|88:228,1,130,8|8,0:0|0:0,0:0:0:0:
128,288,57062,1,2,0:0:0:0:
192,236,57276,2,0,P|256:212|320:240,1,130,2|4,0:0|0:0,0:0:0:0:
376,288,57919,5,2,0:0:0:0:
396,204,58134,2,0,L|408:64,1,130,8|8,0:0|0:0,0:0:0:0:
244,120,58991,2,0,P|192:120|132:56,1,130,8|8,0:0|0:0,0:0:0:0:
196,228,59848,2,0,P|248:228|308:292,1,130,8|8,0:0|0:0,0:0:0:0:
224,308,60491,1,2,0:0:0:0:
288,360,60705,1,8,0:0:0:0:
392,228,61134,6,0,L|384:156,2,65,8|2|8,0:0|0:0|0:0,0:0:0:0:
456,72,61991,1,8,0:0:0:0:
288,100,62419,2,0,P|216:116|148:92,1,130,8|8,0:0|0:0,0:0:0:0:
52,228,63276,2,0,P|124:212|192:236,1,130,8|8,0:0|0:0,0:0:0:0:
256,200,63919,1,2,0:0:0:0:
292,276,64134,1,8,0:0:0:0:
452,224,64562,6,0,L|440:152,1,65,8|2,0:0|0:0,0:0:0:0:
356,144,64991,2,0,P|380:96|456:76,1,130,8|8,0:0|0:0,0:0:0:0:
280,68,65848,2,0,P|196:64|152:24,1,130,8|8,0:0|0:0,0:0:0:0:
100,96,66491,2,0,L|88:160,1,65,2|8,0:0|0:0,0:0:0:0:
132,324,67134,5,8,0:0:0:0:
256,212,67562,2,0,P|340:216|384:256,1,130,8|8,0:0|0:0,0:0:0:0:
436,184,68205,2,0,L|448:120,1,65,2|8,0:0|0:0,0:0:0:0:
300,40,68848,1,8,0:0:0:0:
132,48,69276,6,0,L|64:56,1,65,8|8,0:0|0:0,0:0:0:0:
84,140,69705,2,0,L|16:148,1,65,8|8,0:0|0:0,0:0:0:0:
32,232,70134,2,0,L|100:240,1,65,8|8,0:0|0:0,0:0:0:0:
80,324,70563,2,0,L|148:332,1,65,8|8,0:0|0:0,0:0:0:0:
200,268,70991,2,0,L|268:276,1,65,8|8,0:0|0:0,0:0:0:0:
320,212,71419,5,4,0:0:0:0:
304,128,71634,1,0,0:0:0:0:
220,136,71848,2,0,P|140:120|124:48,1,162.5,0|0,0:0|0:0,0:0:0:0:
252,40,72705,6,0,L|396:24,1,130,4|2,0:0|0:0,0:0:0:0:
424,100,73348,2,0,B|416:168|416:168|448:240,1,130,2|0,0:0|0:0,0:0:0:0:
372,276,73991,2,0,B|304:268|304:268|248:304|248:304|176:304,1,195,2|0,0:0|0:0,0:0:0:0:
128,244,74848,5,4,0:0:0:0:
136,160,75062,1,2,0:0:0:0:
220,180,75276,2,0,L|364:172,1,130,8|8,0:0|0:0,0:0:0:0:
408,112,75919,1,2,0:0:0:0:
372,36,76134,2,0,L|242:43,1,130,8|8,0:0|0:0,0:0:0:0:
184,104,76776,1,2,0:0:0:0:
100,100,76991,6,0,L|88:200,2,97.5,8|2|2,0:0|0:0|0:0,0:0:0:0:
184,104,77848,2,0,L|200:240,1,130,2|4,0:0|0:0,0:0:0:0:
272,276,78491,5,2,0:0:0:0:
348,240,78705,2,0,P|408:252|476:216,1,130,8|8,0:0|0:0,0:0:0:0:
480,140,79348,1,2,0:0:0:0:
400,164,79562,2,0,P|368:100|304:92,1,130,8|8,0:0|0:0,0:0:0:0:
240,124,80205,5,2,0:0:0:0:
172,172,80419,2,0,B|136:196|136:196|36:196,1,130,2|2,0:0|0:0,0:0:0:0:
36,112,81062,2,0,B|76:84|76:84|180:84,1,130,2|8,0:0|0:0,0:0:0:0:
240,84,81705,6,0,P|288:76|312:60,1,65,4|2,0:0|0:0,0:0:0:0:
388,76,82134,2,0,P|412:120|400:204,1,130,8|8,0:0|0:0,0:0:0:0:
340,252,82776,1,2,0:0:0:0:
256,248,82991,2,0,P|200:228|112:248,1,130,8|8,0:0|0:0,0:0:0:0:
56,204,83634,1,2,0:0:0:0:
120,148,83848,6,0,L|104:44,2,97.5,8|2|2,0:0|0:0|0:0,0:0:0:0:
204,144,84705,2,0,B|276:144|276:144|348:120,1,130,2|4,0:0|0:0,0:0:0:0:
404,84,85348,5,2,0:0:0:0:
460,148,85562,2,0,P|472:208|464:276,1,130,8|8,0:0|0:0,0:0:0:0:
392,320,86205,1,2,0:0:0:0:
320,276,86419,2,0,P|308:216|316:148,1,130,8|2,0:0|0:0,0:0:0:0:
264,80,87062,5,2,0:0:0:0:
192,128,87276,2,0,B|192:224|192:224|172:260,1,130,8|4,0:0|0:0,0:0:0:0:
92,236,87919,2,0,B|92:140|92:140|72:112|72:112|72:32,1,195,2|2,0:0|0:0,0:0:0:0:
156,52,88776,5,4,0:0:0:0:
240,64,88991,2,0,P|308:80|376:56,1,130,8|8,0:0|0:0,0:0:0:0:
444,28,89634,1,2,0:0:0:0:
484,104,89848,2,0,P|496:168|484:240,1,130,8|8,0:0|0:0,0:0:0:0:
440,304,90491,1,2,0:0:0:0:
356,288,90705,6,0,P|308:276|256:292,2,97.5,8|2|2,0:0|0:0|0:0,0:0:0:0:
408,220,91562,2,0,P|416:168|384:80,1,130,2|4,0:0|0:0,0:0:0:0:
324,48,92205,5,2,0:0:0:0:
260,104,92419,2,0,P|212:136|140:124,1,130,8|8,0:0|0:0,0:0:0:0:
188,56,93062,1,2,0:0:0:0:
260,104,93276,2,0,L|264:240,1,130,8|4,0:0|0:0,0:0:0:0:
340,272,93919,5,0,0:0:0:0:
412,228,94134,2,0,P|456:212|492:220,1,65,4|0,0:0|0:0,0:0:0:0:
460,296,94562,1,4,0:0:0:0:
412,228,94776,2,0,B|408:96|408:96|376:28,1,195,0|4,0:0|0:0,0:0:0:0:
304,72,95634,5,2,0:0:0:0:
220,88,95848,2,0,P|152:96|92:64,1,130,8|8,0:0|0:0,0:0:0:0:
12,72,96491,1,2,0:0:0:0:
44,152,96705,2,0,L|36:288,1,130,8|8,0:0|0:0,0:0:0:0:
120,276,97348,1,2,0:0:0:0:
196,312,97562,6,0,L|308:304,2,97.5,8|2|0,0:0|0:0|0:0,0:0:0:0:
120,276,98419,2,0,L|128:128,1,130,2|4,0:0|0:0,0:0:0:0:
172,76,99062,5,2,0:0:0:0:
212,152,99276,2,0,P|280:164|348:144,1,130,8|8,0:0|0:0,0:0:0:0:
404,96,99919,1,2,0:0:0:0:
420,180,100134,2,0,P|440:244|416:324,1,130,8|4,0:0|0:0,0:0:0:0:
264,256,100991,5,4,0:0:0:0:
108,316,101419,1,4,0:0:0:0:
124,148,101848,2,0,L|100:8,1,130,4|4,0:0|0:0,0:0:0:0:
188,24,102491,5,2,0:0:0:0:
268,48,102705,2,0,P|324:64|396:48,1,130,8|8,0:0|0:0,0:0:0:0:
472,20,103348,1,2,0:0:0:0:
464,104,103562,2,0,L|476:240,1,130,8|2,0:0|0:0,0:0:0:0:
392,248,104205,6,0,P|356:244|324:256,1,65,2|4,0:0|0:0,0:0:0:0:
204,272,104741,2,0,P|140:240|128:192,1,97.5,4|4,0:0|0:0,0:0:0:0:
116,92,105384,2,0,P|88:52|42:39,1,97.5,0|4,0:0|0:0,0:0:0:0:
32,124,105919,5,2,0:0:0:0:
44,208,106134,2,0,L|36:348,1,130,8|8,0:0|0:0,0:0:0:0:
120,324,106776,1,2,0:0:0:0:
204,340,106991,2,0,P|268:344|324:284,1,130,8|4,0:0|0:0,0:0:0:0:
240,264,107634,6,0,B|220:200|220:200|224:144,2,97.5,2|8|8,0:0|0:0|0:0,0:0:0:0:
312,220,108491,2,0,B|324:192|324:192|308:128|308:128|320:84,1,130,8|8,0:0|0:0,0:0:0:0:
256,192,109134,12,4,112241,0:0:0:0:
176,292,112562,6,0,L|168:216,1,65,8|2,0:0|0:0,0:0:0:0:
236,176,112991,2,0,P|284:196|368:152,1,130,8|8,0:0|0:0,0:0:0:0:
292,112,113634,1,2,0:0:0:0:
236,176,113848,2,0,P|192:148|108:168,1,130,8|4,0:0|0:0,0:0:0:0:
52,212,114491,5,2,0:0:0:0:
118,160,114705,2,0,B|98:120|98:120|122:32,1,130,8|4,0:0|0:0,0:0:0:0:
204,40,115348,2,0,B|232:60|232:60|332:36,1,130,8|8,0:0|0:0,0:0:0:0:
408,64,115991,5,8,0:0:0:0:
256,192,116419,12,4,117705,0:0:0:0:
