osu file format v14

[General]
AudioFilename: audio.mp3
AudioLeadIn: 0
PreviewTime: 224555
Countdown: 0
SampleSet: Normal
StackLeniency: 0.7
Mode: 1
LetterboxInBreaks: 0
WidescreenStoryboard: 0

[Editor]
Bookmarks: 29,7608,10134,18976,20239,28450,29081,51818,54345,56871,61924,82134,92239,93503,104871,107397,109924,114976,135187,155397,159187,179397,184450,186976,189503,209713,212239,214766,217292,224555,224871,225818,226134,226450,226766,227081,227397,227713,227871,229924,232450,234976,245081,255187,265292,274134,275397,275634,275871
DistanceSpacing: 1
BeatDivisor: 4
GridSize: 32
TimelineZoom: 3.299999

[Metadata]
Title:Louder than steel
TitleUnicode:Louder than steel
Artist:ryu5150
ArtistUnicode:龍5150
Creator:youtune3
Version:Resolute Heart
Source:東方夢時空 ~ Pantasmagria of Dim.Dream
Tags:c89 comiket 89 symphonic metal power black orchestral zun 東方夢時空 ~ The Phantasmagoria of Dim. Dream Tabula rasa ~ 空白少女 my heart
BeatmapID:4546451
BeatmapSetID:2156689

[Difficulty]
HPDrainRate:5
CircleSize:2
OverallDifficulty:7
ApproachRate:10
SliderMultiplier:1.4
SliderTickRate:1

[Events]
//Background and Video events
0,0,"bg.jpg",0,100
//Break Periods
//Storyboard Layer 0 (Background)
//Storyboard Layer 1 (Fail)
//Storyboard Layer 2 (Pass)
//Storyboard Layer 3 (Foreground)
//Storyboard Layer 4 (Overlay)
//Storyboard Sound Samples

[TimingPoints]
-2497,315.789473684211,4,1,0,80,1,0
61924,-100,4,1,0,80,0,1
82134,-100,4,1,0,80,0,0
114976,-100,4,1,0,80,0,1
135187,-100,4,1,0,80,0,0
224871,-100,4,1,0,80,0,1
225029,-100,4,1,0,80,0,0
226134,-100,4,1,0,80,0,1
226292,-100,4,1,0,80,0,0
227397,-100,4,1,0,80,0,1
227555,-100,4,1,0,80,0,0
228660,-100,4,1,0,80,0,1
228818,-100,4,1,0,80,0,0
234976,-100,4,1,0,80,0,1
265292,-100,4,1,0,80,0,0

[HitObjects]
256,192,29,5,8,0:0:0:0:
256,192,108,1,8,0:0:0:0:
256,192,187,1,0,0:0:0:0:
256,192,266,1,0,0:0:0:0:
256,192,345,1,8,0:0:0:0:
256,192,818,1,8,0:0:0:0:
256,192,1292,1,8,0:0:0:0:
256,192,1766,1,8,0:0:0:0:
256,192,2239,1,8,0:0:0:0:
256,192,2555,1,8,0:0:0:0:
256,192,2634,1,8,0:0:0:0:
256,192,2713,1,0,0:0:0:0:
256,192,2792,1,0,0:0:0:0:
256,192,2871,1,8,0:0:0:0:
256,192,3345,1,8,0:0:0:0:
256,192,3818,1,8,0:0:0:0:
256,192,4292,1,8,0:0:0:0:
256,192,4766,1,8,0:0:0:0:
256,192,5081,1,8,0:0:0:0:
256,192,5160,1,8,0:0:0:0:
256,192,5239,1,0,0:0:0:0:
256,192,5318,1,0,0:0:0:0:
256,192,5397,1,8,0:0:0:0:
256,192,5871,1,8,0:0:0:0:
256,192,6187,1,0,0:0:0:0:
256,192,6818,1,8,0:0:0:0:
256,192,7134,1,0,0:0:0:0:
256,192,7292,1,8,0:0:0:0:
256,192,7608,1,8,0:0:0:0:
256,192,7687,1,8,0:0:0:0:
256,192,7766,1,0,0:0:0:0:
256,192,7845,1,0,0:0:0:0:
256,192,7924,1,8,0:0:0:0:
256,192,8003,1,0,0:0:0:0:
256,192,8081,1,0,0:0:0:0:
256,192,8160,1,0,0:0:0:0:
256,192,8239,1,8,0:0:0:0:
256,192,8318,1,0,0:0:0:0:
256,192,8397,1,8,0:0:0:0:
256,192,8476,1,8,0:0:0:0:
256,192,8555,1,0,0:0:0:0:
256,192,8634,1,0,0:0:0:0:
256,192,8713,1,8,0:0:0:0:
256,192,8792,1,0,0:0:0:0:
256,192,8871,1,8,0:0:0:0:
256,192,8950,1,8,0:0:0:0:
256,192,9029,1,0,0:0:0:0:
256,192,9108,1,0,0:0:0:0:
256,192,9187,1,8,0:0:0:0:
256,192,9266,1,8,0:0:0:0:
256,192,9345,1,8,0:0:0:0:
256,192,9424,1,8,0:0:0:0:
256,192,9503,1,0,0:0:0:0:
256,192,10134,1,8,0:0:0:0:
256,192,10213,1,8,0:0:0:0:
256,192,10292,1,0,0:0:0:0:
256,192,10371,1,0,0:0:0:0:
256,192,10450,1,8,0:0:0:0:
256,192,10529,1,8,0:0:0:0:
256,192,10608,1,8,0:0:0:0:
256,192,10687,1,0,0:0:0:0:
256,192,10766,1,8,0:0:0:0:
256,192,10845,1,0,0:0:0:0:
256,192,10924,1,8,0:0:0:0:
256,192,11003,1,8,0:0:0:0:
256,192,11081,1,0,0:0:0:0:
256,192,11160,1,0,0:0:0:0:
256,192,11239,1,8,0:0:0:0:
256,192,11318,1,0,0:0:0:0:
256,192,11397,1,8,0:0:0:0:
256,192,11476,1,8,0:0:0:0:
256,192,11555,1,0,0:0:0:0:
256,192,11634,1,0,0:0:0:0:
256,192,11713,1,8,0:0:0:0:
256,192,11792,1,8,0:0:0:0:
256,192,11871,1,8,0:0:0:0:
256,192,11950,1,0,0:0:0:0:
256,192,12029,1,0,0:0:0:0:
256,192,12108,1,0,0:0:0:0:
256,192,12187,1,8,0:0:0:0:
256,192,12266,1,0,0:0:0:0:
256,192,12345,1,8,0:0:0:0:
256,192,12424,1,8,0:0:0:0:
256,192,12503,1,8,0:0:0:0:
256,192,12581,1,8,0:0:0:0:
256,192,12660,1,0,0:0:0:0:
256,192,12739,1,8,0:0:0:0:
256,192,12818,1,0,0:0:0:0:
256,192,12897,1,0,0:0:0:0:
256,192,12976,1,8,0:0:0:0:
256,192,13055,1,8,0:0:0:0:
256,192,13134,1,0,0:0:0:0:
256,192,13213,1,0,0:0:0:0:
256,192,13292,1,8,0:0:0:0:
256,192,13371,1,0,0:0:0:0:
256,192,13450,1,8,0:0:0:0:
256,192,13529,1,8,0:0:0:0:
256,192,13608,1,8,0:0:0:0:
256,192,13687,1,0,0:0:0:0:
256,192,13766,1,8,0:0:0:0:
256,192,13845,1,0,0:0:0:0:
256,192,13924,1,8,0:0:0:0:
256,192,14003,1,8,0:0:0:0:
256,192,14081,1,0,0:0:0:0:
256,192,14160,1,0,0:0:0:0:
256,192,14239,1,8,0:0:0:0:
256,192,14318,1,0,0:0:0:0:
256,192,14397,1,8,0:0:0:0:
256,192,14476,1,0,0:0:0:0:
256,192,14555,1,8,0:0:0:0:
256,192,14634,1,8,0:0:0:0:
256,192,14713,1,0,0:0:0:0:
256,192,14792,1,0,0:0:0:0:
256,192,14871,1,8,0:0:0:0:
256,192,14950,1,8,0:0:0:0:
256,192,15029,1,0,0:0:0:0:
256,192,15108,1,0,0:0:0:0:
256,192,15187,1,8,0:0:0:0:
256,192,15266,1,0,0:0:0:0:
256,192,15345,1,0,0:0:0:0:
256,192,15424,1,0,0:0:0:0:
256,192,15503,1,8,0:0:0:0:
256,192,15581,1,8,0:0:0:0:
256,192,15660,1,8,0:0:0:0:
256,192,15739,1,0,0:0:0:0:
256,192,15818,1,8,0:0:0:0:
256,192,15897,1,0,0:0:0:0:
256,192,15976,1,8,0:0:0:0:
256,192,16055,1,8,0:0:0:0:
256,192,16134,1,0,0:0:0:0:
256,192,16213,1,0,0:0:0:0:
256,192,16292,1,8,0:0:0:0:
256,192,16371,1,0,0:0:0:0:
256,192,16450,1,8,0:0:0:0:
256,192,16529,1,8,0:0:0:0:
256,192,16608,1,0,0:0:0:0:
256,192,16687,1,0,0:0:0:0:
256,192,16766,1,8,0:0:0:0:
256,192,16845,1,0,0:0:0:0:
256,192,16924,1,8,0:0:0:0:
256,192,17003,1,0,0:0:0:0:
256,192,17081,1,8,0:0:0:0:
256,192,17160,1,8,0:0:0:0:
256,192,17239,1,8,0:0:0:0:
256,192,17318,1,0,0:0:0:0:
256,192,17397,1,8,0:0:0:0:
256,192,17476,1,0,0:0:0:0:
256,192,17555,1,8,0:0:0:0:
256,192,17634,1,0,0:0:0:0:
256,192,17713,1,8,0:0:0:0:
256,192,17792,1,0,0:0:0:0:
256,192,17871,1,0,0:0:0:0:
256,192,17950,1,0,0:0:0:0:
256,192,18029,1,8,0:0:0:0:
256,192,18108,1,8,0:0:0:0:
256,192,18187,1,0,0:0:0:0:
256,192,18266,1,0,0:0:0:0:
256,192,18345,1,8,0:0:0:0:
256,192,18503,1,8,0:0:0:0:
256,192,18660,1,8,0:0:0:0:
256,192,18739,1,8,0:0:0:0:
256,192,18818,1,8,0:0:0:0:
256,192,18897,1,8,0:0:0:0:
256,192,18976,1,4,0:0:0:0:
256,192,19213,1,12,0:0:0:0:
256,192,19450,1,4,0:0:0:0:
256,192,19608,1,12,0:0:0:0:
256,192,19766,1,8,0:0:0:0:
256,192,19845,1,0,0:0:0:0:
256,192,19924,1,8,0:0:0:0:
256,192,20003,1,8,0:0:0:0:
256,192,20081,1,0,0:0:0:0:
256,192,20160,1,0,0:0:0:0:
256,192,20239,1,8,0:0:0:0:
256,192,20318,1,8,0:0:0:0:
256,192,20397,1,8,0:0:0:0:
256,192,20476,1,8,0:0:0:0:
256,192,20555,1,0,0:0:0:0:
256,192,20634,1,0,0:0:0:0:
256,192,20713,1,8,0:0:0:0:
256,192,20792,1,0,0:0:0:0:
256,192,20871,1,8,0:0:0:0:
256,192,20950,1,0,0:0:0:0:
256,192,21029,1,8,0:0:0:0:
256,192,21108,1,8,0:0:0:0:
256,192,21187,1,8,0:0:0:0:
256,192,21266,1,0,0:0:0:0:
256,192,21345,1,8,0:0:0:0:
256,192,21424,1,0,0:0:0:0:
256,192,21503,1,8,0:0:0:0:
256,192,21581,1,8,0:0:0:0:
256,192,21660,1,0,0:0:0:0:
256,192,21739,1,0,0:0:0:0:
256,192,21818,1,8,0:0:0:0:
256,192,21897,1,0,0:0:0:0:
256,192,21976,1,8,0:0:0:0:
256,192,22055,1,0,0:0:0:0:
256,192,22134,1,8,0:0:0:0:
256,192,22213,1,8,0:0:0:0:
256,192,22292,1,8,0:0:0:0:
256,192,22371,1,0,0:0:0:0:
256,192,22450,1,8,0:0:0:0:
256,192,22529,1,0,0:0:0:0:
256,192,22608,1,8,0:0:0:0:
256,192,22687,1,0,0:0:0:0:
256,192,22766,1,8,0:0:0:0:
256,192,22845,1,8,0:0:0:0:
256,192,22924,1,8,0:0:0:0:
256,192,23003,1,8,0:0:0:0:
256,192,23081,1,0,0:0:0:0:
256,192,23160,1,0,0:0:0:0:
256,192,23239,1,8,0:0:0:0:
256,192,23318,1,0,0:0:0:0:
256,192,23397,1,8,0:0:0:0:
256,192,23476,1,8,0:0:0:0:
256,192,23555,1,0,0:0:0:0:
256,192,23634,1,0,0:0:0:0:
256,192,23713,1,8,0:0:0:0:
256,192,23792,1,0,0:0:0:0:
256,192,23871,1,8,0:0:0:0:
256,192,23950,1,0,0:0:0:0:
256,192,24029,1,8,0:0:0:0:
256,192,24108,1,8,0:0:0:0:
256,192,24187,1,8,0:0:0:0:
256,192,24266,1,8,0:0:0:0:
256,192,24345,1,0,0:0:0:0:
256,192,24424,1,0,0:0:0:0:
256,192,24503,1,8,0:0:0:0:
256,192,24581,1,0,0:0:0:0:
256,192,24660,1,8,0:0:0:0:
256,192,24739,1,8,0:0:0:0:
256,192,24818,1,8,0:0:0:0:
256,192,24897,1,8,0:0:0:0:
256,192,24976,1,0,0:0:0:0:
256,192,25055,1,0,0:0:0:0:
256,192,25134,1,8,0:0:0:0:
256,192,25213,1,0,0:0:0:0:
256,192,25292,1,8,0:0:0:0:
256,192,25371,1,8,0:0:0:0:
256,192,25450,1,8,0:0:0:0:
256,192,25529,1,8,0:0:0:0:
256,192,25608,1,0,0:0:0:0:
256,192,25687,1,0,0:0:0:0:
256,192,25766,1,8,0:0:0:0:
256,192,25845,1,0,0:0:0:0:
256,192,25924,1,8,0:0:0:0:
256,192,26003,1,0,0:0:0:0:
256,192,26081,1,8,0:0:0:0:
256,192,26160,1,8,0:0:0:0:
256,192,26239,1,8,0:0:0:0:
256,192,26318,1,0,0:0:0:0:
256,192,26397,1,8,0:0:0:0:
256,192,26476,1,0,0:0:0:0:
256,192,26555,1,8,0:0:0:0:
256,192,26634,1,8,0:0:0:0:
256,192,26713,1,0,0:0:0:0:
256,192,26792,1,0,0:0:0:0:
256,192,26871,1,8,0:0:0:0:
256,192,26950,1,0,0:0:0:0:
256,192,27029,1,8,0:0:0:0:
256,192,27108,1,0,0:0:0:0:
256,192,27187,1,8,0:0:0:0:
256,192,27266,1,8,0:0:0:0:
256,192,27345,1,8,0:0:0:0:
256,192,27424,1,0,0:0:0:0:
256,192,27503,1,8,0:0:0:0:
256,192,27581,1,0,0:0:0:0:
256,192,27660,1,8,0:0:0:0:
256,192,27739,1,0,0:0:0:0:
256,192,27818,1,8,0:0:0:0:
256,192,27897,1,8,0:0:0:0:
256,192,27976,1,8,0:0:0:0:
256,192,28055,1,8,0:0:0:0:
256,192,28134,1,0,0:0:0:0:
256,192,28213,1,0,0:0:0:0:
256,192,28292,1,8,0:0:0:0:
256,192,28371,1,0,0:0:0:0:
256,192,28450,1,12,0:0:0:0:
256,192,28687,1,12,0:0:0:0:
256,192,28924,1,12,0:0:0:0:
256,192,29081,1,4,0:0:0:0:
256,192,29239,1,0,0:0:0:0:
256,192,29397,1,8,0:0:0:0:
256,192,29476,1,0,0:0:0:0:
256,192,29555,1,8,0:0:0:0:
256,192,29713,1,0,0:0:0:0:
256,192,29871,1,8,0:0:0:0:
256,192,30029,1,8,0:0:0:0:
256,192,30108,1,8,0:0:0:0:
256,192,30187,1,0,0:0:0:0:
256,192,30345,1,0,0:0:0:0:
256,192,30503,1,0,0:0:0:0:
256,192,30581,1,0,0:0:0:0:
256,192,30660,1,8,0:0:0:0:
256,192,30818,1,0,0:0:0:0:
256,192,30976,1,8,0:0:0:0:
256,192,31055,1,0,0:0:0:0:
256,192,31213,1,0,0:0:0:0:
256,192,31292,1,8,0:0:0:0:
256,192,31450,1,0,0:0:0:0:
256,192,31529,1,0,0:0:0:0:
256,192,31608,1,8,0:0:0:0:
256,192,31766,1,0,0:0:0:0:
256,192,31924,1,8,0:0:0:0:
256,192,32003,1,8,0:0:0:0:
256,192,32081,1,0,0:0:0:0:
256,192,32239,1,8,0:0:0:0:
256,192,32397,1,8,0:0:0:0:
256,192,32555,1,0,0:0:0:0:
256,192,32634,1,0,0:0:0:0:
256,192,32713,1,8,0:0:0:0:
256,192,32871,1,0,0:0:0:0:
256,192,33029,1,8,0:0:0:0:
256,192,33108,1,0,0:0:0:0:
256,192,33187,1,8,0:0:0:0:
256,192,33345,1,0,0:0:0:0:
256,192,33503,1,8,0:0:0:0:
256,192,33660,1,0,0:0:0:0:
256,192,33739,1,8,0:0:0:0:
256,192,33818,1,0,0:0:0:0:
256,192,33897,1,0,0:0:0:0:
256,192,33976,1,8,0:0:0:0:
256,192,34055,1,0,0:0:0:0:
256,192,34134,1,12,0:0:0:0:
256,192,34292,1,0,0:0:0:0:
256,192,34450,1,8,0:0:0:0:
256,192,34529,1,0,0:0:0:0:
256,192,34608,1,8,0:0:0:0:
256,192,34766,1,0,0:0:0:0:
256,192,34924,1,8,0:0:0:0:
256,192,35081,1,0,0:0:0:0:
256,192,35160,1,0,0:0:0:0:
256,192,35239,1,8,0:0:0:0:
256,192,35397,1,8,0:0:0:0:
256,192,35555,1,0,0:0:0:0:
256,192,35713,1,8,0:0:0:0:
256,192,35792,1,8,0:0:0:0:
256,192,35871,1,0,0:0:0:0:
256,192,36029,1,0,0:0:0:0:
256,192,36187,1,8,0:0:0:0:
256,192,36345,1,0,0:0:0:0:
256,192,36424,1,0,0:0:0:0:
256,192,36503,1,8,0:0:0:0:
256,192,36660,1,8,0:0:0:0:
256,192,36818,1,8,0:0:0:0:
256,192,36976,1,0,0:0:0:0:
256,192,37055,1,0,0:0:0:0:
256,192,37134,1,8,0:0:0:0:
256,192,37292,1,0,0:0:0:0:
256,192,37450,1,8,0:0:0:0:
256,192,37608,1,0,0:0:0:0:
256,192,37687,1,0,0:0:0:0:
256,192,37766,1,8,0:0:0:0:
256,192,37924,1,8,0:0:0:0:
256,192,38081,1,0,0:0:0:0:
256,192,38239,1,8,0:0:0:0:
256,192,38318,1,0,0:0:0:0:
256,192,38397,1,8,0:0:0:0:
256,192,38555,1,8,0:0:0:0:
256,192,38634,1,0,0:0:0:0:
256,192,38713,1,8,0:0:0:0:
256,192,38792,1,0,0:0:0:0:
256,192,38871,1,8,0:0:0:0:
256,192,38950,1,8,0:0:0:0:
256,192,39029,1,8,0:0:0:0:
256,192,39108,1,8,0:0:0:0:
256,192,39187,1,4,0:0:0:0:
256,192,39345,1,0,0:0:0:0:
256,192,39503,1,8,0:0:0:0:
256,192,39581,1,0,0:0:0:0:
256,192,39660,1,8,0:0:0:0:
256,192,39818,1,0,0:0:0:0:
256,192,39976,1,8,0:0:0:0:
256,192,40134,1,8,0:0:0:0:
256,192,40213,1,8,0:0:0:0:
256,192,40292,1,0,0:0:0:0:
256,192,40450,1,0,0:0:0:0:
256,192,40608,1,0,0:0:0:0:
256,192,40687,1,0,0:0:0:0:
256,192,40766,1,8,0:0:0:0:
256,192,40924,1,0,0:0:0:0:
256,192,41081,1,8,0:0:0:0:
256,192,41160,1,0,0:0:0:0:
256,192,41318,1,0,0:0:0:0:
256,192,41397,1,8,0:0:0:0:
256,192,41555,1,0,0:0:0:0:
256,192,41634,1,0,0:0:0:0:
256,192,41713,1,8,0:0:0:0:
256,192,41871,1,0,0:0:0:0:
256,192,42029,1,8,0:0:0:0:
256,192,42108,1,8,0:0:0:0:
256,192,42187,1,0,0:0:0:0:
256,192,42345,1,8,0:0:0:0:
256,192,42503,1,8,0:0:0:0:
256,192,42660,1,0,0:0:0:0:
256,192,42739,1,0,0:0:0:0:
256,192,42818,1,8,0:0:0:0:
256,192,42976,1,0,0:0:0:0:
256,192,43134,1,8,0:0:0:0:
256,192,43213,1,0,0:0:0:0:
256,192,43292,1,8,0:0:0:0:
256,192,43450,1,0,0:0:0:0:
256,192,43608,1,8,0:0:0:0:
256,192,43766,1,0,0:0:0:0:
256,192,43845,1,8,0:0:0:0:
256,192,43924,1,0,0:0:0:0:
256,192,44003,1,0,0:0:0:0:
256,192,44081,1,8,0:0:0:0:
256,192,44160,1,0,0:0:0:0:
256,192,44239,1,12,0:0:0:0:
256,192,44397,1,0,0:0:0:0:
256,192,44555,1,8,0:0:0:0:
256,192,44634,1,0,0:0:0:0:
256,192,44713,1,8,0:0:0:0:
256,192,44871,1,0,0:0:0:0:
256,192,45029,1,8,0:0:0:0:
256,192,45187,1,0,0:0:0:0:
256,192,45266,1,0,0:0:0:0:
256,192,45345,1,8,0:0:0:0:
256,192,45503,1,8,0:0:0:0:
256,192,45660,1,0,0:0:0:0:
256,192,45818,1,8,0:0:0:0:
256,192,45897,1,8,0:0:0:0:
256,192,45976,1,0,0:0:0:0:
256,192,46134,1,0,0:0:0:0:
256,192,46292,1,8,0:0:0:0:
256,192,46450,1,0,0:0:0:0:
256,192,46529,1,0,0:0:0:0:
256,192,46608,1,8,0:0:0:0:
256,192,46766,1,8,0:0:0:0:
256,192,46924,1,8,0:0:0:0:
256,192,47081,1,0,0:0:0:0:
256,192,47160,1,0,0:0:0:0:
256,192,47239,1,8,0:0:0:0:
256,192,47397,1,0,0:0:0:0:
256,192,47555,1,8,0:0:0:0:
256,192,47713,1,0,0:0:0:0:
256,192,47792,1,0,0:0:0:0:
256,192,47871,1,8,0:0:0:0:
256,192,48029,1,8,0:0:0:0:
256,192,48187,1,0,0:0:0:0:
256,192,48345,1,8,0:0:0:0:
256,192,48424,1,0,0:0:0:0:
256,192,48503,1,8,0:0:0:0:
256,192,48660,1,8,0:0:0:0:
256,192,48739,1,0,0:0:0:0:
256,192,48818,1,8,0:0:0:0:
256,192,48897,1,0,0:0:0:0:
256,192,48976,1,8,0:0:0:0:
256,192,49055,1,8,0:0:0:0:
256,192,49134,1,0,0:0:0:0:
256,192,49213,1,0,0:0:0:0:
256,192,49292,1,12,0:0:0:0:
256,192,49450,1,0,0:0:0:0:
256,192,49608,1,8,0:0:0:0:
256,192,49687,1,0,0:0:0:0:
256,192,49766,1,8,0:0:0:0:
256,192,49845,1,8,0:0:0:0:
256,192,49924,1,0,0:0:0:0:
256,192,50081,1,8,0:0:0:0:
256,192,50239,1,8,0:0:0:0:
256,192,50318,1,8,0:0:0:0:
256,192,50397,1,0,0:0:0:0:
256,192,50555,1,8,0:0:0:0:
256,192,50713,1,0,0:0:0:0:
256,192,50792,1,0,0:0:0:0:
256,192,50871,1,8,0:0:0:0:
256,192,50950,1,8,0:0:0:0:
256,192,51029,1,0,0:0:0:0:
256,192,51187,1,0,0:0:0:0:
256,192,51345,1,8,0:0:0:0:
256,192,51503,1,0,0:0:0:0:
256,192,51581,1,0,0:0:0:0:
256,192,51660,1,8,0:0:0:0:
256,192,51818,1,8,0:0:0:0:
256,192,51897,1,8,0:0:0:0:
256,192,51976,1,8,0:0:0:0:
256,192,52055,1,8,0:0:0:0:
256,192,52134,1,0,0:0:0:0:
256,192,52213,1,0,0:0:0:0:
256,192,52292,1,0,0:0:0:0:
256,192,52371,1,0,0:0:0:0:
256,192,52450,1,8,0:0:0:0:
256,192,52529,1,0,0:0:0:0:
256,192,52608,1,8,0:0:0:0:
256,192,52687,1,0,0:0:0:0:
256,192,52766,1,8,0:0:0:0:
256,192,52845,1,8,0:0:0:0:
256,192,52924,1,0,0:0:0:0:
256,192,53003,1,0,0:0:0:0:
256,192,53081,1,8,0:0:0:0:
256,192,53160,1,8,0:0:0:0:
256,192,53239,1,8,0:0:0:0:
256,192,53318,1,8,0:0:0:0:
256,192,53397,1,0,0:0:0:0:
256,192,53476,1,0,0:0:0:0:
256,192,53555,1,0,0:0:0:0:
256,192,53634,1,0,0:0:0:0:
256,192,53713,1,8,0:0:0:0:
256,192,53792,1,8,0:0:0:0:
256,192,53871,1,0,0:0:0:0:
256,192,53950,1,0,0:0:0:0:
256,192,54029,1,8,0:0:0:0:
256,192,54108,1,0,0:0:0:0:
256,192,54187,1,8,0:0:0:0:
256,192,54266,1,8,0:0:0:0:
256,192,54345,1,4,0:0:0:0:
256,192,54503,1,8,0:0:0:0:
256,192,54581,1,0,0:0:0:0:
256,192,54660,1,8,0:0:0:0:
256,192,54739,1,8,0:0:0:0:
256,192,54818,1,0,0:0:0:0:
256,192,54897,1,0,0:0:0:0:
256,192,54976,1,8,0:0:0:0:
256,192,55134,1,0,0:0:0:0:
256,192,55292,1,8,0:0:0:0:
256,192,55371,1,0,0:0:0:0:
256,192,55450,1,0,0:0:0:0:
256,192,55529,1,0,0:0:0:0:
256,192,55608,1,8,0:0:0:0:
256,192,55766,1,8,0:0:0:0:
256,192,55924,1,0,0:0:0:0:
256,192,56003,1,0,0:0:0:0:
256,192,56081,1,8,0:0:0:0:
256,192,56239,1,0,0:0:0:0:
256,192,56397,1,8,0:0:0:0:
256,192,56555,1,8,0:0:0:0:
256,192,56634,1,8,0:0:0:0:
256,192,56713,1,0,0:0:0:0:
256,192,56871,1,8,0:0:0:0:
256,192,56950,1,8,0:0:0:0:
256,192,57029,1,8,0:0:0:0:
256,192,57108,1,8,0:0:0:0:
256,192,57187,1,0,0:0:0:0:
256,192,57266,1,0,0:0:0:0:
256,192,57345,1,8,0:0:0:0:
256,192,57424,1,0,0:0:0:0:
256,192,57503,1,8,0:0:0:0:
256,192,57581,1,8,0:0:0:0:
256,192,57660,1,0,0:0:0:0:
256,192,57739,1,0,0:0:0:0:
256,192,57818,1,8,0:0:0:0:
256,192,57897,1,0,0:0:0:0:
256,192,57976,1,0,0:0:0:0:
256,192,58055,1,0,0:0:0:0:
256,192,58134,1,8,0:0:0:0:
256,192,58213,1,8,0:0:0:0:
256,192,58292,1,8,0:0:0:0:
256,192,58371,1,0,0:0:0:0:
256,192,58450,1,0,0:0:0:0:
256,192,58529,1,0,0:0:0:0:
256,192,58608,1,8,0:0:0:0:
256,192,58687,1,8,0:0:0:0:
256,192,58766,1,0,0:0:0:0:
256,192,58924,1,0,0:0:0:0:
256,192,59003,1,0,0:0:0:0:
256,192,59081,1,8,0:0:0:0:
256,192,59160,1,8,0:0:0:0:
256,192,59239,1,0,0:0:0:0:
256,192,59318,1,0,0:0:0:0:
256,192,59397,1,8,0:0:0:0:
256,192,59713,1,8,0:0:0:0:
256,192,59871,1,0,0:0:0:0:
256,192,60029,1,8,0:0:0:0:
256,192,60187,1,0,0:0:0:0:
256,192,60345,1,8,0:0:0:0:
256,192,60503,1,0,0:0:0:0:
256,192,60660,1,8,0:0:0:0:
256,192,60739,1,8,0:0:0:0:
256,192,60818,1,0,0:0:0:0:
256,192,60897,1,0,0:0:0:0:
256,192,60976,1,8,0:0:0:0:
256,192,61055,1,0,0:0:0:0:
256,192,61134,1,8,0:0:0:0:
256,192,61213,1,8,0:0:0:0:
256,192,61292,1,8,0:0:0:0:
256,192,61371,1,0,0:0:0:0:
256,192,61450,1,8,0:0:0:0:
256,192,61529,1,0,0:0:0:0:
256,192,61608,1,8,0:0:0:0:
256,192,61687,1,8,0:0:0:0:
256,192,61766,1,8,0:0:0:0:
256,192,61845,1,0,0:0:0:0:
256,192,61924,1,8,0:0:0:0:
256,192,62003,1,8,0:0:0:0:
256,192,62081,1,8,0:0:0:0:
256,192,62160,1,8,0:0:0:0:
256,192,62239,1,8,0:0:0:0:
256,192,62318,1,8,0:0:0:0:
256,192,62397,1,8,0:0:0:0:
256,192,62476,1,0,0:0:0:0:
256,192,62555,1,8,0:0:0:0:
256,192,62634,1,0,0:0:0:0:
256,192,62713,1,8,0:0:0:0:
256,192,62792,1,0,0:0:0:0:
256,192,62871,1,8,0:0:0:0:
256,192,62950,1,8,0:0:0:0:
256,192,63029,1,0,0:0:0:0:
256,192,63108,1,0,0:0:0:0:
256,192,63187,1,8,0:0:0:0:
256,192,63266,1,8,0:0:0:0:
256,192,63345,1,8,0:0:0:0:
256,192,63424,1,0,0:0:0:0:
256,192,63503,1,8,0:0:0:0:
256,192,63581,1,8,0:0:0:0:
256,192,63660,1,0,0:0:0:0:
256,192,63739,1,0,0:0:0:0:
256,192,63818,1,8,0:0:0:0:
256,192,63897,1,0,0:0:0:0:
256,192,63976,1,0,0:0:0:0:
256,192,64055,1,0,0:0:0:0:
256,192,64134,1,8,0:0:0:0:
256,192,64213,1,8,0:0:0:0:
256,192,64292,1,0,0:0:0:0:
256,192,64371,1,0,0:0:0:0:
256,192,64450,1,8,0:0:0:0:
256,192,64529,1,8,0:0:0:0:
256,192,64608,1,8,0:0:0:0:
256,192,64687,1,0,0:0:0:0:
256,192,64766,1,8,0:0:0:0:
256,192,64845,1,0,0:0:0:0:
256,192,64924,1,8,0:0:0:0:
256,192,65003,1,8,0:0:0:0:
256,192,65081,1,8,0:0:0:0:
256,192,65160,1,8,0:0:0:0:
256,192,65239,1,0,0:0:0:0:
256,192,65318,1,0,0:0:0:0:
256,192,65397,1,8,0:0:0:0:
256,192,65476,1,0,0:0:0:0:
256,192,65555,1,0,0:0:0:0:
256,192,65634,1,0,0:0:0:0:
256,192,65713,1,8,0:0:0:0:
256,192,65792,1,8,0:0:0:0:
256,192,65871,1,0,0:0:0:0:
256,192,65950,1,0,0:0:0:0:
256,192,66029,1,8,0:0:0:0:
256,192,66108,1,0,0:0:0:0:
256,192,66187,1,8,0:0:0:0:
256,192,66266,1,8,0:0:0:0:
256,192,66345,1,0,0:0:0:0:
256,192,66424,1,0,0:0:0:0:
256,192,66503,1,8,0:0:0:0:
256,192,66581,1,0,0:0:0:0:
256,192,66660,1,8,0:0:0:0:
256,192,66739,1,8,0:0:0:0:
256,192,66818,1,8,0:0:0:0:
256,192,66897,1,0,0:0:0:0:
256,192,66976,1,8,0:0:0:0:
256,192,67055,1,8,0:0:0:0:
256,192,67134,1,8,0:0:0:0:
256,192,67213,1,8,0:0:0:0:
256,192,67292,1,8,0:0:0:0:
256,192,67371,1,8,0:0:0:0:
256,192,67450,1,8,0:0:0:0:
256,192,67529,1,0,0:0:0:0:
256,192,67608,1,0,0:0:0:0:
256,192,67687,1,0,0:0:0:0:
256,192,67766,1,8,0:0:0:0:
256,192,67845,1,0,0:0:0:0:
256,192,67924,1,8,0:0:0:0:
256,192,68003,1,8,0:0:0:0:
256,192,68081,1,8,0:0:0:0:
256,192,68160,1,0,0:0:0:0:
256,192,68239,1,8,0:0:0:0:
256,192,68318,1,8,0:0:0:0:
256,192,68397,1,0,0:0:0:0:
256,192,68476,1,0,0:0:0:0:
256,192,68555,1,8,0:0:0:0:
256,192,68634,1,8,0:0:0:0:
256,192,68713,1,0,0:0:0:0:
256,192,68792,1,0,0:0:0:0:
256,192,68871,1,8,0:0:0:0:
256,192,68950,1,0,0:0:0:0:
256,192,69029,1,0,0:0:0:0:
256,192,69108,1,0,0:0:0:0:
256,192,69187,1,8,0:0:0:0:
256,192,69266,1,8,0:0:0:0:
256,192,69345,1,8,0:0:0:0:
256,192,69424,1,0,0:0:0:0:
256,192,69503,1,8,0:0:0:0:
256,192,69581,1,8,0:0:0:0:
256,192,69660,1,8,0:0:0:0:
256,192,69739,1,8,0:0:0:0:
256,192,69818,1,0,0:0:0:0:
256,192,69897,1,0,0:0:0:0:
256,192,69976,1,8,0:0:0:0:
256,192,70055,1,8,0:0:0:0:
256,192,70134,1,0,0:0:0:0:
256,192,70213,1,0,0:0:0:0:
256,192,70292,1,8,0:0:0:0:
256,192,70371,1,0,0:0:0:0:
256,192,70450,1,8,0:0:0:0:
256,192,70529,1,8,0:0:0:0:
256,192,70608,1,0,0:0:0:0:
256,192,70687,1,0,0:0:0:0:
256,192,70766,1,8,0:0:0:0:
256,192,70845,1,0,0:0:0:0:
256,192,70924,1,8,0:0:0:0:
256,192,71003,1,8,0:0:0:0:
256,192,71081,1,0,0:0:0:0:
256,192,71160,1,0,0:0:0:0:
256,192,71239,1,8,0:0:0:0:
256,192,71318,1,0,0:0:0:0:
256,192,71397,1,8,0:0:0:0:
256,192,71476,1,8,0:0:0:0:
256,192,71555,1,8,0:0:0:0:
256,192,71634,1,8,0:0:0:0:
256,192,71713,1,0,0:0:0:0:
256,192,71871,1,0,0:0:0:0:
256,192,71950,1,0,0:0:0:0:
256,192,72029,1,8,0:0:0:0:
256,192,72108,1,8,0:0:0:0:
256,192,72187,1,8,0:0:0:0:
256,192,72266,1,8,0:0:0:0:
256,192,72345,1,8,0:0:0:0:
256,192,72424,1,8,0:0:0:0:
256,192,72503,1,8,0:0:0:0:
256,192,72581,1,0,0:0:0:0:
256,192,72660,1,0,0:0:0:0:
256,192,72739,1,0,0:0:0:0:
256,192,72818,1,8,0:0:0:0:
256,192,72897,1,0,0:0:0:0:
256,192,72976,1,8,0:0:0:0:
256,192,73055,1,8,0:0:0:0:
256,192,73134,1,8,0:0:0:0:
256,192,73213,1,0,0:0:0:0:
256,192,73292,1,8,0:0:0:0:
256,192,73371,1,8,0:0:0:0:
256,192,73450,1,0,0:0:0:0:
256,192,73529,1,0,0:0:0:0:
256,192,73608,1,8,0:0:0:0:
256,192,73687,1,8,0:0:0:0:
256,192,73766,1,8,0:0:0:0:
256,192,73845,1,0,0:0:0:0:
256,192,73924,1,8,0:0:0:0:
256,192,74003,1,8,0:0:0:0:
256,192,74081,1,0,0:0:0:0:
256,192,74160,1,0,0:0:0:0:
256,192,74239,1,8,0:0:0:0:
256,192,74318,1,0,0:0:0:0:
256,192,74397,1,0,0:0:0:0:
256,192,74476,1,0,0:0:0:0:
256,192,74555,1,8,0:0:0:0:
256,192,74634,1,8,0:0:0:0:
256,192,74713,1,8,0:0:0:0:
256,192,74792,1,0,0:0:0:0:
256,192,74871,1,8,0:0:0:0:
256,192,74950,1,0,0:0:0:0:
256,192,75029,1,8,0:0:0:0:
256,192,75108,1,8,0:0:0:0:
256,192,75187,1,8,0:0:0:0:
256,192,75266,1,8,0:0:0:0:
256,192,75345,1,0,0:0:0:0:
256,192,75424,1,0,0:0:0:0:
256,192,75503,1,8,0:0:0:0:
256,192,75581,1,0,0:0:0:0:
256,192,75660,1,8,0:0:0:0:
256,192,75739,1,8,0:0:0:0:
256,192,75818,1,0,0:0:0:0:
256,192,75897,1,0,0:0:0:0:
256,192,75976,1,8,0:0:0:0:
256,192,76055,1,8,0:0:0:0:
256,192,76134,1,0,0:0:0:0:
256,192,76213,1,0,0:0:0:0:
256,192,76292,1,8,0:0:0:0:
256,192,76371,1,0,0:0:0:0:
256,192,76450,1,8,0:0:0:0:
256,192,76529,1,8,0:0:0:0:
256,192,76608,1,0,0:0:0:0:
256,192,76687,1,0,0:0:0:0:
256,192,76766,1,8,0:0:0:0:
256,192,76845,1,0,0:0:0:0:
256,192,76924,1,0,0:0:0:0:
256,192,77003,1,0,0:0:0:0:
256,192,77081,1,8,0:0:0:0:
256,192,77160,1,8,0:0:0:0:
256,192,77239,1,8,0:0:0:0:
256,192,77318,1,8,0:0:0:0:
256,192,77397,1,0,0:0:0:0:
256,192,77476,1,0,0:0:0:0:
256,192,77555,1,8,0:0:0:0:
256,192,77634,1,8,0:0:0:0:
256,192,77713,1,0,0:0:0:0:
256,192,77792,1,0,0:0:0:0:
256,192,77871,1,8,0:0:0:0:
256,192,77950,1,0,0:0:0:0:
256,192,78029,1,8,0:0:0:0:
256,192,78108,1,8,0:0:0:0:
256,192,78187,1,8,0:0:0:0:
256,192,78266,1,0,0:0:0:0:
256,192,78345,1,8,0:0:0:0:
256,192,78424,1,0,0:0:0:0:
256,192,78503,1,0,0:0:0:0:
256,192,78581,1,0,0:0:0:0:
256,192,78660,1,8,0:0:0:0:
256,192,78739,1,8,0:0:0:0:
256,192,78818,1,0,0:0:0:0:
256,192,78897,1,0,0:0:0:0:
256,192,78976,1,8,0:0:0:0:
256,192,79055,1,8,0:0:0:0:
256,192,79134,1,0,0:0:0:0:
256,192,79213,1,0,0:0:0:0:
256,192,79292,1,8,0:0:0:0:
256,192,79371,1,8,0:0:0:0:
256,192,79450,1,0,0:0:0:0:
256,192,79529,1,0,0:0:0:0:
256,192,79608,1,8,0:0:0:0:
256,192,79687,1,8,0:0:0:0:
256,192,79766,1,8,0:0:0:0:
256,192,79845,1,8,0:0:0:0:
256,192,79924,1,8,0:0:0:0:
256,192,80003,1,8,0:0:0:0:
256,192,80081,1,0,0:0:0:0:
256,192,80160,1,0,0:0:0:0:
256,192,80239,1,8,0:0:0:0:
256,192,80318,1,0,0:0:0:0:
256,192,80397,1,8,0:0:0:0:
256,192,80476,1,8,0:0:0:0:
256,192,80555,1,0,0:0:0:0:
256,192,80634,1,0,0:0:0:0:
256,192,80713,1,8,0:0:0:0:
256,192,80792,1,0,0:0:0:0:
256,192,80871,1,8,0:0:0:0:
256,192,80950,1,8,0:0:0:0:
256,192,81029,1,0,0:0:0:0:
256,192,81108,1,0,0:0:0:0:
256,192,81187,1,8,0:0:0:0:
256,192,81266,1,0,0:0:0:0:
256,192,81345,1,8,0:0:0:0:
256,192,81424,1,8,0:0:0:0:
256,192,81503,1,0,0:0:0:0:
256,192,81581,1,0,0:0:0:0:
256,192,81660,1,0,0:0:0:0:
256,192,81739,1,0,0:0:0:0:
256,192,81818,1,8,0:0:0:0:
256,192,81976,1,0,0:0:0:0:
256,192,82055,1,0,0:0:0:0:
256,192,82134,1,8,0:0:0:0:
256,192,82213,1,8,0:0:0:0:
256,192,82292,1,0,0:0:0:0:
256,192,82371,1,0,0:0:0:0:
256,192,82450,1,8,0:0:0:0:
256,192,82529,1,8,0:0:0:0:
256,192,82608,1,8,0:0:0:0:
256,192,82687,1,0,0:0:0:0:
256,192,82766,1,8,0:0:0:0:
256,192,82845,1,0,0:0:0:0:
256,192,82924,1,8,0:0:0:0:
256,192,83003,1,8,0:0:0:0:
256,192,83081,1,0,0:0:0:0:
256,192,83160,1,0,0:0:0:0:
256,192,83239,1,8,0:0:0:0:
256,192,83318,1,0,0:0:0:0:
256,192,83397,1,8,0:0:0:0:
256,192,83476,1,8,0:0:0:0:
256,192,83555,1,0,0:0:0:0:
256,192,83634,1,0,0:0:0:0:
256,192,83713,1,8,0:0:0:0:
256,192,83792,1,8,0:0:0:0:
256,192,83871,1,8,0:0:0:0:
256,192,83950,1,0,0:0:0:0:
256,192,84029,1,0,0:0:0:0:
256,192,84108,1,0,0:0:0:0:
256,192,84187,1,8,0:0:0:0:
256,192,84266,1,0,0:0:0:0:
256,192,84345,1,8,0:0:0:0:
256,192,84424,1,8,0:0:0:0:
256,192,84503,1,8,0:0:0:0:
256,192,84581,1,8,0:0:0:0:
256,192,84660,1,0,0:0:0:0:
256,192,84739,1,8,0:0:0:0:
256,192,84818,1,0,0:0:0:0:
256,192,84897,1,0,0:0:0:0:
256,192,84976,1,8,0:0:0:0:
256,192,85055,1,8,0:0:0:0:
256,192,85134,1,0,0:0:0:0:
256,192,85213,1,0,0:0:0:0:
256,192,85292,1,8,0:0:0:0:
256,192,85371,1,0,0:0:0:0:
256,192,85450,1,8,0:0:0:0:
256,192,85529,1,8,0:0:0:0:
256,192,85608,1,8,0:0:0:0:
256,192,85687,1,0,0:0:0:0:
256,192,85766,1,8,0:0:0:0:
256,192,85845,1,0,0:0:0:0:
256,192,85924,1,8,0:0:0:0:
256,192,86003,1,8,0:0:0:0:
256,192,86081,1,0,0:0:0:0:
256,192,86160,1,0,0:0:0:0:
256,192,86239,1,8,0:0:0:0:
256,192,86318,1,0,0:0:0:0:
256,192,86397,1,8,0:0:0:0:
256,192,86476,1,0,0:0:0:0:
256,192,86555,1,8,0:0:0:0:
256,192,86634,1,8,0:0:0:0:
256,192,86713,1,0,0:0:0:0:
256,192,86792,1,0,0:0:0:0:
256,192,86871,1,8,0:0:0:0:
256,192,86950,1,8,0:0:0:0:
256,192,87029,1,0,0:0:0:0:
256,192,87108,1,0,0:0:0:0:
256,192,87187,1,8,0:0:0:0:
256,192,87266,1,0,0:0:0:0:
256,192,87345,1,0,0:0:0:0:
256,192,87424,1,0,0:0:0:0:
256,192,87503,1,8,0:0:0:0:
256,192,87581,1,8,0:0:0:0:
256,192,87660,1,8,0:0:0:0:
256,192,87739,1,0,0:0:0:0:
256,192,87818,1,8,0:0:0:0:
256,192,87897,1,0,0:0:0:0:
256,192,87976,1,8,0:0:0:0:
256,192,88055,1,8,0:0:0:0:
256,192,88134,1,0,0:0:0:0:
256,192,88213,1,0,0:0:0:0:
256,192,88292,1,8,0:0:0:0:
256,192,88371,1,0,0:0:0:0:
256,192,88450,1,8,0:0:0:0:
256,192,88529,1,8,0:0:0:0:
256,192,88608,1,0,0:0:0:0:
256,192,88687,1,0,0:0:0:0:
256,192,88766,1,8,0:0:0:0:
256,192,88845,1,0,0:0:0:0:
256,192,88924,1,8,0:0:0:0:
256,192,89003,1,0,0:0:0:0:
256,192,89081,1,8,0:0:0:0:
256,192,89160,1,8,0:0:0:0:
256,192,89239,1,8,0:0:0:0:
256,192,89318,1,0,0:0:0:0:
256,192,89397,1,8,0:0:0:0:
256,192,89476,1,0,0:0:0:0:
256,192,89555,1,8,0:0:0:0:
256,192,89634,1,0,0:0:0:0:
256,192,89713,1,8,0:0:0:0:
256,192,89792,1,0,0:0:0:0:
256,192,89871,1,0,0:0:0:0:
256,192,89950,1,0,0:0:0:0:
256,192,90029,1,8,0:0:0:0:
256,192,90108,1,8,0:0:0:0:
256,192,90187,1,0,0:0:0:0:
256,192,90266,1,0,0:0:0:0:
256,192,90345,1,8,0:0:0:0:
256,192,90503,1,0,0:0:0:0:
256,192,90660,1,8,0:0:0:0:
256,192,90818,1,0,0:0:0:0:
256,192,90976,1,8,0:0:0:0:
256,192,91055,1,8,0:0:0:0:
256,192,91134,1,0,0:0:0:0:
256,192,91213,1,0,0:0:0:0:
256,192,91292,1,8,0:0:0:0:
256,192,91371,1,0,0:0:0:0:
256,192,91450,1,8,0:0:0:0:
256,192,91529,1,8,0:0:0:0:
256,192,91608,1,8,0:0:0:0:
256,192,91687,1,0,0:0:0:0:
256,192,91766,1,8,0:0:0:0:
256,192,91845,1,0,0:0:0:0:
256,192,91924,1,8,0:0:0:0:
256,192,92003,1,8,0:0:0:0:
256,192,92081,1,0,0:0:0:0:
256,192,92160,1,0,0:0:0:0:
256,192,92239,1,12,0:0:0:0:
256,192,93029,1,0,0:0:0:0:
256,192,93108,1,0,0:0:0:0:
256,192,93187,1,8,0:0:0:0:
256,192,93503,1,0,0:0:0:0:
256,192,93660,1,0,0:0:0:0:
256,192,93739,1,0,0:0:0:0:
256,192,93818,1,8,0:0:0:0:
256,192,93976,1,0,0:0:0:0:
256,192,94134,1,8,0:0:0:0:
256,192,94213,1,0,0:0:0:0:
256,192,94371,1,0,0:0:0:0:
256,192,94450,1,8,0:0:0:0:
256,192,94608,1,0,0:0:0:0:
256,192,94687,1,0,0:0:0:0:
256,192,94766,1,8,0:0:0:0:
256,192,94924,1,0,0:0:0:0:
256,192,95081,1,8,0:0:0:0:
256,192,95160,1,8,0:0:0:0:
256,192,95239,1,0,0:0:0:0:
256,192,95397,1,8,0:0:0:0:
256,192,95555,1,8,0:0:0:0:
256,192,95713,1,0,0:0:0:0:
256,192,95792,1,0,0:0:0:0:
256,192,95871,1,8,0:0:0:0:
256,192,96029,1,0,0:0:0:0:
256,192,96187,1,8,0:0:0:0:
256,192,96266,1,0,0:0:0:0:
256,192,96345,1,8,0:0:0:0:
256,192,96503,1,0,0:0:0:0:
256,192,96660,1,8,0:0:0:0:
256,192,96818,1,0,0:0:0:0:
256,192,96897,1,8,0:0:0:0:
256,192,96976,1,0,0:0:0:0:
256,192,97055,1,0,0:0:0:0:
256,192,97134,1,8,0:0:0:0:
256,192,97213,1,0,0:0:0:0:
256,192,97292,1,12,0:0:0:0:
256,192,97450,1,0,0:0:0:0:
256,192,97608,1,8,0:0:0:0:
256,192,97687,1,0,0:0:0:0:
256,192,97766,1,8,0:0:0:0:
256,192,97924,1,0,0:0:0:0:
256,192,98081,1,8,0:0:0:0:
256,192,98239,1,0,0:0:0:0:
256,192,98318,1,0,0:0:0:0:
256,192,98397,1,8,0:0:0:0:
256,192,98555,1,8,0:0:0:0:
256,192,98713,1,0,0:0:0:0:
256,192,98871,1,8,0:0:0:0:
256,192,98950,1,8,0:0:0:0:
256,192,99029,1,0,0:0:0:0:
256,192,99187,1,0,0:0:0:0:
256,192,99345,1,8,0:0:0:0:
256,192,99503,1,0,0:0:0:0:
256,192,99581,1,0,0:0:0:0:
256,192,99660,1,8,0:0:0:0:
256,192,99818,1,8,0:0:0:0:
256,192,99976,1,8,0:0:0:0:
256,192,100134,1,0,0:0:0:0:
256,192,100213,1,0,0:0:0:0:
256,192,100292,1,8,0:0:0:0:
256,192,100450,1,0,0:0:0:0:
256,192,100608,1,8,0:0:0:0:
256,192,100766,1,0,0:0:0:0:
256,192,100845,1,0,0:0:0:0:
256,192,100924,1,8,0:0:0:0:
256,192,101081,1,8,0:0:0:0:
256,192,101239,1,0,0:0:0:0:
256,192,101397,1,8,0:0:0:0:
256,192,101476,1,0,0:0:0:0:
256,192,101555,1,8,0:0:0:0:
256,192,101713,1,8,0:0:0:0:
256,192,101792,1,0,0:0:0:0:
256,192,101871,1,8,0:0:0:0:
256,192,101950,1,0,0:0:0:0:
256,192,102029,1,8,0:0:0:0:
256,192,102108,1,8,0:0:0:0:
256,192,102187,1,0,0:0:0:0:
256,192,102266,1,0,0:0:0:0:
256,192,102345,1,12,0:0:0:0:
256,192,102503,1,0,0:0:0:0:
256,192,102660,1,8,0:0:0:0:
256,192,102739,1,0,0:0:0:0:
256,192,102818,1,8,0:0:0:0:
256,192,102897,1,8,0:0:0:0:
256,192,102976,1,0,0:0:0:0:
256,192,103134,1,8,0:0:0:0:
256,192,103292,1,8,0:0:0:0:
256,192,103371,1,8,0:0:0:0:
256,192,103450,1,0,0:0:0:0:
256,192,103608,1,8,0:0:0:0:
256,192,103766,1,0,0:0:0:0:
256,192,103845,1,0,0:0:0:0:
256,192,103924,1,8,0:0:0:0:
256,192,104003,1,8,0:0:0:0:
256,192,104081,1,0,0:0:0:0:
256,192,104239,1,0,0:0:0:0:
256,192,104397,1,8,0:0:0:0:
256,192,104555,1,0,0:0:0:0:
256,192,104634,1,0,0:0:0:0:
256,192,104713,1,8,0:0:0:0:
256,192,104871,1,8,0:0:0:0:
256,192,104950,1,8,0:0:0:0:
256,192,105029,1,8,0:0:0:0:
256,192,105108,1,8,0:0:0:0:
256,192,105187,1,0,0:0:0:0:
256,192,105266,1,0,0:0:0:0:
256,192,105345,1,0,0:0:0:0:
256,192,105424,1,0,0:0:0:0:
256,192,105503,1,8,0:0:0:0:
256,192,105581,1,0,0:0:0:0:
256,192,105660,1,8,0:0:0:0:
256,192,105739,1,0,0:0:0:0:
256,192,105818,1,8,0:0:0:0:
256,192,105897,1,8,0:0:0:0:
256,192,105976,1,0,0:0:0:0:
256,192,106055,1,0,0:0:0:0:
256,192,106134,1,8,0:0:0:0:
256,192,106213,1,8,0:0:0:0:
256,192,106292,1,8,0:0:0:0:
256,192,106371,1,8,0:0:0:0:
256,192,106450,1,0,0:0:0:0:
256,192,106529,1,0,0:0:0:0:
256,192,106608,1,0,0:0:0:0:
256,192,106687,1,0,0:0:0:0:
256,192,106766,1,8,0:0:0:0:
256,192,106845,1,8,0:0:0:0:
256,192,106924,1,0,0:0:0:0:
256,192,107003,1,0,0:0:0:0:
256,192,107081,1,8,0:0:0:0:
256,192,107160,1,0,0:0:0:0:
256,192,107239,1,8,0:0:0:0:
256,192,107318,1,8,0:0:0:0:
256,192,107397,1,4,0:0:0:0:
256,192,107555,1,8,0:0:0:0:
256,192,107634,1,0,0:0:0:0:
256,192,107713,1,8,0:0:0:0:
256,192,107792,1,8,0:0:0:0:
256,192,107871,1,0,0:0:0:0:
256,192,107950,1,0,0:0:0:0:
256,192,108029,1,8,0:0:0:0:
256,192,108187,1,0,0:0:0:0:
256,192,108345,1,8,0:0:0:0:
256,192,108424,1,0,0:0:0:0:
256,192,108503,1,0,0:0:0:0:
256,192,108581,1,0,0:0:0:0:
256,192,108660,1,8,0:0:0:0:
256,192,108818,1,8,0:0:0:0:
256,192,108976,1,0,0:0:0:0:
256,192,109055,1,0,0:0:0:0:
256,192,109134,1,8,0:0:0:0:
256,192,109292,1,0,0:0:0:0:
256,192,109450,1,8,0:0:0:0:
256,192,109608,1,8,0:0:0:0:
256,192,109687,1,8,0:0:0:0:
256,192,109766,1,0,0:0:0:0:
256,192,109924,1,8,0:0:0:0:
256,192,110003,1,8,0:0:0:0:
256,192,110081,1,8,0:0:0:0:
256,192,110160,1,8,0:0:0:0:
256,192,110239,1,0,0:0:0:0:
256,192,110318,1,0,0:0:0:0:
256,192,110397,1,8,0:0:0:0:
256,192,110476,1,0,0:0:0:0:
256,192,110555,1,8,0:0:0:0:
256,192,110634,1,8,0:0:0:0:
256,192,110713,1,0,0:0:0:0:
256,192,110792,1,0,0:0:0:0:
256,192,110871,1,8,0:0:0:0:
256,192,110950,1,0,0:0:0:0:
256,192,111029,1,0,0:0:0:0:
256,192,111108,1,0,0:0:0:0:
256,192,111187,1,8,0:0:0:0:
256,192,111266,1,8,0:0:0:0:
256,192,111345,1,8,0:0:0:0:
256,192,111424,1,0,0:0:0:0:
256,192,111503,1,0,0:0:0:0:
256,192,111581,1,0,0:0:0:0:
256,192,111660,1,8,0:0:0:0:
256,192,111739,1,8,0:0:0:0:
256,192,111818,1,0,0:0:0:0:
256,192,111976,1,0,0:0:0:0:
256,192,112055,1,0,0:0:0:0:
256,192,112134,1,8,0:0:0:0:
256,192,112213,1,8,0:0:0:0:
256,192,112292,1,0,0:0:0:0:
256,192,112371,1,0,0:0:0:0:
256,192,112450,1,8,0:0:0:0:
256,192,112766,1,8,0:0:0:0:
256,192,112924,1,0,0:0:0:0:
256,192,113081,1,8,0:0:0:0:
256,192,113239,1,0,0:0:0:0:
256,192,113397,1,8,0:0:0:0:
256,192,113555,1,0,0:0:0:0:
256,192,113713,1,8,0:0:0:0:
256,192,113792,1,0,0:0:0:0:
256,192,113871,1,8,0:0:0:0:
256,192,113950,1,8,0:0:0:0:
256,192,114029,1,0,0:0:0:0:
256,192,114108,1,0,0:0:0:0:
256,192,114187,1,8,0:0:0:0:
256,192,114266,1,8,0:0:0:0:
256,192,114345,1,0,0:0:0:0:
256,192,114424,1,0,0:0:0:0:
256,192,114503,1,8,0:0:0:0:
256,192,114581,1,0,0:0:0:0:
256,192,114660,1,8,0:0:0:0:
256,192,114739,1,8,0:0:0:0:
256,192,114818,1,8,0:0:0:0:
256,192,114897,1,0,0:0:0:0:
256,192,114976,1,8,0:0:0:0:
256,192,115055,1,8,0:0:0:0:
256,192,115134,1,8,0:0:0:0:
256,192,115213,1,8,0:0:0:0:
256,192,115292,1,8,0:0:0:0:
256,192,115371,1,8,0:0:0:0:
256,192,115450,1,8,0:0:0:0:
256,192,115529,1,0,0:0:0:0:
256,192,115608,1,8,0:0:0:0:
256,192,115687,1,0,0:0:0:0:
256,192,115766,1,8,0:0:0:0:
256,192,115845,1,0,0:0:0:0:
256,192,115924,1,8,0:0:0:0:
256,192,116003,1,8,0:0:0:0:
256,192,116081,1,0,0:0:0:0:
256,192,116160,1,0,0:0:0:0:
256,192,116239,1,8,0:0:0:0:
256,192,116318,1,8,0:0:0:0:
256,192,116397,1,8,0:0:0:0:
256,192,116476,1,0,0:0:0:0:
256,192,116555,1,8,0:0:0:0:
256,192,116634,1,8,0:0:0:0:
256,192,116713,1,0,0:0:0:0:
256,192,116792,1,0,0:0:0:0:
256,192,116871,1,8,0:0:0:0:
256,192,116950,1,0,0:0:0:0:
256,192,117029,1,0,0:0:0:0:
256,192,117108,1,0,0:0:0:0:
256,192,117187,1,8,0:0:0:0:
256,192,117266,1,8,0:0:0:0:
256,192,117345,1,0,0:0:0:0:
256,192,117424,1,0,0:0:0:0:
256,192,117503,1,8,0:0:0:0:
256,192,117581,1,8,0:0:0:0:
256,192,117660,1,8,0:0:0:0:
256,192,117739,1,0,0:0:0:0:
256,192,117818,1,8,0:0:0:0:
256,192,117897,1,0,0:0:0:0:
256,192,117976,1,8,0:0:0:0:
256,192,118055,1,8,0:0:0:0:
256,192,118134,1,8,0:0:0:0:
256,192,118213,1,8,0:0:0:0:
256,192,118292,1,0,0:0:0:0:
256,192,118371,1,0,0:0:0:0:
256,192,118450,1,8,0:0:0:0:
256,192,118529,1,0,0:0:0:0:
256,192,118608,1,0,0:0:0:0:
256,192,118687,1,0,0:0:0:0:
256,192,118766,1,8,0:0:0:0:
256,192,118845,1,8,0:0:0:0:
256,192,118924,1,0,0:0:0:0:
256,192,119003,1,0,0:0:0:0:
256,192,119081,1,8,0:0:0:0:
256,192,119160,1,0,0:0:0:0:
256,192,119239,1,8,0:0:0:0:
256,192,119318,1,8,0:0:0:0:
256,192,119397,1,0,0:0:0:0:
256,192,119476,1,0,0:0:0:0:
256,192,119555,1,8,0:0:0:0:
256,192,119634,1,0,0:0:0:0:
256,192,119713,1,8,0:0:0:0:
256,192,119792,1,8,0:0:0:0:
256,192,119871,1,8,0:0:0:0:
256,192,119950,1,0,0:0:0:0:
256,192,120029,1,8,0:0:0:0:
256,192,120108,1,8,0:0:0:0:
256,192,120187,1,8,0:0:0:0:
256,192,120266,1,8,0:0:0:0:
256,192,120345,1,8,0:0:0:0:
256,192,120424,1,8,0:0:0:0:
256,192,120503,1,8,0:0:0:0:
256,192,120581,1,0,0:0:0:0:
256,192,120660,1,0,0:0:0:0:
256,192,120739,1,0,0:0:0:0:
256,192,120818,1,8,0:0:0:0:
256,192,120897,1,0,0:0:0:0:
256,192,120976,1,8,0:0:0:0:
256,192,121055,1,8,0:0:0:0:
256,192,121134,1,8,0:0:0:0:
256,192,121213,1,0,0:0:0:0:
256,192,121292,1,8,0:0:0:0:
256,192,121371,1,8,0:0:0:0:
256,192,121450,1,0,0:0:0:0:
256,192,121529,1,0,0:0:0:0:
256,192,121608,1,8,0:0:0:0:
256,192,121687,1,8,0:0:0:0:
256,192,121766,1,0,0:0:0:0:
256,192,121845,1,0,0:0:0:0:
256,192,121924,1,8,0:0:0:0:
256,192,122003,1,0,0:0:0:0:
256,192,122081,1,0,0:0:0:0:
256,192,122160,1,0,0:0:0:0:
256,192,122239,1,8,0:0:0:0:
256,192,122318,1,8,0:0:0:0:
256,192,122397,1,8,0:0:0:0:
256,192,122476,1,0,0:0:0:0:
256,192,122555,1,8,0:0:0:0:
256,192,122634,1,8,0:0:0:0:
256,192,122713,1,8,0:0:0:0:
256,192,122792,1,8,0:0:0:0:
256,192,122871,1,0,0:0:0:0:
256,192,122950,1,0,0:0:0:0:
256,192,123029,1,8,0:0:0:0:
256,192,123108,1,8,0:0:0:0:
256,192,123187,1,0,0:0:0:0:
256,192,123266,1,0,0:0:0:0:
256,192,123345,1,8,0:0:0:0:
256,192,123424,1,0,0:0:0:0:
256,192,123503,1,8,0:0:0:0:
256,192,123581,1,8,0:0:0:0:
256,192,123660,1,0,0:0:0:0:
256,192,123739,1,0,0:0:0:0:
256,192,123818,1,8,0:0:0:0:
256,192,123897,1,0,0:0:0:0:
256,192,123976,1,8,0:0:0:0:
256,192,124055,1,8,0:0:0:0:
256,192,124134,1,0,0:0:0:0:
256,192,124213,1,0,0:0:0:0:
256,192,124292,1,8,0:0:0:0:
256,192,124371,1,0,0:0:0:0:
256,192,124450,1,8,0:0:0:0:
256,192,124529,1,8,0:0:0:0:
256,192,124608,1,8,0:0:0:0:
256,192,124687,1,8,0:0:0:0:
256,192,124766,1,0,0:0:0:0:
256,192,124924,1,0,0:0:0:0:
256,192,125003,1,0,0:0:0:0:
256,192,125081,1,8,0:0:0:0:
256,192,125160,1,8,0:0:0:0:
256,192,125239,1,8,0:0:0:0:
256,192,125318,1,8,0:0:0:0:
256,192,125397,1,8,0:0:0:0:
256,192,125476,1,8,0:0:0:0:
256,192,125555,1,8,0:0:0:0:
256,192,125634,1,0,0:0:0:0:
256,192,125713,1,0,0:0:0:0:
256,192,125792,1,0,0:0:0:0:
256,192,125871,1,8,0:0:0:0:
256,192,125950,1,0,0:0:0:0:
256,192,126029,1,8,0:0:0:0:
256,192,126108,1,8,0:0:0:0:
256,192,126187,1,8,0:0:0:0:
256,192,126266,1,0,0:0:0:0:
256,192,126345,1,8,0:0:0:0:
256,192,126424,1,8,0:0:0:0:
256,192,126503,1,0,0:0:0:0:
256,192,126581,1,0,0:0:0:0:
256,192,126660,1,8,0:0:0:0:
256,192,126739,1,8,0:0:0:0:
256,192,126818,1,8,0:0:0:0:
256,192,126897,1,0,0:0:0:0:
256,192,126976,1,8,0:0:0:0:
256,192,127055,1,8,0:0:0:0:
256,192,127134,1,0,0:0:0:0:
256,192,127213,1,0,0:0:0:0:
256,192,127292,1,8,0:0:0:0:
256,192,127371,1,0,0:0:0:0:
256,192,127450,1,0,0:0:0:0:
256,192,127529,1,0,0:0:0:0:
256,192,127608,1,8,0:0:0:0:
256,192,127687,1,8,0:0:0:0:
256,192,127766,1,8,0:0:0:0:
256,192,127845,1,0,0:0:0:0:
256,192,127924,1,8,0:0:0:0:
256,192,128003,1,0,0:0:0:0:
256,192,128081,1,8,0:0:0:0:
256,192,128160,1,8,0:0:0:0:
256,192,128239,1,8,0:0:0:0:
256,192,128318,1,8,0:0:0:0:
256,192,128397,1,0,0:0:0:0:
256,192,128476,1,0,0:0:0:0:
256,192,128555,1,8,0:0:0:0:
256,192,128634,1,0,0:0:0:0:
256,192,128713,1,8,0:0:0:0:
256,192,128792,1,8,0:0:0:0:
256,192,128871,1,0,0:0:0:0:
256,192,128950,1,0,0:0:0:0:
256,192,129029,1,8,0:0:0:0:
256,192,129108,1,8,0:0:0:0:
256,192,129187,1,0,0:0:0:0:
256,192,129266,1,0,0:0:0:0:
256,192,129345,1,8,0:0:0:0:
256,192,129424,1,0,0:0:0:0:
256,192,129503,1,8,0:0:0:0:
256,192,129581,1,8,0:0:0:0:
256,192,129660,1,0,0:0:0:0:
256,192,129739,1,0,0:0:0:0:
256,192,129818,1,8,0:0:0:0:
256,192,129897,1,0,0:0:0:0:
256,192,129976,1,0,0:0:0:0:
256,192,130055,1,0,0:0:0:0:
256,192,130134,1,8,0:0:0:0:
256,192,130213,1,8,0:0:0:0:
256,192,130292,1,8,0:0:0:0:
256,192,130371,1,8,0:0:0:0:
256,192,130450,1,0,0:0:0:0:
256,192,130529,1,0,0:0:0:0:
256,192,130608,1,8,0:0:0:0:
256,192,130687,1,8,0:0:0:0:
256,192,130766,1,0,0:0:0:0:
256,192,130845,1,0,0:0:0:0:
256,192,130924,1,8,0:0:0:0:
256,192,131003,1,0,0:0:0:0:
256,192,131081,1,8,0:0:0:0:
256,192,131160,1,8,0:0:0:0:
256,192,131239,1,8,0:0:0:0:
256,192,131318,1,0,0:0:0:0:
256,192,131397,1,8,0:0:0:0:
256,192,131476,1,0,0:0:0:0:
256,192,131555,1,0,0:0:0:0:
256,192,131634,1,0,0:0:0:0:
256,192,131713,1,8,0:0:0:0:
256,192,131792,1,8,0:0:0:0:
256,192,131871,1,0,0:0:0:0:
256,192,131950,1,0,0:0:0:0:
256,192,132029,1,8,0:0:0:0:
256,192,132108,1,8,0:0:0:0:
256,192,132187,1,0,0:0:0:0:
256,192,132266,1,0,0:0:0:0:
256,192,132345,1,8,0:0:0:0:
256,192,132424,1,8,0:0:0:0:
256,192,132503,1,0,0:0:0:0:
256,192,132581,1,0,0:0:0:0:
256,192,132660,1,8,0:0:0:0:
256,192,132739,1,8,0:0:0:0:
256,192,132818,1,8,0:0:0:0:
256,192,132897,1,8,0:0:0:0:
256,192,132976,1,8,0:0:0:0:
256,192,133055,1,8,0:0:0:0:
256,192,133134,1,0,0:0:0:0:
256,192,133213,1,0,0:0:0:0:
256,192,133292,1,8,0:0:0:0:
256,192,133371,1,0,0:0:0:0:
256,192,133450,1,8,0:0:0:0:
256,192,133529,1,8,0:0:0:0:
256,192,133608,1,0,0:0:0:0:
256,192,133687,1,0,0:0:0:0:
256,192,133766,1,8,0:0:0:0:
256,192,133845,1,0,0:0:0:0:
256,192,133924,1,8,0:0:0:0:
256,192,134003,1,8,0:0:0:0:
256,192,134081,1,0,0:0:0:0:
256,192,134160,1,0,0:0:0:0:
256,192,134239,1,8,0:0:0:0:
256,192,134318,1,0,0:0:0:0:
256,192,134397,1,8,0:0:0:0:
256,192,134476,1,8,0:0:0:0:
256,192,134555,1,0,0:0:0:0:
256,192,134634,1,0,0:0:0:0:
256,192,134713,1,0,0:0:0:0:
256,192,134792,1,0,0:0:0:0:
256,192,134871,1,8,0:0:0:0:
256,192,135029,1,0,0:0:0:0:
256,192,135108,1,0,0:0:0:0:
256,192,135187,1,8,0:0:0:0:
256,192,135503,1,8,0:0:0:0:
256,192,135660,1,0,0:0:0:0:
256,192,135818,1,8,0:0:0:0:
256,192,136134,1,0,0:0:0:0:
256,192,136292,1,8,0:0:0:0:
256,192,136450,1,8,0:0:0:0:
256,192,136608,1,0,0:0:0:0:
256,192,136924,1,0,0:0:0:0:
256,192,137081,1,8,0:0:0:0:
256,192,137397,1,0,0:0:0:0:
256,192,137555,1,0,0:0:0:0:
256,192,137713,1,8,0:0:0:0:
256,192,138029,1,8,0:0:0:0:
256,192,138187,1,0,0:0:0:0:
256,192,138345,1,8,0:0:0:0:
256,192,138660,1,8,0:0:0:0:
256,192,138818,1,0,0:0:0:0:
256,192,138976,1,8,0:0:0:0:
256,192,139134,1,0,0:0:0:0:
256,192,139450,1,0,0:0:0:0:
256,192,139608,1,8,0:0:0:0:
256,192,139924,1,8,0:0:0:0:
256,192,140081,1,0,0:0:0:0:
256,192,140239,1,8,0:0:0:0:
256,192,140555,1,0,0:0:0:0:
256,192,140713,1,0,0:0:0:0:
256,192,140871,1,8,0:0:0:0:
256,192,141187,1,0,0:0:0:0:
256,192,141345,1,8,0:0:0:0:
256,192,141503,1,8,0:0:0:0:
256,192,141660,1,0,0:0:0:0:
256,192,141976,1,0,0:0:0:0:
256,192,142134,1,8,0:0:0:0:
256,192,142450,1,0,0:0:0:0:
256,192,142608,1,0,0:0:0:0:
256,192,142766,1,8,0:0:0:0:
256,192,143081,1,8,0:0:0:0:
256,192,143239,1,0,0:0:0:0:
256,192,143397,1,8,0:0:0:0:
256,192,143713,1,8,0:0:0:0:
256,192,143871,1,0,0:0:0:0:
256,192,144029,1,8,0:0:0:0:
256,192,144187,1,0,0:0:0:0:
256,192,144503,1,0,0:0:0:0:
256,192,144660,1,8,0:0:0:0:
256,192,144818,1,0,0:0:0:0:
256,192,144897,1,0,0:0:0:0:
256,192,144976,1,8,0:0:0:0:
256,192,145134,1,0,0:0:0:0:
256,192,145292,1,8,0:0:0:0:
256,192,145608,1,0,0:0:0:0:
256,192,145766,1,0,0:0:0:0:
256,192,145924,1,8,0:0:0:0:
256,192,146239,1,0,0:0:0:0:
256,192,146397,1,0,0:0:0:0:
256,192,146555,1,8,0:0:0:0:
256,192,146713,1,0,0:0:0:0:
256,192,147029,1,0,0:0:0:0:
256,192,147187,1,8,0:0:0:0:
256,192,147503,1,8,0:0:0:0:
256,192,147660,1,0,0:0:0:0:
256,192,147818,1,8,0:0:0:0:
256,192,148134,1,0,0:0:0:0:
256,192,148292,1,0,0:0:0:0:
256,192,148450,1,8,0:0:0:0:
256,192,148766,1,0,0:0:0:0:
256,192,148924,1,8,0:0:0:0:
256,192,149081,1,8,0:0:0:0:
256,192,149239,1,0,0:0:0:0:
256,192,149555,1,0,0:0:0:0:
256,192,149713,1,8,0:0:0:0:
256,192,150029,1,0,0:0:0:0:
256,192,150187,1,0,0:0:0:0:
256,192,150345,1,8,0:0:0:0:
256,192,150660,1,8,0:0:0:0:
256,192,150818,1,0,0:0:0:0:
256,192,150976,1,8,0:0:0:0:
256,192,151292,1,8,0:0:0:0:
256,192,151450,1,0,0:0:0:0:
256,192,151608,1,8,0:0:0:0:
256,192,151766,1,0,0:0:0:0:
256,192,152081,1,0,0:0:0:0:
256,192,152239,1,8,0:0:0:0:
256,192,152555,1,0,0:0:0:0:
256,192,152713,1,0,0:0:0:0:
256,192,152871,1,8,0:0:0:0:
256,192,153187,1,8,0:0:0:0:
256,192,153345,1,0,0:0:0:0:
256,192,153503,1,8,0:0:0:0:
256,192,153818,1,0,0:0:0:0:
256,192,153976,1,8,0:0:0:0:
256,192,154134,1,8,0:0:0:0:
256,192,154292,1,0,0:0:0:0:
256,192,154608,1,0,0:0:0:0:
256,192,154766,1,8,0:0:0:0:
256,192,154924,1,0,0:0:0:0:
256,192,155003,1,0,0:0:0:0:
256,192,155081,1,8,0:0:0:0:
256,192,155239,1,0,0:0:0:0:
256,192,155397,1,12,0:0:0:0:
256,192,157292,1,8,0:0:0:0:
256,192,157371,1,8,0:0:0:0:
256,192,157450,1,8,0:0:0:0:
256,192,157529,1,8,0:0:0:0:
256,192,157608,1,8,0:0:0:0:
256,192,157687,1,8,0:0:0:0:
256,192,157766,1,8,0:0:0:0:
256,192,157845,1,8,0:0:0:0:
256,192,157924,1,4,0:0:0:0:
256,192,158239,1,12,0:0:0:0:
256,192,158555,1,4,0:0:0:0:
256,192,158871,1,12,0:0:0:0:
256,192,159187,1,4,0:0:0:0:
256,192,159345,1,0,0:0:0:0:
256,192,159424,1,0,0:0:0:0:
256,192,159503,1,8,0:0:0:0:
256,192,159660,1,0,0:0:0:0:
256,192,159818,1,8,0:0:0:0:
256,192,159976,1,8,0:0:0:0:
256,192,160055,1,0,0:0:0:0:
256,192,160134,1,8,0:0:0:0:
256,192,160292,1,0,0:0:0:0:
256,192,160450,1,8,0:0:0:0:
256,192,160529,1,8,0:0:0:0:
256,192,160608,1,0,0:0:0:0:
256,192,160687,1,0,0:0:0:0:
256,192,160766,1,8,0:0:0:0:
256,192,160924,1,0,0:0:0:0:
256,192,161081,1,8,0:0:0:0:
256,192,161160,1,0,0:0:0:0:
256,192,161318,1,0,0:0:0:0:
256,192,161397,1,8,0:0:0:0:
256,192,161555,1,0,0:0:0:0:
256,192,161634,1,0,0:0:0:0:
256,192,161713,1,8,0:0:0:0:
256,192,161871,1,0,0:0:0:0:
256,192,162029,1,8,0:0:0:0:
256,192,162187,1,0,0:0:0:0:
256,192,162266,1,0,0:0:0:0:
256,192,162345,1,8,0:0:0:0:
256,192,162424,1,8,0:0:0:0:
256,192,162503,1,0,0:0:0:0:
256,192,162660,1,8,0:0:0:0:
256,192,162739,1,8,0:0:0:0:
256,192,162818,1,0,0:0:0:0:
256,192,162976,1,8,0:0:0:0:
256,192,163134,1,0,0:0:0:0:
256,192,163213,1,0,0:0:0:0:
256,192,163292,1,8,0:0:0:0:
256,192,163450,1,8,0:0:0:0:
256,192,163608,1,0,0:0:0:0:
256,192,163766,1,0,0:0:0:0:
256,192,163845,1,0,0:0:0:0:
256,192,163924,1,8,0:0:0:0:
256,192,164003,1,8,0:0:0:0:
256,192,164081,1,0,0:0:0:0:
256,192,164160,1,0,0:0:0:0:
256,192,164239,1,8,0:0:0:0:
256,192,164397,1,8,0:0:0:0:
256,192,164476,1,8,0:0:0:0:
256,192,164555,1,0,0:0:0:0:
256,192,164634,1,0,0:0:0:0:
256,192,164713,1,8,0:0:0:0:
256,192,164792,1,0,0:0:0:0:
256,192,164871,1,8,0:0:0:0:
256,192,165029,1,0,0:0:0:0:
256,192,165108,1,0,0:0:0:0:
256,192,165187,1,8,0:0:0:0:
256,192,165266,1,0,0:0:0:0:
256,192,165345,1,8,0:0:0:0:
256,192,165424,1,8,0:0:0:0:
256,192,165503,1,0,0:0:0:0:
256,192,165660,1,0,0:0:0:0:
256,192,165739,1,0,0:0:0:0:
256,192,165818,1,8,0:0:0:0:
256,192,165897,1,0,0:0:0:0:
256,192,165976,1,0,0:0:0:0:
256,192,166055,1,0,0:0:0:0:
256,192,166134,1,8,0:0:0:0:
256,192,166292,1,0,0:0:0:0:
256,192,166371,1,0,0:0:0:0:
256,192,166450,1,8,0:0:0:0:
256,192,166529,1,8,0:0:0:0:
256,192,166608,1,0,0:0:0:0:
256,192,166687,1,0,0:0:0:0:
256,192,166766,1,8,0:0:0:0:
256,192,166924,1,8,0:0:0:0:
256,192,167003,1,0,0:0:0:0:
256,192,167160,1,0,0:0:0:0:
256,192,167239,1,8,0:0:0:0:
256,192,167397,1,8,0:0:0:0:
256,192,167555,1,0,0:0:0:0:
256,192,167634,1,8,0:0:0:0:
256,192,167792,1,8,0:0:0:0:
256,192,167871,1,0,0:0:0:0:
256,192,168029,1,8,0:0:0:0:
256,192,168108,1,0,0:0:0:0:
256,192,168187,1,8,0:0:0:0:
256,192,168345,1,0,0:0:0:0:
256,192,168424,1,0,0:0:0:0:
256,192,168503,1,8,0:0:0:0:
256,192,168660,1,8,0:0:0:0:
256,192,168818,1,0,0:0:0:0:
256,192,168897,1,0,0:0:0:0:
256,192,168976,1,8,0:0:0:0:
256,192,169055,1,0,0:0:0:0:
256,192,169134,1,8,0:0:0:0:
256,192,169213,1,8,0:0:0:0:
256,192,169292,1,4,0:0:0:0:
256,192,169450,1,0,0:0:0:0:
256,192,169529,1,0,0:0:0:0:
256,192,169608,1,8,0:0:0:0:
256,192,169766,1,8,0:0:0:0:
256,192,169924,1,0,0:0:0:0:
256,192,170081,1,8,0:0:0:0:
256,192,170160,1,8,0:0:0:0:
256,192,170239,1,0,0:0:0:0:
256,192,170397,1,0,0:0:0:0:
256,192,170555,1,8,0:0:0:0:
256,192,170634,1,0,0:0:0:0:
256,192,170713,1,8,0:0:0:0:
256,192,170871,1,8,0:0:0:0:
256,192,171029,1,0,0:0:0:0:
256,192,171108,1,0,0:0:0:0:
256,192,171187,1,8,0:0:0:0:
256,192,171266,1,8,0:0:0:0:
256,192,171345,1,0,0:0:0:0:
256,192,171503,1,8,0:0:0:0:
256,192,171660,1,0,0:0:0:0:
256,192,171818,1,8,0:0:0:0:
256,192,171976,1,8,0:0:0:0:
256,192,172055,1,0,0:0:0:0:
256,192,172134,1,8,0:0:0:0:
256,192,172292,1,0,0:0:0:0:
256,192,172450,1,8,0:0:0:0:
256,192,172608,1,8,0:0:0:0:
256,192,172687,1,0,0:0:0:0:
256,192,172766,1,8,0:0:0:0:
256,192,172924,1,0,0:0:0:0:
256,192,173081,1,8,0:0:0:0:
256,192,173239,1,0,0:0:0:0:
256,192,173318,1,0,0:0:0:0:
256,192,173397,1,8,0:0:0:0:
256,192,173555,1,0,0:0:0:0:
256,192,173713,1,8,0:0:0:0:
256,192,173871,1,0,0:0:0:0:
256,192,173950,1,0,0:0:0:0:
256,192,174029,1,8,0:0:0:0:
256,192,174108,1,8,0:0:0:0:
256,192,174187,1,0,0:0:0:0:
256,192,174266,1,0,0:0:0:0:
256,192,174345,1,8,0:0:0:0:
256,192,174503,1,8,0:0:0:0:
256,192,174581,1,8,0:0:0:0:
256,192,174660,1,0,0:0:0:0:
256,192,174739,1,0,0:0:0:0:
256,192,174818,1,8,0:0:0:0:
256,192,174897,1,0,0:0:0:0:
256,192,174976,1,8,0:0:0:0:
256,192,175134,1,0,0:0:0:0:
256,192,175213,1,0,0:0:0:0:
256,192,175292,1,8,0:0:0:0:
256,192,175371,1,0,0:0:0:0:
256,192,175450,1,8,0:0:0:0:
256,192,175529,1,8,0:0:0:0:
256,192,175608,1,0,0:0:0:0:
256,192,175766,1,0,0:0:0:0:
256,192,175845,1,0,0:0:0:0:
256,192,175924,1,8,0:0:0:0:
256,192,176003,1,0,0:0:0:0:
256,192,176081,1,0,0:0:0:0:
256,192,176160,1,0,0:0:0:0:
256,192,176239,1,8,0:0:0:0:
256,192,176397,1,0,0:0:0:0:
256,192,176476,1,0,0:0:0:0:
256,192,176555,1,8,0:0:0:0:
256,192,176634,1,8,0:0:0:0:
256,192,176713,1,0,0:0:0:0:
256,192,176792,1,0,0:0:0:0:
256,192,176871,1,8,0:0:0:0:
256,192,177029,1,8,0:0:0:0:
256,192,177108,1,0,0:0:0:0:
256,192,177266,1,0,0:0:0:0:
256,192,177345,1,8,0:0:0:0:
256,192,177503,1,8,0:0:0:0:
256,192,177660,1,0,0:0:0:0:
256,192,177739,1,8,0:0:0:0:
256,192,177897,1,8,0:0:0:0:
256,192,177976,1,0,0:0:0:0:
256,192,178134,1,8,0:0:0:0:
256,192,178213,1,0,0:0:0:0:
256,192,178292,1,8,0:0:0:0:
256,192,178450,1,0,0:0:0:0:
256,192,178529,1,0,0:0:0:0:
256,192,178608,1,8,0:0:0:0:
256,192,178766,1,0,0:0:0:0:
256,192,178924,1,8,0:0:0:0:
256,192,179003,1,0,0:0:0:0:
256,192,179081,1,8,0:0:0:0:
256,192,179160,1,8,0:0:0:0:
256,192,179239,1,0,0:0:0:0:
256,192,179318,1,0,0:0:0:0:
256,192,179397,1,8,0:0:0:0:
256,192,179476,1,8,0:0:0:0:
256,192,179555,1,8,0:0:0:0:
256,192,179634,1,8,0:0:0:0:
256,192,179713,1,0,0:0:0:0:
256,192,179792,1,0,0:0:0:0:
256,192,179871,1,8,0:0:0:0:
256,192,179950,1,0,0:0:0:0:
256,192,180029,1,8,0:0:0:0:
256,192,180108,1,0,0:0:0:0:
256,192,180187,1,0,0:0:0:0:
256,192,180266,1,0,0:0:0:0:
256,192,180345,1,8,0:0:0:0:
256,192,180424,1,8,0:0:0:0:
256,192,180503,1,8,0:0:0:0:
256,192,180581,1,0,0:0:0:0:
256,192,180660,1,8,0:0:0:0:
256,192,180739,1,0,0:0:0:0:
256,192,180818,1,0,0:0:0:0:
256,192,180897,1,0,0:0:0:0:
256,192,180976,1,8,0:0:0:0:
256,192,181055,1,0,0:0:0:0:
256,192,181134,1,8,0:0:0:0:
256,192,181213,1,8,0:0:0:0:
256,192,181292,1,0,0:0:0:0:
256,192,181371,1,0,0:0:0:0:
256,192,181450,1,8,0:0:0:0:
256,192,181529,1,0,0:0:0:0:
256,192,181608,1,8,0:0:0:0:
256,192,181687,1,8,0:0:0:0:
256,192,181766,1,0,0:0:0:0:
256,192,181845,1,0,0:0:0:0:
256,192,181924,1,8,0:0:0:0:
256,192,182003,1,8,0:0:0:0:
256,192,182081,1,8,0:0:0:0:
256,192,182160,1,0,0:0:0:0:
256,192,182239,1,8,0:0:0:0:
256,192,182318,1,0,0:0:0:0:
256,192,182397,1,8,0:0:0:0:
256,192,182476,1,0,0:0:0:0:
256,192,182555,1,8,0:0:0:0:
256,192,182634,1,8,0:0:0:0:
256,192,182713,1,8,0:0:0:0:
256,192,182792,1,8,0:0:0:0:
256,192,182871,1,0,0:0:0:0:
256,192,182950,1,0,0:0:0:0:
256,192,183029,1,8,0:0:0:0:
256,192,183108,1,0,0:0:0:0:
256,192,183187,1,8,0:0:0:0:
256,192,183266,1,8,0:0:0:0:
256,192,183345,1,0,0:0:0:0:
256,192,183424,1,0,0:0:0:0:
256,192,183503,1,8,0:0:0:0:
256,192,183581,1,0,0:0:0:0:
256,192,183660,1,8,0:0:0:0:
256,192,183739,1,8,0:0:0:0:
256,192,183818,1,0,0:0:0:0:
256,192,183897,1,0,0:0:0:0:
256,192,183976,1,8,0:0:0:0:
256,192,184055,1,0,0:0:0:0:
256,192,184134,1,8,0:0:0:0:
256,192,184213,1,8,0:0:0:0:
256,192,184292,1,0,0:0:0:0:
256,192,184371,1,0,0:0:0:0:
256,192,184450,1,8,0:0:0:0:
256,192,184766,1,8,0:0:0:0:
256,192,184924,1,0,0:0:0:0:
256,192,185081,1,8,0:0:0:0:
256,192,185397,1,0,0:0:0:0:
256,192,185555,1,8,0:0:0:0:
256,192,185713,1,8,0:0:0:0:
256,192,185871,1,0,0:0:0:0:
256,192,186187,1,0,0:0:0:0:
256,192,186345,1,8,0:0:0:0:
256,192,186503,1,0,0:0:0:0:
256,192,186581,1,0,0:0:0:0:
256,192,186660,1,8,0:0:0:0:
256,192,186739,1,0,0:0:0:0:
256,192,186818,1,8,0:0:0:0:
256,192,186897,1,8,0:0:0:0:
256,192,186976,1,4,0:0:0:0:
256,192,187134,1,8,0:0:0:0:
256,192,187213,1,0,0:0:0:0:
256,192,187292,1,8,0:0:0:0:
256,192,187450,1,0,0:0:0:0:
256,192,187529,1,0,0:0:0:0:
256,192,187608,1,8,0:0:0:0:
256,192,187766,1,8,0:0:0:0:
256,192,187845,1,8,0:0:0:0:
256,192,187924,1,0,0:0:0:0:
256,192,188081,1,0,0:0:0:0:
256,192,188160,1,0,0:0:0:0:
256,192,188239,1,8,0:0:0:0:
256,192,188318,1,8,0:0:0:0:
256,192,188397,1,8,0:0:0:0:
256,192,188476,1,8,0:0:0:0:
256,192,188555,1,0,0:0:0:0:
256,192,188634,1,0,0:0:0:0:
256,192,188713,1,0,0:0:0:0:
256,192,188792,1,0,0:0:0:0:
256,192,188871,1,8,0:0:0:0:
256,192,188950,1,8,0:0:0:0:
256,192,189029,1,0,0:0:0:0:
256,192,189108,1,0,0:0:0:0:
256,192,189187,1,8,0:0:0:0:
256,192,189266,1,8,0:0:0:0:
256,192,189345,1,0,0:0:0:0:
256,192,189424,1,0,0:0:0:0:
256,192,189503,1,8,0:0:0:0:
256,192,189581,1,8,0:0:0:0:
256,192,189660,1,8,0:0:0:0:
256,192,189739,1,8,0:0:0:0:
256,192,189818,1,0,0:0:0:0:
256,192,189897,1,0,0:0:0:0:
256,192,189976,1,8,0:0:0:0:
256,192,190055,1,0,0:0:0:0:
256,192,190134,1,8,0:0:0:0:
256,192,190213,1,8,0:0:0:0:
256,192,190292,1,0,0:0:0:0:
256,192,190371,1,0,0:0:0:0:
256,192,190450,1,8,0:0:0:0:
256,192,190529,1,0,0:0:0:0:
256,192,190608,1,0,0:0:0:0:
256,192,190687,1,0,0:0:0:0:
256,192,190766,1,8,0:0:0:0:
256,192,190845,1,8,0:0:0:0:
256,192,190924,1,8,0:0:0:0:
256,192,191003,1,8,0:0:0:0:
256,192,191081,1,0,0:0:0:0:
256,192,191160,1,0,0:0:0:0:
256,192,191239,1,0,0:0:0:0:
256,192,191318,1,0,0:0:0:0:
256,192,191397,1,8,0:0:0:0:
256,192,191476,1,0,0:0:0:0:
256,192,191555,1,8,0:0:0:0:
256,192,191634,1,8,0:0:0:0:
256,192,191713,1,0,0:0:0:0:
256,192,191792,1,0,0:0:0:0:
256,192,191871,1,0,0:0:0:0:
256,192,191950,1,0,0:0:0:0:
256,192,192029,1,8,0:0:0:0:
256,192,192108,1,8,0:0:0:0:
256,192,192187,1,0,0:0:0:0:
256,192,192266,1,0,0:0:0:0:
256,192,192345,1,8,0:0:0:0:
256,192,192424,1,0,0:0:0:0:
256,192,192503,1,8,0:0:0:0:
256,192,192581,1,8,0:0:0:0:
256,192,192660,1,0,0:0:0:0:
256,192,192739,1,0,0:0:0:0:
256,192,192818,1,8,0:0:0:0:
256,192,192897,1,0,0:0:0:0:
256,192,192976,1,8,0:0:0:0:
256,192,193055,1,0,0:0:0:0:
256,192,193134,1,8,0:0:0:0:
256,192,193213,1,8,0:0:0:0:
256,192,193292,1,8,0:0:0:0:
256,192,193371,1,8,0:0:0:0:
256,192,193450,1,0,0:0:0:0:
256,192,193529,1,0,0:0:0:0:
256,192,193608,1,8,0:0:0:0:
256,192,193687,1,8,0:0:0:0:
256,192,193766,1,0,0:0:0:0:
256,192,193845,1,0,0:0:0:0:
256,192,193924,1,8,0:0:0:0:
256,192,194003,1,0,0:0:0:0:
256,192,194081,1,8,0:0:0:0:
256,192,194160,1,8,0:0:0:0:
256,192,194239,1,8,0:0:0:0:
256,192,194318,1,0,0:0:0:0:
256,192,194397,1,0,0:0:0:0:
256,192,194476,1,0,0:0:0:0:
256,192,194555,1,8,0:0:0:0:
256,192,194634,1,8,0:0:0:0:
256,192,194713,1,0,0:0:0:0:
256,192,194792,1,0,0:0:0:0:
256,192,194871,1,8,0:0:0:0:
256,192,194950,1,0,0:0:0:0:
256,192,195029,1,8,0:0:0:0:
256,192,195108,1,8,0:0:0:0:
256,192,195187,1,8,0:0:0:0:
256,192,195266,1,0,0:0:0:0:
256,192,195345,1,0,0:0:0:0:
256,192,195424,1,0,0:0:0:0:
256,192,195503,1,8,0:0:0:0:
256,192,195581,1,8,0:0:0:0:
256,192,195660,1,0,0:0:0:0:
256,192,195739,1,0,0:0:0:0:
256,192,195818,1,8,0:0:0:0:
256,192,195897,1,8,0:0:0:0:
256,192,195976,1,8,0:0:0:0:
256,192,196055,1,0,0:0:0:0:
256,192,196134,1,8,0:0:0:0:
256,192,196213,1,0,0:0:0:0:
256,192,196292,1,8,0:0:0:0:
256,192,196371,1,8,0:0:0:0:
256,192,196450,1,0,0:0:0:0:
256,192,196529,1,0,0:0:0:0:
256,192,196608,1,8,0:0:0:0:
256,192,196687,1,8,0:0:0:0:
256,192,196766,1,0,0:0:0:0:
256,192,196845,1,0,0:0:0:0:
256,192,196924,1,8,0:0:0:0:
256,192,197003,1,0,0:0:0:0:
256,192,197081,1,8,0:0:0:0:
256,192,197160,1,8,0:0:0:0:
256,192,197239,1,8,0:0:0:0:
256,192,197318,1,0,0:0:0:0:
256,192,197397,1,8,0:0:0:0:
256,192,197476,1,0,0:0:0:0:
256,192,197555,1,0,0:0:0:0:
256,192,197634,1,0,0:0:0:0:
256,192,197713,1,8,0:0:0:0:
256,192,197792,1,0,0:0:0:0:
256,192,197871,1,8,0:0:0:0:
256,192,197950,1,8,0:0:0:0:
256,192,198029,1,8,0:0:0:0:
256,192,198108,1,0,0:0:0:0:
256,192,198187,1,0,0:0:0:0:
256,192,198266,1,0,0:0:0:0:
256,192,198345,1,8,0:0:0:0:
256,192,198424,1,8,0:0:0:0:
256,192,198503,1,8,0:0:0:0:
256,192,198581,1,0,0:0:0:0:
256,192,198660,1,8,0:0:0:0:
256,192,198739,1,8,0:0:0:0:
256,192,198818,1,0,0:0:0:0:
256,192,198897,1,0,0:0:0:0:
256,192,198976,1,8,0:0:0:0:
256,192,199055,1,0,0:0:0:0:
256,192,199134,1,0,0:0:0:0:
256,192,199213,1,0,0:0:0:0:
256,192,199292,1,8,0:0:0:0:
256,192,199371,1,8,0:0:0:0:
256,192,199450,1,8,0:0:0:0:
256,192,199529,1,0,0:0:0:0:
256,192,199608,1,8,0:0:0:0:
256,192,199687,1,8,0:0:0:0:
256,192,199766,1,8,0:0:0:0:
256,192,199845,1,8,0:0:0:0:
256,192,199924,1,0,0:0:0:0:
256,192,200003,1,0,0:0:0:0:
256,192,200081,1,8,0:0:0:0:
256,192,200160,1,0,0:0:0:0:
256,192,200239,1,8,0:0:0:0:
256,192,200318,1,8,0:0:0:0:
256,192,200397,1,8,0:0:0:0:
256,192,200476,1,0,0:0:0:0:
256,192,200555,1,0,0:0:0:0:
256,192,200634,1,0,0:0:0:0:
256,192,200713,1,8,0:0:0:0:
256,192,200792,1,0,0:0:0:0:
256,192,200871,1,8,0:0:0:0:
256,192,200950,1,8,0:0:0:0:
256,192,201029,1,8,0:0:0:0:
256,192,201108,1,8,0:0:0:0:
256,192,201187,1,0,0:0:0:0:
256,192,201266,1,0,0:0:0:0:
256,192,201345,1,8,0:0:0:0:
256,192,201424,1,0,0:0:0:0:
256,192,201503,1,8,0:0:0:0:
256,192,201581,1,8,0:0:0:0:
256,192,201660,1,0,0:0:0:0:
256,192,201739,1,0,0:0:0:0:
256,192,201818,1,8,0:0:0:0:
256,192,201897,1,8,0:0:0:0:
256,192,201976,1,8,0:0:0:0:
256,192,202055,1,0,0:0:0:0:
256,192,202134,1,8,0:0:0:0:
256,192,202213,1,8,0:0:0:0:
256,192,202292,1,0,0:0:0:0:
256,192,202371,1,0,0:0:0:0:
256,192,202450,1,8,0:0:0:0:
256,192,202529,1,0,0:0:0:0:
256,192,202608,1,8,0:0:0:0:
256,192,202687,1,8,0:0:0:0:
256,192,202766,1,0,0:0:0:0:
256,192,202845,1,0,0:0:0:0:
256,192,202924,1,8,0:0:0:0:
256,192,203003,1,0,0:0:0:0:
256,192,203081,1,8,0:0:0:0:
256,192,203160,1,0,0:0:0:0:
256,192,203239,1,8,0:0:0:0:
256,192,203318,1,0,0:0:0:0:
256,192,203397,1,8,0:0:0:0:
256,192,203476,1,8,0:0:0:0:
256,192,203555,1,8,0:0:0:0:
256,192,203634,1,8,0:0:0:0:
256,192,203713,1,0,0:0:0:0:
256,192,203792,1,0,0:0:0:0:
256,192,203871,1,0,0:0:0:0:
256,192,203950,1,0,0:0:0:0:
256,192,204029,1,8,0:0:0:0:
256,192,204108,1,8,0:0:0:0:
256,192,204187,1,8,0:0:0:0:
256,192,204266,1,8,0:0:0:0:
256,192,204345,1,0,0:0:0:0:
256,192,204424,1,0,0:0:0:0:
256,192,204503,1,0,0:0:0:0:
256,192,204581,1,0,0:0:0:0:
256,192,204660,1,8,0:0:0:0:
256,192,204739,1,0,0:0:0:0:
256,192,204818,1,8,0:0:0:0:
256,192,204897,1,8,0:0:0:0:
256,192,204976,1,8,0:0:0:0:
256,192,205055,1,0,0:0:0:0:
256,192,205134,1,0,0:0:0:0:
256,192,205213,1,0,0:0:0:0:
256,192,205292,1,8,0:0:0:0:
256,192,205371,1,8,0:0:0:0:
256,192,205450,1,0,0:0:0:0:
256,192,205529,1,0,0:0:0:0:
256,192,205608,1,8,0:0:0:0:
256,192,205687,1,0,0:0:0:0:
256,192,205766,1,8,0:0:0:0:
256,192,205845,1,8,0:0:0:0:
256,192,205924,1,8,0:0:0:0:
256,192,206003,1,0,0:0:0:0:
256,192,206081,1,0,0:0:0:0:
256,192,206160,1,0,0:0:0:0:
256,192,206239,1,8,0:0:0:0:
256,192,206318,1,8,0:0:0:0:
256,192,206397,1,8,0:0:0:0:
256,192,206476,1,0,0:0:0:0:
256,192,206555,1,8,0:0:0:0:
256,192,206634,1,8,0:0:0:0:
256,192,206713,1,0,0:0:0:0:
256,192,206792,1,0,0:0:0:0:
256,192,206871,1,8,0:0:0:0:
256,192,206950,1,0,0:0:0:0:
256,192,207029,1,8,0:0:0:0:
256,192,207108,1,0,0:0:0:0:
256,192,207187,1,8,0:0:0:0:
256,192,207266,1,8,0:0:0:0:
256,192,207345,1,8,0:0:0:0:
256,192,207424,1,8,0:0:0:0:
256,192,207503,1,0,0:0:0:0:
256,192,207581,1,0,0:0:0:0:
256,192,207660,1,8,0:0:0:0:
256,192,207739,1,8,0:0:0:0:
256,192,207818,1,0,0:0:0:0:
256,192,207897,1,0,0:0:0:0:
256,192,207976,1,8,0:0:0:0:
256,192,208055,1,0,0:0:0:0:
256,192,208134,1,8,0:0:0:0:
256,192,208213,1,0,0:0:0:0:
256,192,208292,1,0,0:0:0:0:
256,192,208371,1,0,0:0:0:0:
256,192,208450,1,8,0:0:0:0:
256,192,208529,1,0,0:0:0:0:
256,192,208608,1,8,0:0:0:0:
256,192,208687,1,8,0:0:0:0:
256,192,208766,1,0,0:0:0:0:
256,192,208845,1,0,0:0:0:0:
256,192,208924,1,8,0:0:0:0:
256,192,209003,1,0,0:0:0:0:
256,192,209081,1,8,0:0:0:0:
256,192,209160,1,8,0:0:0:0:
256,192,209239,1,0,0:0:0:0:
256,192,209318,1,0,0:0:0:0:
256,192,209397,1,8,0:0:0:0:
256,192,209476,1,0,0:0:0:0:
256,192,209555,1,0,0:0:0:0:
256,192,209634,1,0,0:0:0:0:
256,192,209713,1,12,0:0:0:0:
256,192,209871,1,0,0:0:0:0:
256,192,210029,1,8,0:0:0:0:
256,192,210108,1,0,0:0:0:0:
256,192,210187,1,8,0:0:0:0:
256,192,210266,1,8,0:0:0:0:
256,192,210345,1,0,0:0:0:0:
256,192,210503,1,8,0:0:0:0:
256,192,210660,1,8,0:0:0:0:
256,192,210739,1,8,0:0:0:0:
256,192,210818,1,0,0:0:0:0:
256,192,210976,1,8,0:0:0:0:
256,192,211134,1,0,0:0:0:0:
256,192,211213,1,0,0:0:0:0:
256,192,211292,1,8,0:0:0:0:
256,192,211371,1,8,0:0:0:0:
256,192,211450,1,0,0:0:0:0:
256,192,211608,1,0,0:0:0:0:
256,192,211766,1,8,0:0:0:0:
256,192,211924,1,0,0:0:0:0:
256,192,212003,1,0,0:0:0:0:
256,192,212081,1,8,0:0:0:0:
256,192,212239,1,8,0:0:0:0:
256,192,212318,1,8,0:0:0:0:
256,192,212397,1,8,0:0:0:0:
256,192,212476,1,8,0:0:0:0:
256,192,212555,1,0,0:0:0:0:
256,192,212634,1,0,0:0:0:0:
256,192,212713,1,0,0:0:0:0:
256,192,212792,1,0,0:0:0:0:
256,192,212871,1,8,0:0:0:0:
256,192,212950,1,0,0:0:0:0:
256,192,213029,1,8,0:0:0:0:
256,192,213108,1,0,0:0:0:0:
256,192,213187,1,8,0:0:0:0:
256,192,213266,1,8,0:0:0:0:
256,192,213345,1,0,0:0:0:0:
256,192,213424,1,0,0:0:0:0:
256,192,213503,1,8,0:0:0:0:
256,192,213581,1,8,0:0:0:0:
256,192,213660,1,8,0:0:0:0:
256,192,213739,1,8,0:0:0:0:
256,192,213818,1,0,0:0:0:0:
256,192,213897,1,0,0:0:0:0:
256,192,213976,1,0,0:0:0:0:
256,192,214055,1,0,0:0:0:0:
256,192,214134,1,8,0:0:0:0:
256,192,214213,1,8,0:0:0:0:
256,192,214292,1,0,0:0:0:0:
256,192,214371,1,0,0:0:0:0:
256,192,214450,1,8,0:0:0:0:
256,192,214529,1,0,0:0:0:0:
256,192,214608,1,8,0:0:0:0:
256,192,214687,1,8,0:0:0:0:
256,192,214766,1,4,0:0:0:0:
256,192,214924,1,8,0:0:0:0:
256,192,215003,1,0,0:0:0:0:
256,192,215081,1,8,0:0:0:0:
256,192,215160,1,8,0:0:0:0:
256,192,215239,1,0,0:0:0:0:
256,192,215318,1,0,0:0:0:0:
256,192,215397,1,8,0:0:0:0:
256,192,215555,1,0,0:0:0:0:
256,192,215713,1,8,0:0:0:0:
256,192,215792,1,0,0:0:0:0:
256,192,215871,1,0,0:0:0:0:
256,192,215950,1,0,0:0:0:0:
256,192,216029,1,8,0:0:0:0:
256,192,216187,1,8,0:0:0:0:
256,192,216345,1,0,0:0:0:0:
256,192,216424,1,0,0:0:0:0:
256,192,216503,1,8,0:0:0:0:
256,192,216660,1,0,0:0:0:0:
256,192,216818,1,8,0:0:0:0:
256,192,216976,1,8,0:0:0:0:
256,192,217055,1,8,0:0:0:0:
256,192,217134,1,0,0:0:0:0:
256,192,217292,1,8,0:0:0:0:
256,192,217371,1,8,0:0:0:0:
256,192,217450,1,8,0:0:0:0:
256,192,217529,1,8,0:0:0:0:
256,192,217608,1,0,0:0:0:0:
256,192,217687,1,0,0:0:0:0:
256,192,217766,1,8,0:0:0:0:
256,192,217845,1,0,0:0:0:0:
256,192,217924,1,8,0:0:0:0:
256,192,218003,1,8,0:0:0:0:
256,192,218081,1,0,0:0:0:0:
256,192,218160,1,0,0:0:0:0:
256,192,218239,1,8,0:0:0:0:
256,192,218318,1,0,0:0:0:0:
256,192,218397,1,0,0:0:0:0:
256,192,218476,1,0,0:0:0:0:
256,192,218555,1,8,0:0:0:0:
256,192,218634,1,8,0:0:0:0:
256,192,218713,1,8,0:0:0:0:
256,192,218792,1,0,0:0:0:0:
256,192,218871,1,0,0:0:0:0:
256,192,218950,1,0,0:0:0:0:
256,192,219029,1,8,0:0:0:0:
256,192,219108,1,8,0:0:0:0:
256,192,219187,1,0,0:0:0:0:
256,192,219345,1,0,0:0:0:0:
256,192,219424,1,0,0:0:0:0:
256,192,219503,1,8,0:0:0:0:
256,192,219581,1,8,0:0:0:0:
256,192,219660,1,0,0:0:0:0:
256,192,219739,1,0,0:0:0:0:
256,192,219818,1,12,0:0:0:0:
256,192,219976,1,0,0:0:0:0:
256,192,220134,1,8,0:0:0:0:
256,192,220292,1,8,0:0:0:0:
256,192,220450,1,8,0:0:0:0:
256,192,220608,1,8,0:0:0:0:
256,192,220766,1,0,0:0:0:0:
256,192,220924,1,0,0:0:0:0:
256,192,221003,1,0,0:0:0:0:
256,192,221081,1,12,0:0:0:0:
256,192,221318,1,12,0:0:0:0:
256,192,221555,1,4,0:0:0:0:
256,192,221713,1,12,0:0:0:0:
256,192,221950,1,12,0:0:0:0:
256,192,222187,1,4,0:0:0:0:
256,192,224871,1,12,0:0:0:0:
256,192,226134,1,12,0:0:0:0:
256,192,227397,1,12,0:0:0:0:
256,192,228660,1,12,0:0:0:0:
256,192,229292,1,8,0:0:0:0:
256,192,229450,1,8,0:0:0:0:
256,192,229529,1,0,0:0:0:0:
256,192,229608,1,8,0:0:0:0:
256,192,229766,1,0,0:0:0:0:
256,192,229845,1,0,0:0:0:0:
256,192,229924,1,8,0:0:0:0:
256,192,230239,1,0,0:0:0:0:
256,192,230397,1,0,0:0:0:0:
256,192,230555,1,8,0:0:0:0:
256,192,230871,1,0,0:0:0:0:
256,192,231029,1,8,0:0:0:0:
256,192,231345,1,0,0:0:0:0:
256,192,231660,1,0,0:0:0:0:
256,192,231818,1,8,0:0:0:0:
256,192,232134,1,0,0:0:0:0:
256,192,232450,1,8,0:0:0:0:
256,192,232529,1,8,0:0:0:0:
256,192,232608,1,0,0:0:0:0:
256,192,232687,1,0,0:0:0:0:
256,192,232766,1,8,0:0:0:0:
256,192,232845,1,0,0:0:0:0:
256,192,232924,1,8,0:0:0:0:
256,192,233003,1,8,0:0:0:0:
256,192,233081,1,8,0:0:0:0:
256,192,233160,1,0,0:0:0:0:
256,192,233239,1,0,0:0:0:0:
256,192,233318,1,0,0:0:0:0:
256,192,233397,1,8,0:0:0:0:
256,192,233476,1,8,0:0:0:0:
256,192,233555,1,0,0:0:0:0:
256,192,233634,1,0,0:0:0:0:
256,192,233713,1,8,0:0:0:0:
256,192,233871,1,8,0:0:0:0:
256,192,233950,1,0,0:0:0:0:
256,192,234029,1,8,0:0:0:0:
256,192,234108,1,8,0:0:0:0:
256,192,234187,1,0,0:0:0:0:
256,192,234345,1,8,0:0:0:0:
256,192,234424,1,8,0:0:0:0:
256,192,234503,1,0,0:0:0:0:
256,192,234581,1,0,0:0:0:0:
256,192,234660,1,8,0:0:0:0:
256,192,234818,1,0,0:0:0:0:
256,192,234897,1,0,0:0:0:0:
256,192,234976,1,8,0:0:0:0:
256,192,235055,1,8,0:0:0:0:
256,192,235134,1,8,0:0:0:0:
256,192,235213,1,8,0:0:0:0:
256,192,235292,1,8,0:0:0:0:
256,192,235371,1,8,0:0:0:0:
256,192,235450,1,8,0:0:0:0:
256,192,235529,1,0,0:0:0:0:
256,192,235608,1,0,0:0:0:0:
256,192,235687,1,0,0:0:0:0:
256,192,235766,1,8,0:0:0:0:
256,192,235845,1,0,0:0:0:0:
256,192,235924,1,8,0:0:0:0:
256,192,236003,1,8,0:0:0:0:
256,192,236081,1,8,0:0:0:0:
256,192,236160,1,0,0:0:0:0:
256,192,236239,1,8,0:0:0:0:
256,192,236318,1,8,0:0:0:0:
256,192,236397,1,0,0:0:0:0:
256,192,236476,1,0,0:0:0:0:
256,192,236555,1,8,0:0:0:0:
256,192,236634,1,0,0:0:0:0:
256,192,236713,1,0,0:0:0:0:
256,192,236792,1,0,0:0:0:0:
256,192,236871,1,8,0:0:0:0:
256,192,236950,1,8,0:0:0:0:
256,192,237029,1,0,0:0:0:0:
256,192,237108,1,0,0:0:0:0:
256,192,237187,1,8,0:0:0:0:
256,192,237266,1,0,0:0:0:0:
256,192,237345,1,0,0:0:0:0:
256,192,237424,1,0,0:0:0:0:
256,192,237503,1,8,0:0:0:0:
256,192,237581,1,8,0:0:0:0:
256,192,237660,1,8,0:0:0:0:
256,192,237739,1,0,0:0:0:0:
256,192,237818,1,8,0:0:0:0:
256,192,237897,1,0,0:0:0:0:
256,192,237976,1,8,0:0:0:0:
256,192,238055,1,8,0:0:0:0:
256,192,238134,1,8,0:0:0:0:
256,192,238213,1,8,0:0:0:0:
256,192,238292,1,0,0:0:0:0:
256,192,238371,1,0,0:0:0:0:
256,192,238450,1,8,0:0:0:0:
256,192,238529,1,0,0:0:0:0:
256,192,238608,1,8,0:0:0:0:
256,192,238687,1,8,0:0:0:0:
256,192,238766,1,0,0:0:0:0:
256,192,238845,1,0,0:0:0:0:
256,192,238924,1,8,0:0:0:0:
256,192,239003,1,8,0:0:0:0:
256,192,239081,1,0,0:0:0:0:
256,192,239160,1,0,0:0:0:0:
256,192,239239,1,8,0:0:0:0:
256,192,239318,1,0,0:0:0:0:
256,192,239397,1,8,0:0:0:0:
256,192,239476,1,8,0:0:0:0:
256,192,239555,1,0,0:0:0:0:
256,192,239634,1,0,0:0:0:0:
256,192,239713,1,8,0:0:0:0:
256,192,239792,1,0,0:0:0:0:
256,192,239871,1,0,0:0:0:0:
256,192,239950,1,0,0:0:0:0:
256,192,240029,1,8,0:0:0:0:
256,192,240108,1,8,0:0:0:0:
256,192,240187,1,8,0:0:0:0:
256,192,240266,1,8,0:0:0:0:
256,192,240345,1,0,0:0:0:0:
256,192,240424,1,0,0:0:0:0:
256,192,240503,1,8,0:0:0:0:
256,192,240581,1,0,0:0:0:0:
256,192,240660,1,8,0:0:0:0:
256,192,240739,1,8,0:0:0:0:
256,192,240818,1,8,0:0:0:0:
256,192,240897,1,0,0:0:0:0:
256,192,240976,1,8,0:0:0:0:
256,192,241055,1,8,0:0:0:0:
256,192,241134,1,0,0:0:0:0:
256,192,241213,1,0,0:0:0:0:
256,192,241292,1,8,0:0:0:0:
256,192,241371,1,0,0:0:0:0:
256,192,241450,1,0,0:0:0:0:
256,192,241529,1,0,0:0:0:0:
256,192,241608,1,8,0:0:0:0:
256,192,241687,1,8,0:0:0:0:
256,192,241766,1,0,0:0:0:0:
256,192,241845,1,0,0:0:0:0:
256,192,241924,1,8,0:0:0:0:
256,192,242003,1,0,0:0:0:0:
256,192,242081,1,0,0:0:0:0:
256,192,242160,1,0,0:0:0:0:
256,192,242239,1,8,0:0:0:0:
256,192,242318,1,8,0:0:0:0:
256,192,242397,1,8,0:0:0:0:
256,192,242476,1,0,0:0:0:0:
256,192,242555,1,8,0:0:0:0:
256,192,242634,1,8,0:0:0:0:
256,192,242713,1,8,0:0:0:0:
256,192,242792,1,8,0:0:0:0:
256,192,242871,1,0,0:0:0:0:
256,192,242950,1,0,0:0:0:0:
256,192,243029,1,8,0:0:0:0:
256,192,243108,1,0,0:0:0:0:
256,192,243187,1,8,0:0:0:0:
256,192,243266,1,8,0:0:0:0:
256,192,243345,1,0,0:0:0:0:
256,192,243424,1,0,0:0:0:0:
256,192,243503,1,8,0:0:0:0:
256,192,243581,1,8,0:0:0:0:
256,192,243660,1,0,0:0:0:0:
256,192,243739,1,0,0:0:0:0:
256,192,243818,1,8,0:0:0:0:
256,192,243897,1,0,0:0:0:0:
256,192,243976,1,8,0:0:0:0:
256,192,244055,1,8,0:0:0:0:
256,192,244134,1,0,0:0:0:0:
256,192,244213,1,0,0:0:0:0:
256,192,244292,1,8,0:0:0:0:
256,192,244371,1,8,0:0:0:0:
256,192,244450,1,0,0:0:0:0:
256,192,244529,1,0,0:0:0:0:
256,192,244608,1,8,0:0:0:0:
256,192,244687,1,0,0:0:0:0:
256,192,244766,1,8,0:0:0:0:
256,192,244924,1,0,0:0:0:0:
256,192,245003,1,0,0:0:0:0:
256,192,245081,1,8,0:0:0:0:
256,192,245160,1,8,0:0:0:0:
256,192,245239,1,8,0:0:0:0:
256,192,245318,1,8,0:0:0:0:
256,192,245397,1,8,0:0:0:0:
256,192,245476,1,8,0:0:0:0:
256,192,245555,1,8,0:0:0:0:
256,192,245634,1,8,0:0:0:0:
256,192,245713,1,8,0:0:0:0:
256,192,245792,1,8,0:0:0:0:
256,192,245871,1,8,0:0:0:0:
256,192,245950,1,8,0:0:0:0:
256,192,246029,1,0,0:0:0:0:
256,192,246108,1,0,0:0:0:0:
256,192,246187,1,0,0:0:0:0:
256,192,246266,1,0,0:0:0:0:
256,192,246345,1,8,0:0:0:0:
256,192,246424,1,8,0:0:0:0:
256,192,246503,1,8,0:0:0:0:
256,192,246581,1,8,0:0:0:0:
256,192,246660,1,0,0:0:0:0:
256,192,246739,1,0,0:0:0:0:
256,192,246818,1,0,0:0:0:0:
256,192,246897,1,0,0:0:0:0:
256,192,246976,1,8,0:0:0:0:
256,192,247055,1,8,0:0:0:0:
256,192,247134,1,8,0:0:0:0:
256,192,247213,1,8,0:0:0:0:
256,192,247292,1,0,0:0:0:0:
256,192,247371,1,0,0:0:0:0:
256,192,247450,1,0,0:0:0:0:
256,192,247529,1,0,0:0:0:0:
256,192,247608,1,8,0:0:0:0:
256,192,247687,1,8,0:0:0:0:
256,192,247766,1,8,0:0:0:0:
256,192,247845,1,8,0:0:0:0:
256,192,247924,1,0,0:0:0:0:
256,192,248003,1,0,0:0:0:0:
256,192,248081,1,8,0:0:0:0:
256,192,248160,1,8,0:0:0:0:
256,192,248239,1,8,0:0:0:0:
256,192,248318,1,8,0:0:0:0:
256,192,248397,1,8,0:0:0:0:
256,192,248476,1,8,0:0:0:0:
256,192,248555,1,8,0:0:0:0:
256,192,248634,1,8,0:0:0:0:
256,192,248713,1,8,0:0:0:0:
256,192,248792,1,8,0:0:0:0:
256,192,248871,1,8,0:0:0:0:
256,192,248950,1,8,0:0:0:0:
256,192,249029,1,8,0:0:0:0:
256,192,249108,1,8,0:0:0:0:
256,192,249187,1,0,0:0:0:0:
256,192,249266,1,0,0:0:0:0:
256,192,249345,1,8,0:0:0:0:
256,192,249424,1,8,0:0:0:0:
256,192,249503,1,0,0:0:0:0:
256,192,249581,1,0,0:0:0:0:
256,192,249660,1,8,0:0:0:0:
256,192,249739,1,8,0:0:0:0:
256,192,249818,1,0,0:0:0:0:
256,192,249897,1,0,0:0:0:0:
256,192,249976,1,0,0:0:0:0:
256,192,250055,1,0,0:0:0:0:
256,192,250134,1,8,0:0:0:0:
256,192,250213,1,8,0:0:0:0:
256,192,250292,1,8,0:0:0:0:
256,192,250371,1,8,0:0:0:0:
256,192,250450,1,8,0:0:0:0:
256,192,250529,1,8,0:0:0:0:
256,192,250608,1,8,0:0:0:0:
256,192,250687,1,8,0:0:0:0:
256,192,250766,1,8,0:0:0:0:
256,192,250845,1,8,0:0:0:0:
256,192,250924,1,8,0:0:0:0:
256,192,251003,1,8,0:0:0:0:
256,192,251081,1,0,0:0:0:0:
256,192,251160,1,0,0:0:0:0:
256,192,251239,1,0,0:0:0:0:
256,192,251318,1,0,0:0:0:0:
256,192,251397,1,8,0:0:0:0:
256,192,251476,1,8,0:0:0:0:
256,192,251555,1,8,0:0:0:0:
256,192,251634,1,8,0:0:0:0:
256,192,251713,1,0,0:0:0:0:
256,192,251792,1,0,0:0:0:0:
256,192,251871,1,0,0:0:0:0:
256,192,251950,1,0,0:0:0:0:
256,192,252029,1,8,0:0:0:0:
256,192,252108,1,8,0:0:0:0:
256,192,252187,1,8,0:0:0:0:
256,192,252266,1,8,0:0:0:0:
256,192,252345,1,0,0:0:0:0:
256,192,252424,1,0,0:0:0:0:
256,192,252503,1,0,0:0:0:0:
256,192,252581,1,0,0:0:0:0:
256,192,252660,1,8,0:0:0:0:
256,192,252739,1,8,0:0:0:0:
256,192,252818,1,8,0:0:0:0:
256,192,252897,1,8,0:0:0:0:
256,192,252976,1,0,0:0:0:0:
256,192,253055,1,0,0:0:0:0:
256,192,253134,1,8,0:0:0:0:
256,192,253213,1,8,0:0:0:0:
256,192,253292,1,8,0:0:0:0:
256,192,253371,1,8,0:0:0:0:
256,192,253450,1,8,0:0:0:0:
256,192,253529,1,8,0:0:0:0:
256,192,253608,1,8,0:0:0:0:
256,192,253687,1,8,0:0:0:0:
256,192,253766,1,8,0:0:0:0:
256,192,253845,1,8,0:0:0:0:
256,192,253924,1,0,0:0:0:0:
256,192,254003,1,0,0:0:0:0:
256,192,254081,1,8,0:0:0:0:
256,192,254160,1,8,0:0:0:0:
256,192,254239,1,0,0:0:0:0:
256,192,254318,1,0,0:0:0:0:
256,192,254397,1,8,0:0:0:0:
256,192,254476,1,0,0:0:0:0:
256,192,254555,1,8,0:0:0:0:
256,192,254634,1,8,0:0:0:0:
256,192,254713,1,0,0:0:0:0:
256,192,254792,1,0,0:0:0:0:
256,192,254871,1,8,0:0:0:0:
256,192,255029,1,0,0:0:0:0:
256,192,255108,1,0,0:0:0:0:
256,192,255187,1,8,0:0:0:0:
256,192,255266,1,8,0:0:0:0:
256,192,255345,1,8,0:0:0:0:
256,192,255424,1,8,0:0:0:0:
256,192,255503,1,8,0:0:0:0:
256,192,255581,1,8,0:0:0:0:
256,192,255660,1,8,0:0:0:0:
256,192,255739,1,0,0:0:0:0:
256,192,255818,1,0,0:0:0:0:
256,192,255897,1,0,0:0:0:0:
256,192,255976,1,8,0:0:0:0:
256,192,256055,1,0,0:0:0:0:
256,192,256134,1,8,0:0:0:0:
256,192,256213,1,8,0:0:0:0:
256,192,256292,1,8,0:0:0:0:
256,192,256371,1,0,0:0:0:0:
256,192,256450,1,8,0:0:0:0:
256,192,256529,1,8,0:0:0:0:
256,192,256608,1,0,0:0:0:0:
256,192,256687,1,0,0:0:0:0:
256,192,256766,1,8,0:0:0:0:
256,192,256845,1,0,0:0:0:0:
256,192,256924,1,0,0:0:0:0:
256,192,257003,1,0,0:0:0:0:
256,192,257081,1,8,0:0:0:0:
256,192,257160,1,8,0:0:0:0:
256,192,257239,1,0,0:0:0:0:
256,192,257318,1,0,0:0:0:0:
256,192,257397,1,8,0:0:0:0:
256,192,257476,1,0,0:0:0:0:
256,192,257555,1,0,0:0:0:0:
256,192,257634,1,0,0:0:0:0:
256,192,257713,1,8,0:0:0:0:
256,192,257792,1,8,0:0:0:0:
256,192,257871,1,8,0:0:0:0:
256,192,257950,1,0,0:0:0:0:
256,192,258029,1,8,0:0:0:0:
256,192,258108,1,0,0:0:0:0:
256,192,258187,1,8,0:0:0:0:
256,192,258266,1,8,0:0:0:0:
256,192,258345,1,8,0:0:0:0:
256,192,258424,1,8,0:0:0:0:
256,192,258503,1,0,0:0:0:0:
256,192,258581,1,0,0:0:0:0:
256,192,258660,1,8,0:0:0:0:
256,192,258739,1,0,0:0:0:0:
256,192,258818,1,8,0:0:0:0:
256,192,258897,1,8,0:0:0:0:
256,192,258976,1,0,0:0:0:0:
256,192,259055,1,0,0:0:0:0:
256,192,259134,1,8,0:0:0:0:
256,192,259213,1,8,0:0:0:0:
256,192,259292,1,0,0:0:0:0:
256,192,259371,1,0,0:0:0:0:
256,192,259450,1,8,0:0:0:0:
256,192,259529,1,0,0:0:0:0:
256,192,259608,1,8,0:0:0:0:
256,192,259687,1,8,0:0:0:0:
256,192,259766,1,0,0:0:0:0:
256,192,259845,1,0,0:0:0:0:
256,192,259924,1,8,0:0:0:0:
256,192,260003,1,0,0:0:0:0:
256,192,260081,1,0,0:0:0:0:
256,192,260160,1,0,0:0:0:0:
256,192,260239,1,8,0:0:0:0:
256,192,260318,1,8,0:0:0:0:
256,192,260397,1,8,0:0:0:0:
256,192,260476,1,8,0:0:0:0:
256,192,260555,1,0,0:0:0:0:
256,192,260634,1,0,0:0:0:0:
256,192,260713,1,8,0:0:0:0:
256,192,260792,1,0,0:0:0:0:
256,192,260871,1,8,0:0:0:0:
256,192,260950,1,8,0:0:0:0:
256,192,261029,1,8,0:0:0:0:
256,192,261108,1,0,0:0:0:0:
256,192,261187,1,8,0:0:0:0:
256,192,261266,1,8,0:0:0:0:
256,192,261345,1,0,0:0:0:0:
256,192,261424,1,0,0:0:0:0:
256,192,261503,1,8,0:0:0:0:
256,192,261581,1,0,0:0:0:0:
256,192,261660,1,0,0:0:0:0:
256,192,261739,1,0,0:0:0:0:
256,192,261818,1,8,0:0:0:0:
256,192,261897,1,8,0:0:0:0:
256,192,261976,1,0,0:0:0:0:
256,192,262055,1,0,0:0:0:0:
256,192,262134,1,8,0:0:0:0:
256,192,262213,1,0,0:0:0:0:
256,192,262292,1,0,0:0:0:0:
256,192,262371,1,0,0:0:0:0:
256,192,262450,1,8,0:0:0:0:
256,192,262529,1,8,0:0:0:0:
256,192,262608,1,8,0:0:0:0:
256,192,262687,1,0,0:0:0:0:
256,192,262766,1,8,0:0:0:0:
256,192,262845,1,8,0:0:0:0:
256,192,262924,1,8,0:0:0:0:
256,192,263003,1,8,0:0:0:0:
256,192,263081,1,0,0:0:0:0:
256,192,263160,1,0,0:0:0:0:
256,192,263239,1,8,0:0:0:0:
256,192,263318,1,8,0:0:0:0:
256,192,263397,1,0,0:0:0:0:
256,192,263476,1,0,0:0:0:0:
256,192,263555,1,8,0:0:0:0:
256,192,263634,1,8,0:0:0:0:
256,192,263713,1,0,0:0:0:0:
256,192,263792,1,0,0:0:0:0:
256,192,263871,1,8,0:0:0:0:
256,192,263950,1,0,0:0:0:0:
256,192,264029,1,8,0:0:0:0:
256,192,264108,1,8,0:0:0:0:
256,192,264187,1,0,0:0:0:0:
256,192,264266,1,0,0:0:0:0:
256,192,264345,1,8,0:0:0:0:
256,192,264424,1,0,0:0:0:0:
256,192,264503,1,8,0:0:0:0:
256,192,264581,1,8,0:0:0:0:
256,192,264660,1,0,0:0:0:0:
256,192,264739,1,0,0:0:0:0:
256,192,264818,1,8,0:0:0:0:
256,192,264976,1,0,0:0:0:0:
256,192,265055,1,0,0:0:0:0:
256,192,265134,1,0,0:0:0:0:
256,192,265213,1,0,0:0:0:0:
256,192,265292,1,8,0:0:0:0:
256,192,265371,1,8,0:0:0:0:
256,192,265450,1,8,0:0:0:0:
256,192,265529,1,8,0:0:0:0:
256,192,265608,1,0,0:0:0:0:
256,192,265687,1,0,0:0:0:0:
256,192,265766,1,8,0:0:0:0:
256,192,265845,1,0,0:0:0:0:
256,192,265924,1,8,0:0:0:0:
256,192,266003,1,0,0:0:0:0:
256,192,266081,1,8,0:0:0:0:
256,192,266160,1,8,0:0:0:0:
256,192,266239,1,8,0:0:0:0:
256,192,266318,1,0,0:0:0:0:
256,192,266397,1,8,0:0:0:0:
256,192,266476,1,0,0:0:0:0:
256,192,266555,1,8,0:0:0:0:
256,192,266634,1,8,0:0:0:0:
256,192,266713,1,0,0:0:0:0:
256,192,266792,1,0,0:0:0:0:
256,192,266871,1,8,0:0:0:0:
256,192,266950,1,0,0:0:0:0:
256,192,267029,1,8,0:0:0:0:
256,192,267108,1,0,0:0:0:0:
256,192,267187,1,8,0:0:0:0:
256,192,267266,1,8,0:0:0:0:
256,192,267345,1,8,0:0:0:0:
256,192,267424,1,0,0:0:0:0:
256,192,267503,1,8,0:0:0:0:
256,192,267581,1,0,0:0:0:0:
256,192,267660,1,8,0:0:0:0:
256,192,267739,1,0,0:0:0:0:
256,192,267818,1,8,0:0:0:0:
256,192,267897,1,8,0:0:0:0:
256,192,267976,1,8,0:0:0:0:
256,192,268055,1,8,0:0:0:0:
256,192,268134,1,0,0:0:0:0:
256,192,268213,1,0,0:0:0:0:
256,192,268292,1,8,0:0:0:0:
256,192,268371,1,0,0:0:0:0:
256,192,268450,1,8,0:0:0:0:
256,192,268529,1,8,0:0:0:0:
256,192,268608,1,0,0:0:0:0:
256,192,268687,1,0,0:0:0:0:
256,192,268766,1,8,0:0:0:0:
256,192,268845,1,0,0:0:0:0:
256,192,268924,1,8,0:0:0:0:
256,192,269003,1,0,0:0:0:0:
256,192,269081,1,8,0:0:0:0:
256,192,269160,1,8,0:0:0:0:
256,192,269239,1,8,0:0:0:0:
256,192,269318,1,8,0:0:0:0:
256,192,269397,1,0,0:0:0:0:
256,192,269476,1,0,0:0:0:0:
256,192,269555,1,8,0:0:0:0:
256,192,269634,1,0,0:0:0:0:
256,192,269713,1,8,0:0:0:0:
256,192,269792,1,8,0:0:0:0:
256,192,269871,1,8,0:0:0:0:
256,192,269950,1,8,0:0:0:0:
256,192,270029,1,0,0:0:0:0:
256,192,270108,1,0,0:0:0:0:
256,192,270187,1,8,0:0:0:0:
256,192,270266,1,0,0:0:0:0:
256,192,270345,1,8,0:0:0:0:
256,192,270424,1,8,0:0:0:0:
256,192,270503,1,8,0:0:0:0:
256,192,270581,1,8,0:0:0:0:
256,192,270660,1,0,0:0:0:0:
256,192,270739,1,0,0:0:0:0:
256,192,270818,1,8,0:0:0:0:
256,192,270897,1,0,0:0:0:0:
256,192,270976,1,8,0:0:0:0:
256,192,271055,1,0,0:0:0:0:
256,192,271134,1,8,0:0:0:0:
256,192,271213,1,8,0:0:0:0:
256,192,271292,1,8,0:0:0:0:
256,192,271371,1,0,0:0:0:0:
256,192,271450,1,8,0:0:0:0:
256,192,271529,1,0,0:0:0:0:
256,192,271608,1,8,0:0:0:0:
256,192,271687,1,8,0:0:0:0:
256,192,271766,1,0,0:0:0:0:
256,192,271845,1,0,0:0:0:0:
256,192,271924,1,8,0:0:0:0:
256,192,272003,1,0,0:0:0:0:
256,192,272081,1,8,0:0:0:0:
256,192,272160,1,0,0:0:0:0:
256,192,272239,1,8,0:0:0:0:
256,192,272318,1,8,0:0:0:0:
256,192,272397,1,8,0:0:0:0:
256,192,272476,1,0,0:0:0:0:
256,192,272555,1,8,0:0:0:0:
256,192,272634,1,0,0:0:0:0:
256,192,272713,1,8,0:0:0:0:
256,192,272792,1,0,0:0:0:0:
256,192,272871,1,8,0:0:0:0:
256,192,272950,1,8,0:0:0:0:
256,192,273029,1,8,0:0:0:0:
256,192,273108,1,8,0:0:0:0:
256,192,273187,1,0,0:0:0:0:
256,192,273266,1,0,0:0:0:0:
256,192,273345,1,8,0:0:0:0:
256,192,273424,1,0,0:0:0:0:
256,192,273503,1,12,0:0:0:0:
256,192,273739,1,12,0:0:0:0:
256,192,273976,1,12,0:0:0:0:
256,192,274134,1,8,0:0:0:0:
256,192,274213,1,8,0:0:0:0:
256,192,274292,1,8,0:0:0:0:
256,192,274371,1,0,0:0:0:0:
256,192,274450,1,8,0:0:0:0:
256,192,274529,1,0,0:0:0:0:
256,192,274608,1,8,0:0:0:0:
256,192,274687,1,8,0:0:0:0:
256,192,274766,1,8,0:0:0:0:
256,192,274845,1,0,0:0:0:0:
256,192,274924,1,8,0:0:0:0:
256,192,275003,1,0,0:0:0:0:
256,192,275081,1,8,0:0:0:0:
256,192,275160,1,8,0:0:0:0:
256,192,275239,1,8,0:0:0:0:
256,192,275318,1,0,0:0:0:0:
256,192,275397,1,12,0:0:0:0:
256,192,275634,1,4,0:0:0:0:
256,192,275871,1,12,0:0:0:0:
