osu file format v14

[General]
AudioFilename: audio.mp3
AudioLeadIn: 0
PreviewTime: 224476
Countdown: 0
SampleSet: Soft
StackLeniency: 0.7
Mode: 0
LetterboxInBreaks: 0
WidescreenStoryboard: 0

[Editor]
Bookmarks: 78,10183,20288,29131,61973,82183,92288,115025,135236,159236,175658,179446,189552,199657,209762,224920,265341,276078
DistanceSpacing: 1.4
BeatDivisor: 4
GridSize: 4
TimelineZoom: 4.299998

[Metadata]
Title:Louder than steel
TitleUnicode:Louder than steel
Artist:ryu5150
ArtistUnicode:龍5150
Creator:Sotarks
Version:Stainless Heart
Source:東方夢時空 ~ Pantasmagria of Dim.Dream
Tags:c89 comiket 89 symphonic metal power black orchestral zun 東方夢時空 ~ The Phantasmagoria of Dim. Dream Tabula rasa ~ 空白少女 reform kujinn onlybiscuit brotarks snownino_ my heart
BeatmapID:2077121
BeatmapSetID:993306

[Difficulty]
HPDrainRate:5.2
CircleSize:4.2
OverallDifficulty:10
ApproachRate:9.6
SliderMultiplier:1.92
SliderTickRate:1

[Events]
//Background and Video events
0,0,"bg.jpg",0,0
//Break Periods
//Storyboard Layer 0 (Background)
//Storyboard Layer 1 (Fail)
//Storyboard Layer 2 (Pass)
//Storyboard Layer 3 (Foreground)
//Storyboard Layer 4 (Overlay)
//Storyboard Sound Samples

[TimingPoints]
-2497,315.789473684211,4,2,22,82,1,0
29,-138.888888888889,4,2,22,82,0,0
424,-138.888888888889,4,2,22,42,0,0
2555,-138.888888888889,4,2,22,82,0,0
2950,-138.888888888889,4,2,22,42,0,0
5081,-138.888888888889,4,2,22,82,0,0
5476,-138.888888888889,4,2,22,42,0,0
7608,-121.951219512195,4,1,22,82,0,0
9503,-238.095238095239,4,2,22,82,0,0
10055,-238.095238095239,4,2,22,5,0,0
10134,-108.695652173913,4,1,22,72,0,0
18976,-81.9672131147541,4,2,22,82,0,0
19924,-161.290322580645,4,1,22,72,0,0
20239,-98.0392156862745,4,1,22,82,0,0
28450,-70.4225352112676,4,2,22,82,0,0
29081,-108.695652173913,4,1,22,72,0,0
58134,-98.0392156862745,4,1,22,82,0,0
61924,-89.2857142857143,4,1,22,92,0,0
82134,-108.695652173913,4,1,22,72,0,0
90976,-89.2857142857143,4,2,22,82,0,0
92239,-192.307692307692,4,2,22,82,0,0
93187,-138.888888888889,4,2,22,72,0,0
93503,-108.695652173913,4,1,22,72,0,0
114029,-98.0392156862745,4,1,22,82,0,0
114345,-192.307692307692,4,1,22,82,0,0
114976,-89.2857142857143,4,1,22,92,0,0
135187,-98.0392156862745,4,2,22,82,0,0
155397,-312.5,4,1,22,82,0,0
159187,-98.0392156862745,4,1,22,82,0,0
189503,-98.0392156862745,4,1,22,82,0,0
209713,-108.695652173913,4,1,22,72,0,0
218555,-98.0392156862745,4,1,22,92,0,0
221081,-65.7894736842105,4,1,22,92,0,0
221713,-58.1395348837209,4,1,22,92,0,0
224555,-238.095238095238,4,1,22,72,0,0
224792,-238.095238095238,4,1,22,5,0,0
224871,-98.0392156862746,4,2,22,92,0,0
224950,-98.0392156862746,4,2,22,82,0,0
226055,-98.0392156862746,4,2,22,5,0,0
226134,-138.888888888889,4,2,22,82,0,0
226213,-138.888888888889,4,2,22,72,0,0
227397,-138.888888888889,4,2,22,82,0,0
227476,-138.888888888889,4,2,22,72,0,0
228581,-138.888888888889,4,2,22,5,0,0
228660,-238.095238095238,4,1,22,72,0,0
229924,-121.951219512195,4,2,22,82,0,0
232450,-98.0392156862745,4,1,22,82,0,0
234976,-89.2857142857143,4,1,22,92,0,0
245081,-89.2857142857143,4,1,22,92,0,1
252660,-89.2857142857143,4,1,22,92,0,0
265292,-98.0392156862745,4,1,22,82,0,0
273503,-70.4225352112676,4,2,22,92,0,0
275871,-98.0392156862745,4,1,22,92,0,0
275950,-98.0392156862745,4,1,22,62,0,0
276818,-98.0392156862745,4,1,22,12,0,0

[Colours]
Combo1 : 255,252,210
Combo2 : 206,45,45
Combo3 : 238,182,157

[HitObjects]
79,92,29,5,6,1:2:0:0:
102,129,108,1,0,1:2:0:0:
137,153,187,1,0,1:2:0:0:
181,161,266,1,0,1:2:0:0:
226,155,345,2,0,L|286:141,5,34.56000084375,2|0|0|0|0|0,1:2|3:2|3:2|3:2|3:2|3:2,0:0:0:0:
354,70,818,2,0,L|320:61,5,34.56000084375,2|0|0|0|0|0,3:2|3:2|3:2|3:2|3:2|3:2,0:0:0:0:
388,174,1292,2,0,L|396:222,5,34.56000084375,2|0|0|0|0|0,3:2|3:2|3:2|3:2|3:2|3:2,0:0:0:0:
286,279,1766,2,0,L|291:244,5,34.56000084375,2|0|0|0|0|0,3:2|3:2|3:2|3:2|3:2|3:2,0:0:0:0:
367,162,2239,2,0,L|375:210,3,34.56000084375,2|0|0|0,3:2|3:2|3:2|3:2,0:0:0:0:
323,56,2555,5,6,1:2:0:0:
281,37,2634,1,0,1:2:0:0:
237,40,2713,1,0,1:2:0:0:
196,61,2792,1,0,1:2:0:0:
171,96,2871,2,0,L|114:88,5,34.56000084375,2|0|0|0|0|0,1:2|3:2|3:2|3:2|3:2|3:2,0:0:0:0:
201,225,3345,2,0,L|264:214,5,34.56000084375,2|0|0|0|0|0,1:2|3:2|3:2|3:2|3:2|3:2,0:0:0:0:
83,158,3818,2,0,L|75:209,5,34.56000084375,2|0|0|0|0|0,3:2|3:2|3:2|3:2|3:2|3:2,0:0:0:0:
131,309,4292,2,0,L|125:274,5,34.56000084375,2|0|0|0|0|0,3:2|3:2|3:2|3:2|3:2|3:2,0:0:0:0:
42,210,4766,2,0,L|47:175,3,34.56000084375,2|0|0|0,3:2|3:2|3:2|3:2,0:0:0:0:
86,72,5081,5,6,1:2:0:0:
117,31,5160,1,0,1:2:0:0:
162,14,5239,1,0,1:2:0:0:
211,14,5318,1,0,1:2:0:0:
257,34,5397,2,0,L|265:96,5,34.56000084375,2|0|0|0|0|0,1:2|3:2|3:2|3:2|3:2|3:2,0:0:0:0:
391,127,5871,2,0,L|397:93,3,34.56000084375,2|0|0|0,1:2|3:2|3:2|3:2,0:0:0:0:
270,188,6187,2,0,L|279:236,1,34.56000084375,0|0,1:2|3:2,0:0:0:0:
414,143,6345,2,0,L|420:109,5,34.56000084375,2|0|0|0|0|0,1:2|3:2|3:2|3:2|3:2|3:2,0:0:0:0:
257,213,6818,2,0,L|266:261,3,34.56000084375,2|0|0|0,1:2|3:2|3:2|3:2,0:0:0:0:
393,262,7134,2,0,L|383:310,1,34.56000084375,0|0,1:2|3:2,0:0:0:0:
243,244,7292,2,0,L|252:292,3,34.56000084375,2|0|0|0,1:2|3:2|3:2|3:2,0:0:0:0:
164,374,7608,5,6,0:2:0:0:
118,362,7687,1,0,0:2:0:0:
82,333,7766,1,8,0:2:0:0:
63,292,7845,1,8,0:2:0:0:
64,246,7924,2,0,L|72:176,1,39.3600006005859,10|0,0:2|0:2,0:0:0:0:
223,114,8081,2,0,L|228:152,1,39.3600006005859,0|0,0:2|0:2,0:0:0:0:
30,142,8239,2,0,L|35:103,1,39.3600006005859,0|0,0:2|0:2,0:0:0:0:
208,17,8397,1,10,0:2:0:0:
208,17,8476,1,8,0:2:0:0:
208,17,8555,2,0,L|266:24,3,39.3600006005859,0|0|0|0,0:2|0:2|0:2|0:2,0:0:0:0:
151,237,8871,5,10,0:3:0:0:
197,253,8950,1,8,0:3:0:0:
248,248,9029,1,8,0:3:0:0:
292,222,9108,1,8,0:3:0:0:
320,181,9187,1,4,0:3:0:0:
347,140,9266,1,4,0:3:0:0:
391,115,9345,1,4,0:3:0:0:
440,110,9424,1,4,0:3:0:0:
489,127,9503,2,0,B|451:207|504:188|459:271,1,141.119995693359,6|0,1:2|0:2,0:0:0:0:
300,344,10134,5,4,0:2:0:0:
259,359,10213,1,0,0:2:0:0:
216,349,10292,1,0,0:2:0:0:
185,319,10371,1,0,0:2:0:0:
176,276,10450,1,10,0:2:0:0:
193,240,10529,1,0,0:2:0:0:
221,212,10608,1,0,0:2:0:0:
259,199,10687,1,0,0:2:0:0:
288,172,10766,1,8,0:2:0:0:
302,134,10845,1,0,0:2:0:0:
301,94,10924,1,2,0:2:0:0:
286,52,11003,1,0,0:2:0:0:
256,20,11081,1,8,0:2:0:0:
216,3,11160,1,0,0:2:0:0:
172,4,11239,1,0,0:2:0:0:
132,22,11318,1,0,0:2:0:0:
99,61,11397,5,10,0:2:0:0:
133,88,11476,1,0,0:2:0:0:
173,106,11555,1,0,0:2:0:0:
216,114,11634,1,0,0:2:0:0:
260,109,11713,1,8,0:2:0:0:
301,94,11792,1,0,0:2:0:0:
335,67,11871,1,2,0:2:0:0:
377,55,11950,1,0,0:2:0:0:
420,60,12029,1,8,0:2:0:0:
459,81,12108,1,0,0:2:0:0:
486,115,12187,1,0,0:2:0:0:
498,158,12266,1,0,0:2:0:0:
494,201,12345,1,10,0:2:0:0:
473,240,12424,1,0,0:2:0:0:
439,268,12503,1,0,0:2:0:0:
397,280,12581,1,0,0:2:0:0:
353,276,12660,6,0,L|343:211,3,44.1599985175782,8|0|0|0,0:2|0:2|0:2|0:2,0:0:0:0:
227,330,12976,1,10,0:2:0:0:
201,294,13055,1,0,0:2:0:0:
189,252,13134,1,0,0:2:0:0:
193,208,13213,1,0,0:2:0:0:
211,168,13292,1,8,0:2:0:0:
242,137,13371,1,0,0:2:0:0:
251,97,13450,1,2,0:2:0:0:
237,55,13529,1,0,0:2:0:0:
205,26,13608,1,8,0:2:0:0:
162,16,13687,1,0,0:2:0:0:
120,28,13766,1,0,0:2:0:0:
90,59,13845,1,0,0:2:0:0:
80,99,13924,5,10,0:2:0:0:
94,141,14003,1,0,0:2:0:0:
126,170,14081,1,0,0:2:0:0:
169,180,14160,1,0,0:2:0:0:
211,168,14239,1,8,0:2:0:0:
241,137,14318,1,0,0:2:0:0:
282,120,14397,1,2,0:2:0:0:
325,115,14476,1,0,0:2:0:0:
367,127,14555,1,8,0:2:0:0:
401,155,14634,1,0,0:2:0:0:
421,194,14713,1,0,0:2:0:0:
424,238,14792,1,0,0:2:0:0:
409,279,14871,1,10,0:2:0:0:
379,312,14950,1,0,0:2:0:0:
339,330,15029,1,0,0:2:0:0:
295,330,15108,1,0,0:2:0:0:
258,306,15187,5,12,0:2:0:0:
229,272,15266,1,0,0:2:0:0:
189,256,15345,1,0,0:2:0:0:
145,264,15424,1,0,0:2:0:0:
109,290,15503,1,10,0:2:0:0:
145,311,15581,1,0,0:2:0:0:
188,311,15660,1,0,0:2:0:0:
229,295,15739,1,0,0:2:0:0:
260,264,15818,1,8,0:2:0:0:
277,223,15897,1,0,0:2:0:0:
277,180,15976,1,2,0:2:0:0:
260,138,16055,1,0,0:2:0:0:
228,108,16134,1,8,0:2:0:0:
184,110,16213,1,0,0:2:0:0:
151,138,16292,1,0,0:2:0:0:
149,182,16371,1,0,0:2:0:0:
175,218,16450,5,10,0:2:0:0:
201,183,16529,1,0,0:2:0:0:
212,140,16608,1,0,0:2:0:0:
204,97,16687,1,0,0:2:0:0:
179,61,16766,1,8,0:2:0:0:
142,37,16845,1,0,0:2:0:0:
99,31,16924,1,2,0:2:0:0:
57,43,17003,1,0,0:2:0:0:
23,70,17081,1,8,0:2:0:0:
21,114,17160,1,0,0:2:0:0:
18,158,17239,1,0,0:2:0:0:
16,202,17318,1,0,0:2:0:0:
52,226,17397,1,10,0:2:0:0:
54,270,17476,1,0,0:2:0:0:
57,314,17555,1,0,0:2:0:0:
59,358,17634,1,0,0:2:0:0:
94,384,17713,6,0,L|137:374,3,44.1599985175782,12|0|0|0,0:2|0:2|0:2|0:2,0:0:0:0:
160,239,18029,1,10,0:2:0:0:
187,204,18108,1,0,0:2:0:0:
225,183,18187,1,0,0:2:0:0:
269,177,18266,1,0,0:2:0:0:
311,189,18345,1,8,0:3:0:0:
105,128,18503,1,8,0:3:0:0:
383,46,18660,1,8,0:2:0:0:
261,302,18818,1,8,0:2:0:0:
296,0,18976,6,0,L|313:152,1,117.119995174805,6|0,1:2|0:2,0:0:0:0:
200,68,19213,2,0,L|186:184,1,117.119995174805,6|0,1:2|0:2,0:0:0:0:
269,249,19450,1,2,1:2:0:0:
269,249,19529,1,0,1:2:0:0:
269,249,19608,2,0,P|325:197|453:214,1,175.679992762207,14|0,0:2|0:2,0:0:0:0:
468,257,19924,6,0,P|457:306|455:351,1,89.279996458008,2|0,0:2|0:2,0:0:0:0:
345,330,20239,5,6,0:2:0:0:
307,298,20318,1,0,0:2:0:0:
264,276,20397,1,8,0:2:0:0:
216,264,20476,1,0,0:2:0:0:
168,265,20555,1,0,0:2:0:0:
120,277,20634,1,0,0:2:0:0:
77,299,20713,2,0,L|58:231,1,48.9600002988281,10|0,0:2|0:2,0:0:0:0:
260,132,20871,2,0,L|246:179,1,48.9600002988281,2|0,0:2|0:2,0:0:0:0:
88,79,21029,1,10,0:2:0:0:
88,79,21108,1,2,0:2:0:0:
88,79,21187,2,0,L|68:10,1,48.9600002988281,2|0,0:2|0:2,0:0:0:0:
291,114,21345,2,0,L|277:161,1,48.9600002988281,10|0,0:2|0:2,0:0:0:0:
39,230,21503,5,2,0:2:0:0:
70,193,21581,1,0,0:2:0:0:
116,177,21660,1,8,0:2:0:0:
164,187,21739,1,0,0:2:0:0:
200,219,21818,1,0,0:2:0:0:
216,264,21897,1,0,0:2:0:0:
206,312,21976,2,0,P|143:334|123:331,1,48.9600002988281,10|0,0:2|0:2,0:0:0:0:
277,161,22134,2,0,P|300:168|320:181,1,48.9600002988281,2|0,0:2|0:2,0:0:0:0:
123,260,22292,2,0,P|105:203|106:189,1,48.9600002988281,10|0,0:2|0:2,0:0:0:0:
193,58,22450,2,0,P|211:115|210:129,1,48.9600002988281,2|0,0:2|0:2,0:0:0:0:
99,258,22608,2,0,P|81:201|82:187,1,48.9600002988281,10|0,0:2|0:2,0:0:0:0:
330,77,22766,5,2,0:2:0:0:
376,89,22845,1,0,0:2:0:0:
415,119,22924,1,8,0:2:0:0:
438,162,23003,1,0,0:2:0:0:
445,210,23081,1,0,0:2:0:0:
433,257,23160,1,0,0:2:0:0:
403,295,23239,2,0,P|369:297|325:274,1,48.9600002988281,10|0,0:2|0:2,0:0:0:0:
277,161,23397,2,0,P|242:159|198:182,1,48.9600002988281,2|0,0:2|0:2,0:0:0:0:
138,304,23555,1,10,0:2:0:0:
89,304,23634,1,0,0:2:0:0:
48,278,23713,1,0,0:2:0:0:
28,234,23792,1,0,0:2:0:0:
35,187,23871,2,0,P|48:126|45:108,1,48.9600002988281,10|0,0:2|0:2,0:0:0:0:
167,46,24029,5,2,0:2:0:0:
203,78,24108,1,0,0:2:0:0:
247,99,24187,1,8,0:2:0:0:
295,108,24266,1,0,0:2:0:0:
344,105,24345,1,0,0:2:0:0:
390,89,24424,1,0,0:2:0:0:
423,59,24503,2,0,L|434:132,1,48.9600002988281,10|0,0:2|0:2,0:0:0:0:
478,290,24660,5,2,0:3:0:0:
442,258,24739,1,0,0:3:0:0:
398,237,24818,1,8,0:3:0:0:
350,228,24897,1,8,0:3:0:0:
301,231,24976,1,4,0:3:0:0:
255,247,25055,1,4,0:3:0:0:
222,277,25134,2,0,L|230:351,1,48.9600002988281,10|0,0:2|0:2,0:0:0:0:
89,241,25292,5,6,0:2:0:0:
64,197,25371,1,0,0:2:0:0:
61,148,25450,1,8,0:2:0:0:
77,103,25529,1,0,0:2:0:0:
110,68,25608,1,0,0:2:0:0:
155,48,25687,1,0,0:2:0:0:
203,50,25766,2,0,L|272:68,1,48.9600002988281,10|0,0:2|0:2,0:0:0:0:
320,219,25924,2,0,L|368:207,1,48.9600002988281,2|0,0:2|0:2,0:0:0:0:
157,155,26081,1,10,0:2:0:0:
157,155,26160,1,2,0:2:0:0:
157,155,26239,2,0,L|166:216,1,48.9600002988281,2|0,0:2|0:2,0:0:0:0:
330,128,26397,2,0,L|337:79,1,48.9600002988281,10|0,0:2|0:2,0:0:0:0:
173,279,26555,5,2,0:2:0:0:
193,322,26634,1,0,0:2:0:0:
229,355,26713,1,8,0:2:0:0:
273,375,26792,1,0,0:2:0:0:
322,377,26871,1,0,0:2:0:0:
368,363,26950,1,0,0:2:0:0:
408,335,27029,2,0,P|408:280|410:262,1,48.9600002988281,10|0,0:2|0:2,0:0:0:0:
260,183,27187,2,0,P|263:207|265:231,3,48.9600002988281,2|0|8|0,0:2|0:2|0:2|0:2,0:0:0:0:
331,112,27503,2,0,P|381:94|394:96,1,48.9600002988281,2|0,0:2|0:2,0:0:0:0:
168,185,27660,2,0,P|144:180|123:166,1,48.9600002988281,10|0,0:2|0:2,0:0:0:0:
429,177,27818,5,6,0:2:0:0:
456,136,27897,1,0,0:2:0:0:
460,88,27976,1,8,0:2:0:0:
441,44,28055,1,0,0:2:0:0:
403,14,28134,1,0,0:2:0:0:
355,7,28213,1,0,0:2:0:0:
309,24,28292,2,0,P|255:47|226:45,1,48.9600002988281,10|8,0:3|0:3,0:0:0:0:
65,56,28450,6,0,P|136:91|160:188,1,136.319993135743,12|0,1:3|0:2,0:0:0:0:
275,126,28687,2,0,P|300:200|248:286,1,136.319993135743,8|0,1:3|0:2,0:0:0:0:
378,335,28924,2,0,P|324:381|318:382,1,68.1599965678713,8|0,1:3|0:2,0:0:0:0:
193,312,29081,6,0,P|130:289|85:291,1,88.3199970351563,6|8,0:2|0:2,0:0:0:0:
216,191,29397,1,0,0:2:0:0:
38,352,29555,2,0,P|22:279|8:238,1,88.3199970351563,10|0,0:2|0:2,0:0:0:0:
146,113,29871,2,0,P|134:155|125:198,1,88.3199970351563,10|0,0:2|0:2,0:0:0:0:
134,238,30108,1,0,0:2:0:0:
134,238,30187,1,10,0:2:0:0:
53,61,30345,1,2,0:2:0:0:
216,191,30503,2,0,P|289:163|328:160,1,88.3199970351563,10|0,0:2|0:2,0:0:0:0:
106,315,30818,1,10,0:2:0:0:
277,70,30976,2,0,P|319:80|359:99,1,88.3199970351563,2|8,0:2|0:2,0:0:0:0:
432,135,31213,2,0,P|437:77|440:64,2,44.1599985175782,2|0|0,0:2|0:2|0:2,0:0:0:0:
392,207,31450,1,10,0:2:0:0:
193,15,31608,6,0,P|183:91|172:128,1,88.3199970351563,2|8,0:2|0:2,0:0:0:0:
269,268,31924,1,2,0:2:0:0:
89,82,32081,2,0,P|92:125|101:169,1,88.3199970351563,10|0,0:2|0:2,0:0:0:0:
343,225,32397,2,0,P|352:181|355:137,1,88.3199970351563,10|0,0:2|0:2,0:0:0:0:
339,105,32634,1,0,0:2:0:0:
339,105,32713,1,10,0:2:0:0:
189,308,32871,5,2,0:2:0:0:
261,146,33029,2,0,P|251:102|248:58,1,88.3199970351563,10|0,0:2|0:2,0:0:0:0:
344,309,33345,1,10,0:2:0:0:
152,202,33503,2,0,P|161:158|164:114,1,88.3199970351563,2|8,0:2|0:2,0:0:0:0:
124,36,33739,1,10,0:2:0:0:
80,42,33818,1,8,0:2:0:0:
45,68,33897,1,8,0:2:0:0:
24,106,33976,1,10,0:2:0:0:
22,150,34055,1,8,0:2:0:0:
40,190,34134,6,0,P|60:251|64:303,1,88.3199970351563,6|8,0:2|0:2,0:0:0:0:
185,93,34450,1,2,0:2:0:0:
145,321,34608,2,0,P|152:277|167:236,1,88.3199970351563,10|0,0:2|0:2,0:0:0:0:
256,31,34924,2,0,P|271:72|278:115,1,88.3199970351563,8|0,0:2|0:2,0:0:0:0:
274,155,35160,1,0,0:2:0:0:
274,155,35239,1,8,0:2:0:0:
374,318,35397,6,0,P|437:295|476:292,1,88.3199970351563,2|8,0:2|0:2,0:0:0:0:
221,223,35713,1,2,0:2:0:0:
512,214,35871,2,0,P|468:205|428:188,1,88.3199970351563,10|0,0:2|0:2,0:0:0:0:
183,317,36187,2,0,P|226:308|266:291,1,88.3199970351563,8|0,0:2|0:2,0:0:0:0:
292,264,36424,1,0,0:2:0:0:
292,264,36503,1,8,0:2:0:0:
156,89,36660,2,0,P|152:154|143:197,1,88.3199970351563,2|8,0:2|0:2,0:0:0:0:
267,26,36976,1,2,0:2:0:0:
58,139,37134,2,0,P|51:95|49:51,1,88.3199970351563,10|0,0:2|0:2,0:0:0:0:
253,167,37450,2,0,P|320:147|367:142,1,88.3199970351563,10|0,0:2|0:2,0:0:0:0:
377,160,37687,1,0,0:2:0:0:
377,160,37766,1,10,0:2:0:0:
167,308,37924,6,0,P|123:299|81:285,1,88.3199970351563,2|8,0:2|0:2,0:0:0:0:
202,90,38239,1,2,0:2:0:0:
354,257,38397,2,0,P|397:248|439:234,1,88.3199970351563,10|0,0:2|0:2,0:0:0:0:
238,29,38713,1,8,0:2:0:0:
228,71,38792,1,8,0:2:0:0:
234,115,38871,1,8,0:2:0:0:
257,152,38950,1,8,0:2:0:0:
278,190,39029,1,8,0:2:0:0:
284,234,39108,1,8,0:2:0:0:
275,276,39187,6,0,P|212:256|163:257,1,88.3199970351563,6|8,0:2|0:2,0:0:0:0:
313,76,39503,1,0,0:2:0:0:
343,342,39660,2,0,P|280:362|231:361,1,88.3199970351563,10|0,0:2|0:2,0:0:0:0:
149,93,39976,2,0,P|192:98|233:114,1,88.3199970351563,10|0,0:2|0:2,0:0:0:0:
256,146,40213,1,0,0:2:0:0:
256,146,40292,1,10,0:2:0:0:
117,273,40450,1,2,0:2:0:0:
333,107,40608,2,0,P|343:202|349:232,1,88.3199970351563,10|0,0:2|0:2,0:0:0:0:
213,361,40924,1,10,0:2:0:0:
439,159,41081,2,0,P|436:203|430:246,1,88.3199970351563,2|8,0:2|0:2,0:0:0:0:
421,325,41318,2,0,L|486:311,2,44.1599985175782,2|0|0,0:2|0:2|0:2,0:0:0:0:
351,262,41555,1,10,0:2:0:0:
126,359,41713,6,0,P|124:315|116:272,1,88.3199970351563,2|8,0:2|0:2,0:0:0:0:
218,88,42029,1,2,0:2:0:0:
22,281,42187,2,0,P|23:236|31:193,1,88.3199970351563,10|0,0:2|0:2,0:0:0:0:
247,330,42503,2,0,P|297:314|331:288,1,88.3199970351563,10|0,0:2|0:2,0:0:0:0:
335,262,42739,1,0,0:2:0:0:
335,262,42818,1,10,0:2:0:0:
146,203,42976,5,2,0:2:0:0:
358,139,43134,1,10,0:2:0:0:
148,303,43292,1,0,0:2:0:0:
433,296,43450,1,10,0:2:0:0:
175,215,43608,1,2,0:2:0:0:
405,230,43766,1,8,0:2:0:0:
405,230,43845,1,10,0:2:0:0:
405,230,43924,1,8,0:2:0:0:
437,200,44003,1,8,0:2:0:0:
452,158,44081,1,10,0:2:0:0:
447,115,44160,1,8,0:2:0:0:
423,78,44239,6,0,P|362:62|325:68,1,88.3199970351563,6|8,0:2|0:2,0:0:0:0:
220,277,44555,1,2,0:2:0:0:
274,27,44713,2,0,P|292:98|297:137,1,88.3199970351563,10|0,0:2|0:2,0:0:0:0:
137,297,45029,2,0,P|145:253|157:211,1,88.3199970351563,8|0,0:2|0:2,0:0:0:0:
148,179,45266,1,0,0:2:0:0:
148,179,45345,1,8,0:2:0:0:
340,353,45503,2,0,P|411:332|439:304,1,88.3199970351563,2|8,0:2|0:2,0:0:0:0:
305,134,45818,1,2,0:2:0:0:
160,384,45976,2,0,P|89:363|61:335,1,88.3199970351563,10|0,0:2|0:2,0:0:0:0:
206,88,46292,2,0,P|233:186|233:205,1,88.3199970351563,8|0,0:2|0:2,0:0:0:0:
229,209,46529,1,0,0:2:0:0:
229,209,46608,1,8,0:2:0:0:
338,36,46766,6,0,P|396:17|441:21,1,88.3199970351563,2|8,0:2|0:2,0:0:0:0:
308,251,47081,1,2,0:2:0:0:
260,22,47239,2,0,P|202:3|157:7,1,88.3199970351563,10|0,0:2|0:2,0:0:0:0:
144,227,47555,2,0,P|187:224|228:208,1,88.3199970351563,10|0,0:2|0:2,0:0:0:0:
256,176,47792,1,0,0:2:0:0:
256,176,47871,1,10,0:2:0:0:
33,64,48029,2,0,P|30:125|20:172,1,88.3199970351563,2|8,0:2|0:2,0:0:0:0:
81,321,48345,1,2,0:2:0:0:
158,47,48503,2,0,P|159:91|165:134,1,88.3199970351563,10|0,0:2|0:2,0:0:0:0:
268,311,48818,1,8,0:2:0:0:
268,311,48897,1,8,0:2:0:0:
268,311,48976,2,0,L|329:298,1,44.1599985175782,8|8,0:2|0:2,0:0:0:0:
134,212,49134,2,0,L|90:202,1,44.1599985175782,8|8,0:2|0:2,0:0:0:0:
246,67,49292,6,0,P|305:45|346:49,1,88.3199970351563,4|8,0:2|0:2,0:0:0:0:
410,252,49608,2,0,B|295:269|361:194|206:219,1,176.639994070313,2|0,0:2|0:2,0:0:0:0:
385,164,50081,1,8,0:2:0:0:
187,281,50239,1,2,0:2:0:0:
187,281,50318,1,0,0:2:0:0:
187,281,50397,1,8,0:2:0:0:
283,47,50555,2,0,P|300:122|300:165,1,88.3199970351563,2|8,0:2|0:2,0:0:0:0:
113,238,50871,2,0,P|96:163|96:120,1,88.3199970351563,0|8,0:2|0:2,0:0:0:0:
305,213,51187,1,0,0:2:0:0:
57,87,51345,2,0,P|51:130|39:173,1,88.3199970351563,10|0,0:2|0:2,0:0:0:0:
28,217,51581,1,0,0:2:0:0:
28,217,51660,1,8,0:2:0:0:
160,57,51818,5,6,0:2:0:0:
194,30,51897,1,0,0:2:0:0:
237,23,51976,1,8,0:2:0:0:
279,37,52055,1,0,0:2:0:0:
309,68,52134,1,0,0:2:0:0:
339,99,52213,1,0,0:2:0:0:
380,113,52292,1,8,0:2:0:0:
423,105,52371,1,0,0:2:0:0:
458,79,52450,2,0,P|447:25|442:16,1,44.1599985175782,2|0,0:2|0:2,0:0:0:0:
233,118,52608,2,0,P|244:172|249:181,1,44.1599985175782,8|0,0:2|0:2,0:0:0:0:
491,209,52766,2,0,P|480:155|475:146,1,44.1599985175782,2|0,0:2|0:2,0:0:0:0:
266,248,52924,2,0,P|277:302|282:311,1,44.1599985175782,8|0,0:2|0:2,0:0:0:0:
380,113,53081,5,2,0:2:0:0:
178,238,53239,1,8,0:2:0:0:
134,240,53318,1,0,0:2:0:0:
93,224,53397,1,0,0:2:0:0:
63,192,53476,1,0,0:2:0:0:
49,150,53555,1,8,0:2:0:0:
209,16,53713,1,0,0:2:0:0:
347,205,53871,1,8,0:2:0:0:
390,207,53950,1,0,0:2:0:0:
431,191,54029,1,2,0:2:0:0:
461,159,54108,1,0,0:2:0:0:
475,117,54187,1,8,0:2:0:0:
466,73,54266,1,0,0:2:0:0:
438,39,54345,5,6,0:2:0:0:
368,286,54503,1,8,0:2:0:0:
293,88,54660,1,0,0:2:0:0:
229,337,54818,1,8,0:2:0:0:
384,118,54976,1,0,0:2:0:0:
143,191,55134,1,8,0:2:0:0:
397,302,55292,1,2,0:2:0:0:
397,302,55371,1,0,0:2:0:0:
397,302,55450,1,8,0:2:0:0:
216,60,55608,5,2,0:2:0:0:
388,203,55766,1,8,0:2:0:0:
93,254,55924,1,0,0:2:0:0:
93,254,56003,1,0,0:2:0:0:
93,254,56081,1,8,0:2:0:0:
384,118,56239,1,0,0:2:0:0:
213,332,56397,1,8,0:2:0:0:
197,108,56555,1,2,0:2:0:0:
195,90,56634,1,0,0:2:0:0:
193,72,56713,1,8,0:2:0:0:
192,55,56792,1,0,0:2:0:0:
190,37,56871,5,6,0:2:0:0:
233,33,56950,1,0,0:2:0:0:
274,48,57029,1,0,0:2:0:0:
305,79,57108,1,0,0:2:0:0:
321,120,57187,1,8,0:2:0:0:
336,161,57266,1,0,0:2:0:0:
367,192,57345,1,0,0:2:0:0:
409,208,57424,1,0,0:2:0:0:
452,202,57503,1,8,0:2:0:0:
487,177,57581,1,0,0:2:0:0:
497,134,57660,1,0,0:2:0:0:
479,93,57739,1,0,0:2:0:0:
438,75,57818,1,8,0:2:0:0:
395,86,57897,1,0,0:2:0:0:
373,124,57976,1,0,0:2:0:0:
371,168,58055,1,0,0:2:0:0:
409,208,58134,5,10,0:2:0:0:
437,259,58213,1,0,0:2:0:0:
416,313,58292,1,0,0:2:0:0:
366,344,58371,1,0,0:2:0:0:
307,341,58450,1,8,0:2:0:0:
271,293,58529,1,0,0:2:0:0:
275,234,58608,1,2,0:2:0:0:
295,179,58687,1,0,0:2:0:0:
279,122,58766,1,8,0:2:0:0:
132,323,58924,1,8,0:2:0:0:
132,323,59003,1,8,0:2:0:0:
132,323,59081,1,10,0:2:0:0:
215,61,59239,1,8,0:2:0:0:
215,61,59318,1,8,0:2:0:0:
215,61,59397,1,14,0:2:0:0:
353,257,59713,5,0,0:2:0:0:
195,172,59871,1,0,0:2:0:0:
428,98,60029,1,8,0:2:0:0:
142,232,60187,1,8,0:2:0:0:
486,326,60345,1,8,0:2:0:0:
123,128,60503,1,8,0:2:0:0:
476,21,60660,5,4,0:2:0:0:
275,214,60818,1,4,0:3:0:0:
275,214,60897,1,4,0:3:0:0:
275,214,60976,2,0,L|264:152,3,48.9600002988281,4|0|0|0,0:3|0:2|0:2|0:2,0:0:0:0:
392,146,61292,1,8,0:2:0:0:
393,170,61371,1,8,0:2:0:0:
395,194,61450,1,8,0:2:0:0:
396,219,61529,1,8,0:2:0:0:
398,243,61608,1,10,0:2:0:0:
399,268,61687,1,8,0:2:0:0:
401,292,61766,1,8,0:2:0:0:
402,317,61845,1,8,0:2:0:0:
404,341,61924,5,6,0:2:0:0:
360,280,62003,1,0,0:2:0:0:
291,249,62081,1,8,0:2:0:0:
215,249,62160,1,0,0:2:0:0:
157,297,62239,1,0,0:2:0:0:
83,284,62318,1,0,0:2:0:0:
28,235,62397,1,8,0:2:0:0:
6,164,62476,1,0,0:2:0:0:
25,92,62555,1,0,0:2:0:0:
80,41,62634,1,0,0:2:0:0:
152,26,62713,1,8,0:2:0:0:
222,52,62792,1,0,0:2:0:0:
267,113,62871,1,2,0:2:0:0:
336,143,62950,1,0,0:2:0:0:
411,140,63029,1,8,0:2:0:0:
473,97,63108,1,0,0:2:0:0:
480,22,63187,6,0,L|411:8,3,53.76000065625,2|0|8|0,0:2|0:2|0:2|0:2,0:0:0:0:
452,219,63503,2,0,L|504:208,3,53.76000065625,2|0|8|0,0:2|0:2|0:2|0:2,0:0:0:0:
301,79,63818,2,0,L|248:89,3,53.76000065625,2|0|8|0,0:2|0:2|0:2|0:2,0:0:0:0:
207,236,64134,2,0,L|259:246,3,53.76000065625,2|0|8|0,0:2|0:2|0:2|0:2,0:0:0:0:
173,10,64450,5,2,0:2:0:0:
130,42,64529,1,0,0:2:0:0:
108,90,64608,1,8,0:2:0:0:
112,143,64687,1,0,0:2:0:0:
140,189,64766,1,2,0:2:0:0:
168,234,64845,1,0,0:2:0:0:
171,287,64924,1,10,0:2:0:0:
149,335,65003,1,0,0:2:0:0:
107,368,65081,1,0,0:2:0:0:
61,338,65160,1,0,0:2:0:0:
56,284,65239,1,8,0:2:0:0:
97,249,65318,1,0,0:2:0:0:
150,254,65397,1,0,0:2:0:0:
183,295,65476,1,0,0:2:0:0:
233,313,65555,1,8,0:2:0:0:
286,305,65634,1,0,0:2:0:0:
330,274,65713,6,0,P|346:219|346:202,3,53.76000065625,0|0|8|0,0:2|0:2|0:2|0:2,0:0:0:0:
239,140,66029,2,0,P|228:164|223:191,3,53.76000065625,0|0|8|0,0:2|0:2|0:2|0:2,0:0:0:0:
361,268,66345,2,0,P|377:213|377:196,3,53.76000065625,0|0|8|0,0:2|0:2|0:2|0:2,0:0:0:0:
320,113,66660,1,2,0:2:0:0:
317,97,66739,1,0,0:2:0:0:
315,81,66818,1,8,0:2:0:0:
313,65,66897,1,0,0:2:0:0:
311,49,66976,5,6,0:2:0:0:
245,10,67055,1,0,0:2:0:0:
172,30,67134,1,8,0:2:0:0:
131,93,67213,1,0,0:2:0:0:
144,167,67292,1,0,0:2:0:0:
202,215,67371,1,0,0:2:0:0:
277,211,67450,1,8,0:2:0:0:
343,174,67529,1,0,0:2:0:0:
418,174,67608,1,0,0:2:0:0:
477,217,67687,1,0,0:2:0:0:
491,290,67766,1,8,0:2:0:0:
454,353,67845,1,0,0:2:0:0:
384,375,67924,1,2,0:2:0:0:
317,345,68003,1,0,0:2:0:0:
311,271,68081,1,8,0:2:0:0:
379,238,68160,1,0,0:2:0:0:
436,286,68239,6,0,L|428:349,3,53.76000065625,2|0|8|0,0:2|0:2|0:2|0:2,0:0:0:0:
243,367,68555,2,0,L|236:313,3,53.76000065625,2|0|8|0,0:2|0:2|0:2|0:2,0:0:0:0:
364,206,68871,2,0,L|371:153,3,53.76000065625,2|0|8|0,0:2|0:2|0:2|0:2,0:0:0:0:
171,180,69187,2,0,L|178:234,3,53.76000065625,2|0|8|0,0:2|0:2|0:2|0:2,0:0:0:0:
466,112,69503,5,6,0:2:0:0:
433,69,69581,1,0,0:2:0:0:
385,47,69660,1,8,0:2:0:0:
332,51,69739,1,0,0:2:0:0:
287,80,69818,1,2,0:2:0:0:
254,122,69897,1,0,0:2:0:0:
206,144,69976,1,10,0:2:0:0:
153,140,70055,1,0,0:2:0:0:
108,111,70134,1,0,0:2:0:0:
102,56,70213,1,0,0:2:0:0:
138,16,70292,1,8,0:2:0:0:
191,18,70371,1,0,0:2:0:0:
226,58,70450,1,0,0:2:0:0:
225,111,70529,1,0,0:2:0:0:
221,164,70608,1,8,0:2:0:0:
215,217,70687,1,0,0:2:0:0:
211,270,70766,6,0,L|136:279,3,53.76000065625,4|4|4|4,0:3|0:3|0:3|0:3,0:3:0:0:
325,355,71081,2,0,L|378:361,3,53.76000065625,4|4|4|4,0:3|0:3|0:3|0:3,0:3:0:0:
81,358,71397,1,4,0:3:0:0:
79,336,71476,1,4,0:3:0:0:
77,315,71555,1,4,0:3:0:0:
75,293,71634,1,4,0:3:0:0:
74,271,71713,2,0,L|65:184,1,53.76000065625,10|8,0:2|0:2,0:0:0:0:
209,56,71871,2,0,L|203:109,1,53.76000065625,8|8,0:2|0:2,0:0:0:0:
184,320,72029,5,6,0:2:0:0:
241,367,72108,1,0,0:2:0:0:
314,384,72187,1,8,0:2:0:0:
387,368,72266,1,0,0:2:0:0:
445,322,72345,1,0,0:2:0:0:
478,255,72424,1,0,0:2:0:0:
478,181,72503,1,8,0:2:0:0:
446,113,72581,1,0,0:2:0:0:
388,67,72660,1,0,0:2:0:0:
315,51,72739,1,0,0:2:0:0:
242,68,72818,1,8,0:2:0:0:
184,115,72897,1,0,0:2:0:0:
175,189,72976,1,2,0:2:0:0:
224,241,73055,1,0,0:2:0:0:
295,229,73134,1,8,0:2:0:0:
323,163,73213,1,0,0:2:0:0:
284,103,73292,6,0,L|209:94,3,53.76000065625,2|0|8|0,0:2|0:2|0:2|0:2,0:0:0:0:
374,232,73608,2,0,L|427:225,3,53.76000065625,2|0|8|0,0:2|0:2|0:2|0:2,0:0:0:0:
226,304,73924,2,0,L|216:365,3,53.76000065625,2|0|8|0,0:2|0:2|0:2|0:2,0:0:0:0:
398,371,74239,2,0,L|389:317,3,53.76000065625,2|0|8|0,0:2|0:2|0:2|0:2,0:0:0:0:
263,199,74555,5,2,0:2:0:0:
219,168,74634,1,0,0:2:0:0:
166,162,74713,1,8,0:2:0:0:
117,183,74792,1,0,0:2:0:0:
84,224,74871,1,2,0:2:0:0:
137,224,74950,1,0,0:2:0:0:
180,194,75029,1,10,0:2:0:0:
199,145,75108,1,0,0:2:0:0:
186,94,75187,1,0,0:2:0:0:
147,59,75266,1,0,0:2:0:0:
94,52,75345,1,8,0:2:0:0:
47,77,75424,1,0,0:2:0:0:
23,124,75503,1,0,0:2:0:0:
74,140,75581,1,0,0:2:0:0:
128,142,75660,1,8,0:2:0:0:
180,128,75739,1,0,0:2:0:0:
226,101,75818,5,0,0:2:0:0:
270,72,75897,1,0,0:2:0:0:
323,61,75976,1,8,0:2:0:0:
375,71,76055,1,0,0:2:0:0:
420,100,76134,1,0,0:2:0:0:
451,143,76213,1,0,0:2:0:0:
464,195,76292,1,8,0:2:0:0:
456,248,76371,1,0,0:2:0:0:
430,294,76450,2,0,P|398:309|357:313,3,53.76000065625,2|0|8|0,0:2|0:2|0:2|0:2,0:0:0:0:
239,201,76766,2,0,P|265:207|289:218,3,53.76000065625,2|0|8|0,0:2|0:2|0:2|0:2,0:0:0:0:
42,290,77081,5,6,0:2:0:0:
0,228,77160,1,0,0:2:0:0:
2,154,77239,1,8,0:2:0:0:
46,94,77318,1,0,0:2:0:0:
116,71,77397,1,0,0:2:0:0:
187,90,77476,1,0,0:2:0:0:
235,148,77555,1,10,0:2:0:0:
306,167,77634,1,0,0:2:0:0:
376,144,77713,1,0,0:2:0:0:
412,83,77792,1,0,0:2:0:0:
369,27,77871,1,8,0:2:0:0:
301,47,77950,1,0,0:2:0:0:
297,123,78029,1,2,0:2:0:0:
344,181,78108,1,0,0:2:0:0:
378,247,78187,1,8,0:2:0:0:
376,322,78266,1,0,0:2:0:0:
322,374,78345,6,0,P|262:361|246:361,3,53.76000065625,2|0|8|0,0:2|0:2|0:2|0:2,0:0:0:0:
452,278,78660,2,0,P|478:273|504:265,3,53.76000065625,2|0|8|0,0:2|0:2|0:2|0:2,0:0:0:0:
285,273,78976,2,0,P|271:207|263:189,3,53.76000065625,2|0|8|0,0:2|0:2|0:2|0:2,0:0:0:0:
465,189,79292,2,0,P|458:215|455:241,3,53.76000065625,2|0|8|0,0:2|0:2|0:2|0:2,0:0:0:0:
337,58,79608,5,6,0:2:0:0:
267,30,79687,1,0,0:2:0:0:
193,38,79766,1,8,0:2:0:0:
131,80,79845,1,0,0:2:0:0:
95,145,79924,1,0,0:2:0:0:
93,220,80003,1,0,0:2:0:0:
126,286,80081,1,8,0:2:0:0:
186,331,80160,1,0,0:2:0:0:
260,342,80239,1,0,0:2:0:0:
329,316,80318,1,0,0:2:0:0:
362,250,80397,1,8,0:2:0:0:
344,179,80476,1,0,0:2:0:0:
282,139,80555,1,0,0:2:0:0:
209,151,80634,1,0,0:2:0:0:
174,218,80713,1,8,0:2:0:0:
194,290,80792,1,0,0:2:0:0:
263,318,80871,5,4,0:3:0:0:
311,298,80950,1,4,0:3:0:0:
331,249,81029,1,4,0:3:0:0:
312,201,81108,1,4,0:3:0:0:
266,180,81187,1,4,0:3:0:0:
214,202,81266,1,4,0:3:0:0:
188,249,81345,1,4,0:3:0:0:
137,266,81424,1,4,0:3:0:0:
84,253,81503,1,4,0:3:0:0:
50,212,81581,1,4,0:3:0:0:
43,159,81660,1,4,0:3:0:0:
65,111,81739,1,4,0:3:0:0:
110,83,81818,1,8,0:2:0:0:
331,249,81976,1,8,0:2:0:0:
383,245,82055,1,8,0:2:0:0:
422,209,82134,6,0,P|426:109|435:64,1,132.479995552735,4|0,0:2|0:2,0:0:0:0:
359,22,82450,1,10,0:2:0:0:
359,22,82529,1,0,0:2:0:0:
359,22,82608,2,0,P|306:38|290:39,1,44.1599985175782,0|0,0:2|0:2,0:0:0:0:
205,140,82766,1,8,0:2:0:0:
205,140,82845,1,0,0:2:0:0:
205,140,82924,2,0,P|258:124|274:123,1,44.1599985175782,2|0,0:2|0:2,0:0:0:0:
146,29,83081,1,8,0:2:0:0:
108,52,83160,1,0,0:2:0:0:
85,89,83239,1,0,0:2:0:0:
79,132,83318,1,0,0:2:0:0:
93,174,83397,5,10,0:2:0:0:
93,174,83476,1,0,0:2:0:0:
93,174,83555,2,0,P|108:225|108:245,1,44.1599985175782,0|0,0:2|0:2,0:0:0:0:
222,314,83713,1,8,0:2:0:0:
222,314,83792,1,0,0:2:0:0:
221,314,83871,2,0,P|229:293|234:272,1,44.1599985175782,2|0,0:2|0:2,0:0:0:0:
325,35,84029,1,8,0:2:0:0:
359,62,84108,1,0,0:2:0:0:
380,100,84187,1,0,0:2:0:0:
384,144,84266,1,0,0:2:0:0:
370,185,84345,1,10,0:2:0:0:
335,212,84424,1,0,0:2:0:0:
314,250,84503,1,0,0:2:0:0:
310,294,84581,1,0,0:2:0:0:
324,335,84660,6,0,P|366:324|386:320,3,44.1599985175782,12|0|0|0,0:2|0:2|0:2|0:2,0:0:0:0:
248,209,84976,1,10,0:2:0:0:
214,181,85055,1,0,0:2:0:0:
171,169,85134,1,0,0:2:0:0:
128,176,85213,1,0,0:2:0:0:
91,199,85292,1,8,0:2:0:0:
67,235,85371,1,0,0:2:0:0:
59,279,85450,1,2,0:2:0:0:
70,321,85529,1,0,0:2:0:0:
96,356,85608,1,8,0:2:0:0:
118,317,85687,1,0,0:2:0:0:
127,274,85766,1,0,0:2:0:0:
124,231,85845,1,0,0:2:0:0:
107,190,85924,5,10,0:2:0:0:
81,155,86003,1,0,0:2:0:0:
73,112,86081,1,0,0:2:0:0:
84,69,86160,1,0,0:2:0:0:
112,36,86239,1,8,0:2:0:0:
152,18,86318,1,0,0:2:0:0:
195,19,86397,1,2,0:2:0:0:
234,38,86476,1,0,0:2:0:0:
261,73,86555,1,8,0:2:0:0:
296,100,86634,1,0,0:2:0:0:
337,114,86713,1,0,0:2:0:0:
381,113,86792,1,0,0:2:0:0:
422,97,86871,1,10,0:2:0:0:
382,80,86950,1,0,0:2:0:0:
338,76,87029,1,0,0:2:0:0:
295,84,87108,1,0,0:2:0:0:
256,105,87187,6,0,P|195:127|114:124,1,132.479995552735,12|0,0:2|0:2,0:0:0:0:
45,75,87503,1,10,0:2:0:0:
45,75,87581,1,0,0:2:0:0:
45,75,87660,2,0,P|39:46|34:22,1,44.1599985175782,0|0,0:2|0:2,0:0:0:0:
80,206,87818,1,8,0:2:0:0:
80,206,87897,1,0,0:2:0:0:
80,207,87976,2,0,P|84:185|88:163,1,44.1599985175782,2|0,0:2|0:2,0:0:0:0:
38,337,88134,1,8,0:2:0:0:
69,306,88213,1,0,0:2:0:0:
109,288,88292,1,0,0:2:0:0:
153,287,88371,1,0,0:2:0:0:
194,303,88450,5,10,0:2:0:0:
227,332,88529,1,0,0:2:0:0:
268,347,88608,1,0,0:2:0:0:
312,346,88687,1,0,0:2:0:0:
353,331,88766,1,8,0:2:0:0:
386,301,88845,1,0,0:2:0:0:
406,262,88924,1,2,0:2:0:0:
412,219,89003,1,0,0:2:0:0:
401,176,89081,1,8,0:2:0:0:
401,176,89160,1,0,0:2:0:0:
401,176,89239,2,0,P|392:144|390:111,1,44.1599985175782,0|0,0:2|0:2,0:0:0:0:
268,40,89397,1,10,0:2:0:0:
268,40,89476,1,0,0:2:0:0:
268,40,89555,2,0,P|258:72|256:105,1,44.1599985175782,0|0,0:2|0:2,0:0:0:0:
246,247,89713,5,12,0:2:0:0:
217,280,89792,1,0,0:2:0:0:
178,299,89871,1,0,0:2:0:0:
134,300,89950,1,0,0:2:0:0:
94,282,90029,1,10,0:2:0:0:
65,250,90108,1,0,0:2:0:0:
51,208,90187,1,0,0:2:0:0:
57,164,90266,1,0,0:2:0:0:
80,127,90345,1,8,0:3:0:0:
325,296,90503,1,8,0:3:0:0:
203,26,90660,1,8,0:2:0:0:
84,365,90818,1,8,0:2:0:0:
353,60,90976,5,14,1:2:0:0:
426,55,91055,1,0,1:2:0:0:
482,102,91134,1,0,1:2:0:0:
490,175,91213,1,0,1:2:0:0:
445,233,91292,2,0,P|398:258|366:255,1,53.76000065625,0|0,1:2|1:2,0:0:0:0:
211,84,91450,5,14,1:2:0:0:
138,79,91529,1,0,1:2:0:0:
82,126,91608,1,0,1:2:0:0:
74,199,91687,1,0,1:2:0:0:
119,257,91766,2,0,P|165:282|197:279,1,53.76000065625,0|0,1:2|1:2,0:0:0:0:
290,168,91924,5,14,1:2:0:0:
363,163,92003,1,8,1:2:0:0:
419,210,92081,1,8,1:2:0:0:
427,283,92160,1,8,1:2:0:0:
379,342,92239,6,0,B|216:381|289:278|137:319,1,249.599998476562,6|0,1:2|1:2,0:0:0:0:
58,358,93108,1,0,1:2:0:0:
58,358,93187,2,0,P|51:298|33:243,1,103.68000253125,12|0,1:2|0:2,0:0:0:0:
74,174,93503,1,2,0:2:0:0:
314,270,93660,2,0,P|324:175|330:145,1,88.3199970351563,10|0,0:2|0:2,0:0:0:0:
213,23,93976,1,10,0:2:0:0:
421,218,94134,2,0,P|418:174|412:131,1,88.3199970351563,2|8,0:2|0:2,0:0:0:0:
407,54,94371,2,0,L|472:68,2,44.1599985175782,2|0|0,0:2|0:2|0:2,0:0:0:0:
341,102,94608,1,10,0:2:0:0:
126,25,94766,6,0,P|124:69|116:112,1,88.3199970351563,2|8,0:2|0:2,0:0:0:0:
218,296,95081,1,2,0:2:0:0:
22,103,95239,2,0,P|23:148|31:191,1,88.3199970351563,10|0,0:2|0:2,0:0:0:0:
247,54,95555,2,0,P|297:70|331:96,1,88.3199970351563,10|0,0:2|0:2,0:0:0:0:
335,122,95792,1,0,0:2:0:0:
335,122,95871,1,10,0:2:0:0:
146,181,96029,5,2,0:2:0:0:
358,245,96187,1,10,0:2:0:0:
148,81,96345,1,0,0:2:0:0:
433,88,96503,1,10,0:2:0:0:
175,169,96660,1,2,0:2:0:0:
437,184,96818,1,8,0:2:0:0:
437,184,96897,1,10,0:2:0:0:
437,184,96976,2,0,L|497:170,1,44.1599985175782,8|8,0:2|0:2,0:0:0:0:
281,81,97134,2,0,L|237:71,1,44.1599985175782,10|8,0:2|0:2,0:0:0:0:
423,306,97292,6,0,P|362:322|325:316,1,88.3199970351563,6|8,0:2|0:2,0:0:0:0:
220,107,97608,1,2,0:2:0:0:
274,357,97766,2,0,P|292:286|297:247,1,88.3199970351563,10|0,0:2|0:2,0:0:0:0:
137,87,98081,2,0,P|145:131|157:173,1,88.3199970351563,8|0,0:2|0:2,0:0:0:0:
148,205,98318,1,0,0:2:0:0:
148,205,98397,1,8,0:2:0:0:
340,31,98555,2,0,P|411:52|439:80,1,88.3199970351563,2|8,0:2|0:2,0:0:0:0:
305,250,98871,1,2,0:2:0:0:
160,0,99029,2,0,P|89:21|61:49,1,88.3199970351563,10|0,0:2|0:2,0:0:0:0:
206,296,99345,2,0,P|233:198|233:179,1,88.3199970351563,8|0,0:2|0:2,0:0:0:0:
229,175,99581,1,0,0:2:0:0:
229,175,99660,1,8,0:2:0:0:
338,348,99818,6,0,P|396:367|441:363,1,88.3199970351563,2|8,0:2|0:2,0:0:0:0:
308,133,100134,1,2,0:2:0:0:
260,362,100292,2,0,P|202:381|157:377,1,88.3199970351563,10|0,0:2|0:2,0:0:0:0:
144,157,100608,2,0,P|187:160|228:176,1,88.3199970351563,10|0,0:2|0:2,0:0:0:0:
256,208,100845,1,0,0:2:0:0:
256,208,100924,1,10,0:2:0:0:
33,320,101081,2,0,P|30:259|20:212,1,88.3199970351563,2|8,0:2|0:2,0:0:0:0:
81,63,101397,1,2,0:2:0:0:
158,337,101555,2,0,P|159:293|165:250,1,88.3199970351563,10|0,0:2|0:2,0:0:0:0:
268,73,101871,1,8,0:2:0:0:
268,73,101950,1,8,0:2:0:0:
268,73,102029,2,0,L|329:86,1,44.1599985175782,8|8,0:2|0:2,0:0:0:0:
134,172,102187,2,0,L|90:182,1,44.1599985175782,8|8,0:2|0:2,0:0:0:0:
246,317,102345,6,0,P|305:339|346:335,1,88.3199970351563,4|8,0:2|0:2,0:0:0:0:
410,132,102660,2,0,B|295:115|361:190|206:165,1,176.639994070313,2|0,0:2|0:2,0:0:0:0:
385,220,103134,1,8,0:2:0:0:
187,103,103292,1,2,0:2:0:0:
187,103,103371,1,0,0:2:0:0:
187,103,103450,1,8,0:2:0:0:
283,337,103608,2,0,P|300:262|300:219,1,88.3199970351563,2|8,0:2|0:2,0:0:0:0:
113,146,103924,2,0,P|96:221|96:264,1,88.3199970351563,0|8,0:2|0:2,0:0:0:0:
305,171,104239,1,0,0:2:0:0:
57,297,104397,2,0,P|51:254|39:211,1,88.3199970351563,10|0,0:2|0:2,0:0:0:0:
28,167,104634,1,0,0:2:0:0:
28,167,104713,1,8,0:2:0:0:
160,327,104871,5,6,0:2:0:0:
194,354,104950,1,0,0:2:0:0:
237,361,105029,1,8,0:2:0:0:
279,347,105108,1,0,0:2:0:0:
309,316,105187,1,0,0:2:0:0:
339,285,105266,1,0,0:2:0:0:
380,271,105345,1,8,0:2:0:0:
423,279,105424,1,0,0:2:0:0:
458,305,105503,2,0,L|469:377,1,44.1599985175782,2|0,0:2|0:2,0:0:0:0:
231,272,105660,2,0,L|237:228,1,44.1599985175782,8|0,0:2|0:2,0:0:0:0:
479,156,105818,2,0,L|490:228,1,44.1599985175782,2|0,0:2|0:2,0:0:0:0:
252,123,105976,2,0,L|258:79,1,44.1599985175782,8|0,0:2|0:2,0:0:0:0:
380,271,106134,5,2,0:2:0:0:
178,146,106292,1,8,0:2:0:0:
134,144,106371,1,0,0:2:0:0:
93,160,106450,1,0,0:2:0:0:
63,192,106529,1,0,0:2:0:0:
49,234,106608,1,8,0:2:0:0:
209,368,106766,1,0,0:2:0:0:
347,179,106924,1,8,0:2:0:0:
390,177,107003,1,0,0:2:0:0:
431,193,107081,1,2,0:2:0:0:
461,225,107160,1,0,0:2:0:0:
475,267,107239,1,8,0:2:0:0:
467,307,107318,1,0,0:2:0:0:
444,340,107397,5,6,0:2:0:0:
368,98,107555,1,8,0:2:0:0:
293,296,107713,1,0,0:2:0:0:
229,47,107871,1,8,0:2:0:0:
384,266,108029,1,0,0:2:0:0:
143,193,108187,1,8,0:2:0:0:
397,82,108345,1,2,0:2:0:0:
397,82,108424,1,0,0:2:0:0:
397,82,108503,1,8,0:2:0:0:
216,324,108660,5,2,0:2:0:0:
388,181,108818,1,8,0:2:0:0:
93,130,108976,1,0,0:2:0:0:
93,130,109055,1,0,0:2:0:0:
93,130,109134,1,8,0:2:0:0:
384,266,109292,1,0,0:2:0:0:
213,52,109450,1,8,0:2:0:0:
197,276,109608,1,2,0:2:0:0:
195,294,109687,1,0,0:2:0:0:
193,312,109766,1,8,0:2:0:0:
192,329,109845,1,0,0:2:0:0:
190,347,109924,5,6,0:2:0:0:
233,351,110003,1,0,0:2:0:0:
274,336,110081,1,0,0:2:0:0:
305,305,110160,1,0,0:2:0:0:
321,264,110239,1,8,0:2:0:0:
336,223,110318,1,0,0:2:0:0:
367,192,110397,1,0,0:2:0:0:
409,176,110476,1,0,0:2:0:0:
452,182,110555,1,8,0:2:0:0:
487,207,110634,1,0,0:2:0:0:
497,250,110713,1,0,0:2:0:0:
479,291,110792,1,0,0:2:0:0:
438,309,110871,1,8,0:2:0:0:
395,298,110950,1,0,0:2:0:0:
373,260,111029,1,0,0:2:0:0:
371,216,111108,1,0,0:2:0:0:
409,176,111187,5,10,0:2:0:0:
437,125,111266,1,0,0:2:0:0:
416,71,111345,1,0,0:2:0:0:
366,40,111424,1,0,0:2:0:0:
307,43,111503,1,8,0:2:0:0:
263,80,111581,1,0,0:2:0:0:
214,110,111660,1,2,0:2:0:0:
156,112,111739,1,0,0:2:0:0:
103,88,111818,1,8,0:2:0:0:
274,206,111976,1,8,0:2:0:0:
274,206,112055,1,8,0:2:0:0:
274,206,112134,1,10,0:2:0:0:
23,110,112292,1,8,0:2:0:0:
23,110,112371,1,8,0:2:0:0:
23,110,112450,1,14,0:2:0:0:
197,325,112766,5,0,0:2:0:0:
308,39,112924,1,0,0:2:0:0:
347,353,113081,1,8,0:2:0:0:
198,23,113239,1,8,0:2:0:0:
103,365,113397,1,8,0:2:0:0:
468,214,113555,1,8,0:2:0:0:
105,168,113713,5,4,0:2:0:0:
377,141,113871,1,4,0:3:0:0:
377,141,113950,1,4,0:3:0:0:
377,141,114029,2,0,L|366:203,3,48.9600002988281,4|0|0|0,0:3|0:2|0:2|0:2,0:0:0:0:
151,169,114345,1,8,0:2:0:0:
130,182,114424,1,8,0:2:0:0:
112,199,114503,1,8,0:2:0:0:
98,220,114581,1,8,0:2:0:0:
89,243,114660,1,10,0:2:0:0:
85,268,114739,1,8,0:2:0:0:
87,293,114818,1,8,0:2:0:0:
95,317,114897,1,8,0:2:0:0:
108,341,114976,5,6,0:2:0:0:
152,280,115055,1,0,0:2:0:0:
221,249,115134,1,8,0:2:0:0:
297,249,115213,1,0,0:2:0:0:
355,297,115292,1,0,0:2:0:0:
429,284,115371,1,0,0:2:0:0:
484,235,115450,1,8,0:2:0:0:
506,164,115529,1,0,0:2:0:0:
487,92,115608,1,0,0:2:0:0:
432,41,115687,1,0,0:2:0:0:
360,26,115766,1,8,0:2:0:0:
290,52,115845,1,0,0:2:0:0:
245,113,115924,1,2,0:2:0:0:
176,143,116003,1,0,0:2:0:0:
101,140,116081,1,8,0:2:0:0:
39,97,116160,1,0,0:2:0:0:
32,22,116239,6,0,L|101:8,3,53.76000065625,2|0|8|0,0:2|0:2|0:2|0:2,0:0:0:0:
52,207,116555,2,0,L|0:196,3,53.76000065625,2|0|8|0,0:2|0:2|0:2|0:2,0:0:0:0:
175,96,116871,2,0,L|228:106,3,53.76000065625,2|0|8|0,0:2|0:2|0:2|0:2,0:0:0:0:
250,260,117187,2,0,L|198:270,3,53.76000065625,2|0|8|0,0:2|0:2|0:2|0:2,0:0:0:0:
312,93,117503,5,2,0:2:0:0:
349,55,117581,1,0,0:2:0:0:
401,47,117660,1,8,0:2:0:0:
447,72,117739,1,0,0:2:0:0:
469,120,117818,1,2,0:2:0:0:
458,172,117897,1,0,0:2:0:0:
418,206,117976,1,10,0:2:0:0:
365,209,118055,1,0,0:2:0:0:
320,180,118134,1,0,0:2:0:0:
284,139,118212,1,0,0:2:0:0:
237,114,118291,1,8,0:2:0:0:
184,107,118370,1,0,0:2:0:0:
132,119,118449,1,0,0:2:0:0:
87,149,118528,1,0,0:2:0:0:
56,192,118607,1,8,0:2:0:0:
42,244,118686,1,0,0:2:0:0:
47,297,118766,6,0,L|55:360,3,53.76000065625,0|0|8|0,0:2|0:2|0:2|0:2,0:0:0:0:
238,201,119081,2,0,L|246:255,3,53.76000065625,0|0|8|0,0:2|0:2|0:2|0:2,0:0:0:0:
130,314,119397,2,0,L|116:239,3,53.76000065625,0|0|8|0,0:2|0:2|0:2|0:2,0:0:0:0:
325,197,119713,1,2,0:2:0:0:
328,213,119792,1,0,0:2:0:0:
330,229,119871,1,8,0:2:0:0:
333,245,119950,1,0,0:2:0:0:
336,262,120029,5,6,0:2:0:0:
369,195,120107,1,0,0:2:0:0:
363,121,120186,1,8,0:2:0:0:
320,60,120265,1,0,0:2:0:0:
252,31,120344,1,0,0:2:0:0:
178,41,120423,1,0,0:2:0:0:
120,87,120502,1,8,0:2:0:0:
94,157,120581,1,0,0:2:0:0:
109,230,120660,1,0,0:2:0:0:
158,285,120739,1,0,0:2:0:0:
229,307,120818,1,8,0:2:0:0:
302,295,120896,1,0,0:2:0:0:
355,242,120975,1,0,0:2:0:0:
367,169,121054,1,0,0:2:0:0:
334,102,121133,1,8,0:2:0:0:
269,67,121212,1,0,0:2:0:0:
196,76,121292,6,0,L|204:139,3,53.76000065625,2|0|8|0,0:2|0:2|0:2|0:2,0:0:0:0:
280,215,121608,2,0,L|287:161,3,53.76000065625,2|0|8|0,0:2|0:2|0:2|0:2,0:0:0:0:
123,142,121924,2,0,L|116:89,3,53.76000065625,2|0|8|0,0:2|0:2|0:2|0:2,0:0:0:0:
367,169,122239,2,0,L|360:223,3,53.76000065625,2|0|8|0,0:2|0:2|0:2|0:2,0:0:0:0:
42,207,122555,5,6,0:2:0:0:
75,164,122634,1,0,0:2:0:0:
123,142,122713,1,8,0:2:0:0:
176,146,122792,1,0,0:2:0:0:
221,175,122871,1,2,0:2:0:0:
254,217,122950,1,0,0:2:0:0:
302,239,123029,1,10,0:2:0:0:
355,235,123108,1,0,0:2:0:0:
400,206,123187,1,0,0:2:0:0:
422,159,123265,1,0,0:2:0:0:
396,115,123345,1,8,0:2:0:0:
345,113,123423,1,0,0:2:0:0:
316,156,123503,1,0,0:2:0:0:
334,205,123581,1,0,0:2:0:0:
382,223,123660,1,8,0:2:0:0:
428,199,123739,1,0,0:2:0:0:
440,148,123818,6,0,P|437:119|414:76,3,53.76000065625,4|4|4|4,0:3|0:3|0:3|0:3,0:3:0:0:
234,168,124134,2,0,P|236:142|246:117,3,53.76000065625,4|4|4|4,0:3|0:3|0:3|0:3,0:3:0:0:
382,223,124450,1,4,0:3:0:0:
384,245,124529,1,4,0:3:0:0:
386,266,124608,1,4,0:3:0:0:
388,288,124687,1,4,0:3:0:0:
389,310,124766,2,0,L|398:397,1,53.76000065625,10|8,0:2|0:2,0:0:0:0:
239,257,124924,2,0,L|233:310,1,53.76000065625,8|8,0:2|0:2,0:0:0:0:
473,246,125081,5,6,0:2:0:0:
492,174,125159,1,0,0:2:0:0:
470,103,125238,1,8,0:2:0:0:
413,55,125317,1,0,0:2:0:0:
339,46,125396,1,0,0:2:0:0:
272,78,125475,1,0,0:2:0:0:
219,133,125555,1,8,0:2:0:0:
152,165,125634,1,0,0:2:0:0:
78,155,125713,1,0,0:2:0:0:
21,108,125792,1,0,0:2:0:0:
88,76,125871,1,8,0:2:0:0:
162,86,125950,1,0,0:2:0:0:
219,133,126029,1,2,0:2:0:0:
240,205,126108,1,0,0:2:0:0:
220,277,126187,1,8,0:2:0:0:
158,320,126266,1,0,0:2:0:0:
83,329,126345,6,0,L|25:316,3,53.76000065625,2|0|8|0,0:2|0:2|0:2|0:2,0:0:0:0:
106,221,126660,2,0,L|159:214,3,53.76000065625,2|0|8|0,0:2|0:2|0:2|0:2,0:0:0:0:
237,356,126976,2,0,L|315:366,3,53.76000065625,2|0|8|0,0:2|0:2|0:2|0:2,0:0:0:0:
366,225,127292,2,0,L|313:238,3,53.76000065625,2|0|8|0,0:2|0:2|0:2|0:2,0:0:0:0:
453,367,127608,5,2,0:2:0:0:
469,315,127686,1,0,0:2:0:0:
470,262,127765,1,8,0:2:0:0:
457,210,127844,1,0,0:2:0:0:
440,158,127924,1,2,0:2:0:0:
439,105,128003,1,0,0:2:0:0:
452,53,128081,1,10,0:2:0:0:
475,100,128159,1,0,0:2:0:0:
473,153,128238,1,0,0:2:0:0:
444,198,128317,1,0,0:2:0:0:
396,222,128396,1,8,0:2:0:0:
343,219,128475,1,0,0:2:0:0:
299,190,128554,1,0,0:2:0:0:
254,161,128634,1,0,0:2:0:0:
201,158,128713,1,8,0:2:0:0:
153,182,128792,1,0,0:2:0:0:
124,227,128871,5,0,0:2:0:0:
122,280,128950,1,0,0:2:0:0:
146,327,129029,1,8,0:2:0:0:
194,346,129107,1,0,0:2:0:0:
244,329,129186,1,0,0:2:0:0:
270,284,129265,1,0,0:2:0:0:
260,232,129344,1,8,0:2:0:0:
218,200,129423,1,0,0:2:0:0:
165,204,129503,2,0,L|175:259,3,53.76000065625,2|0|8|0,0:2|0:2|0:2|0:2,0:0:0:0:
358,245,129818,2,0,L|350:304,3,53.76000065625,2|0|8|0,0:2|0:2|0:2|0:2,0:0:0:0:
477,151,130134,5,6,0:2:0:0:
446,82,130213,1,0,0:2:0:0:
382,45,130292,1,8,0:2:0:0:
308,50,130371,1,0,0:2:0:0:
252,97,130450,1,0,0:2:0:0:
196,144,130529,1,0,0:2:0:0:
122,149,130608,1,10,0:2:0:0:
58,112,130687,1,0,0:2:0:0:
27,43,130766,1,0,0:2:0:0:
100,30,130844,1,0,0:2:0:0:
170,55,130924,1,8,0:2:0:0:
217,113,131002,1,0,0:2:0:0:
229,186,131081,1,2,0:2:0:0:
202,256,131160,1,0,0:2:0:0:
144,302,131239,1,8,0:2:0:0:
70,313,131318,1,0,0:2:0:0:
6,274,131397,6,0,L|-2:211,3,53.76000065625,2|0|8|0,0:2|0:2|0:2|0:2,0:0:0:0:
139,206,131713,2,0,L|145:149,3,53.76000065625,2|0|8|0,0:2|0:2|0:2|0:2,0:0:0:0:
296,296,132029,2,0,L|287:211,3,53.76000065625,2|0|8|0,0:2|0:2|0:2|0:2,0:0:0:0:
425,190,132345,2,0,L|432:137,3,53.76000065625,2|0|8|0,0:2|0:2|0:2|0:2,0:0:0:0:
175,58,132660,5,6,0:2:0:0:
245,30,132739,1,0,0:2:0:0:
319,38,132818,1,8,0:2:0:0:
381,80,132897,1,0,0:2:0:0:
417,145,132976,1,0,0:2:0:0:
419,220,133055,1,0,0:2:0:0:
386,286,133134,1,8,0:2:0:0:
326,331,133213,1,0,0:2:0:0:
252,342,133292,1,0,0:2:0:0:
183,316,133371,1,0,0:2:0:0:
150,250,133450,1,8,0:2:0:0:
168,179,133529,1,0,0:2:0:0:
230,139,133608,1,0,0:2:0:0:
303,151,133687,1,0,0:2:0:0:
338,218,133766,1,8,0:2:0:0:
318,290,133845,1,0,0:2:0:0:
249,318,133924,5,4,0:3:0:0:
201,298,134003,1,4,0:3:0:0:
181,249,134081,1,4,0:3:0:0:
200,201,134160,1,4,0:3:0:0:
242,167,134239,1,4,0:3:0:0:
261,119,134318,1,4,0:3:0:0:
241,70,134397,1,4,0:3:0:0:
193,50,134476,1,4,0:3:0:0:
143,72,134555,1,4,0:3:0:0:
124,120,134634,1,4,0:3:0:0:
144,169,134713,1,4,0:3:0:0:
192,189,134792,1,4,0:3:0:0:
245,180,134871,1,8,0:2:0:0:
15,73,135029,1,8,0:2:0:0:
148,276,135187,6,0,B|159:153|91:221|97:77,1,195.840001195313,6|0,1:2|0:2,0:0:0:0:
64,252,135660,1,0,1:2:0:0:
203,42,135818,2,0,P|190:117|189:175,1,97.9200005976563,8|0,0:2|0:2,0:0:0:0:
306,337,136134,1,2,1:2:0:0:
409,90,136292,1,10,0:2:0:0:
181,249,136450,6,0,P|97:215|-28:202,1,195.840001195313,2|0,1:2|0:2,0:0:0:0:
237,384,136924,1,0,1:2:0:0:
237,384,137003,1,0,1:2:0:0:
237,384,137081,2,0,P|321:350|446:337,1,195.840001195313,10|0,0:2|1:2,0:0:0:0:
349,80,137555,2,0,P|341:136|341:154,1,48.9600002988281,8|0,1:2|1:2,0:0:0:0:
335,291,137713,6,0,B|287:303|246:267|246:267|205:307|145:298,1,195.840001195313,2|0,1:2|0:2,0:0:0:0:
77,119,138187,1,2,1:2:0:0:
316,209,138345,1,10,0:2:0:0:
52,283,138503,1,2,0:2:0:0:
334,172,138660,1,2,1:2:0:0:
39,44,138818,1,8,0:2:0:0:
228,248,138976,5,2,1:2:0:0:
228,248,139134,2,0,B|364:244|279:316|435:316,1,195.840001195313,0|0,1:2|1:2,0:0:0:0:
156,159,139608,2,0,P|150:219|141:261,1,97.9200005976563,10|0,0:2|0:2,0:0:0:0:
390,221,139924,2,0,P|380:172|376:124,1,97.9200005976563,0|8,1:2|0:2,0:0:0:0:
138,29,140239,6,0,P|58:56|23:174,1,195.840001195313,6|0,1:2|0:2,0:0:0:0:
118,322,140713,1,0,1:2:0:0:
282,108,140871,2,0,P|289:175|301:225,1,97.9200005976563,8|0,0:2|0:2,0:0:0:0:
106,143,141187,1,2,1:2:0:0:
350,49,141345,1,10,0:2:0:0:
189,235,141503,6,0,P|92:180|-7:209,1,195.840001195313,2|0,1:2|0:2,0:0:0:0:
277,335,141976,1,0,1:2:0:0:
277,335,142055,1,0,1:2:0:0:
277,335,142134,2,0,P|374:280|473:309,1,195.840001195313,10|0,0:2|1:2,0:0:0:0:
300,82,142608,2,0,P|297:143|286:167,1,48.9600002988281,8|0,1:2|1:2,0:0:0:0:
131,311,142766,6,0,P|105:213|102:115,1,195.840001195313,2|0,1:2|0:2,0:0:0:0:
268,289,143239,1,2,1:2:0:0:
200,39,143397,1,10,0:2:0:0:
339,200,143555,1,2,0:2:0:0:
411,0,143713,1,2,1:2:0:0:
173,151,143871,1,8,0:2:0:0:
471,83,144029,6,0,B|353:92|418:169|261:173,1,195.840001195313,2|0,1:2|0:0,0:0:0:0:
65,85,144503,1,0,1:2:0:0:
324,247,144660,1,10,0:2:0:0:
102,327,144818,1,0,1:2:0:0:
102,327,144897,1,0,1:0:0:0:
102,327,144976,1,8,0:2:0:0:
221,62,145134,1,8,0:2:0:0:
360,335,145292,6,0,B|325:231|404:270|373:134,1,195.840001195313,6|0,1:2|0:2,0:0:0:0:
447,290,145766,1,0,1:2:0:0:
300,117,145924,2,0,P|321:183|326:223,1,97.9200005976563,12|0,0:2|0:2,0:0:0:0:
419,67,146239,1,2,1:2:0:0:
271,271,146397,1,10,0:2:0:0:
221,31,146555,5,2,1:2:0:0:
221,31,146713,2,0,P|200:97|195:137,1,97.9200005976563,0|0,1:0|0:2,0:0:0:0:
368,243,147029,1,0,1:2:0:0:
368,243,147108,1,0,1:2:0:0:
368,243,147187,2,0,P|359:194|342:148,1,97.9200005976563,10|0,0:2|0:0,0:0:0:0:
175,306,147503,2,0,P|183:257|200:211,1,97.9200005976563,0|0,1:2|1:2,0:0:0:0:
423,351,147818,6,0,P|484:289|458:168,1,195.840001195313,2|0,1:2|0:2,0:0:0:0:
284,77,148292,1,2,1:2:0:0:
331,331,148450,1,10,0:2:0:0:
363,57,148608,1,2,0:2:0:0:
264,268,148766,1,2,1:2:0:0:
220,25,148924,1,8,0:2:0:0:
374,228,149081,5,2,1:2:0:0:
374,228,149239,2,0,P|305:173|268:168,1,97.9200005976563,0|0,1:2|0:0,0:0:0:0:
152,274,149555,1,0,1:2:0:0:
281,56,149713,2,0,P|236:76|204:112,1,97.9200005976563,10|0,0:2|0:2,0:0:0:0:
207,342,150029,1,0,1:2:0:0:
297,171,150187,1,8,0:2:0:0:
116,349,150345,6,0,P|110:260|89:134,1,195.840001195313,6|0,1:2|0:2,0:0:0:0:
269,280,150818,1,0,1:2:0:0:
151,89,150976,2,0,P|135:185|134:223,1,97.9200005976563,8|0,0:2|0:2,0:0:0:0:
298,42,151292,1,2,1:2:0:0:
201,233,151450,1,10,0:2:0:0:
450,69,151608,6,0,B|325:72|402:142|259:142,1,195.840001195313,2|0,1:2|0:2,0:0:0:0:
35,177,152081,1,0,1:2:0:0:
35,177,152160,1,0,1:2:0:0:
35,177,152239,2,0,P|98:106|207:123,1,195.840001195313,10|0,0:2|1:2,0:0:0:0:
352,300,152713,1,0,1:2:0:0:
237,51,152871,6,0,P|232:147|211:251,1,195.840001195313,2|0,1:2|0:2,0:0:0:0:
362,87,153345,1,2,1:2:0:0:
144,134,153503,1,10,0:2:0:0:
350,198,153660,1,2,0:2:0:0:
63,156,153818,1,2,1:2:0:0:
254,342,153976,1,8,0:2:0:0:
203,42,154134,6,0,P|186:138|180:243,1,195.840001195313,2|0,1:2|0:0,0:0:0:0:
362,87,154608,1,0,1:2:0:0:
154,263,154766,1,10,0:2:0:0:
434,163,154924,1,0,1:2:0:0:
434,163,155003,1,0,1:2:0:0:
434,163,155081,1,0,1:2:0:0:
398,129,155160,1,0,1:2:0:0:
352,112,155239,1,0,1:2:0:0:
304,113,155318,1,0,1:2:0:0:
259,132,155397,5,4,1:2:0:0:
256,192,155476,12,0,157766,0:2:0:0:
459,62,157924,5,2,1:2:0:0:
39,207,158239,1,2,1:2:0:0:
491,322,158555,1,2,1:2:0:0:
16,120,158871,1,6,1:2:0:0:
266,352,159187,5,6,0:2:0:0:
233,316,159266,1,0,0:2:0:0:
217,270,159345,1,8,0:2:0:0:
221,221,159424,1,0,0:2:0:0:
244,179,159503,1,0,0:2:0:0:
268,136,159581,1,0,0:2:0:0:
272,87,159660,2,0,P|226:46|172:43,1,97.9200005976563,10|0,0:2|0:2,0:0:0:0:
317,266,159976,2,0,P|363:254|397:219,1,97.9200005976563,10|0,0:2|0:2,0:0:0:0:
179,124,160292,1,10,0:2:0:0:
266,352,160450,5,2,0:2:0:0:
355,112,160608,2,0,P|344:33|341:1,1,97.9200005976563,8|0,0:2|0:2,0:0:0:0:
213,243,160924,1,8,0:2:0:0:
213,243,161003,1,0,0:2:0:0:
213,243,161081,2,0,L|111:229,1,97.9200005976563,2|8,0:2|0:2,0:0:0:0:
46,261,161318,2,0,L|36:193,1,48.9600002988281,2|0,0:2|0:2,0:0:0:0:
183,49,161555,1,10,0:2:0:0:
236,327,161713,5,2,0:2:0:0:
355,112,161871,1,8,0:2:0:0:
213,243,162029,2,0,L|201:177,1,48.9600002988281,0|0,0:2|0:2,0:0:0:0:
332,321,162187,2,0,L|434:307,1,97.9200005976563,10|0,0:2|0:2,0:0:0:0:
396,39,162503,1,8,0:2:0:0:
297,229,162660,1,2,0:2:0:0:
297,229,162739,1,0,0:2:0:0:
297,229,162818,1,8,0:2:0:0:
186,56,162976,6,0,L|112:45,1,48.9600002988281,2|0,0:2|0:2,0:0:0:0:
327,148,163134,2,0,L|375:140,1,48.9600002988281,8|0,0:2|0:2,0:0:0:0:
215,275,163292,1,0,0:2:0:0:
215,275,163371,1,0,0:2:0:0:
215,275,163450,2,0,L|203:211,1,48.9600002988281,10|0,0:2|0:2,0:0:0:0:
360,289,163608,2,0,L|350:337,1,48.9600002988281,0|0,0:2|0:2,0:0:0:0:
194,143,163766,1,8,0:2:0:0:
438,228,163924,1,10,0:3:0:0:
472,194,164003,1,4,0:3:0:0:
488,148,164081,1,12,0:3:0:0:
480,100,164160,1,4,0:3:0:0:
451,61,164239,6,0,P|391:79|376:97,1,48.9600002988281,6|0,0:2|0:2,0:0:0:0:
337,255,164397,2,0,P|276:237|261:219,1,48.9600002988281,8|0,0:2|0:2,0:0:0:0:
212,55,164555,2,0,P|151:72|136:90,1,48.9600002988281,0|0,0:2|0:2,0:0:0:0:
97,248,164713,2,0,P|36:230|21:212,1,48.9600002988281,8|0,0:2|0:2,0:0:0:0:
316,154,164871,6,0,P|376:171|391:189,1,48.9600002988281,2|0,0:2|0:2,0:0:0:0:
431,347,165029,2,0,P|491:329|506:311,1,48.9600002988281,10|0,0:2|0:2,0:0:0:0:
451,61,165187,2,0,P|390:78|375:96,1,48.9600002988281,0|0,0:2|0:2,0:0:0:0:
336,254,165345,2,0,P|275:236|260:218,1,48.9600002988281,8|0,0:2|0:2,0:0:0:0:
79,156,165503,6,0,P|139:173|154:191,1,48.9600002988281,2|0,0:2|0:2,0:0:0:0:
194,349,165660,2,0,P|254:331|269:313,1,48.9600002988281,10|0,0:2|0:2,0:0:0:0:
305,64,165818,2,0,P|244:81|229:99,1,48.9600002988281,0|0,0:2|0:2,0:0:0:0:
190,257,165976,2,0,P|129:239|114:221,1,48.9600002988281,8|0,0:2|0:2,0:0:0:0:
316,154,166134,6,0,P|376:171|391:189,1,48.9600002988281,2|0,0:2|0:2,0:0:0:0:
431,347,166292,2,0,P|491:329|506:311,1,48.9600002988281,10|0,0:2|0:2,0:0:0:0:
224,176,166450,2,0,P|200:167|176:167,1,48.9600002988281,0|0,0:2|0:2,0:0:0:0:
109,352,166608,2,0,P|85:360|61:360,1,48.9600002988281,8|0,0:2|0:2,0:0:0:0:
371,241,166766,6,0,P|405:159|398:114,1,97.9200005976563,6|8,0:2|0:2,0:0:0:0:
372,84,167003,2,0,P|360:28|361:13,1,48.9600002988281,2|0,0:2|0:2,0:0:0:0:
276,323,167239,1,10,0:2:0:0:
164,91,167397,2,0,P|130:173|137:218,1,97.9200005976563,2|8,0:2|0:2,0:0:0:0:
163,248,167634,2,0,P|175:304|174:319,1,48.9600002988281,2|0,0:2|0:2,0:0:0:0:
269,57,167871,1,10,0:2:0:0:
69,266,168029,6,0,P|41:184|49:134,1,97.9200005976563,2|8,0:2|0:2,0:0:0:0:
53,128,168266,1,0,0:2:0:0:
53,128,168345,1,0,0:2:0:0:
219,323,168503,2,0,P|247:241|239:191,1,97.9200005976563,10|0,0:2|0:2,0:0:0:0:
174,45,168818,1,0,0:2:0:0:
174,45,168897,1,0,0:2:0:0:
174,45,168976,1,0,0:2:0:0:
209,78,169055,1,0,0:2:0:0:
255,93,169134,1,0,0:2:0:0:
303,88,169213,1,0,0:2:0:0:
345,62,169292,5,6,0:2:0:0:
407,77,169371,1,0,0:2:0:0:
434,135,169450,1,8,0:2:0:0:
406,194,169529,1,0,0:2:0:0:
342,207,169608,1,2,0:2:0:0:
283,176,169687,1,0,0:2:0:0:
217,174,169766,2,0,P|157:186|122:224,1,97.9200005976563,10|0,0:2|0:0,0:0:0:0:
358,135,170081,1,10,0:2:0:0:
227,280,170239,1,0,0:2:0:0:
227,280,170318,1,0,0:0:0:0:
227,280,170397,1,10,0:2:0:0:
276,21,170555,6,0,L|290:138,1,97.9200005976563,2|8,0:2|0:2,0:0:0:0:
311,318,170871,2,0,L|322:237,1,48.9600002988281,0|0,0:2|0:0,0:0:0:0:
195,56,171029,2,0,L|209:173,1,97.9200005976563,10|0,0:2|0:2,0:0:0:0:
236,370,171345,1,8,0:2:0:0:
365,141,171503,1,0,0:2:0:0:
365,141,171581,1,0,0:0:0:0:
365,141,171660,1,8,0:2:0:0:
161,311,171818,6,0,P|111:332|81:332,1,48.9600002988281,2|0,0:2|0:0,0:0:0:0:
192,81,171976,2,0,P|215:88|236:101,1,48.9600002988281,8|0,0:2|0:0,0:0:0:0:
376,296,172134,2,0,P|448:274|472:237,1,97.9200005976563,0|10,0:2|0:2,0:0:0:0:
311,65,172450,2,0,P|332:52|356:45,1,48.9600002988281,0|0,0:2|0:0,0:0:0:0:
280,295,172608,2,0,P|256:287|236:275,1,48.9600002988281,8|0,0:2|0:0,0:0:0:0:
96,80,172766,2,0,P|48:86|10:117,1,97.9200005976563,2|8,0:2|0:2,0:0:0:0:
297,201,173081,6,0,L|405:174,1,97.9200005976563,2|8,0:2|0:2,0:0:0:0:
193,355,173397,1,2,0:2:0:0:
105,140,173555,2,0,L|-3:113,1,97.9200005976563,10|0,0:2|0:2,0:0:0:0:
280,295,173871,1,10,0:2:0:0:
280,295,173950,1,0,0:0:0:0:
280,295,174029,1,6,0:3:0:0:
327,282,174108,1,4,0:3:0:0:
374,269,174187,1,12,0:3:0:0:
422,257,174266,1,4,0:3:0:0:
469,245,174345,6,0,L|475:173,1,48.9600002988281,6|0,0:2|0:2,0:0:0:0:
327,50,174503,2,0,L|331:98,1,48.9600002988281,8|0,0:2|0:2,0:0:0:0:
280,295,174660,2,0,L|274:223,1,48.9600002988281,0|0,0:2|0:2,0:0:0:0:
422,100,174818,2,0,L|417:148,1,48.9600002988281,8|0,0:2|0:2,0:0:0:0:
350,346,174976,6,0,L|356:274,1,48.9600002988281,2|0,0:2|0:2,0:0:0:0:
208,151,175134,2,0,L|212:199,1,48.9600002988281,10|0,0:2|0:2,0:0:0:0:
182,374,175292,2,0,L|177:325,1,48.9600002988281,0|0,0:2|0:2,0:0:0:0:
324,179,175450,2,0,L|319:227,1,48.9600002988281,8|0,0:2|0:2,0:0:0:0:
70,297,175608,6,0,L|65:248,1,48.9600002988281,2|0,0:2|0:2,0:0:0:0:
212,102,175766,2,0,L|207:150,1,48.9600002988281,10|0,0:2|0:2,0:0:0:0:
244,296,175924,2,0,L|248:247,1,48.9600002988281,0|0,0:2|0:2,0:0:0:0:
102,101,176081,2,0,L|106:149,1,48.9600002988281,8|0,0:2|0:2,0:0:0:0:
172,338,176239,6,0,L|167:289,1,48.9600002988281,2|0,0:2|0:2,0:0:0:0:
314,143,176397,2,0,L|309:191,1,48.9600002988281,10|0,0:2|0:2,0:0:0:0:
350,346,176555,2,0,L|354:297,1,48.9600002988281,0|0,0:2|0:2,0:0:0:0:
208,151,176713,2,0,L|212:199,1,48.9600002988281,8|0,0:2|0:2,0:0:0:0:
436,254,176871,6,0,L|446:150,1,97.9200005976563,6|8,0:2|0:2,0:0:0:0:
402,88,177108,2,0,L|391:20,1,48.9600002988281,2|0,0:2|0:2,0:0:0:0:
281,277,177345,1,10,0:2:0:0:
109,64,177503,2,0,L|99:168,1,97.9200005976563,2|8,0:2|0:2,0:0:0:0:
143,230,177739,2,0,L|154:298,1,48.9600002988281,2|0,0:2|0:2,0:0:0:0:
264,41,177976,1,10,0:2:0:0:
363,312,178134,6,0,P|424:294|459:250,1,97.9200005976563,2|8,0:2|0:2,0:0:0:0:
286,73,178450,1,0,0:2:0:0:
160,356,178608,2,0,P|99:338|64:294,1,97.9200005976563,10|0,0:2|0:2,0:0:0:0:
186,70,178924,1,4,0:3:0:0:
186,70,179003,1,4,0:3:0:0:
186,70,179081,1,8,0:2:0:0:
189,118,179160,1,8,0:2:0:0:
192,167,179239,1,8,0:2:0:0:
195,216,179318,1,8,0:2:0:0:
199,265,179397,6,0,P|267:240|308:239,1,97.9200005976563,14|0,1:2|0:2,0:0:0:0:
454,58,179713,2,0,P|405:51|361:31,1,97.9200005976563,8|0,1:2|0:2,0:0:0:0:
361,315,180029,2,0,P|385:235|382:186,1,97.9200005976563,8|0,1:2|0:2,0:0:0:0:
207,35,180345,1,10,1:2:0:0:
460,148,180503,1,2,0:2:0:0:
128,100,180660,6,0,P|134:148|152:193,1,97.9200005976563,10|0,1:2|0:2,0:0:0:0:
367,26,180976,1,8,1:2:0:0:
171,293,181134,2,0,P|104:280|63:241,1,97.9200005976563,2|8,0:2|1:2,0:0:0:0:
278,91,181450,1,0,0:2:0:0:
396,354,181608,2,0,P|463:341|504:302,1,97.9200005976563,10|0,1:2|0:2,0:0:0:0:
180,79,181924,6,0,P|179:147|170:198,1,97.9200005976563,10|0,1:2|0:2,0:0:0:0:
279,367,182239,1,8,1:2:0:0:
278,91,182397,2,0,P|346:56|397:63,1,97.9200005976563,2|8,0:2|1:2,0:0:0:0:
175,268,182713,2,0,P|127:260|87:232,1,97.9200005976563,2|8,0:2|1:2,0:0:0:0:
359,154,183029,1,2,0:2:0:0:
140,20,183187,6,0,P|161:100|165:139,1,97.9200005976563,10|0,1:2|0:2,0:0:0:0:
381,250,183503,1,8,1:2:0:0:
423,226,183581,1,0,1:2:0:0:
448,185,183660,1,10,1:2:0:0:
451,136,183739,1,8,1:2:0:0:
430,93,183818,1,8,1:2:0:0:
391,64,183897,1,4,1:3:0:0:
343,58,183976,1,6,1:3:0:0:
298,76,184055,1,4,1:3:0:0:
267,113,184134,1,14,1:3:0:0:
441,334,184292,1,10,1:2:0:0:
242,188,184450,6,0,B|120:188|183:261|43:266,1,195.840001195313,6|0,1:2|0:2,0:0:0:0:
232,278,184924,1,0,1:2:0:0:
84,84,185081,2,0,P|86:146|78:193,1,97.9200005976563,8|0,0:2|0:2,0:0:0:0:
258,63,185397,1,2,1:2:0:0:
140,283,185555,1,10,0:2:0:0:
323,109,185713,6,0,B|445:109|382:182|522:187,1,195.840001195313,2|0,1:2|0:2,0:0:0:0:
399,37,186187,1,0,1:2:0:0:
315,274,186345,1,10,0:2:0:0:
204,75,186503,1,0,1:2:0:0:
204,75,186581,1,0,1:2:0:0:
204,75,186660,1,6,1:3:0:0:
156,65,186739,1,6,1:3:0:0:
110,79,186818,1,6,1:3:0:0:
77,115,186897,1,6,1:3:0:0:
65,162,186976,6,0,P|78:242|82:280,1,97.9200005976563,14|0,1:2|1:2,0:0:0:0:
343,338,187292,2,0,P|349:289|357:241,1,97.9200005976563,8|2,1:2|1:2,0:0:0:0:
344,164,187529,1,0,1:2:0:0:
344,164,187608,2,0,P|286:185|231:188,1,97.9200005976563,8|0,0:2|1:2,0:0:0:0:
95,342,187924,2,0,P|140:360|188:366,1,97.9200005976563,10|0,0:2|1:2,0:0:0:0:
429,217,188239,5,10,1:2:0:0:
446,172,188318,1,0,1:2:0:0:
439,124,188397,1,0,1:2:0:0:
408,86,188476,1,0,1:2:0:0:
363,69,188555,1,10,1:2:0:0:
316,85,188634,1,0,1:2:0:0:
283,121,188713,1,0,1:2:0:0:
236,136,188792,1,0,1:2:0:0:
187,128,188871,1,10,1:2:0:0:
185,118,188950,1,0,1:2:0:0:
184,108,189029,1,0,1:2:0:0:
183,98,189108,1,0,1:2:0:0:
182,89,189187,1,10,1:2:0:0:
181,79,189266,1,8,1:2:0:0:
180,69,189345,1,8,1:2:0:0:
178,59,189424,1,8,1:2:0:0:
177,50,189503,5,6,1:2:0:0:
105,59,189581,1,0,0:2:0:0:
49,106,189660,1,8,0:2:0:0:
27,175,189739,1,0,0:2:0:0:
45,245,189818,1,0,0:2:0:0:
98,295,189897,1,0,0:2:0:0:
169,309,189976,2,0,P|225:292|243:291,3,48.9600002988281,10|0|0|0,0:2|0:2|0:2|0:2,0:0:0:0:
262,119,190292,2,0,P|325:140|339:142,1,48.9600002988281,10|0,0:2|0:2,0:0:0:0:
367,323,190450,2,0,P|390:315|412:305,1,48.9600002988281,2|0,0:2|0:2,0:0:0:0:
433,68,190608,2,0,P|410:58|387:50,1,48.9600002988281,10|0,0:2|0:2,0:0:0:0:
179,190,190766,5,2,0:2:0:0:
130,186,190845,1,0,0:2:0:0:
90,160,190924,1,8,0:2:0:0:
67,117,191003,1,0,0:2:0:0:
68,69,191081,1,0,0:2:0:0:
93,27,191160,1,0,0:2:0:0:
135,3,191239,1,8,0:2:0:0:
183,2,191318,1,0,0:2:0:0:
226,25,191397,2,0,L|232:93,3,48.9600002988281,2|0|8|0,0:2|0:2|0:2|0:2,0:0:0:0:
386,179,191713,2,0,L|390:130,3,48.9600002988281,2|0|8|0,0:2|0:2|0:2|0:2,0:0:0:0:
166,144,192029,5,2,0:2:0:0:
122,164,192108,1,0,0:2:0:0:
94,204,192187,1,8,0:2:0:0:
90,252,192266,1,0,0:2:0:0:
110,296,192345,1,2,0:2:0:0:
149,325,192424,1,0,0:2:0:0:
197,330,192503,2,0,P|263:311|281:310,3,48.9600002988281,10|0|0|0,0:2|0:2|0:2|0:2,0:0:0:0:
432,345,192818,2,0,P|408:338|385:328,1,48.9600002988281,10|0,0:2|0:2,0:0:0:0:
238,232,192976,2,0,P|172:212|154:211,3,48.9600002988281,2|0|10|0,0:2|0:2|0:2|0:2,0:0:0:0:
431,262,193292,5,2,0:2:0:0:
432,237,193371,1,0,0:2:0:0:
433,213,193450,1,8,0:2:0:0:
434,188,193529,1,0,0:2:0:0:
435,164,193608,1,0,0:2:0:0:
436,139,193687,1,0,0:2:0:0:
438,115,193766,1,8,0:2:0:0:
439,90,193845,1,0,0:2:0:0:
440,66,193924,5,2,0:2:0:0:
396,44,194003,1,0,0:2:0:0:
348,47,194081,1,8,0:2:0:0:
307,74,194160,1,0,0:2:0:0:
285,117,194239,1,6,0:3:0:0:
263,160,194318,1,4,0:3:0:0:
222,187,194397,2,0,P|159:197|131:185,1,48.9600002988281,8|0,0:2|0:2,0:0:0:0:
16,74,194555,5,6,0:2:0:0:
64,77,194634,1,0,0:2:0:0:
108,99,194713,1,8,0:2:0:0:
140,135,194792,1,0,0:2:0:0:
156,181,194871,1,0,0:2:0:0:
154,230,194950,1,0,0:2:0:0:
134,274,195029,2,0,P|107:208|105:193,1,48.9600002988281,10|0,0:2|0:2,0:0:0:0:
194,63,195187,5,2,0:2:0:0:
231,33,195266,1,0,0:2:0:0:
278,18,195345,1,8,0:2:0:0:
326,23,195424,1,0,0:2:0:0:
369,46,195503,1,0,0:2:0:0:
401,82,195581,1,0,0:2:0:0:
416,129,195660,2,0,P|415:167|401:215,1,48.9600002988281,10|0,0:2|0:2,0:0:0:0:
233,157,195818,5,2,0:2:0:0:
189,137,195897,1,0,0:2:0:0:
140,135,195976,1,8,0:2:0:0:
95,152,196055,1,0,0:2:0:0:
59,185,196134,1,0,0:2:0:0:
37,228,196213,1,0,0:2:0:0:
35,278,196292,2,0,P|45:314|71:357,1,48.9600002988281,10|0,0:2|0:2,0:0:0:0:
297,287,196450,5,2,0:2:0:0:
339,266,196529,1,0,0:2:0:0:
372,229,196608,1,8,0:2:0:0:
388,183,196687,1,0,0:2:0:0:
385,135,196766,1,0,0:2:0:0:
366,91,196845,1,0,0:2:0:0:
330,57,196924,2,0,P|295:41|245:34,1,48.9600002988281,10|0,0:2|0:2,0:0:0:0:
197,253,197081,5,14,0:2:0:0:
234,222,197160,1,0,0:2:0:0:
250,176,197239,1,0,0:2:0:0:
240,129,197318,1,0,0:2:0:0:
207,94,197397,1,8,0:2:0:0:
161,81,197476,1,0,0:2:0:0:
114,94,197555,1,2,0:2:0:0:
81,131,197634,1,0,0:2:0:0:
73,178,197713,5,10,0:2:0:0:
121,186,197792,1,0,0:2:0:0:
168,176,197871,1,0,0:2:0:0:
210,150,197950,1,0,0:2:0:0:
239,111,198029,1,8,0:2:0:0:
269,73,198108,1,8,0:3:0:0:
312,49,198187,1,10,0:3:0:0:
361,44,198266,1,8,0:3:0:0:
410,54,198345,5,6,0:2:0:0:
460,106,198424,1,0,0:2:0:0:
476,176,198503,1,0,0:2:0:0:
453,246,198581,1,0,0:2:0:0:
397,291,198660,1,10,0:3:0:0:
326,300,198739,1,0,0:2:0:0:
259,271,198818,1,0,0:2:0:0:
212,215,198897,1,0,0:2:0:0:
219,141,198976,1,10,0:3:0:0:
174,81,199055,1,0,0:2:0:0:
104,62,199134,1,0,0:2:0:0:
37,89,199213,1,0,0:2:0:0:
2,151,199292,1,6,0:3:0:0:
2,165,199371,1,4,0:3:0:0:
3,180,199450,1,4,0:3:0:0:
4,194,199529,1,4,0:3:0:0:
5,209,199608,5,6,1:2:0:0:
61,163,199687,1,0,0:2:0:0:
133,152,199766,1,8,0:2:0:0:
201,176,199845,1,0,0:2:0:0:
249,231,199924,1,0,0:2:0:0:
296,286,200003,1,0,0:2:0:0:
365,310,200081,2,0,L|438:298,3,48.9600002988281,10|0|0|0,0:2|0:2|0:2|0:2,0:0:0:0:
164,263,200397,2,0,L|115:255,3,48.9600002988281,10|0|2|0,0:2|0:2|0:2|0:2,0:0:0:0:
356,229,200713,2,0,L|365:173,1,48.9600002988281,10|0,0:2|0:2,0:0:0:0:
247,32,200871,5,2,0:2:0:0:
199,24,200950,1,0,0:2:0:0:
155,45,201029,1,8,0:2:0:0:
130,86,201108,1,0,0:2:0:0:
132,134,201187,1,0,0:2:0:0:
161,173,201266,1,0,0:2:0:0:
206,190,201345,1,8,0:2:0:0:
253,179,201424,1,0,0:2:0:0:
286,144,201503,1,2,0:2:0:0:
319,109,201581,1,0,0:2:0:0:
366,98,201660,1,8,0:2:0:0:
411,115,201739,1,0,0:2:0:0:
440,154,201818,1,2,0:2:0:0:
442,202,201897,1,0,0:2:0:0:
417,243,201976,1,8,0:2:0:0:
373,264,202055,1,0,0:2:0:0:
326,257,202134,6,0,L|332:320,3,48.9600002988281,6|0|8|0,0:2|0:2|0:2|0:2,0:0:0:0:
206,190,202450,2,0,L|211:115,1,48.9600002988281,2|0,0:2|0:2,0:0:0:0:
89,261,202608,2,0,L|83:324,3,48.9600002988281,10|0|0|0,0:2|0:2|0:2|0:2,0:0:0:0:
183,173,202924,2,0,L|188:98,1,48.9600002988281,10|0,0:2|0:2,0:0:0:0:
240,309,203081,1,2,0:2:0:0:
268,347,203160,1,2,0:2:0:0:
313,367,203239,1,8,0:2:0:0:
361,363,203318,1,0,0:2:0:0:
400,335,203397,5,6,0:2:0:0:
417,289,203476,1,0,0:2:0:0:
416,240,203555,1,8,0:2:0:0:
398,195,203634,1,0,0:2:0:0:
366,159,203713,1,2,0:2:0:0:
336,122,203792,1,0,0:2:0:0:
346,75,203871,1,8,0:2:0:0:
388,54,203950,1,0,0:2:0:0:
431,72,204029,1,2,0:2:0:0:
445,118,204108,1,0,0:2:0:0:
417,159,204187,1,8,0:2:0:0:
375,184,204266,1,0,0:2:0:0:
327,192,204345,1,6,0:3:0:0:
279,182,204424,1,4,0:3:0:0:
239,156,204503,1,8,0:2:0:0:
194,135,204581,1,0,0:2:0:0:
145,141,204660,5,6,0:2:0:0:
108,172,204739,1,0,0:2:0:0:
93,218,204818,1,8,0:2:0:0:
103,265,204897,1,0,0:2:0:0:
135,301,204976,1,0,0:2:0:0:
181,316,205055,1,0,0:2:0:0:
228,305,205134,2,0,P|258:256|260:238,1,48.9600002988281,10|0,0:2|0:2,0:0:0:0:
288,82,205292,5,2,0:2:0:0:
319,45,205371,1,0,0:2:0:0:
365,30,205450,1,8,0:2:0:0:
412,40,205529,1,0,0:2:0:0:
448,72,205608,1,0,0:2:0:0:
463,118,205687,1,0,0:2:0:0:
451,165,205766,2,0,P|401:194|383:196,1,48.9600002988281,10|0,0:2|0:2,0:0:0:0:
178,204,205924,5,2,0:2:0:0:
141,173,206003,1,0,0:2:0:0:
126,127,206081,1,8,0:2:0:0:
136,79,206160,1,0,0:2:0:0:
168,44,206239,1,0,0:2:0:0:
214,29,206318,1,0,0:2:0:0:
261,41,206397,2,0,P|290:90|292:108,1,48.9600002988281,10|0,0:2|0:2,0:0:0:0:
329,275,206555,5,2,0:2:0:0:
360,312,206634,1,0,0:2:0:0:
406,327,206713,1,8,0:2:0:0:
454,317,206792,1,0,0:2:0:0:
489,285,206871,1,0,0:2:0:0:
504,239,206950,1,0,0:2:0:0:
491,191,207029,2,0,P|472:174|450:164,1,48.9600002988281,10|0,0:2|0:2,0:0:0:0:
241,205,207187,5,6,1:2:0:0:
207,239,207266,1,0,0:0:0:0:
160,251,207345,1,8,0:2:0:0:
114,236,207424,1,0,0:0:0:0:
83,199,207503,1,0,0:0:0:0:
76,151,207581,1,0,0:0:0:0:
96,107,207660,1,8,0:2:0:0:
136,79,207739,1,0,0:0:0:0:
184,78,207818,1,0,0:0:0:0:
221,109,207897,1,0,0:0:0:0:
266,127,207976,1,8,0:2:0:0:
315,129,208055,1,0,0:0:0:0:
362,116,208134,2,0,L|376:38,3,48.9600002988281,0|0|8|0,0:0|0:0|0:2|0:0,0:0:0:0:
454,246,208450,5,10,0:2:0:0:
416,307,208529,1,8,0:2:0:0:
349,336,208608,1,8,0:2:0:0:
279,321,208687,1,8,0:2:0:0:
220,275,208766,1,8,0:3:0:0:
150,260,208845,1,8,0:3:0:0:
83,289,208924,1,8,0:3:0:0:
46,351,209003,5,10,0:3:0:0:
113,321,209081,1,8,0:2:0:0:
166,272,209160,1,0,0:2:0:0:
191,203,209239,1,0,0:2:0:0:
180,131,209318,1,0,0:2:0:0:
136,73,209397,5,6,0:3:0:0:
138,92,209476,1,4,0:3:0:0:
140,112,209555,1,4,0:3:0:0:
142,131,209634,1,4,0:3:0:0:
144,151,209713,6,0,P|221:167|257:149,1,88.3199970351563,4|8,0:2|0:2,0:0:0:0:
376,26,210029,2,0,P|323:91|329:212,1,176.639994070313,2|0,0:2|0:2,0:0:0:0:
434,340,210503,1,8,0:2:0:0:
478,170,210660,1,2,0:2:0:0:
478,170,210739,1,0,0:2:0:0:
478,170,210818,1,8,0:2:0:0:
325,331,210976,6,0,P|284:348|241:344,1,88.3199970351563,2|8,0:2|0:2,0:0:0:0:
114,147,211292,1,0,0:2:0:0:
317,224,211450,1,8,0:2:0:0:
108,355,211608,1,0,0:2:0:0:
194,89,211766,1,10,0:2:0:0:
325,331,211924,1,0,0:2:0:0:
325,331,212003,1,0,0:2:0:0:
325,331,212081,1,8,0:2:0:0:
298,73,212239,5,6,0:2:0:0:
330,43,212318,1,0,0:2:0:0:
372,34,212397,1,8,0:2:0:0:
414,46,212476,1,0,0:2:0:0:
444,78,212555,1,0,0:2:0:0:
454,121,212634,1,0,0:2:0:0:
442,163,212713,1,8,0:2:0:0:
411,193,212792,1,0,0:2:0:0:
368,204,212871,2,0,L|308:193,1,44.1599985175782,2|0,0:2|0:2,0:0:0:0:
215,48,213029,2,0,L|171:56,1,44.1599985175782,8|0,0:2|0:2,0:0:0:0:
60,293,213187,2,0,L|120:281,1,44.1599985175782,2|0,0:2|0:2,0:0:0:0:
213,136,213345,2,0,L|256:144,1,44.1599985175782,8|0,0:2|0:2,0:0:0:0:
372,328,213503,5,2,0:2:0:0:
341,107,213660,1,8,0:2:0:0:
345,149,213739,1,0,0:2:0:0:
331,191,213818,1,0,0:2:0:0:
303,223,213897,1,0,0:2:0:0:
273,255,213976,1,8,0:2:0:0:
259,297,214055,1,0,0:0:0:0:
264,340,214134,1,0,0:2:0:0:
438,128,214292,1,8,0:2:0:0:
434,84,214371,1,0,0:2:0:0:
413,46,214450,1,2,0:2:0:0:
377,20,214529,1,0,0:2:0:0:
334,13,214608,1,8,0:2:0:0:
292,24,214687,1,0,0:2:0:0:
258,53,214766,5,6,0:2:0:0:
413,225,214924,1,8,0:2:0:0:
137,275,215081,1,0,0:2:0:0:
341,107,215239,1,8,0:2:0:0:
264,340,215397,1,0,0:2:0:0:
341,107,215555,1,8,0:2:0:0:
462,289,215713,1,2,0:2:0:0:
462,289,215792,1,0,0:2:0:0:
462,289,215871,1,8,0:2:0:0:
200,218,216029,5,2,0:2:0:0:
451,124,216187,1,8,0:2:0:0:
246,303,216345,1,0,0:2:0:0:
246,303,216424,1,0,0:2:0:0:
246,303,216503,1,8,0:2:0:0:
357,69,216660,1,0,0:2:0:0:
462,289,216818,1,8,0:2:0:0:
256,132,216976,1,2,0:2:0:0:
234,129,217055,1,0,0:2:0:0:
212,126,217134,1,8,0:2:0:0:
190,123,217213,1,0,0:2:0:0:
169,119,217292,5,6,0:2:0:0:
189,80,217371,1,0,0:2:0:0:
226,55,217450,1,0,0:2:0:0:
269,50,217529,1,0,0:2:0:0:
310,65,217608,1,8,0:2:0:0:
340,97,217687,1,0,0:2:0:0:
351,140,217766,1,0,0:2:0:0:
342,182,217845,1,0,0:2:0:0:
315,216,217924,1,8,0:2:0:0:
287,250,218003,1,0,0:2:0:0:
278,293,218081,1,0,0:2:0:0:
290,335,218160,1,0,0:2:0:0:
321,365,218239,1,8,0:2:0:0:
362,377,218318,1,0,0:2:0:0:
404,364,218397,1,0,0:2:0:0:
430,329,218476,1,0,0:2:0:0:
432,285,218555,5,10,0:2:0:0:
411,236,218634,1,0,0:2:0:0:
371,201,218713,1,0,0:2:0:0:
319,188,218792,1,0,0:2:0:0:
267,199,218871,1,8,0:2:0:0:
225,231,218950,1,0,0:2:0:0:
201,279,219029,1,2,0:2:0:0:
162,315,219108,1,0,0:2:0:0:
110,328,219187,1,8,0:2:0:0:
251,97,219345,1,8,0:2:0:0:
251,97,219424,1,8,0:2:0:0:
251,97,219503,1,10,0:2:0:0:
127,237,219660,1,8,0:2:0:0:
127,237,219739,1,8,0:2:0:0:
127,237,219818,1,14,0:2:0:0:
326,279,220134,5,0,0:2:0:0:
111,140,220292,1,0,0:2:0:0:
377,48,220450,1,8,0:2:0:0:
249,321,220608,1,8,0:2:0:0:
117,55,220766,1,8,0:2:0:0:
436,113,220924,1,8,0:2:0:0:
160,302,221081,6,0,P|86:260|85:173,1,145.91999821875,6|0,1:2|2:0,0:0:0:0:
198,112,221318,2,0,P|272:154|273:241,1,145.91999821875,2|0,1:2|2:2,0:0:0:0:
174,211,221555,1,2,1:2:0:0:
295,43,221713,6,0,P|390:26|462:28,1,165.120002519531,14|0,1:2|2:2,0:0:0:0:
423,182,221950,2,0,P|342:166|259:166,1,165.120002519531,10|0,1:2|2:2,0:0:0:0:
151,290,222187,1,10,1:2:0:0:
151,290,224555,6,0,P|125:269|93:275,1,60.4799981542969,2|0,2:2|2:2,0:0:0:0:
151,290,224871,6,0,B|159:220|102:221|50:152|72:48|199:28|231:130|231:130|284:39|402:70|442:256|231:224|245:346,1,734.400004482422,4|0,1:2|0:2,0:0:0:0:
252,302,226134,6,0,P|306:331|346:333,1,69.1200016875,6|0,1:2|0:2,0:0:0:0:
438,266,226450,2,0,P|405:276|377:296,1,69.1200016875,2|0,0:2|0:2,0:0:0:0:
468,342,226766,2,0,P|477:248|491:192,1,138.240003375,2|2,0:2|0:2,0:0:0:0:
413,22,227397,6,0,B|105:71|347:280|0:338,1,552.9600135,6|4,1:2|1:2,0:0:0:0:
434,144,229292,5,8,0:2:0:0:
359,280,229450,1,0,1:2:0:0:
359,280,229529,1,0,1:2:0:0:
359,280,229608,1,10,0:2:0:0:
269,40,229766,1,8,0:2:0:0:
466,201,229924,6,0,P|403:176|310:176,1,157.440002402344,6|0,0:2|0:2,0:0:0:0:
151,289,230397,1,0,1:2:0:0:
342,97,230555,2,0,P|286:147|183:148,1,157.440002402344,8|2,0:2|1:2,0:0:0:0:
41,53,231029,1,8,0:2:0:0:
156,251,231187,6,0,P|162:199|172:155,1,78.7200012011719,2|0,1:2|1:2,0:0:0:0:
286,24,231503,2,0,P|293:62|297:101,1,78.7200012011719,2|0,0:2|1:2,0:0:0:0:
387,314,231818,2,0,P|460:312|485:229,1,157.440002402344,10|2,0:2|0:2,0:0:0:0:
488,241,232450,6,0,L|481:186,3,48.9600002988281,14|0|0|0,0:2|0:2|0:2|0:2,0:0:0:0:
359,140,232766,2,0,L|352:188,3,48.9600002988281,8|0|0|0,0:2|0:2|0:2|0:2,0:0:0:0:
224,220,233081,1,8,0:2:0:0:
225,234,233160,1,0,0:2:0:0:
226,249,233239,1,0,0:2:0:0:
227,263,233318,1,0,0:2:0:0:
228,278,233397,1,8,0:2:0:0:
229,293,233476,1,0,0:2:0:0:
231,307,233555,1,0,0:2:0:0:
232,322,233634,1,0,0:2:0:0:
233,337,233713,5,6,1:2:0:0:
223,289,233792,1,0,0:2:0:0:
191,253,233871,1,8,0:2:0:0:
145,238,233950,1,8,0:2:0:0:
98,249,234029,1,8,0:3:0:0:
62,281,234108,1,4,0:3:0:0:
48,328,234187,5,0,0:2:0:0:
105,317,234266,1,0,0:2:0:0:
151,281,234345,1,8,0:2:0:0:
175,228,234424,1,8,0:2:0:0:
172,170,234503,1,8,0:3:0:0:
143,120,234581,1,4,0:3:0:0:
94,88,234660,5,10,0:2:0:0:
97,113,234739,1,8,0:2:0:0:
99,137,234818,1,8,0:2:0:0:
101,161,234897,1,8,0:2:0:0:
104,186,234976,5,6,0:2:0:0:
131,116,235055,1,0,0:2:0:0:
188,69,235134,1,8,0:2:0:0:
262,57,235213,1,0,0:2:0:0:
332,82,235292,1,0,0:2:0:0:
380,139,235371,1,0,0:2:0:0:
394,212,235450,1,8,0:2:0:0:
370,283,235529,1,0,0:2:0:0:
314,332,235608,1,0,0:2:0:0:
239,332,235687,1,0,0:2:0:0:
191,276,235766,1,8,0:2:0:0:
185,203,235845,1,0,0:2:0:0:
223,139,235924,1,2,0:2:0:0:
291,110,236003,1,0,0:2:0:0:
363,127,236081,1,8,0:2:0:0:
412,182,236160,1,0,0:2:0:0:
416,257,236239,6,0,L|424:324,3,53.76000065625,2|0|8|0,0:2|0:2|0:2|0:2,0:0:0:0:
259,201,236555,2,0,L|265:147,3,53.76000065625,2|0|8|0,0:2|0:2|0:2|0:2,0:0:0:0:
164,314,236871,2,0,L|172:381,3,53.76000065625,2|0|8|0,0:2|0:2|0:2|0:2,0:0:0:0:
7,258,237187,2,0,L|13:204,3,53.76000065625,2|0|8|0,0:2|0:2|0:2|0:2,0:0:0:0:
86,113,237503,5,2,0:2:0:0:
115,68,237581,1,0,0:2:0:0:
166,46,237660,1,8,0:2:0:0:
215,43,237739,1,0,0:2:0:0:
262,68,237818,1,2,0:2:0:0:
291,112,237897,1,0,0:2:0:0:
338,137,237976,1,10,0:2:0:0:
391,137,238055,1,0,0:2:0:0:
438,112,238134,1,0,0:2:0:0:
428,59,238213,1,0,0:2:0:0:
395,18,238292,1,8,0:2:0:0:
345,0,238371,1,0,0:2:0:0:
292,7,238450,1,0,0:2:0:0:
251,40,238529,1,0,0:2:0:0:
231,90,238608,1,8,0:2:0:0:
238,142,238687,1,0,0:2:0:0:
270,185,238766,5,0,0:2:0:0:
302,228,238845,1,0,0:2:0:0:
309,280,238924,1,8,0:2:0:0:
289,329,239003,1,0,0:2:0:0:
244,358,239081,1,0,0:2:0:0:
190,357,239160,1,0,0:2:0:0:
143,333,239239,1,8,0:2:0:0:
109,292,239318,1,0,0:2:0:0:
97,240,239397,1,2,0:2:0:0:
107,188,239476,1,0,0:2:0:0:
139,145,239555,1,8,0:2:0:0:
186,120,239634,1,0,0:2:0:0:
239,117,239713,1,2,0:2:0:0:
238,144,239792,1,0,0:2:0:0:
237,171,239871,1,8,0:2:0:0:
236,198,239950,1,0,0:2:0:0:
235,225,240029,5,6,0:2:0:0:
269,158,240108,1,0,0:2:0:0:
333,121,240187,1,8,0:2:0:0:
407,125,240266,1,0,0:2:0:0:
467,168,240345,1,0,0:2:0:0:
493,237,240424,1,0,0:2:0:0:
478,310,240503,1,10,0:2:0:0:
425,362,240581,1,0,0:2:0:0:
353,377,240660,1,0,0:2:0:0:
283,350,240739,1,0,0:2:0:0:
230,298,240818,1,8,0:2:0:0:
158,283,240897,1,0,0:2:0:0:
88,310,240976,1,2,0:2:0:0:
147,356,241055,1,0,0:2:0:0:
222,358,241134,1,8,0:2:0:0:
286,319,241213,1,0,0:2:0:0:
327,260,241292,5,2,0:2:0:0:
333,206,241371,1,0,0:2:0:0:
316,156,241450,1,8,0:2:0:0:
278,119,241529,1,0,0:2:0:0:
227,102,241608,1,2,0:2:0:0:
175,111,241687,1,0,0:2:0:0:
131,141,241766,1,8,0:2:0:0:
106,188,241845,1,0,0:2:0:0:
105,241,241924,1,2,0:2:0:0:
147,219,242003,1,0,0:2:0:0:
170,178,242081,1,8,0:2:0:0:
165,131,242160,1,0,0:2:0:0:
136,94,242239,1,2,0:2:0:0:
90,80,242318,1,0,0:2:0:0:
45,93,242397,1,8,0:2:0:0:
14,130,242476,1,0,0:2:0:0:
21,177,242555,5,6,0:2:0:0:
90,205,242634,1,0,0:2:0:0:
162,190,242713,1,8,0:2:0:0:
222,145,242792,1,0,0:2:0:0:
263,81,242871,1,0,0:2:0:0:
332,57,242950,1,0,0:2:0:0:
405,74,243029,1,8,0:2:0:0:
458,127,243108,1,0,0:2:0:0:
473,199,243187,1,0,0:2:0:0:
447,268,243266,1,0,0:2:0:0:
389,314,243345,1,8,0:2:0:0:
315,321,243424,1,0,0:2:0:0:
249,282,243503,1,0,0:2:0:0:
245,248,243581,1,0,0:2:0:0:
241,216,243660,1,8,0:2:0:0:
238,183,243739,1,0,0:2:0:0:
234,151,243818,5,4,0:3:0:0:
173,108,243897,1,4,0:3:0:0:
99,108,243976,1,4,0:3:0:0:
37,149,244055,1,4,0:3:0:0:
10,218,244134,1,4,0:3:0:0:
26,291,244213,1,4,0:3:0:0:
81,341,244292,1,4,0:3:0:0:
154,352,244371,1,4,0:3:0:0:
221,320,244450,1,4,0:3:0:0:
258,254,244529,1,4,0:3:0:0:
325,222,244608,1,4,0:3:0:0:
398,233,244687,1,4,0:3:0:0:
452,284,244766,2,0,L|465:149,1,107.5200013125,12|12,0:3|0:3,0:0:0:0:
216,43,245081,5,14,0:2:0:0:
216,43,245160,1,0,0:2:0:0:
216,43,245239,2,0,L|231:118,1,53.76000065625,0|0,0:2|0:2,0:2:0:0:
336,365,245397,1,8,0:2:0:0:
336,365,245476,1,0,0:2:0:0:
336,365,245555,2,0,L|351:290,1,53.76000065625,0|0,0:2|0:2,0:2:0:0:
349,48,245713,5,8,0:2:0:0:
349,48,245792,1,0,0:2:0:0:
349,48,245871,2,0,L|334:123,1,53.76000065625,0|0,0:2|0:2,0:2:0:0:
229,370,246029,1,10,0:2:0:0:
229,370,246108,1,0,0:2:0:0:
229,370,246187,2,0,L|214:295,1,53.76000065625,0|0,0:2|0:2,0:2:0:0:
98,151,246345,5,10,0:2:0:0:
98,151,246424,1,0,0:2:0:0:
98,151,246503,2,0,P|32:138|20:143,1,53.76000065625,0|0,0:2|0:2,0:2:0:0:
272,247,246660,1,10,0:2:0:0:
272,247,246739,1,0,0:2:0:0:
272,247,246818,2,0,P|298:243|321:230,1,53.76000065625,0|0,0:2|0:2,0:2:0:0:
55,274,246976,5,10,0:2:0:0:
55,274,247055,1,0,0:2:0:0:
55,274,247134,2,0,P|-11:261|-23:266,1,53.76000065625,0|0,0:2|0:2,0:2:0:0:
229,370,247291,1,10,0:2:0:0:
229,370,247370,1,0,0:2:0:0:
229,370,247450,2,0,P|255:366|278:353,1,53.76000065625,0|0,0:2|0:2,0:2:0:0:
363,75,247608,5,10,0:2:0:0:
363,75,247687,1,0,0:2:0:0:
363,75,247766,2,0,L|369:10,1,53.76000065625,0|0,0:2|0:2,0:2:0:0:
192,138,247924,1,10,0:2:0:0:
192,138,248003,1,0,0:2:0:0:
192,138,248082,2,0,L|186:73,1,53.76000065625,2|0,0:2|0:2,0:2:0:0:
464,159,248239,5,8,0:2:0:0:
464,159,248318,1,0,0:2:0:0:
464,159,248397,2,0,L|470:94,1,53.76000065625,0|0,0:2|0:2,0:2:0:0:
293,222,248555,1,8,0:2:0:0:
293,222,248634,1,0,0:2:0:0:
293,222,248713,2,0,L|287:157,1,53.76000065625,0|0,0:2|0:2,0:2:0:0:
423,314,248871,5,8,0:2:0:0:
423,314,248950,1,0,0:2:0:0:
423,314,249029,2,0,L|429:249,1,53.76000065625,0|0,0:2|0:2,0:2:0:0:
200,271,249187,1,8,0:2:0:0:
200,271,249266,1,0,0:2:0:0:
200,271,249345,2,0,L|194:206,1,53.76000065625,0|0,0:2|0:2,0:2:0:0:
323,383,249503,5,8,0:2:0:0:
323,383,249582,1,0,0:2:0:0:
323,383,249661,2,0,L|329:318,1,53.76000065625,0|0,0:2|0:2,0:2:0:0:
100,340,249818,1,10,0:2:0:0:
100,340,249897,1,0,0:2:0:0:
100,340,249976,2,0,L|94:275,1,53.76000065625,0|0,0:2|0:2,0:2:0:0:
404,167,250134,5,14,0:2:0:0:
404,167,250213,1,0,0:2:0:0:
404,167,250292,2,0,L|328:150,1,53.76000065625,0|0,0:2|0:2,0:2:0:0:
32,98,250450,1,8,0:2:0:0:
32,98,250529,1,0,0:2:0:0:
32,98,250608,2,0,L|108:81,1,53.76000065625,0|0,0:2|0:2,0:2:0:0:
407,66,250766,5,8,0:2:0:0:
407,66,250845,1,0,0:2:0:0:
407,66,250924,2,0,L|331:83,1,53.76000065625,0|0,0:2|0:2,0:2:0:0:
35,135,251081,1,10,0:2:0:0:
35,135,251161,1,0,0:2:0:0:
35,135,251240,2,0,L|111:152,1,53.76000065625,0|0,0:2|0:2,0:2:0:0:
344,299,251397,5,10,0:2:0:0:
344,299,251476,1,0,0:2:0:0:
344,299,251555,2,0,P|327:234|309:219,1,53.76000065625,0|0,0:2|0:2,0:2:0:0:
183,94,251713,1,10,0:2:0:0:
183,94,251792,1,0,0:2:0:0:
183,94,251871,2,0,P|200:159|218:174,1,53.76000065625,0|0,0:2|0:2,0:2:0:0:
434,306,252029,1,10,0:2:0:0:
434,306,252108,1,0,0:2:0:0:
434,306,252187,2,0,P|417:241|399:226,1,53.76000065625,0|0,0:2|0:2,0:2:0:0:
297,87,252345,1,10,0:2:0:0:
297,87,252424,1,0,0:2:0:0:
297,87,252503,2,0,P|314:152|332:167,1,53.76000065625,0|0,0:2|0:2,0:2:0:0:
231,364,252660,5,14,0:2:0:0:
271,329,252739,1,0,0:2:0:0:
289,280,252818,1,0,0:2:0:0:
280,227,252897,1,0,0:2:0:0:
245,187,252976,1,10,0:2:0:0:
209,147,253055,1,0,0:2:0:0:
200,95,253134,1,2,0:2:0:0:
220,45,253213,1,0,0:2:0:0:
262,14,253292,1,8,0:2:0:0:
315,9,253371,1,0,0:2:0:0:
362,33,253450,1,0,0:2:0:0:
390,79,253529,1,0,0:2:0:0:
390,132,253608,1,8,0:2:0:0:
369,182,253687,1,0,0:2:0:0:
369,235,253766,1,0,0:2:0:0:
397,281,253845,1,0,0:2:0:0:
442,309,253924,6,0,L|448:234,3,53.76000065625,8|4|4|4,0:3|0:3|0:3|0:3,0:3:0:0:
277,206,254239,2,0,L|281:259,3,53.76000065625,4|4|4|4,0:3|0:3|0:3|0:3,0:3:0:0:
159,133,254555,1,4,0:3:0:0:
106,128,254634,1,4,0:3:0:0:
62,156,254713,1,4,0:3:0:0:
45,206,254792,1,4,0:3:0:0:
63,256,254871,1,10,0:2:0:0:
90,252,254950,1,8,0:2:0:0:
116,248,255029,1,8,0:2:0:0:
143,244,255108,1,8,0:2:0:0:
169,240,255187,5,6,0:2:0:0:
208,302,255266,1,0,0:2:0:0:
274,337,255345,1,8,0:2:0:0:
348,333,255424,1,0,0:2:0:0:
410,292,255503,1,0,0:2:0:0:
443,225,255581,1,0,0:2:0:0:
438,151,255660,1,8,0:2:0:0:
395,90,255739,1,0,0:2:0:0:
328,58,255818,1,0,0:2:0:0:
254,71,255897,1,0,0:2:0:0:
203,127,255976,1,8,0:2:0:0:
139,166,256055,1,0,0:2:0:0:
62,159,256134,1,2,0:2:0:0:
28,96,256213,1,0,0:2:0:0:
64,34,256292,1,8,0:2:0:0:
136,31,256371,1,0,0:2:0:0:
184,90,256450,6,0,L|179:167,3,53.76000065625,2|0|8|0,0:2|0:2|0:2|0:2,0:0:0:0:
94,252,256766,2,0,L|90:198,3,53.76000065625,2|0|8|0,0:2|0:2|0:2|0:2,0:0:0:0:
301,198,257081,2,0,L|296:275,3,53.76000065625,2|0|8|0,0:2|0:2|0:2|0:2,0:0:0:0:
211,360,257397,2,0,L|207:306,3,53.76000065625,2|0|8|0,0:2|0:2|0:2|0:2,0:0:0:0:
379,360,257713,5,2,0:2:0:0:
416,321,257792,1,0,0:2:0:0:
434,271,257871,1,8,0:2:0:0:
429,218,257950,1,0,0:2:0:0:
403,171,258029,1,2,0:2:0:0:
358,142,258108,1,0,0:2:0:0:
348,91,258187,1,10,0:2:0:0:
377,48,258266,1,0,0:2:0:0:
429,40,258345,1,0,0:2:0:0:
471,71,258424,1,0,0:2:0:0:
477,123,258503,1,8,0:2:0:0:
432,151,258581,1,0,0:2:0:0:
379,162,258660,1,0,0:2:0:0:
327,166,258739,1,0,0:2:0:0:
275,152,258818,1,8,0:2:0:0:
229,125,258897,1,0,0:2:0:0:
192,86,258976,5,0,0:2:0:0:
148,58,259055,1,0,0:2:0:0:
98,71,259134,1,8,0:2:0:0:
74,117,259213,1,0,0:2:0:0:
93,166,259292,1,0,0:2:0:0:
134,200,259371,1,0,0:2:0:0:
140,253,259450,1,8,0:2:0:0:
120,303,259529,1,0,0:2:0:0:
80,338,259608,1,2,0:2:0:0:
91,286,259687,1,0,0:2:0:0:
125,244,259766,1,8,0:2:0:0:
173,221,259845,1,0,0:2:0:0:
226,222,259924,1,2,0:2:0:0:
228,249,260003,1,0,0:2:0:0:
230,275,260081,1,8,0:2:0:0:
232,302,260160,1,0,0:2:0:0:
234,329,260239,5,6,0:2:0:0:
182,275,260318,1,0,0:2:0:0:
163,203,260397,1,8,0:2:0:0:
183,131,260476,1,0,0:2:0:0:
235,79,260555,1,0,0:2:0:0:
307,60,260634,1,0,0:2:0:0:
379,79,260713,1,10,0:2:0:0:
432,131,260792,1,0,0:2:0:0:
452,203,260871,1,0,0:2:0:0:
388,165,260950,1,0,0:2:0:0:
354,100,261029,1,8,0:2:0:0:
378,31,261108,1,0,0:2:0:0:
446,0,261187,1,2,0:2:0:0:
439,74,261266,1,0,0:2:0:0:
401,139,261345,1,8,0:2:0:0:
339,180,261424,1,0,0:2:0:0:
265,189,261503,5,2,0:2:0:0:
214,175,261581,1,0,0:2:0:0:
184,132,261660,1,8,0:2:0:0:
191,80,261739,1,0,0:2:0:0:
231,46,261818,1,2,0:2:0:0:
241,97,261897,1,0,0:0:0:0:
223,147,261976,1,8,0:2:0:0:
181,180,262055,1,0,0:0:0:0:
128,186,262134,1,2,0:2:0:0:
173,157,262213,1,0,0:0:0:0:
225,166,262292,1,8,0:2:0:0:
257,207,262371,1,0,0:0:0:0:
264,261,262450,1,2,0:2:0:0:
296,302,262529,1,0,0:0:0:0:
346,320,262608,1,8,0:2:0:0:
398,313,262687,1,0,0:0:0:0:
438,276,262766,5,6,0:2:0:0:
422,203,262845,1,0,0:0:0:0:
363,159,262924,1,8,0:2:0:0:
290,164,263003,1,0,0:0:0:0:
238,216,263081,1,0,0:0:0:0:
185,267,263160,1,0,0:0:0:0:
112,272,263239,1,8,0:2:0:0:
53,228,263318,1,0,0:0:0:0:
47,152,263397,1,0,0:0:0:0:
106,107,263476,1,0,0:0:0:0:
180,112,263555,1,8,0:2:0:0:
232,164,263634,1,0,0:0:0:0:
285,215,263713,1,0,0:0:0:0:
358,220,263792,1,0,0:0:0:0:
417,176,263871,1,8,0:2:0:0:
448,107,263950,1,0,0:0:0:0:
439,32,264029,5,4,0:3:0:0:
386,31,264108,1,0,0:0:0:0:
339,50,264187,1,4,0:3:0:0:
312,96,264266,1,4,0:3:0:0:
314,150,264345,1,4,0:3:0:0:
330,202,264424,1,4,0:3:0:0:
314,254,264503,1,4,0:3:0:0:
267,278,264581,1,4,0:3:0:0:
214,281,264660,1,4,0:3:0:0:
162,265,264739,5,8,0:2:0:0:
211,244,264818,1,8,0:2:0:0:
265,248,264897,1,8,0:2:0:0:
311,275,264976,1,8,0:2:0:0:
357,302,265055,1,8,0:2:0:0:
410,305,265134,1,8,0:2:0:0:
459,285,265213,1,8,0:2:0:0:
485,242,265292,5,6,0:2:0:0:
488,187,265371,1,0,0:2:0:0:
464,139,265450,1,8,0:2:0:0:
419,108,265529,1,0,0:2:0:0:
365,103,265608,1,0,0:2:0:0:
315,125,265687,1,0,0:2:0:0:
282,169,265766,2,0,P|258:187|199:190,1,48.9600002988281,10|0,0:2|0:2,0:0:0:0:
162,265,265924,2,0,P|181:280|204:287,1,48.9600002988281,2|0,0:2|0:2,0:0:0:0:
235,112,266081,1,10,0:2:0:0:
235,112,266160,1,2,0:2:0:0:
235,112,266239,2,0,P|219:49|221:32,1,48.9600002988281,2|0,0:2|0:2,0:0:0:0:
387,210,266397,2,0,P|381:233|371:256,1,48.9600002988281,10|0,0:2|0:2,0:0:0:0:
147,353,266555,5,2,0:2:0:0:
104,330,266634,1,0,0:2:0:0:
78,289,266713,1,8,0:2:0:0:
77,241,266792,1,0,0:2:0:0:
101,198,266871,1,0,0:2:0:0:
102,150,266950,1,0,0:2:0:0:
79,108,267029,2,0,P|37:67|19:62,1,48.9600002988281,10|0,0:2|0:2,0:0:0:0:
162,265,267187,2,0,P|223:245|239:230,1,48.9600002988281,2|0,0:2|0:2,0:0:0:0:
308,53,267345,2,0,P|350:12|368:7,1,48.9600002988281,10|0,0:2|0:2,0:0:0:0:
356,280,267503,2,0,P|295:260|279:245,1,48.9600002988281,2|0,0:2|0:2,0:0:0:0:
170,64,267660,2,0,P|128:23|110:18,1,48.9600002988281,10|0,0:2|0:2,0:0:0:0:
358,199,267818,5,2,0:2:0:0:
391,165,267897,1,0,0:2:0:0:
394,117,267976,1,8,0:2:0:0:
364,80,268055,1,0,0:2:0:0:
317,72,268134,1,0,0:2:0:0:
276,98,268213,1,0,0:2:0:0:
246,135,268292,1,10,0:2:0:0:
198,143,268371,1,0,0:2:0:0:
158,117,268450,2,0,L|151:207,1,48.9600002988281,2|0,0:2|0:2,0:0:0:0:
148,323,268608,1,10,0:2:0:0:
187,350,268687,1,0,0:2:0:0:
235,350,268766,1,0,0:2:0:0:
274,321,268845,1,0,0:2:0:0:
312,292,268924,1,10,0:2:0:0:
361,292,269003,1,0,0:2:0:0:
400,319,269081,5,2,0:2:0:0:
352,307,269160,1,0,0:2:0:0:
314,277,269239,1,8,0:2:0:0:
293,233,269318,1,0,0:2:0:0:
293,184,269397,1,0,0:2:0:0:
314,140,269476,1,0,0:2:0:0:
351,109,269555,2,0,P|340:179|329:200,1,48.9600002988281,10|0,0:2|0:2,0:0:0:0:
156,255,269713,1,2,0:3:0:0:
111,235,269792,1,0,0:3:0:0:
81,197,269871,1,4,0:3:0:0:
70,150,269950,1,4,0:3:0:0:
81,103,270029,1,4,0:3:0:0:
113,65,270108,1,4,0:3:0:0:
157,46,270187,1,10,0:2:0:0:
206,49,270266,1,0,0:2:0:0:
244,79,270345,5,6,0:2:0:0:
277,121,270424,1,0,0:2:0:0:
326,144,270503,1,8,0:2:0:0:
380,143,270581,1,0,0:2:0:0:
428,118,270660,1,0,0:2:0:0:
459,73,270739,1,0,0:2:0:0:
467,19,270818,2,0,P|440:77|440:103,1,48.9600002988281,10|0,0:2|0:2,0:0:0:0:
418,249,270976,1,2,0:2:0:0:
392,290,271055,1,0,0:2:0:0:
351,315,271134,1,10,0:2:0:0:
302,321,271213,1,2,0:2:0:0:
256,304,271292,2,0,P|240:240|240:224,1,48.9600002988281,2|0,0:2|0:2,0:0:0:0:
183,75,271450,2,0,P|177:98|168:121,1,48.9600002988281,10|0,0:2|0:2,0:0:0:0:
50,260,271608,5,2,0:2:0:0:
84,225,271687,1,0,0:2:0:0:
128,205,271766,1,8,0:2:0:0:
177,204,271845,1,0,0:2:0:0:
222,221,271924,1,0,0:2:0:0:
267,238,272003,1,0,0:2:0:0:
316,236,272081,1,10,0:2:0:0:
360,217,272160,1,0,0:2:0:0:
394,182,272239,2,0,L|399:125,3,48.9600002988281,2|0|8|0,0:2|0:2|0:2|0:2,0:0:0:0:
363,314,272555,2,0,P|312:330|289:325,1,48.9600002988281,2|0,0:2|0:2,0:0:0:0:
290,126,272713,2,0,P|239:110|216:115,1,48.9600002988281,10|0,0:2|0:2,0:0:0:0:
142,284,272871,5,6,0:2:0:0:
96,266,272950,1,0,0:2:0:0:
61,232,273029,1,8,0:2:0:0:
42,188,273108,1,0,0:2:0:0:
43,139,273187,1,0,0:2:0:0:
62,94,273266,1,0,0:2:0:0:
97,61,273345,1,10,0:3:0:0:
143,44,273424,1,8,0:3:0:0:
192,47,273503,6,0,P|263:77|292:134,1,136.319993135743,12|0,1:2|0:2,0:0:0:0:
257,294,273739,2,0,P|194:271|158:214,1,136.319993135743,8|0,1:2|0:2,0:0:0:0:
203,139,273976,1,8,1:2:0:0:
431,263,274134,5,12,1:2:0:0:
489,218,274213,1,0,1:2:0:0:
504,146,274292,1,0,1:2:0:0:
467,83,274371,1,0,1:2:0:0:
398,59,274450,1,0,1:2:0:0:
330,87,274529,1,0,1:2:0:0:
298,153,274608,5,12,1:2:0:0:
266,219,274687,1,0,1:2:0:0:
198,247,274766,1,0,1:2:0:0:
129,223,274845,1,0,1:2:0:0:
92,160,274924,1,0,1:2:0:0:
107,88,275003,1,0,1:2:0:0:
169,48,275081,5,12,1:2:0:0:
212,122,275160,1,8,1:2:0:0:
183,202,275239,1,8,1:2:0:0:
110,245,275318,1,8,1:2:0:0:
25,228,275397,5,14,1:2:0:0:
453,98,275634,5,14,1:2:0:0:
31,50,275871,6,0,B|370:53|160:292|504:362,1,587.520003585938,14|0,1:2|2:2,0:0:0:0:
