osu file format v14

[General]
AudioFilename: audio.mp3
AudioLeadIn: 0
PreviewTime: 115221
Countdown: 1
SampleSet: None
StackLeniency: 0.7
Mode: 0
LetterboxInBreaks: 0
WidescreenStoryboard: 0

[Editor]
DistanceSpacing: 0.8
BeatDivisor: 4
GridSize: 32
TimelineZoom: 1

[Metadata]
Title:ODDS&ENDS
TitleUnicode:ODDS&ENDS
Artist:ryp(supercell)
ArtistUnicode:ryp(supercell)
Creator:Idrise
Version:Forever
Source:
Tags:
BeatmapID:1932776
BeatmapSetID:925267

[Difficulty]
HPDrainRate:6
CircleSize:4
OverallDifficulty:5
ApproachRate:9.4
SliderMultiplier:1.3
SliderTickRate:1

[Events]
//Background and Video events
0,0,"Black.jpg",0,0
//Break Periods
//Storyboard Layer 0 (Background)
//Storyboard Layer 1 (Fail)
//Storyboard Layer 2 (Pass)
//Storyboard Layer 3 (Foreground)
//Storyboard Sound Samples

[TimingPoints]
9206,312.5,4,1,0,10,1,0
32487,-104.166666666667,4,1,0,10,0,0
35221,-117.647058823529,4,1,0,10,0,0
45299,-100,4,1,0,10,0,0
120299,-66.6666666666667,4,1,0,10,0,0
150299,-100,4,1,0,10,0,0

[HitObjects]
256,192,6706,12,0,9206,0:0:0:0:
387,88,10456,5,0,0:0:0:0:
387,88,10612,1,0,0:0:0:0:
360,172,10768,2,0,L|284:213,1,65
330,50,11081,1,0,0:0:0:0:
384,314,11393,1,0,0:0:0:0:
57,284,11706,1,0,0:0:0:0:
260,197,12018,1,0,0:0:0:0:
69,110,12331,1,0,0:0:0:0:
414,43,12643,1,0,0:0:0:0:
424,301,12956,6,0,L|366:279,1,32.5
204,148,13268,1,0,0:0:0:0:
211,331,13581,1,0,0:0:0:0:
348,122,13893,1,0,0:0:0:0:
386,315,14206,1,0,0:0:0:0:
202,69,14518,1,0,0:0:0:0:
222,330,14831,1,0,0:0:0:0:
338,57,15144,1,0,0:0:0:0:
308,173,15456,5,0,0:0:0:0:
308,173,15612,1,0,0:0:0:0:
308,173,15768,2,0,L|336:249,1,65
236,228,16081,1,0,0:0:0:0:
218,138,16393,1,0,0:0:0:0:
364,289,16706,1,0,0:0:0:0:
358,117,17018,1,0,0:0:0:0:
179,278,17331,1,0,0:0:0:0:
410,293,17643,1,0,0:0:0:0:
126,153,17956,6,0,L|167:176,1,32.5
320,313,18268,1,0,0:0:0:0:
236,77,18581,1,0,0:0:0:0:
385,158,18893,1,0,0:0:0:0:
236,77,19206,1,0,0:0:0:0:
149,194,19518,1,0,0:0:0:0:
331,83,19831,1,0,0:0:0:0:
395,264,20143,1,0,0:0:0:0:
201,269,20456,5,0,0:0:0:0:
201,269,20612,1,0,0:0:0:0:
194,266,20768,2,0,L|226:191,1,65
291,297,21080,1,0,0:0:0:0:
125,160,21393,1,0,0:0:0:0:
228,104,21706,1,0,0:0:0:0:
120,304,22018,1,0,0:0:0:0:
395,102,22331,1,0,0:0:0:0:
80,219,22643,1,0,0:0:0:0:
466,249,22956,6,0,L|416:230,1,32.5
116,85,23268,1,0,0:0:0:0:
164,335,23581,1,0,0:0:0:0:
329,66,23893,1,0,0:0:0:0:
393,317,24206,1,0,0:0:0:0:
146,87,24518,1,0,0:0:0:0:
98,301,24831,1,0,0:0:0:0:
411,180,25143,1,0,0:0:0:0:
362,310,25456,5,0,0:0:0:0:
362,310,25612,1,0,0:0:0:0:
362,310,25768,2,0,L|292:274,1,65
382,229,26081,1,0,0:0:0:0:
148,149,26393,1,0,0:0:0:0:
399,113,26706,1,0,0:0:0:0:
200,42,27018,1,0,0:0:0:0:
332,68,27331,1,0,0:0:0:0:
288,255,27643,1,0,0:0:0:0:
161,236,27956,6,0,L|174:200,1,32.5
213,71,28268,1,0,0:0:0:0:
353,180,28581,1,0,0:0:0:0:
274,281,28893,1,0,0:0:0:0:
148,192,29206,1,0,0:0:0:0:
250,66,29518,1,0,0:0:0:0:
360,177,29831,1,0,0:0:0:0:
148,192,30143,1,0,0:0:0:0:
326,94,30456,5,0,0:0:0:0:
326,94,30612,1,0,0:0:0:0:
326,94,30768,2,0,L|270:140,1,65
232,68,31081,1,0,0:0:0:0:
319,297,31393,1,0,0:0:0:0:
168,156,31706,1,0,0:0:0:0:
208,309,32018,1,0,0:0:0:0:
72,227,32331,1,0,0:0:0:0:
85,317,32643,6,0,B|252:183|280:47|83:5|4:92|-21:286|195:259|328:294|497:220|531:53|270:-61|219:85|226:233|461:254,1,975
333,300,35300,5,0,0:0:0:0:
333,300,35378,1,0,0:0:0:0:
333,300,35456,2,0,L|218:293,1,109.199996667481
142,210,36081,2,0,L|250:203,1,109.199996667481
379,120,36706,2,0,L|270:113,1,109.199996667481
161,120,37331,2,0,L|269:113,1,109.199996667481
167,228,37877,1,0,0:0:0:0:
167,228,37956,2,0,L|161:120,1,109.199996667481
370,275,38581,2,0,L|254:256,1,110.50000210762
367,275,39206,5,0,0:0:0:0:
265,253,39518,1,0,0:0:0:0:
168,229,39831,1,0,0:0:0:0:
460,295,40143,1,0,0:0:0:0:
424,196,40299,5,0,0:0:0:0:
424,196,40456,2,0,P|455:237|452:314,1,110.50000210762
355,117,41081,2,0,P|399:144|423:217,1,110.50000210762
263,67,41706,2,0,P|313:76|363:136,1,110.50000210762
165,29,42331,2,0,P|215:31|272:85,1,110.50000210762
81,116,42956,6,0,L|124:222,1,110.50000210762
169,318,43581,2,0,L|118:209,1,110.50000210762
172,321,44206,5,0,0:0:0:0:
122,217,44518,1,0,0:0:0:0:
81,116,44831,1,0,0:0:0:0:
239,180,45143,1,0,0:0:0:0:
247,88,45456,6,0,B|218:137|218:137|265:186,1,110.50000210762
376,184,45924,1,0,0:0:0:0:
412,295,46081,2,0,P|369:278|284:303,1,130
376,184,46549,1,0,0:0:0:0:
266,216,46862,2,0,P|238:187|258:94,2,130
302,133,47643,2,0,P|275:110|236:104,1,65
124,93,47956,5,0,0:0:0:0:
124,93,48034,1,0,0:0:0:0:
124,93,48112,2,0,L|117:167,1,65
200,70,48424,2,0,P|251:92|260:119,1,65
262,185,48737,1,0,0:0:0:0:
167,292,48893,1,0,0:0:0:0:
262,185,49049,2,0,P|315:141|371:162,1,130
167,292,49674,1,0,0:0:0:0:
240,242,49831,1,0,0:0:0:0:
318,196,49987,2,0,P|297:159|231:133,1,97.5
402,149,50456,5,0,0:0:0:0:
402,149,50534,1,0,0:0:0:0:
402,149,50612,2,0,L|446:201,2,65
333,95,51237,2,0,L|289:42,2,65
234,123,51706,1,0,0:0:0:0:
234,123,51784,1,0,0:0:0:0:
234,123,51862,2,0,L|179:172,1,65
106,113,52174,1,0,0:0:0:0:
98,216,52331,2,0,P|128:256|154:266,1,65
274,308,52643,6,0,L|206:288,2,65
296,308,53034,1,0,0:0:0:0:
316,303,53112,2,0,L|330:235,1,65
342,157,53424,2,0,B|287:116|287:116|231:157,1,130
282,198,53893,2,0,L|191:95,1,130
176,87,54284,1,0,0:0:0:0:
158,83,54362,2,0,L|101:126,1,65
95,201,54674,2,0,P|134:241|164:247,2,65
288,169,55221,5,0,0:0:0:0:
288,169,55299,1,0,0:0:0:0:
288,169,55377,2,0,L|306:246,1,65
214,232,55924,2,0,P|181:255|141:269,2,65
200,153,56549,2,0,P|153:136|88:202,3,130
122,60,57643,1,0,0:0:0:0:
141,188,57799,5,0,0:0:0:0:
141,188,57877,1,0,0:0:0:0:
141,188,57956,2,0,L|157:251,1,65
178,331,58268,1,0,0:0:0:0:
157,251,58424,1,0,0:0:0:0:
141,188,58581,5,0,0:0:0:0:
141,188,58659,1,0,0:0:0:0:
141,188,58737,2,0,L|123:124,1,65
236,166,59206,5,0,0:0:0:0:
236,166,59284,1,0,0:0:0:0:
236,166,59362,2,0,L|254:230,1,65
331,204,59674,2,0,L|332:161,1,32.5
336,96,59831,2,0,L|338:29,2,65
329,206,60299,1,0,0:0:0:0:
323,295,60456,5,0,0:0:0:0:
323,295,60534,1,0,0:0:0:0:
323,295,60612,2,0,L|247:308,1,65
162,327,60924,2,0,P|116:306|113:272,1,65
170,224,61237,1,0,0:0:0:0:
65,155,61393,1,0,0:0:0:0:
185,99,61549,1,0,0:0:0:0:
287,180,61706,5,0,0:0:0:0:
287,180,61784,1,0,0:0:0:0:
287,180,61862,2,0,L|302:273,1,65
231,276,62174,2,0,L|146:171,1,130
126,226,62643,2,0,L|132:180,1,32.5
181,124,62956,2,0,P|235:109|320:144,1,130
326,102,63424,2,0,P|286:119|257:155,2,65
420,158,64049,2,0,B|449:226|386:262|426:306,1,130
322,185,64674,2,0,B|248:174|248:174|193:200,1,130
383,82,65456,5,0,0:0:0:0:
367,106,65534,1,0,0:0:0:0:
374,134,65612,1,0,0:0:0:0:
362,160,65690,1,0,0:0:0:0:
370,187,65768,2,0,B|408:217|339:282|403:315,1,130
219,110,66393,2,0,L|238:253,1,130
90,77,67018,2,0,L|97:217,1,130
127,296,67643,2,0,L|111:219,1,65
88,148,67956,5,0,0:0:0:0:
334,295,68112,1,0,0:0:0:0:
240,107,68268,1,0,0:0:0:0:
240,107,68424,1,0,0:0:0:0:
354,138,68581,2,0,L|262:239,1,130
444,61,69206,2,0,L|418:204,1,130
357,261,69831,2,0,L|218:327,1,130
138,258,70456,5,0,0:0:0:0:
151,232,70534,1,0,0:0:0:0:
180,230,70612,1,0,0:0:0:0:
186,201,70690,1,0,0:0:0:0:
214,196,70768,2,0,L|317:116,1,130
265,313,71393,2,0,L|391:250,1,130
123,107,72018,2,0,L|251:164,1,130
302,59,72643,6,0,L|267:124,1,65
208,209,72956,1,0,0:0:0:0:
213,213,73112,1,0,0:0:0:0:
271,116,73268,2,0,L|406:169,1,130
115,165,73893,2,0,L|258:209,1,130
89,60,74518,2,0,L|212:106,1,130
310,78,75143,2,0,L|285:137,1,65
386,185,75456,6,0,P|414:217|408:264,1,65
271,197,75768,2,0,P|299:229|293:276,1,65
151,206,76081,2,0,P|179:238|173:285,1,65
162,139,76393,2,0,P|191:108|239:109,1,65,0|0,0:0|2:0,0:0:0:0:
85,169,76706,2,0,P|55:180|36:206,1,65,0|0,0:0|2:0,0:0:0:0:
96,97,77018,2,0,P|85:66|59:47,1,65,0|0,0:0|2:0,0:0:0:0:
157,252,77331,2,0,P|126:262|107:288,1,65,0|0,0:0|2:0,0:0:0:0:
287,214,77643,2,0,P|264:191|232:185,1,65,0|0,0:0|2:0,0:0:0:0:
368,300,77956,5,0,0:0:0:0:
368,300,78034,1,0,0:0:0:0:
368,300,78112,2,0,B|423:275|423:275|428:202,1,130
146,75,78581,2,0,B|130:113|130:113|130:164,1,65
179,229,78893,2,0,B|219:236|219:236|269:224,1,65
351,119,79206,2,0,B|335:157|335:157|335:208,1,65
319,242,79518,2,0,B|319:218|319:218|335:180,1,65
275,78,79831,2,0,B|259:116|259:116|259:167,1,65
142,249,80143,2,0,B|126:287|126:287|126:338,1,65
196,158,80456,5,0,0:0:0:0:
196,158,80534,1,0,0:0:0:0:
196,158,80612,2,0,L|314:237,1,130
344,89,81081,2,0,L|331:160,1,65
389,246,81393,2,0,L|346:330,1,65
287,57,81706,5,0,0:0:0:0:
287,57,81784,1,0,0:0:0:0:
287,57,81862,2,0,P|248:100|261:174,1,130
397,172,82331,2,0,P|351:186|328:208,1,65
173,196,82643,2,0,P|146:178|115:172,1,65
398,245,82956,2,0,P|352:259|329:281,1,65
198,134,83268,2,0,P|170:116|139:109,1,65
419,318,83581,2,0,P|373:332|350:354,1,65
218,70,83893,2,0,P|190:52|159:45,1,65
295,186,84206,6,0,B|332:173|332:173|376:181,1,65
211,191,84518,2,0,P|161:197|136:179,1,65
252,191,84831,1,0,0:0:0:0:
435,69,84987,5,0,0:0:0:0:
446,95,85065,1,0,0:0:0:0:
427,117,85143,1,0,0:0:0:0:
434,145,85221,1,0,0:0:0:0:
419,170,85299,2,0,P|430:202|409:253,1,65
278,174,85612,1,0,0:0:0:0:
137,106,85768,2,0,P|88:95|58:110,1,65
110,251,86081,1,0,0:0:0:0:
264,273,86237,2,0,P|319:267|350:281,1,65
285,119,86549,5,0,0:0:0:0:
128,110,86706,2,0,P|125:153|146:175,1,65
227,41,87018,1,0,0:0:0:0:
210,195,87174,2,0,P|253:206|280:198,1,65
408,123,87487,1,0,0:0:0:0:
362,271,87643,2,0,L|341:344,1,65
309,180,87956,1,0,0:0:0:0:
444,256,88112,2,0,L|481:316,1,65
415,168,88424,6,0,P|370:138|331:140,2,65
285,81,88893,1,0,0:0:0:0:
134,122,89049,2,0,P|116:177|124:212,1,65
221,299,89362,1,0,0:0:0:0:
353,217,89518,2,0,P|373:174|367:138,3,65
221,117,90143,2,0,P|195:153|202:180,1,65
345,119,90456,6,0,B|359:179|359:179|329:251,1,130
231,123,90924,1,0,0:0:0:0:
118,232,91081,2,0,B|114:272|114:272|142:296,1,65
345,277,91393,1,0,0:0:0:0:
207,140,91549,1,0,0:0:0:0:
405,94,91706,1,0,0:0:0:0:
323,175,91862,2,0,L|308:97,1,65
140,272,92174,6,0,L|267:309,1,130
122,191,92643,1,0,0:0:0:0:
320,202,92799,2,0,L|195:165,1,130
405,88,93268,2,0,L|412:164,1,65
111,93,93581,2,0,L|103:173,1,65
323,100,93893,2,0,L|267:155,1,65
218,232,94206,6,0,B|167:201|220:142|178:111,1,130
212,113,94674,6,0,B|249:140|196:199|247:230,1,130
409,276,95456,5,0,0:0:0:0:
368,287,95534,1,0,0:0:0:0:
328,301,95612,1,0,0:0:0:0:
288,316,95690,2,0,P|239:307|252:208,1,162.5
94,85,96237,1,0,0:0:0:0:
385,107,96393,2,0,P|375:152|351:172,1,65
177,291,96706,1,0,0:0:0:0:
216,104,96862,2,0,P|254:75|281:75,2,65
291,162,97331,2,0,P|253:191|226:191,2,65
90,60,97799,5,0,0:0:0:0:
102,100,97877,1,0,0:0:0:0:
112,141,97956,1,0,0:0:0:0:
124,181,98034,2,0,B|103:233|103:233|133:278,1,97.5
371,76,98424,1,0,0:0:0:0:
384,285,98581,2,0,P|359:309|317:323,1,65
147,76,98893,1,0,0:0:0:0:
384,285,99049,2,0,P|359:309|317:323,2,65
285,124,99518,1,0,0:0:0:0:
173,292,99674,2,0,L|106:252,1,65
424,274,99987,1,0,0:0:0:0:
142,110,100143,2,0,P|130:146|137:175,1,65
358,137,100456,5,0,0:0:0:0:
329,167,100534,1,0,0:0:0:0:
298,196,100612,1,0,0:0:0:0:
273,230,100690,2,0,L|199:314,1,97.5
143,62,101081,2,0,P|106:69|95:108,1,65
394,335,101393,1,0,0:0:0:0:
418,220,101549,1,0,0:0:0:0:
297,247,101706,6,0,P|243:266|284:281,1,130
244,79,102174,2,0,L|258:167,1,65
120,53,102487,2,0,L|50:260,1,195
241,322,103268,2,0,L|322:330,1,65
105,167,103581,2,0,L|179:176,1,65
401,135,103893,2,0,L|337:127,1,65
93,266,104206,2,0,L|183:280,1,65
437,67,104518,2,0,L|361:46,1,65
157,202,104831,2,0,L|171:288,1,65
383,288,105143,5,0,0:0:0:0:
351,260,105221,1,0,0:0:0:0:
348,217,105299,2,0,L|368:135,1,65
176,89,105612,1,0,0:0:0:0:
163,166,105768,1,0,0:0:0:0:
234,138,105924,1,0,0:0:0:0:
432,313,106081,1,0,0:0:0:0:
376,354,106237,1,0,0:0:0:0:
363,283,106393,1,0,0:0:0:0:
224,83,106549,5,0,0:0:0:0:
93,268,106706,1,0,0:0:0:0:
129,339,106863,1,0,0:0:0:0:
167,270,107019,1,0,0:0:0:0:
85,229,107174,2,0,L|141:159,1,65
274,129,107487,5,0,0:0:0:0:
317,272,107643,1,0,0:0:0:0:
317,272,107799,1,0,0:0:0:0:
206,235,107956,1,0,0:0:0:0:
391,140,108112,1,0,0:0:0:0:
416,315,108268,1,0,0:0:0:0:
274,129,108424,1,0,0:0:0:0:
241,325,108581,1,0,0:0:0:0:
171,117,108737,1,0,0:0:0:0:
119,203,108893,1,0,0:0:0:0:
421,60,109049,5,0,0:0:0:0:
452,129,109206,1,0,0:0:0:0:
381,121,109362,1,0,0:0:0:0:
421,60,109518,1,0,0:0:0:0:
452,129,109674,1,0,0:0:0:0:
420,202,109831,1,0,0:0:0:0:
367,253,109987,1,0,0:0:0:0:
302,291,110143,2,0,P|244:279|223:268,1,65
276,133,110456,5,0,0:0:0:0:
181,168,110612,1,0,0:0:0:0:
238,57,110768,1,0,0:0:0:0:
228,231,110924,1,0,0:0:0:0:
155,86,111081,1,0,0:0:0:0:
311,208,111237,1,0,0:0:0:0:
105,154,111393,1,0,0:0:0:0:
381,166,111549,1,0,0:0:0:0:
181,268,111706,1,0,0:0:0:0:
241,64,111862,1,0,0:0:0:0:
339,280,112018,1,0,0:0:0:0:
128,128,112174,1,0,0:0:0:0:
381,166,112331,1,0,0:0:0:0:
143,286,112487,1,0,0:0:0:0:
350,52,112643,1,0,0:0:0:0:
425,273,112799,5,0,0:0:0:0:
178,57,112956,1,0,0:0:0:0:
246,278,113112,1,0,0:0:0:0:
387,64,113268,1,0,0:0:0:0:
130,203,113424,1,0,0:0:0:0:
456,195,113581,1,0,0:0:0:0:
240,62,113737,1,0,0:0:0:0:
331,287,113893,1,0,0:0:0:0:
147,75,114049,1,0,0:0:0:0:
417,301,114206,1,0,0:0:0:0:
303,307,114362,5,0,0:0:0:0:
342,85,114518,1,0,0:0:0:0:
179,273,114674,1,0,0:0:0:0:
342,85,114831,1,0,0:0:0:0:
99,179,114987,1,0,0:0:0:0:
342,85,115143,1,0,0:0:0:0:
107,72,115299,6,0,P|99:117|110:152,1,65
216,65,115612,1,0,0:0:0:0:
210,265,115768,1,0,0:0:0:0:
323,55,115924,1,0,0:0:0:0:
311,270,116081,1,0,0:0:0:0:
444,53,116237,1,0,0:0:0:0:
439,273,116393,1,0,0:0:0:0:
447,195,116549,1,0,0:0:0:0:
289,69,116706,1,0,0:0:0:0:
452,205,116862,1,0,0:0:0:0:
274,302,117018,1,0,0:0:0:0:
453,206,117174,1,0,0:0:0:0:
204,72,117331,1,0,0:0:0:0:
455,206,117487,1,0,0:0:0:0:
169,306,117643,1,0,0:0:0:0:
301,169,117799,6,0,L|216:200,1,65
325,98,118112,1,0,0:0:0:0:
167,237,118268,1,0,0:0:0:0:
394,219,118424,1,0,0:0:0:0:
147,130,118581,1,0,0:0:0:0:
387,66,118737,1,0,0:0:0:0:
171,282,118893,1,0,0:0:0:0:
382,299,119049,1,0,0:0:0:0:
231,54,119206,5,0,0:0:0:0:
215,82,119284,1,0,0:0:0:0:
210,114,119362,1,0,0:0:0:0:
214,146,119440,1,0,0:0:0:0:
222,178,119518,1,0,0:0:0:0:
223,210,119596,1,0,0:0:0:0:
209,239,119674,1,0,0:0:0:0:
186,262,119752,1,0,0:0:0:0:
166,278,119831,2,0,P|115:287|108:218,1,130
352,136,120456,6,0,L|368:210,1,65
433,50,120768,1,0,0:0:0:0:
352,137,120924,2,0,L|263:160,1,65
124,242,121237,1,0,0:0:0:0:
356,318,121393,1,0,0:0:0:0:
289,153,121549,2,0,P|320:176|327:216,1,65
360,61,121862,1,0,0:0:0:0:
83,76,122018,1,0,0:0:0:0:
83,76,122174,1,0,0:0:0:0:
114,315,122331,1,0,0:0:0:0:
293,271,122487,1,0,0:0:0:0:
203,161,122643,6,0,P|187:226|244:339,1,195.00000743866
409,95,123112,1,0,0:0:0:0:
207,164,123268,1,0,0:0:0:0:
71,52,123424,1,0,0:0:0:0:
207,164,123580,1,0,0:0:0:0:
399,103,123737,1,0,0:0:0:0:
207,164,123893,1,0,0:0:0:0:
71,52,124049,2,0,P|60:112|79:174,1,97.50000371933
110,263,124362,2,0,L|182:349,1,97.50000371933
292,276,124674,5,0,0:0:0:0:
382,69,124831,1,0,0:0:0:0:
317,283,124987,1,0,0:0:0:0:
343,292,125143,1,0,0:0:0:0:
368,186,125299,2,0,P|318:167|206:252,1,195.00000743866
127,77,125768,5,0,0:0:0:0:
237,221,125924,1,0,0:0:0:0:
97,225,126081,1,0,0:0:0:0:
279,65,126237,1,0,0:0:0:0:
305,75,126393,1,0,0:0:0:0:
294,161,126549,2,0,P|333:213|267:343,1,195.00000743866
425,109,127018,1,0,0:0:0:0:
434,217,127174,2,0,P|387:270|234:281,1,195.00000743866
301,162,127643,1,0,0:0:0:0:
156,88,127799,6,0,P|131:149|123:204,1,97.50000371933
249,302,128112,1,0,0:0:0:0:
249,302,128268,1,0,0:0:0:0:
129,276,128424,2,0,P|138:124|160:81,1,195.00000743866
295,142,128893,1,0,0:0:0:0:
377,246,129049,2,0,P|392:312|366:250,1,195.00000743866
349,131,129518,5,0,0:0:0:0:
432,110,129674,2,0,P|402:61|271:86,1,195.00000743866
173,69,130143,1,0,0:0:0:0:
230,146,130299,5,0,0:0:0:0:
95,266,130456,1,0,0:0:0:0:
339,270,130612,2,0,P|393:247|426:265,1,97.50000371933
340,78,130924,1,0,0:0:0:0:
224,284,131081,1,0,0:0:0:0:
162,127,131237,2,0,P|145:70|111:56,1,97.50000371933,0|0,0:3|0:0,0:0:0:0:
408,174,131549,6,0,B|357:211|283:151|217:202,1,195.00000743866
387,82,132018,1,0,0:0:0:0:
272,248,132174,1,0,0:0:0:0:
110,89,132331,1,0,0:0:0:0:
119,249,132487,1,0,0:0:0:0:
255,91,132643,1,0,0:0:0:0:
344,280,132799,1,0,0:0:0:0:
272,248,132956,6,0,P|300:178|425:190,1,195.00000743866
442,248,133424,1,0,0:0:0:0:
148,160,133581,1,0,0:0:0:0:
230,139,133737,1,0,0:0:0:0:
363,273,133893,1,0,0:0:0:0:
313,123,134049,6,0,P|287:73|157:71,1,195.00000743866
102,283,134518,1,0,0:0:0:0:
185,156,134674,1,0,0:0:0:0:
254,49,134831,1,0,0:0:0:0:
263,176,134988,1,0,0:0:0:0:
333,331,135143,1,0,0:0:0:0:
336,191,135299,1,0,0:0:0:0:
412,207,135456,6,0,P|426:150|310:80,1,195.00000743866
226,61,135924,2,0,B|156:85|166:168|92:200,1,195.00000743866
123,291,136393,1,0,0:0:0:0:
66,89,136549,2,0,L|218:233,1,195.00000743866
283,224,137018,2,0,P|338:161|318:120,2,97.50000371933
336,303,137487,5,0,0:0:0:0:
131,215,137643,1,0,0:0:0:0:
380,219,137799,1,0,0:0:0:0:
173,138,137956,2,0,L|367:102,1,195.00000743866
216,66,138424,2,0,P|275:84|284:146,2,97.50000371933
109,126,138893,2,0,L|115:256,1,97.50000371933
223,85,139206,5,0,0:0:0:0:
247,125,139284,1,0,0:0:0:0:
289,150,139362,1,0,0:0:0:0:
332,172,139440,1,0,0:0:0:0:
370,202,139518,1,0,0:0:0:0:
390,246,139596,1,0,0:0:0:0:
366,285,139674,1,0,0:0:0:0:
324,272,139752,1,0,0:0:0:0:
321,224,139831,1,0,0:0:0:0:
335,178,139909,1,0,0:0:0:0:
349,131,139987,1,0,0:0:0:0:
344,84,140065,1,0,0:0:0:0:
299,82,140143,1,0,0:0:0:0:
265,116,140221,1,0,0:0:0:0:
244,160,140299,1,0,0:0:0:0:
231,206,140377,1,0,0:0:0:0:
216,243,140456,2,0,P|158:278|129:277,1,97.50000371933
110,89,140768,5,0,0:0:0:0:
153,152,140924,1,0,0:0:0:0:
185,88,141081,1,0,0:0:0:0:
410,309,141237,1,0,0:0:0:0:
379,243,141393,1,0,0:0:0:0:
334,303,141549,1,0,0:0:0:0:
107,315,141706,1,0,0:0:0:0:
133,247,141862,1,0,0:0:0:0:
180,308,142018,1,0,0:0:0:0:
243,210,142174,6,0,B|266:135|337:138|357:53,1,195.00000743866
243,62,142643,1,0,0:0:0:0:
140,69,142799,2,0,P|107:114|149:177,1,97.50000371933
84,296,143112,1,0,0:0:0:0:
141,248,143268,1,0,0:0:0:0:
279,223,143424,1,0,0:0:0:0:
344,233,143581,1,0,0:0:0:0:
381,115,143737,1,0,0:0:0:0:
412,53,143893,1,0,0:0:0:0:
202,104,144049,1,0,0:0:0:0:
198,175,144206,6,0,P|187:231|209:268,2,97.50000371933
286,149,144674,2,0,P|329:190|266:294,1,195.00000743866
262,223,145143,1,0,0:0:0:0:
262,223,145299,1,0,0:0:0:0:
98,129,145456,5,0,0:0:0:0:
379,51,145612,1,0,0:0:0:0:
157,53,145768,1,0,0:0:0:0:
394,146,145924,1,0,0:0:0:0:
278,44,146081,1,0,0:0:0:0:
353,244,146237,1,0,0:0:0:0:
379,51,146393,1,0,0:0:0:0:
249,269,146549,1,0,0:0:0:0:
394,146,146706,5,0,0:0:0:0:
156,253,146862,1,0,0:0:0:0:
253,275,147018,1,0,0:0:0:0:
75,131,147174,1,0,0:0:0:0:
91,207,147331,1,0,0:0:0:0:
167,33,147487,1,0,0:0:0:0:
96,75,147643,1,0,0:0:0:0:
344,39,147799,1,0,0:0:0:0:
250,29,147956,1,0,0:0:0:0:
410,99,148112,6,0,B|444:166|392:240|461:286,1,195.00000743866
332,141,148581,1,0,0:0:0:0:
233,162,148737,2,0,P|276:201|284:280,2,97.50000371933
136,164,149206,2,0,P|113:214|136:275,2,97.50000371933
171,64,149674,1,0,0:0:0:0:
185,155,149831,2,0,B|253:203|199:276|280:324,1,195.00000743866
347,182,150456,5,0,0:0:0:0:
351,184,150534,1,0,0:0:0:0:
352,186,150612,2,0,L|322:271,1,65
444,193,150924,1,0,0:0:0:0:
242,167,151081,2,0,L|223:251,2,65
145,149,151549,2,0,L|172:77,2,65
105,235,152018,1,0,0:0:0:0:
200,259,152174,2,0,L|269:281,1,65
333,251,152487,2,0,P|342:208|382:213,1,65
350,94,152799,1,0,0:0:0:0:
212,110,152956,5,0,0:0:0:0:
212,110,153034,1,0,0:0:0:0:
212,110,153112,2,0,L|179:177,1,65
89,147,153424,1,0,0:0:0:0:
129,262,153737,1,0,0:0:0:0:
252,195,154049,2,0,P|272:162|237:72,1,130
150,190,154674,6,0,P|135:236|148:266,2,65
187,121,155143,2,0,P|210:84|250:83,1,65
225,207,155456,1,0,0:0:0:0:
225,207,155534,1,0,0:0:0:0:
225,207,155612,2,0,L|309:230,1,65
297,139,155924,1,0,0:0:0:0:
291,273,156237,1,0,0:0:0:0:
282,265,156393,1,0,0:0:0:0:
291,273,156550,1,0,0:0:0:0:
286,267,156706,5,0,0:0:0:0:
291,273,156784,1,0,0:0:0:0:
291,273,156862,2,0,L|364:287,1,65
376,143,157174,2,0,P|393:190|390:230,1,65
291,95,157487,1,0,0:0:0:0:
163,259,157643,1,0,0:0:0:0:
163,259,157799,1,0,0:0:0:0:
163,259,157956,2,0,L|196:175,1,65
282,174,158268,2,0,L|262:238,1,65
92,185,158581,2,0,L|122:119,1,65
212,79,158893,1,0,0:0:0:0:
212,79,159049,1,0,0:0:0:0:
194,207,159206,6,0,L|162:285,2,65
301,192,159674,2,0,P|334:170|387:171,1,65
214,139,159987,2,0,L|129:102,1,65
407,74,160456,6,0,L|417:144,1,65
333,299,160768,2,0,L|327:232,1,65
420,223,161081,2,0,L|431:302,1,65
216,60,161393,2,0,L|223:135,1,65
141,215,161706,2,0,L|151:296,1,65
220,296,162018,2,0,L|213:212,1,65
303,126,162331,2,0,L|296:54,1,65
102,145,162643,2,0,L|96:75,1,65
138,150,162956,6,0,L|131:81,1,65
243,118,163268,1,0,0:0:0:0:
277,206,163424,2,0,P|268:263|246:292,2,65
311,69,163893,1,0,0:0:0:0:
277,203,164049,2,0,P|274:249|220:320,1,130
226,315,164518,1,0,0:0:0:0:
226,315,164674,2,0,P|248:292|267:260,1,65
313,181,164987,2,0,P|351:206|399:281,1,130
221,182,165456,6,0,P|195:232|195:261,1,65
352,191,165768,1,0,0:0:0:0:
229,63,165924,2,0,P|158:61|102:90,1,130
72,179,166393,1,0,0:0:0:0:
98,280,166549,1,0,0:0:0:0:
200,299,166706,6,0,P|230:288|328:301,1,130
377,194,167174,1,0,0:0:0:0:
