osu file format v14

[General]
AudioFilename: audio.mp3
AudioLeadIn: 0
PreviewTime: 204660
Countdown: 0
SampleSet: Soft
StackLeniency: 0.2
Mode: 0
LetterboxInBreaks: 0
WidescreenStoryboard: 0

[Editor]
Bookmarks: 44893,49079,60241,82567,239195,290823,319776,367713
DistanceSpacing: 1.8
BeatDivisor: 4
GridSize: 32
TimelineZoom: 4.899997

[Metadata]
Title:Tsumi no namae
TitleUnicode:Tsumi no namae
Artist:ryo(supercell) ft. Hatsune Miku
ArtistUnicode:ryo(supercell) ft. Hatsune Miku
Creator:AkiyamaNico
Version:Extra
Source:nicovideo
Tags:hatsune miku ryo supercell the name of sin
BeatmapID:1015855
BeatmapSetID:475470

[Difficulty]
HPDrainRate:6
CircleSize:4
OverallDifficulty:8
ApproachRate:9.4
SliderMultiplier:1.4
SliderTickRate:1

[Events]
//Background and Video events
0,0,"Tsumi.no.Namae.full.1986125.jpg",0,0
//Break Periods
2,49278,59701
2,134395,142567
2,229976,232899
2,264162,271794
//Storyboard Layer 0 (Background)
//Storyboard Layer 1 (Fail)
//Storyboard Layer 2 (Pass)
//Storyboard Layer 3 (Foreground)
//Storyboard Sound Samples

[TimingPoints]
27102,697.674418604651,4,1,0,100,1,0
27102,-50,4,2,0,25,0,0
42101,-100,4,2,0,25,0,0
43498,-100,4,2,0,25,0,0
49079,348.837209302326,4,2,0,25,1,0
60241,-100,4,2,0,25,0,0
86753,-200,4,2,0,25,0,0
87451,-100,4,2,0,25,0,0
118846,-50,4,2,0,25,0,0
121637,-100,4,2,0,25,0,0
143962,-100,4,2,0,25,0,0
164892,-50,4,2,0,25,0,0
166288,-100,4,2,0,25,0,0
240937,-50,4,2,0,25,0,0
241637,-100,4,2,0,25,0,0
249660,-50,4,2,0,25,0,0
250009,-100,4,2,0,25,0,0
257683,-50,4,2,0,25,0,0
259776,-100,4,2,0,25,0,0
280706,-100,4,3,0,5,0,0
282102,-100,4,2,0,25,0,0
286288,-133.333333333333,4,2,0,25,0,0
288555,-133.333333333333,4,2,0,5,0,0
288730,-133.333333333333,4,2,0,25,0,0
290299,-66.6666666666667,4,2,0,25,0,0
290823,-133.333333333333,4,2,0,25,0,0
297451,-133.333333333333,4,2,0,25,0,0
308613,-50,4,2,0,25,0,0
324660,-133.333333333333,4,2,0,25,0,0
333730,-50,4,2,0,25,0,0
335748,-100,4,2,0,25,0,0
335823,-50,4,2,0,25,0,0
337916,-100,4,2,0,25,0,0
363419,471.327572663001,4,2,0,25,1,0
363831,471.327572663001,4,2,0,25,1,0
364810,483.870967741935,4,2,0,25,1,0
364810,-75.187969924812,4,2,0,25,0,0
368680,411.240575736806,4,2,0,25,1,0
369425,606.060606060606,4,2,0,25,1,0
370254,493.015612161052,4,2,0,25,1,0
371733,540.05400540054,4,2,0,25,1,0
373626,508.474576271186,4,2,0,25,1,0
373816,461.89376443418,4,2,0,25,1,0
375583,461.89376443418,4,2,0,25,1,0
375849,1247.40124740125,4,2,0,25,1,0
375849,-57.1428571428571,4,2,0,25,0,0
378031,833.217608665463,4,2,0,25,1,0
378864,833.333333333333,4,2,0,25,1,0

[HitObjects]
112,152,27102,6,0,P|152:136|260:160,1,140
304,236,27625,1,0,0:0:0:0:
412,144,27800,2,0,P|432:108|432:64,1,70
432,328,28148,1,0,0:0:0:0:
432,328,28323,5,0,0:0:0:0:
232,328,28672,1,0,0:0:0:0:
132,224,29021,1,0,0:0:0:0:
240,136,29369,1,0,0:0:0:0:
56,84,29544,6,0,B|104:84|104:84|128:52|128:52|180:52,1,140
172,272,30067,2,0,B|196:224|196:176|160:124,1,140
96,208,30765,5,0,0:0:0:0:
280,212,31114,1,0,0:0:0:0:
152,356,31462,2,0,B|176:320|188:284|188:244|168:220|168:180|168:132|200:100|200:68,1,280
197,84,32247,1,0,0:0:0:0:
197,84,32335,1,0,0:0:0:0:
264,176,32683,1,0,0:0:0:0:
448,324,32858,6,0,B|396:324|368:308|348:280|336:232,1,140
448,186,33555,2,0,B|456:128|436:84|456:48,2,140
300,328,34602,2,0,B|241:320|197:340|161:320,1,140
64,180,35125,6,0,B|100:164|156:112|156:112|204:108,1,140
396,224,35648,2,0,L|248:224,1,140
68,304,36346,2,0,L|232:304,1,140
332,304,37043,1,0,0:0:0:0:
188,68,37741,5,0,0:0:0:0:
276,140,37915,1,0,0:0:0:0:
372,136,38264,1,0,0:0:0:0:
384,232,38613,1,0,0:0:0:0:
288,236,38962,1,0,0:0:0:0:
313,117,39311,1,0,0:0:0:0:
393,170,39660,1,0,0:0:0:0:
346,254,40009,1,0,0:0:0:0:
266,201,40358,1,0,0:0:0:0:
76,120,40706,5,0,0:0:0:0:
156,224,41055,1,0,0:0:0:0:
113,83,41404,1,0,0:0:0:0:
118,260,41753,1,0,0:0:0:0:
76,120,42102,6,0,P|56:84|56:52,1,70
156,220,42799,2,0,P|180:252|192:284,1,70
209,275,43497,5,0,0:0:0:0:
162,173,43671,1,0,0:0:0:0:
244,97,43846,1,0,0:0:0:0:
342,151,44020,1,0,0:0:0:0:
320,261,44195,1,0,0:0:0:0:
209,275,44369,5,0,0:0:0:0:
162,173,44543,1,0,0:0:0:0:
244,97,44718,1,0,0:0:0:0:
342,151,44892,1,0,0:0:0:0:
139,246,45067,5,0,0:0:0:0:
318,79,45241,1,0,0:0:0:0:
271,319,45416,1,0,0:0:0:0:
168,97,45590,1,0,0:0:0:0:
382,216,45765,1,0,0:0:0:0:
256,192,46113,5,0,0:0:0:0:
256,192,46288,12,0,49078,0:0:0:0:
72,100,60241,6,0,L|156:124,1,70
136,288,60590,2,0,L|172:216,1,70
276,164,60939,5,0,0:0:0:0:
368,224,61113,1,0,0:0:0:0:
296,304,61288,5,0,0:0:0:0:
368,224,61462,1,0,0:0:0:0:
376,88,61637,5,0,0:0:0:0:
368,224,61811,1,0,0:0:0:0:
376,88,61985,1,0,0:0:0:0:
260,152,62160,1,0,0:0:0:0:
368,224,62334,2,0,L|440:280,2,70
80,320,62858,5,0,0:0:0:0:
72,200,63032,2,0,L|156:200,1,70
220,80,63381,1,0,0:0:0:0:
308,216,63555,2,0,L|308:292,1,70
460,288,63904,2,0,L|384:288,1,70
128,160,64253,5,0,0:0:0:0:
256,96,64427,1,0,0:0:0:0:
352,128,64602,1,0,0:0:0:0:
192,128,64776,1,0,0:0:0:0:
320,64,64951,1,0,0:0:0:0:
384,192,65125,5,0,0:0:0:0:
256,256,65299,1,0,0:0:0:0:
352,384,65474,1,0,0:0:0:0:
288,96,65648,1,0,0:0:0:0:
256,64,65735,1,0,0:0:0:0:
224,64,65823,6,0,L|136:64,1,70
92,320,66172,5,0,0:0:0:0:
92,320,66346,2,0,L|176:276,1,70
300,336,66695,2,0,L|248:284,1,70
212,124,67044,6,0,P|196:180|204:212,1,70
100,320,67392,6,0,P|155:301|177:277,1,70
348,232,67741,6,0,P|292:250|270:274,1,70
264,360,68090,5,0,0:0:0:0:
468,352,68265,1,0,0:0:0:0:
168,268,68439,1,0,0:0:0:0:
284,256,68613,6,0,L|344:192,1,70
144,116,68962,5,0,0:0:0:0:
244,92,69137,2,0,L|316:88,1,70
452,76,69485,6,0,L|452:168,1,70
416,284,69834,5,0,0:0:0:0:
280,152,70009,1,0,0:0:0:0:
216,320,70183,5,0,0:0:0:0:
388,184,70358,1,0,0:0:0:0:
168,176,70532,5,0,0:0:0:0:
80,340,70706,1,0,0:0:0:0:
80,340,70794,1,0,0:0:0:0:
80,340,70881,5,0,0:0:0:0:
120,332,70968,1,0,0:0:0:0:
160,328,71055,1,0,0:0:0:0:
200,336,71142,1,0,0:0:0:0:
240,344,71230,1,0,0:0:0:0:
280,340,71317,1,0,0:0:0:0:
320,328,71404,6,0,L|400:304,1,70
400,176,71753,1,0,0:0:0:0:
268,84,71927,1,0,0:0:0:0:
212,224,72102,2,0,L|136:252,1,70
328,332,72451,5,0,0:0:0:0:
404,176,72625,1,0,0:0:0:0:
248,76,72799,2,0,L|164:108,1,70
200,216,73148,5,0,0:0:0:0:
340,328,73323,1,0,0:0:0:0:
400,180,73497,2,0,L|416:108,1,70
40,176,73846,5,0,0:0:0:0:
100,332,74020,1,0,0:0:0:0:
256,328,74195,2,0,L|336:328,1,70
292,172,74544,1,0,0:0:0:0:
160,68,74718,2,0,L|160:148,1,70
292,172,75067,6,0,L|364:212,1,70
256,360,75416,1,0,0:0:0:0:
220,212,75590,2,0,L|148:172,2,70
256,360,76113,1,0,0:0:0:0:
292,172,76288,2,0,L|364:212,2,70
256,352,76811,1,0,0:0:0:0:
256,251,76985,5,0,0:0:0:0:
196,192,77160,1,0,0:0:0:0:
256,132,77334,1,0,0:0:0:0:
315,192,77509,1,0,0:0:0:0:
226,271,77683,5,0,0:0:0:0:
176,162,77858,1,0,0:0:0:0:
285,112,78032,1,0,0:0:0:0:
335,221,78207,1,0,0:0:0:0:
191,269,78380,5,0,0:0:0:0:
178,127,78555,1,0,0:0:0:0:
320,114,78729,1,0,0:0:0:0:
333,256,78904,1,0,0:0:0:0:
163,245,79078,5,0,0:0:0:0:
202,99,79253,1,0,0:0:0:0:
348,138,79427,1,0,0:0:0:0:
309,284,79602,1,0,0:0:0:0:
134,213,79776,5,0,0:0:0:0:
234,70,79951,1,0,0:0:0:0:
377,170,80125,1,0,0:0:0:0:
277,313,80300,1,0,0:0:0:0:
116,167,80473,5,0,0:0:0:0:
280,52,80648,1,0,0:0:0:0:
395,216,80822,1,0,0:0:0:0:
231,331,80997,1,0,0:0:0:0:
280,52,81172,5,0,0:0:0:0:
269,93,81259,1,0,0:0:0:0:
280,133,81346,1,0,0:0:0:0:
274,172,81433,1,0,0:0:0:0:
295,207,81520,1,0,0:0:0:0:
148,341,81695,6,0,L|137:295,1,35
364,341,81869,6,0,L|375:295,1,35
145,244,82044,6,0,L|134:198,1,35
361,244,82218,6,0,L|372:198,1,35
256,190,82392,6,0,L|255:144,1,35
255,38,82567,5,0,0:0:0:0:
408,99,82916,5,0,0:0:0:0:
104,99,83265,5,0,0:0:0:0:
405,125,83613,5,0,0:0:0:0:
106,72,83962,5,0,0:0:0:0:
157,243,84311,5,0,0:0:0:0:
259,340,84660,1,0,0:0:0:0:
318,232,85009,1,0,0:0:0:0:
218,95,85358,5,0,0:0:0:0:
80,47,85706,1,0,0:0:0:0:
218,95,86055,1,0,0:0:0:0:
334,38,86404,1,0,0:0:0:0:
259,234,86579,6,0,L|318:234,1,35
294,234,86753,6,0,P|325:306|365:304,1,122.5
397,288,87451,5,0,0:0:0:0:
101,281,87799,1,0,0:0:0:0:
231,331,88148,5,0,0:0:0:0:
395,216,88323,1,0,0:0:0:0:
280,52,88497,1,0,0:0:0:0:
116,167,88672,1,0,0:0:0:0:
277,313,88845,5,0,0:0:0:0:
377,170,89020,1,0,0:0:0:0:
234,70,89194,1,0,0:0:0:0:
134,213,89369,1,0,0:0:0:0:
309,284,89543,5,0,0:0:0:0:
348,138,89718,1,0,0:0:0:0:
202,99,89892,1,0,0:0:0:0:
163,245,90067,1,0,0:0:0:0:
333,256,90241,5,0,0:0:0:0:
320,114,90416,1,0,0:0:0:0:
178,127,90590,1,0,0:0:0:0:
191,269,90765,1,0,0:0:0:0:
191,269,90939,5,0,0:0:0:0:
178,127,91114,1,0,0:0:0:0:
320,114,91288,1,0,0:0:0:0:
333,256,91463,1,0,0:0:0:0:
163,245,91637,5,0,0:0:0:0:
202,99,91812,1,0,0:0:0:0:
348,138,91986,1,0,0:0:0:0:
309,284,92161,1,0,0:0:0:0:
134,213,92335,5,0,0:0:0:0:
234,70,92510,1,0,0:0:0:0:
377,170,92684,1,0,0:0:0:0:
277,313,92859,1,0,0:0:0:0:
116,167,93032,5,0,0:0:0:0:
280,52,93207,1,0,0:0:0:0:
395,216,93381,1,0,0:0:0:0:
231,331,93556,1,0,0:0:0:0:
435,142,93730,6,0,P|396:110|380:74,1,70
276,29,94079,1,0,0:0:0:0:
176,131,94253,1,0,0:0:0:0:
282,274,94427,2,0,L|368:274,1,70
42,339,94776,5,0,0:0:0:0:
159,340,94951,1,0,0:0:0:0:
99,246,95125,2,0,L|99:177,1,70
470,339,95474,5,0,0:0:0:0:
353,340,95649,1,0,0:0:0:0:
413,246,95823,2,0,L|413:177,1,70
254,55,96172,5,0,0:0:0:0:
255,217,96346,1,0,0:0:0:0:
32,32,96520,5,0,0:0:0:0:
480,32,96695,1,0,0:0:0:0:
32,96,96869,1,0,0:0:0:0:
480,96,97044,1,0,0:0:0:0:
32,160,97218,1,0,0:0:0:0:
480,160,97392,1,0,0:0:0:0:
480,352,97567,5,0,0:0:0:0:
32,352,97741,1,0,0:0:0:0:
392,208,97916,5,2,0:0:0:0:
404,244,98032,2,0,L|420:304,1,46.6666666666667
308,204,98265,5,2,0:0:0:0:
304,232,98381,2,0,L|304:288,1,46.6666666666667
120,208,98613,5,2,0:0:0:0:
108,244,98729,2,0,L|92:304,1,46.6666666666667
204,204,98962,5,2,0:0:0:0:
208,232,99078,2,0,L|208:288,1,46.6666666666667
320,72,99311,5,12,0:0:0:0:
180,60,99485,1,0,0:0:0:0:
380,188,99660,2,0,L|436:252,1,70,2|0,0:0|0:0,0:0:0:0:
260,200,100009,2,8,L|256:288,1,70
108,196,100358,2,0,L|56:264,1,70,2|0,0:0|0:0,0:0:0:0:
416,328,100706,6,0,L|340:304,1,70,8|0,0:0|0:0,0:0:0:0:
276,184,101055,1,2,0:0:0:0:
220,72,101230,1,0,0:0:0:0:
172,264,101404,6,8,L|172:184,1,70
72,112,101753,1,8,0:0:0:0:
276,112,101927,1,0,0:0:0:0:
168,264,102102,5,2,0:0:0:0:
216,284,102189,1,0,0:0:0:0:
268,284,102276,1,0,0:0:0:0:
316,268,102363,1,0,0:0:0:0:
364,284,102451,1,8,0:0:0:0:
384,328,102538,1,0,0:0:0:0:
432,328,102625,1,0,0:0:0:0:
468,296,102712,1,0,0:0:0:0:
480,248,102799,1,2,0:0:0:0:
480,200,102887,1,0,0:0:0:0:
460,156,102974,1,0,0:0:0:0:
424,192,103061,1,0,0:0:0:0:
376,188,103148,1,8,0:0:0:0:
348,148,103235,1,0,0:0:0:0:
364,100,103323,1,0,0:0:0:0:
340,60,103410,1,0,0:0:0:0:
360,16,103497,5,2,0:0:0:0:
316,32,103584,1,0,0:0:0:0:
268,40,103672,1,0,0:0:0:0:
228,68,103759,1,0,0:0:0:0:
228,116,103846,1,8,0:0:0:0:
256,156,103933,1,0,0:0:0:0:
252,204,104020,1,0,0:0:0:0:
204,208,104108,1,0,0:0:0:0:
164,180,104195,1,2,0:0:0:0:
160,132,104282,1,0,0:0:0:0:
172,84,104369,1,0,0:0:0:0:
136,52,104456,1,0,0:0:0:0:
88,48,104544,1,12,0:0:0:0:
52,80,104631,1,0,0:0:0:0:
52,128,104718,2,0,L|64:184,1,35,4|0,0:0|0:0,0:0:0:0:
224,320,104892,5,4,0:0:0:0:
260,132,105067,1,0,0:0:0:0:
124,178,105241,5,4,0:0:0:0:
315,187,105416,1,0,0:0:0:0:
124,178,105590,5,4,0:0:0:0:
120,24,105765,1,0,0:0:0:0:
46,111,105939,5,4,0:0:0:0:
198,90,106113,1,0,0:0:0:0:
46,111,106288,5,4,0:0:0:0:
220,248,106462,1,0,0:0:0:0:
344,88,106637,5,4,0:0:0:0:
220,248,106811,1,0,0:0:0:0:
172,37,106985,5,4,0:0:0:0:
428,265,107159,1,0,0:0:0:0:
424,32,107334,5,4,0:0:0:0:
148,316,107509,1,0,0:0:0:0:
352,312,107683,5,4,0:0:0:0:
148,316,107858,1,0,0:0:0:0:
256,116,108032,5,4,0:0:0:0:
256,364,108206,1,0,0:0:0:0:
350,160,108381,5,4,0:0:0:0:
161,319,108555,1,0,0:0:0:0:
378,261,108730,5,4,0:0:0:0:
133,218,108904,1,0,0:0:0:0:
378,261,109079,5,4,0:0:0:0:
376,52,109253,1,0,0:0:0:0:
133,261,109427,5,4,0:0:0:0:
136,52,109601,1,0,0:0:0:0:
416,348,109776,6,12,L|417:297,1,35
420,28,109951,2,12,L|376:28,1,35
92,28,110125,2,12,L|91:62,1,35
81,313,110300,2,12,L|116:312,1,35
392,108,110474,6,0,L|296:128,1,70,6|0,0:0|0:0,0:0:0:0:
188,122,110823,2,0,L|120:108,1,70
392,276,111172,2,0,L|323:261,1,70
188,261,111521,2,0,L|120:276,1,70
460,65,111869,5,0,0:0:0:0:
357,87,112043,1,0,0:0:0:0:
154,87,112218,2,0,L|224:88,1,70
120,272,112567,5,0,0:0:0:0:
224,88,112741,1,0,0:0:0:0:
344,276,112916,2,0,L|260:276,1,70
80,356,113265,5,0,0:0:0:0:
208,216,113439,1,0,0:0:0:0:
328,360,113613,5,0,0:0:0:0:
208,216,113788,1,0,0:0:0:0:
80,76,113962,5,0,0:0:0:0:
208,216,114136,1,0,0:0:0:0:
328,72,114310,5,0,0:0:0:0:
208,216,114485,1,0,0:0:0:0:
80,76,114660,5,0,0:0:0:0:
208,216,114834,1,0,0:0:0:0:
76,352,115009,2,0,L|72:276,1,70
250,198,115358,6,0,L|296:196,1,35
368,185,115532,2,0,L|340:140,1,35
289,41,115706,2,0,L|248:48,1,35
172,56,115881,2,0,L|192:88,1,35
395,208,116055,6,0,P|424:189|447:163,1,70
116,175,116404,2,0,P|87:194|64:220,1,70
368,267,116753,6,0,P|402:265|436:256,1,70
143,116,117102,2,0,P|109:118|75:127,1,70
322,300,117451,6,0,P|353:316|386:326,1,70
189,83,117800,2,0,P|158:67|125:57,1,70
256,308,118148,6,0,P|274:337|298:362,1,70
256,76,118497,2,0,P|237:46|213:21,1,70
189,314,118846,6,0,P|195:348|211:380,1,70
324,68,119020,2,0,P|317:34|301:2,1,70
144,267,119195,6,0,P|133:300|129:335,1,70
368,115,119369,2,0,P|379:82|384:47,1,70
131,212,119544,6,0,P|104:235|82:262,1,70
382,170,119718,2,0,P|408:147|430:120,1,70
148,148,119892,6,0,P|114:155|81:168,1,70
363,235,120067,2,0,P|397:229|430:216,1,70
163,86,120241,6,0,P|129:81|94:85,1,70
349,297,120415,2,0,P|383:302|418:298,1,70
223,60,120590,6,0,P|196:38|164:23,1,70
289,323,120764,2,0,P|317:345|348:360,1,70
279,66,120939,6,0,P|267:34|249:4,1,70
233,317,121113,2,0,P|245:349|263:379,1,70
334,105,121287,6,0,P|339:70|338:35,1,70
178,277,121462,2,0,P|172:311|173:346,1,70
379,158,121637,5,0,0:0:0:0:
132,225,121811,1,0,0:0:0:0:
366,256,121985,1,0,0:0:0:0:
145,127,122160,1,0,0:0:0:0:
289,315,122334,1,0,0:0:0:0:
222,68,122509,1,0,0:0:0:0:
191,302,122683,1,0,0:0:0:0:
320,81,122858,1,0,0:0:0:0:
256,192,123032,6,0,B|220:172|156:208|124:192,2,105
208,284,123730,1,0,0:0:0:0:
324,272,123904,1,0,0:0:0:0:
324,272,123991,1,0,0:0:0:0:
324,272,124079,2,0,L|300:240,1,35
256,192,124253,2,0,L|240:228,1,35
208,284,124427,2,0,L|252:280,1,35
84,256,124602,6,0,L|84:156,2,70
188,356,125125,1,0,0:0:0:0:
84,188,125299,1,0,0:0:0:0:
188,116,125474,1,0,0:0:0:0:
280,188,125648,1,0,0:0:0:0:
84,328,125823,6,0,L|84:248,1,70
324,356,126172,1,0,0:0:0:0:
428,328,126346,2,0,L|428:248,1,70
256,64,126695,5,0,0:0:0:0:
272,72,126782,1,0,0:0:0:0:
288,80,126869,1,0,0:0:0:0:
300,92,126956,1,0,0:0:0:0:
312,104,127044,1,0,0:0:0:0:
320,120,127131,1,0,0:0:0:0:
324,136,127218,6,0,L|280:204,1,70
380,200,127567,2,0,L|404:272,1,70
285,194,127916,2,0,L|241:262,1,70
341,258,128265,2,0,L|365:330,1,70
108,352,128613,6,0,L|152:284,1,70
52,288,128962,2,0,L|28:216,1,70
147,294,129311,2,0,L|191:226,1,70
91,230,129660,2,0,L|67:158,1,70
224,56,130009,5,0,0:0:0:0:
240,64,130096,1,0,0:0:0:0:
256,72,130183,2,0,L|256:108,1,35
216,325,130358,5,0,0:0:0:0:
206,310,130445,1,0,0:0:0:0:
197,295,130532,2,0,L|214:264,1,35
357,96,130706,5,0,0:0:0:0:
358,114,130793,1,0,0:0:0:0:
359,132,130880,2,0,L|328:150,1,35
120,224,131055,5,0,0:0:0:0:
128,207,131142,1,0,0:0:0:0:
136,192,131229,2,0,L|172:192,1,35
328,149,131404,5,0,0:0:0:0:
356,169,131491,1,0,0:0:0:0:
392,177,131579,1,0,0:0:0:0:
424,193,131666,1,0,0:0:0:0:
436,225,131753,1,0,0:0:0:0:
424,257,131840,1,0,0:0:0:0:
396,277,131927,1,0,0:0:0:0:
364,265,132015,1,0,0:0:0:0:
340,241,132102,6,0,L|336:225,31,8.75
256,192,132799,12,0,134195,0:0:0:0:
444,184,144311,5,0,0:0:0:0:
432,280,144485,2,0,B|400:308|380:280|292:284,1,140
156,76,145183,6,0,P|132:144|164:208,1,140
216,252,145881,2,0,P|240:184|208:120,1,140
100,288,146579,5,0,0:0:0:0:
176,340,146754,2,0,B|240:356|268:344|268:344|344:344,1,140
384,296,147276,2,0,L|384:148,1,140
320,64,147974,2,0,P|256:96|192:64,1,140
64,192,148672,2,0,B|192:160|256:192|320:224|416:160,1,350
256,312,149892,5,0,0:0:0:0:
256,68,150067,2,0,B|248:92|264:116|256:212,1,140
352,232,150765,6,0,L|432:108,1,140
160,232,151462,2,0,L|80:108,1,140
256,40,152160,1,0,0:0:0:0:
256,340,152334,6,0,L|256:184,1,140
396,96,152858,2,0,P|424:144|392:220,1,140
152,72,153555,5,0,0:0:0:0:
108,212,153904,1,0,0:0:0:0:
328,160,154253,1,0,0:0:0:0:
108,100,154951,5,0,0:0:0:0:
132,224,155125,2,0,L|200:176,1,70
211,311,155474,2,0,L|210:228,1,70
328,297,155823,2,0,L|260:250,1,70
316,64,156172,5,0,0:0:0:0:
436,176,156346,1,0,0:0:0:0:
156,136,156520,2,0,L|244:184,1,70
160,332,156869,2,0,L|248:284,1,70
432,224,157218,2,0,L|344:224,1,70
360,348,157567,5,0,0:0:0:0:
488,312,157741,1,0,0:0:0:0:
320,256,157916,2,0,L|224:232,1,70
152,52,158265,1,0,0:0:0:0:
308,44,158439,2,0,L|388:44,1,70
332,176,158788,6,0,L|380:116,1,70
232,252,159137,1,0,0:0:0:0:
180,176,159311,2,0,L|132:116,2,70
232,252,159834,1,0,0:0:0:0:
332,176,160009,2,0,L|380:116,2,70
256,348,160532,6,0,P|320:332|348:332,1,70
400,264,160881,1,0,0:0:0:0:
212,244,161055,5,0,0:0:0:0:
93,244,161230,1,0,0:0:0:0:
33,140,161404,1,0,0:0:0:0:
93,37,161579,1,0,0:0:0:0:
212,37,161753,1,0,0:0:0:0:
271,140,161927,1,0,0:0:0:0:
212,244,162102,5,0,0:0:0:0:
93,37,162276,1,0,0:0:0:0:
93,244,162451,1,0,0:0:0:0:
212,37,162625,1,0,0:0:0:0:
33,140,162800,1,0,0:0:0:0:
271,140,162974,1,0,0:0:0:0:
40,160,163148,1,0,0:0:0:0:
278,160,163322,1,0,0:0:0:0:
88,208,163497,6,0,P|112:196|176:192,1,70
416,208,163846,2,0,P|392:196|328:192,1,70
92,149,164195,6,0,P|119:146|180:164,1,70
400,261,164544,2,0,P|382:242|323:216,1,70
117,96,164892,6,0,P|143:102|194:140,1,70
368,307,165067,2,0,P|357:282|311:238,1,70
256,192,165241,5,0,0:0:0:0:
428,156,165416,6,0,L|428:232,1,70
112,224,165590,2,0,L|112:154,1,70
396,156,165765,6,0,L|396:232,1,70
140,224,165939,2,0,L|140:154,1,70
364,156,166113,6,0,L|364:232,1,70
440,284,166288,6,0,L|356:260,1,70
376,96,166637,2,0,L|340:168,1,70
236,220,166986,5,0,0:0:0:0:
144,160,167160,1,0,0:0:0:0:
216,80,167335,5,0,0:0:0:0:
144,160,167509,1,0,0:0:0:0:
136,296,167684,5,0,0:0:0:0:
144,160,167858,1,0,0:0:0:0:
136,296,168032,1,0,0:0:0:0:
252,232,168207,1,0,0:0:0:0:
144,160,168381,2,0,L|72:104,2,70
432,64,168905,5,0,0:0:0:0:
440,184,169079,2,0,L|356:184,1,70
292,304,169428,1,0,0:0:0:0:
204,168,169602,2,0,L|204:92,1,70
52,96,169951,2,0,L|128:96,1,70
384,224,170300,5,0,0:0:0:0:
256,288,170474,1,0,0:0:0:0:
160,256,170649,1,0,0:0:0:0:
320,256,170823,1,0,0:0:0:0:
192,320,170998,1,0,0:0:0:0:
128,192,171172,5,0,0:0:0:0:
256,128,171346,1,0,0:0:0:0:
160,0,171521,1,0,0:0:0:0:
224,288,171695,1,0,0:0:0:0:
256,320,171782,1,0,0:0:0:0:
288,320,171870,6,0,L|376:320,1,70
420,64,172219,5,0,0:0:0:0:
420,64,172393,2,0,L|336:108,1,70
212,48,172742,2,0,L|264:100,1,70
300,260,173091,6,0,P|316:204|308:172,1,70
412,64,173439,6,0,P|356:82|334:106,1,70
164,152,173788,6,0,P|219:133|241:109,1,70
248,24,174137,5,0,0:0:0:0:
44,32,174312,1,0,0:0:0:0:
344,116,174486,1,0,0:0:0:0:
228,128,174660,6,0,L|168:192,1,70
368,268,175009,5,0,0:0:0:0:
268,292,175184,2,0,L|196:296,1,70
60,308,175532,6,0,L|60:216,1,70
96,100,175881,5,0,0:0:0:0:
232,232,176056,1,0,0:0:0:0:
296,64,176230,5,0,0:0:0:0:
124,200,176405,1,0,0:0:0:0:
344,208,176579,5,0,0:0:0:0:
432,44,176753,1,0,0:0:0:0:
432,44,176841,1,0,0:0:0:0:
432,44,176928,5,0,0:0:0:0:
392,52,177015,1,0,0:0:0:0:
352,56,177102,1,0,0:0:0:0:
312,48,177189,1,0,0:0:0:0:
272,40,177277,1,0,0:0:0:0:
232,44,177364,1,0,0:0:0:0:
192,56,177451,6,0,L|112:80,1,70
112,208,177800,1,0,0:0:0:0:
244,300,177974,1,0,0:0:0:0:
300,160,178149,2,0,L|376:132,1,70
184,52,178498,5,0,0:0:0:0:
108,208,178672,1,0,0:0:0:0:
264,308,178846,2,0,L|348:276,1,70
312,168,179195,5,0,0:0:0:0:
172,56,179370,1,0,0:0:0:0:
112,204,179544,2,0,L|96:276,1,70
472,208,179893,5,0,0:0:0:0:
412,52,180067,1,0,0:0:0:0:
256,56,180242,2,0,L|176:56,1,70
220,212,180591,1,0,0:0:0:0:
352,316,180765,2,0,L|352:236,1,70
220,212,181114,6,0,L|148:172,1,70
256,24,181463,1,0,0:0:0:0:
292,172,181637,2,0,L|364:212,2,70
256,24,182160,1,0,0:0:0:0:
220,212,182335,2,0,L|148:172,2,70
256,32,182858,1,0,0:0:0:0:
352,96,183032,5,0,0:0:0:0:
256,288,183206,1,0,0:0:0:0:
160,96,183381,5,0,0:0:0:0:
256,288,183555,1,0,0:0:0:0:
387,156,183730,5,0,0:0:0:0:
208,275,183904,1,0,0:0:0:0:
220,60,184079,5,0,0:0:0:0:
208,275,184253,1,0,0:0:0:0:
387,227,184427,5,0,0:0:0:0:
172,239,184601,1,0,0:0:0:0:
291,60,184776,5,0,0:0:0:0:
172,239,184950,1,0,0:0:0:0:
352,288,185125,5,0,0:0:0:0:
160,191,185299,1,0,0:0:0:0:
352,95,185474,5,0,0:0:0:0:
160,191,185648,1,0,0:0:0:0:
352,288,185823,5,0,0:0:0:0:
160,191,185997,1,0,0:0:0:0:
352,95,186172,5,0,0:0:0:0:
160,191,186346,1,0,0:0:0:0:
352,288,186520,5,0,0:0:0:0:
160,191,186694,1,0,0:0:0:0:
352,95,186869,5,0,0:0:0:0:
160,191,187043,1,0,0:0:0:0:
231,331,187219,5,0,0:0:0:0:
243,291,187306,1,0,0:0:0:0:
232,251,187393,1,0,0:0:0:0:
238,212,187480,1,0,0:0:0:0:
217,177,187567,1,0,0:0:0:0:
364,43,187742,6,0,L|375:89,1,35
148,43,187916,6,0,L|137:89,1,35
367,140,188091,6,0,L|378:186,1,35
151,140,188265,6,0,L|140:186,1,35
256,194,188439,6,0,L|257:240,1,35
257,346,188614,5,0,0:0:0:0:
104,285,188963,5,0,0:0:0:0:
408,285,189312,5,0,0:0:0:0:
106,258,189660,5,0,0:0:0:0:
405,311,190009,5,0,0:0:0:0:
355,141,190358,5,0,0:0:0:0:
253,44,190707,1,0,0:0:0:0:
194,152,191056,1,0,0:0:0:0:
294,289,191405,5,0,0:0:0:0:
432,337,191753,1,0,0:0:0:0:
294,289,192102,1,0,0:0:0:0:
178,346,192451,1,0,0:0:0:0:
253,150,192626,6,0,L|194:150,2,35
115,96,193498,5,0,0:0:0:0:
411,103,193846,1,0,0:0:0:0:
192,352,194195,5,0,0:0:0:0:
75,164,194369,1,0,0:0:0:0:
303,157,194544,1,0,0:0:0:0:
192,352,194718,1,0,0:0:0:0:
186,59,194892,1,0,0:0:0:0:
79,290,195067,1,0,0:0:0:0:
305,293,195241,1,0,0:0:0:0:
186,59,195416,1,0,0:0:0:0:
305,293,195590,5,0,0:0:0:0:
406,125,195765,1,0,0:0:0:0:
306,228,195939,1,0,0:0:0:0:
219,122,196113,1,0,0:0:0:0:
406,125,196288,1,0,0:0:0:0:
308,289,196462,1,0,0:0:0:0:
319,57,196637,1,0,0:0:0:0:
220,232,196811,1,0,0:0:0:0:
403,228,196985,5,0,0:0:0:0:
172,58,197160,1,0,0:0:0:0:
386,227,197334,1,0,0:0:0:0:
172,326,197509,1,0,0:0:0:0:
364,227,197683,1,0,0:0:0:0:
172,58,197858,5,0,0:0:0:0:
172,326,198032,1,0,0:0:0:0:
340,58,198206,5,0,0:0:0:0:
340,326,198380,1,0,0:0:0:0:
256,188,198555,1,0,0:0:0:0:
340,58,198730,1,0,0:0:0:0:
436,184,198904,1,0,0:0:0:0:
95,194,199079,1,0,0:0:0:0:
172,51,199253,1,0,0:0:0:0:
171,320,199427,1,0,0:0:0:0:
172,51,199602,1,0,0:0:0:0:
172,51,199689,1,0,0:0:0:0:
172,51,199777,6,0,P|211:83|227:119,1,70
236,355,200126,1,0,0:0:0:0:
336,253,200300,1,0,0:0:0:0:
230,110,200474,2,0,L|144:110,1,70
470,45,200823,5,0,0:0:0:0:
353,44,200998,1,0,0:0:0:0:
413,138,201172,2,0,L|413:207,1,70
42,45,201521,5,0,0:0:0:0:
159,44,201696,1,0,0:0:0:0:
99,138,201870,2,0,L|99:207,1,70
258,329,202219,5,0,0:0:0:0:
257,167,202393,1,0,0:0:0:0:
480,352,202567,5,0,0:0:0:0:
32,352,202742,1,0,0:0:0:0:
480,288,202916,1,0,0:0:0:0:
32,288,203091,1,0,0:0:0:0:
480,224,203265,1,0,0:0:0:0:
32,224,203439,1,0,0:0:0:0:
32,32,203614,5,0,0:0:0:0:
480,32,203788,1,0,0:0:0:0:
256,352,203963,5,2,0:0:0:0:
156,116,205358,6,0,P|196:136|252:136,1,70
280,276,205706,2,0,L|280:192,1,70
384,140,206055,1,0,0:0:0:0:
468,260,206230,1,0,0:0:0:0:
280,276,206404,2,0,L|192:276,1,70
346,307,206753,5,0,0:0:0:0:
238,337,206927,1,0,0:0:0:0:
371,101,207101,1,0,0:0:0:0:
401,209,207276,1,0,0:0:0:0:
165,76,207450,1,0,0:0:0:0:
273,46,207624,1,0,0:0:0:0:
140,282,207799,1,0,0:0:0:0:
110,174,207974,1,0,0:0:0:0:
110,174,208148,5,0,0:0:0:0:
401,209,208323,1,0,0:0:0:0:
140,282,208497,1,0,0:0:0:0:
371,101,208671,1,0,0:0:0:0:
238,337,208846,1,0,0:0:0:0:
273,46,209020,1,0,0:0:0:0:
346,307,209195,1,0,0:0:0:0:
165,76,209369,1,0,0:0:0:0:
401,209,209544,6,0,L|366:205,1,35
110,174,209719,2,0,L|144:179,1,35
346,307,209893,2,0,L|331:275,1,35
271,47,210068,2,0,P|271:64|268:82,1,35
238,337,210242,2,0,L|256:307,1,35
376,108,210417,2,0,L|345:124,1,35
140,282,210591,2,0,L|174:274,1,35
401,209,210765,2,0,L|366:205,1,35
180,88,210939,5,0,0:0:0:0:
332,88,211113,2,0,L|416:88,1,70
256,192,211462,5,0,0:0:0:0:
180,88,211637,1,0,0:0:0:0:
88,176,211811,2,0,L|84:252,1,70
112,348,212160,5,0,0:0:0:0:
192,284,212334,1,0,0:0:0:0:
268,352,212509,2,0,L|344:352,1,70
192,284,212858,5,0,0:0:0:0:
112,348,213032,1,0,0:0:0:0:
340,352,213206,2,0,L|412:352,1,70
436,188,213555,5,0,0:0:0:0:
344,76,213730,1,0,0:0:0:0:
288,200,213904,2,0,L|196:200,1,70
108,344,214253,5,0,0:0:0:0:
244,348,214427,1,0,0:0:0:0:
96,264,214602,2,0,L|96:176,1,70
192,88,214951,5,0,0:0:0:0:
272,136,215125,2,0,L|324:120,3,35
309,168,215474,2,0,L|354:197,3,35
300,212,215823,5,0,0:0:0:0:
280,240,215910,1,0,0:0:0:0:
250,257,215997,1,0,0:0:0:0:
215,258,216084,1,0,0:0:0:0:
181,252,216171,1,0,0:0:0:0:
146,252,216259,1,0,0:0:0:0:
117,271,216346,1,0,0:0:0:0:
114,304,216433,1,0,0:0:0:0:
140,332,216520,6,0,P|200:356|228:356,1,70
336,304,216869,2,0,L|256:304,1,70
144,200,217218,2,0,P|204:224|232:224,1,70
336,152,217567,2,0,L|256:152,1,70
80,88,217916,6,0,L|164:128,1,70
208,264,218265,2,0,L|208:180,1,70
288,112,218613,5,0,0:0:0:0:
356,48,218788,1,0,0:0:0:0:
404,128,218962,2,0,L|404:216,1,70
304,208,219311,5,0,0:0:0:0:
269,214,219398,1,0,0:0:0:0:
234,219,219485,1,0,0:0:0:0:
199,220,219572,1,0,0:0:0:0:
165,218,219659,1,0,0:0:0:0:
130,215,219747,1,0,0:0:0:0:
95,213,219834,1,0,0:0:0:0:
60,218,219921,1,0,0:0:0:0:
31,236,220008,1,0,0:0:0:0:
17,268,220095,1,0,0:0:0:0:
23,302,220183,1,0,0:0:0:0:
47,327,220270,1,0,0:0:0:0:
81,328,220357,1,0,0:0:0:0:
114,315,220444,1,0,0:0:0:0:
146,300,220531,1,0,0:0:0:0:
180,293,220619,1,0,0:0:0:0:
212,305,220706,5,0,0:0:0:0:
212,305,220794,1,0,0:0:0:0:
243,320,220881,1,0,0:0:0:0:
277,325,220968,1,0,0:0:0:0:
311,317,221055,1,0,0:0:0:0:
341,298,221142,1,0,0:0:0:0:
363,272,221230,1,0,0:0:0:0:
377,240,221317,1,0,0:0:0:0:
376,205,221404,1,0,0:0:0:0:
360,174,221491,1,0,0:0:0:0:
335,150,221578,1,0,0:0:0:0:
314,123,221666,1,0,0:0:0:0:
325,92,221753,1,0,0:0:0:0:
354,73,221840,1,0,0:0:0:0:
389,70,221927,1,0,0:0:0:0:
422,80,222014,1,0,0:0:0:0:
436,112,222102,5,0,0:0:0:0:
436,256,222276,1,0,0:0:0:0:
216,192,222451,5,0,0:0:0:0:
360,192,222625,1,0,0:0:0:0:
292,60,222799,5,0,0:0:0:0:
280,320,222974,1,0,0:0:0:0:
428,192,223148,5,0,0:0:0:0:
136,188,223323,1,0,0:0:0:0:
104,336,223497,5,0,0:0:0:0:
136,188,223672,1,0,0:0:0:0:
304,36,223846,5,0,0:0:0:0:
256,192,224020,1,0,0:0:0:0:
54,247,224195,5,0,0:0:0:0:
151,132,224370,1,0,0:0:0:0:
371,76,224544,5,0,0:0:0:0:
256,192,224718,1,0,0:0:0:0:
324,272,224892,5,0,0:0:0:0:
332,305,224979,1,0,0:0:0:0:
354,332,225066,1,0,0:0:0:0:
386,345,225153,1,0,0:0:0:0:
420,341,225240,1,0,0:0:0:0:
448,320,225328,1,0,0:0:0:0:
462,288,225415,1,0,0:0:0:0:
465,253,225502,1,0,0:0:0:0:
460,219,225589,1,0,0:0:0:0:
447,186,225676,1,0,0:0:0:0:
427,158,225764,1,0,0:0:0:0:
398,139,225851,1,0,0:0:0:0:
364,130,225938,1,0,0:0:0:0:
329,128,226025,1,0,0:0:0:0:
294,132,226112,1,0,0:0:0:0:
260,140,226200,1,0,0:0:0:0:
228,154,226287,5,0,0:0:0:0:
201,176,226374,1,0,0:0:0:0:
184,206,226461,1,0,0:0:0:0:
175,240,226548,1,0,0:0:0:0:
164,273,226636,1,0,0:0:0:0:
139,297,226723,1,0,0:0:0:0:
105,298,226810,1,0,0:0:0:0:
77,278,226897,1,0,0:0:0:0:
64,244,226985,2,0,L|64:228,30,8.75
256,192,227683,12,0,229776,0:0:0:0:
249,287,233439,5,0,0:0:0:0:
317,119,233613,1,0,0:0:0:0:
163,215,233788,1,0,0:0:0:0:
344,227,233962,1,0,0:0:0:0:
205,111,234137,1,0,0:0:0:0:
249,287,234311,1,0,0:0:0:0:
432,80,234660,6,0,L|324:80,1,70
248,80,235009,1,0,0:0:0:0:
80,156,235183,6,0,L|188:156,1,70
352,228,235706,1,0,0:0:0:0:
150,156,235881,1,0,0:0:0:0:
200,344,236055,6,0,L|130:344,2,70
232,256,236579,1,0,0:0:0:0:
262,168,236753,6,0,L|332:168,1,70
384,336,237102,1,0,0:0:0:0:
360,248,237276,2,0,L|432:248,1,70
356,88,237625,5,0,0:0:0:0:
228,52,237799,1,0,0:0:0:0:
372,124,237974,1,0,0:0:0:0:
208,84,238148,2,0,L|140:56,1,70
143,240,238497,1,0,0:0:0:0:
143,57,238672,1,0,0:0:0:0:
300,149,238846,1,0,0:0:0:0:
378,322,239020,5,0,0:0:0:0:
258,325,239195,1,0,0:0:0:0:
70,236,239369,1,0,0:0:0:0:
190,233,239544,1,0,0:0:0:0:
442,148,239718,1,0,0:0:0:0:
322,151,239893,1,0,0:0:0:0:
134,62,240067,1,0,0:0:0:0:
254,59,240242,1,0,0:0:0:0:
364,240,240416,5,0,0:0:0:0:
280,336,240590,1,0,0:0:0:0:
262,142,240765,1,0,0:0:0:0:
176,68,240939,6,0,L|245:62,1,70
332,136,241113,2,0,L|262:142,1,70
60,48,241288,6,0,L|65:117,1,70
72,336,241462,2,0,L|65:266,1,70
148,101,241637,5,0,0:0:0:0:
270,194,241812,1,0,0:0:0:0:
363,115,241985,2,0,L|377:29,1,70
270,194,242334,5,0,0:0:0:0:
148,101,242509,1,0,0:0:0:0:
131,294,242683,2,0,L|220:294,1,70
385,189,243032,5,0,0:0:0:0:
256,312,243206,1,0,0:0:0:0:
256,80,243381,2,0,L|256:150,1,70
106,368,243730,2,0,L|176:368,1,70
430,364,244079,2,0,L|360:364,1,70
179,97,244427,6,0,L|92:75,1,70
323,161,244776,2,0,L|410:183,1,70
63,203,245125,1,0,0:0:0:0:
275,291,245299,1,0,0:0:0:0:
179,97,245474,1,0,0:0:0:0:
324,162,245648,1,0,0:0:0:0:
98,328,245823,1,0,0:0:0:0:
216,268,245997,5,0,0:0:0:0:
296,168,246172,2,0,L|224:136,1,70
80,224,246520,2,0,L|136:156,1,70
120,28,246869,2,0,L|160:100,1,70
376,172,247218,6,0,L|308:200,1,70
236,164,247567,1,0,0:0:0:0:
144,120,247741,1,0,0:0:0:0:
120,216,247916,2,0,L|168:288,1,70
471,332,248265,5,0,0:0:0:0:
320,332,248439,1,0,0:0:0:0:
448,227,248613,2,0,L|448:151,1,70
328,88,248962,5,0,0:0:0:0:
384,20,249137,1,0,0:0:0:0:
452,88,249311,2,0,L|448:168,1,70
468,328,249660,6,0,L|376:328,1,70
40,332,249834,2,0,L|132:332,1,70
319,282,250009,5,0,0:0:0:0:
257,81,250183,1,0,0:0:0:0:
189,279,250358,1,0,0:0:0:0:
361,159,250532,1,0,0:0:0:0:
145,154,250706,5,0,0:0:0:0:
322,286,250880,1,0,0:0:0:0:
257,75,251055,1,0,0:0:0:0:
185,283,251229,1,0,0:0:0:0:
311,306,251404,5,0,0:0:0:0:
281,66,251578,1,0,0:0:0:0:
164,277,251753,1,0,0:0:0:0:
383,175,251927,1,0,0:0:0:0:
140,126,252101,5,0,0:0:0:0:
313,312,252275,1,0,0:0:0:0:
282,60,252450,1,0,0:0:0:0:
160,282,252624,1,0,0:0:0:0:
383,175,252799,5,0,0:0:0:0:
204,108,252973,2,0,L|120:108,1,70
368,192,253323,5,0,0:0:0:0:
204,288,253497,1,0,0:0:0:0:
208,108,253672,2,0,L|208:32,1,70
208,108,254020,5,0,0:0:0:0:
348,112,254195,1,0,0:0:0:0:
168,188,254369,2,0,L|84:188,1,70
356,332,254718,5,0,0:0:0:0:
380,188,254892,1,0,0:0:0:0:
192,328,255067,2,0,L|80:328,1,70
88,128,255416,5,0,0:0:0:0:
152,32,255590,1,0,0:0:0:0:
192,136,255765,2,0,L|192:224,1,70
123,158,256113,5,0,0:0:0:0:
104,44,256287,1,0,0:0:0:0:
204,93,256462,2,0,L|264:157,1,70
169,156,256811,5,0,0:0:0:0:
78,86,256985,1,0,0:0:0:0:
184,53,257160,2,0,L|272:59,1,70
352,132,257509,5,0,0:0:0:0:
352,132,257596,1,0,0:0:0:0:
352,132,257683,2,0,L|352:216,1,70
288,332,257858,2,0,L|327:252,1,70
400,348,258032,2,0,L|384:280,1,70
479,270,258206,2,0,L|422:229,1,70
280,120,258381,5,0,0:0:0:0:
352,202,258555,1,0,0:0:0:0:
292,83,258730,5,0,0:0:0:0:
400,207,258904,1,0,0:0:0:0:
160,182,259079,5,0,0:0:0:0:
232,264,259253,1,0,0:0:0:0:
112,177,259428,5,0,0:0:0:0:
220,300,259602,1,0,0:0:0:0:
408,76,259776,6,0,L|296:76,1,70
104,76,260125,2,0,L|216:76,1,70
448,116,260474,2,0,L|378:116,1,70
72,116,260823,2,0,L|142:116,1,70
258,320,261172,5,0,0:0:0:0:
167,284,261346,1,0,0:0:0:0:
127,194,261520,1,0,0:0:0:0:
163,103,261695,1,0,0:0:0:0:
253,63,261869,1,0,0:0:0:0:
344,99,262044,1,0,0:0:0:0:
384,189,262218,1,0,0:0:0:0:
348,280,262392,1,0,0:0:0:0:
167,284,262567,5,0,0:0:0:0:
253,63,262741,1,0,0:0:0:0:
348,280,262915,1,0,0:0:0:0:
163,103,263090,1,0,0:0:0:0:
384,189,263264,1,0,0:0:0:0:
127,194,263439,1,0,0:0:0:0:
344,99,263613,1,0,0:0:0:0:
258,320,263787,1,0,0:0:0:0:
256,192,263962,1,0,0:0:0:0:
256,192,272334,12,0,275125,0:0:0:0:
160,64,275299,5,0,0:0:0:0:
138,100,275387,1,0,0:0:0:0:
117,136,275474,2,0,L|91:186,1,35
413,222,275648,5,0,0:0:0:0:
390,257,275736,1,0,0:0:0:0:
367,292,275823,2,0,L|333:337,1,35
34,265,275997,5,0,0:0:0:0:
56,230,276085,1,0,0:0:0:0:
80,195,276172,2,0,L|113:149,1,35
141,349,276346,2,0,L|177:308,1,35
383,76,276520,5,0,0:0:0:0:
383,76,276695,1,0,0:0:0:0:
405,111,276782,1,0,0:0:0:0:
390,150,276869,2,0,L|368:185,1,35
175,251,277044,5,0,0:0:0:0:
153,216,277131,1,0,0:0:0:0:
168,177,277218,2,0,L|190:142,1,35
394,347,277392,5,0,0:0:0:0:
362,318,277480,1,0,0:0:0:0:
338,352,277567,2,0,L|293:354,1,35
32,355,277741,2,0,L|79:353,1,35
160,276,277916,5,0,0:0:0:0:
160,276,278090,1,0,0:0:0:0:
160,234,278177,1,0,0:0:0:0:
158,191,278265,2,0,L|159:141,1,35
263,33,278439,6,0,L|262:69,1,35
356,227,278613,2,0,L|353:167,1,35
435,35,278788,1,0,0:0:0:0:
435,35,278875,1,0,0:0:0:0:
435,35,278962,2,0,L|435:73,1,35
356,227,279137,2,0,L|355:273,1,35
80,100,279311,5,0,0:0:0:0:
80,100,279485,1,0,0:0:0:0:
119,83,279573,1,0,0:0:0:0:
136,120,279660,2,0,L|156:174,1,35
189,263,279834,5,0,0:0:0:0:
228,246,279922,1,0,0:0:0:0:
245,283,280009,2,0,L|265:337,1,35
296,193,280183,5,0,0:0:0:0:
257,176,280271,1,0,0:0:0:0:
240,213,280358,2,0,L|220:267,1,35
37,342,280532,2,0,L|57:288,1,35
416,52,280706,6,0,B|368:164|392:260|392:260|380:356,1,280,4|0,0:0|0:0,0:0:0:0:
383,76,282102,5,0,0:0:0:0:
383,76,282277,1,0,0:0:0:0:
405,111,282364,1,0,0:0:0:0:
390,150,282451,2,0,L|368:185,1,35
175,251,282626,5,0,0:0:0:0:
153,216,282713,1,0,0:0:0:0:
168,177,282800,2,0,L|190:142,1,35
394,347,282974,5,0,0:0:0:0:
362,318,283062,1,0,0:0:0:0:
338,352,283149,2,0,L|293:354,1,35
32,355,283323,2,0,L|79:353,1,35
380,324,283497,5,0,0:0:0:0:
160,265,283672,1,0,0:0:0:0:
160,234,283759,1,0,0:0:0:0:
158,191,283847,2,0,L|159:141,1,35
263,33,284021,6,0,L|262:69,1,35
356,227,284195,2,0,L|353:167,1,35
435,35,284370,1,0,0:0:0:0:
435,35,284457,1,0,0:0:0:0:
435,35,284544,2,0,L|435:73,1,35
356,227,284719,2,0,L|355:273,1,35
80,100,284892,5,0,0:0:0:0:
109,54,285067,1,0,0:0:0:0:
119,83,285155,1,0,0:0:0:0:
136,120,285242,2,0,L|156:174,1,35
189,263,285416,5,0,0:0:0:0:
228,246,285504,1,0,0:0:0:0:
245,283,285591,2,0,L|265:337,1,35
296,193,285765,5,0,0:0:0:0:
257,176,285853,1,0,0:0:0:0:
240,213,285940,2,0,L|220:267,1,35
37,342,286113,2,0,L|57:288,1,35
140,308,286288,6,0,P|216:312|252:280,1,105.000004005432
180,124,286811,2,0,L|180:248,1,105.000004005432
324,144,287509,5,0,0:0:0:0:
408,56,287683,2,0,L|280:56,1,105.000004005432
244,176,288206,2,0,P|216:120|216:64,1,105.000004005432
440,232,288904,5,0,0:0:0:0:
376,84,289079,2,0,P|352:144|360:212,1,105.000004005432
258,353,289602,2,0,P|286:294|341:254,1,105.000004005432
32,196,290299,6,0,B|80:176|208:232|380:172,1,315.000012016297
92,288,290997,5,0,0:0:0:0:
276,328,291172,2,0,B|240:312|180:356|128:336,1,105.000004005432
152,120,291695,2,0,B|131:153|168:218|141:267,1,105.000004005432
256,192,292218,12,0,297451,0:0:0:0:
192,64,297799,5,0,0:0:0:0:
152,188,297974,2,0,L|268:188,1,105.000004005432
408,348,298672,2,0,B|408:292|408:292|408:260|388:224|392:228,1,105.000004005432
152,188,299369,2,0,B|152:244|152:244|152:276|172:312|168:308,1,105.000004005432
324,264,300067,1,0,0:0:0:0:
256,28,300241,6,0,L|256:152,1,105.000004005432
120,248,300765,2,0,B|120:216|120:216|136:192|208:192,1,105.000004005432
326,184,301462,5,0,0:0:0:0:
186,192,301811,1,0,0:0:0:0:
116,336,302160,2,0,B|156:308|284:348|376:320,1,262.500010013581
256,196,303381,5,0,0:0:0:0:
304,268,303555,2,0,L|424:276,1,105.000004005432
208,268,304253,2,0,L|88:276,1,105.000004005432
256,184,304951,2,0,L|256:68,1,105.000004005432
260,188,305648,5,0,0:0:0:0:
368,340,305823,2,0,P|388:300|384:224,1,105.000004005432
144,340,306346,2,0,P|124:300|128:224,1,105.000004005432
144,340,307044,5,0,0:0:0:0:
372,340,307393,1,0,0:0:0:0:
252,88,307741,1,0,0:0:0:0:
256,352,308439,5,0,0:0:0:0:
104,96,308613,5,0,0:0:0:0:
104,96,308701,1,0,0:0:0:0:
104,96,308788,2,0,L|188:96,1,70
420,104,308962,5,0,0:0:0:0:
420,104,309049,1,0,0:0:0:0:
420,104,309137,2,0,L|372:176,1,70
256,336,309311,5,0,0:0:0:0:
256,336,309398,1,0,0:0:0:0:
256,336,309485,2,0,L|196:280,1,70
104,96,309660,5,0,0:0:0:0:
104,96,309748,1,0,0:0:0:0:
104,96,309835,2,0,L|188:96,1,70
384,108,310009,5,0,0:0:0:0:
384,108,310096,1,0,0:0:0:0:
384,108,310183,2,0,P|416:136|440:176,1,70
128,276,310358,5,0,0:0:0:0:
128,276,310445,1,0,0:0:0:0:
128,276,310532,2,0,P|96:248|72:208,1,70
402,236,310706,5,0,0:0:0:0:
402,236,310793,1,0,0:0:0:0:
402,236,310880,2,0,P|401:278|386:322,1,70
109,147,311055,5,0,0:0:0:0:
109,147,311142,1,0,0:0:0:0:
109,147,311229,2,0,P|110:105|125:61,1,70
320,96,311404,5,0,0:0:0:0:
320,96,311491,1,0,0:0:0:0:
320,96,311579,2,0,L|278:168,1,70
371,199,311753,5,0,0:0:0:0:
371,199,311840,1,0,0:0:0:0:
371,199,311928,2,0,L|287:199,1,70
307,295,312102,5,0,0:0:0:0:
307,295,312189,1,0,0:0:0:0:
307,295,312277,2,0,L|265:222,1,70
192,288,312451,5,0,0:0:0:0:
192,288,312538,1,0,0:0:0:0:
192,288,312626,2,0,L|234:215,1,70
140,184,312799,5,0,0:0:0:0:
140,184,312886,1,0,0:0:0:0:
140,184,312974,2,0,L|224:184,1,70
204,88,313148,5,0,0:0:0:0:
204,88,313235,1,0,0:0:0:0:
204,88,313323,2,0,L|246:161,1,70
319,95,313497,5,0,0:0:0:0:
319,95,313584,1,0,0:0:0:0:
319,95,313672,2,0,L|277:168,1,70
192,256,313846,6,0,L|122:256,1,70
352,128,314020,2,0,L|422:128,1,70
166,224,314195,2,0,L|96:224,1,70
346,160,314369,2,0,L|416:160,1,70
256,192,314544,12,0,319776,0:0:0:0:
256,192,320474,5,0,0:0:0:0:
392,352,321172,5,0,0:0:0:0:
428,248,321520,1,0,0:0:0:0:
508,344,321869,1,0,0:0:0:0:
112,232,322567,5,0,0:0:0:0:
296,288,322916,1,0,0:0:0:0:
124,96,323265,1,0,0:0:0:0:
368,104,323962,5,0,0:0:0:0:
380,264,324311,1,0,0:0:0:0:
320,44,324660,2,0,P|276:40|216:72,1,105.000004005432
88,208,325358,6,0,L|112:148,2,35.0000013351441
92,149,325706,2,0,L|135:101,2,35.0000013351441
117,96,326055,2,0,L|173:65,2,35.0000013351441
158,54,326404,2,0,L|222:45,2,35.0000013351441
188,36,326753,5,0,0:0:0:0:
222,38,326869,1,0,0:0:0:0:
245,22,326985,1,0,0:0:0:0:
277,36,327101,1,0,0:0:0:0:
303,30,327218,1,0,0:0:0:0:
328,54,327334,1,0,0:0:0:0:
354,56,327451,1,0,0:0:0:0:
369,87,327567,1,0,0:0:0:0:
394,97,327683,1,0,0:0:0:0:
398,132,327799,1,0,0:0:0:0:
160,336,327974,5,0,0:0:0:0:
316,320,328148,6,0,L|384:320,1,52.5000020027161
252,244,328497,2,0,L|184:244,1,52.5000020027161
328,160,328846,6,0,L|328:228,1,52.5000020027161
404,96,329195,2,0,L|404:28,1,52.5000020027161
160,320,329544,5,0,0:0:0:0:
268,180,329718,1,0,0:0:0:0:
96,168,329892,5,0,0:0:0:0:
352,336,330067,1,0,0:0:0:0:
408,64,330241,5,0,0:0:0:0:
460,336,330416,1,0,0:0:0:0:
144,136,330590,5,0,0:0:0:0:
460,196,330765,1,0,0:0:0:0:
144,136,330939,5,0,0:0:0:0:
248,224,331113,1,0,0:0:0:0:
268,112,331288,1,0,0:0:0:0:
128,256,331462,1,0,0:0:0:0:
384,212,331637,1,0,0:0:0:0:
248,224,331811,1,0,0:0:0:0:
280,356,331985,1,0,0:0:0:0:
424,336,332160,1,0,0:0:0:0:
380,152,332334,5,0,0:0:0:0:
228,164,332509,1,0,0:0:0:0:
48,352,332683,1,0,0:0:0:0:
192,328,332858,1,0,0:0:0:0:
312,36,333032,5,0,0:0:0:0:
312,156,333206,1,0,0:0:0:0:
216,348,333381,1,0,0:0:0:0:
216,248,333555,1,0,0:0:0:0:
312,36,333730,6,0,L|216:36,1,70
216,348,333904,2,0,L|312:348,1,70
312,156,334079,2,0,L|216:156,1,70
216,248,334253,2,0,L|316:248,1,70
372,74,334427,6,0,L|285:33,1,70
153,316,334601,2,0,L|240:357,1,70
321,183,334776,2,0,L|234:142,1,70
196,225,334950,2,0,L|286:268,1,70
440,332,335125,5,0,0:0:0:0:
132,80,335299,1,0,0:0:0:0:
132,100,335387,1,0,0:0:0:0:
132,120,335474,1,0,0:0:0:0:
376,180,335648,6,0,L|288:180,1,70
168,252,335823,2,0,L|260:252,1,70
236,76,335997,2,0,L|236:152,1,70
308,348,336172,2,0,L|308:260,1,70
376,180,336346,5,0,0:0:0:0:
356,268,337916,6,0,P|316:248|260:248,1,70
232,108,338264,2,0,L|232:192,1,70
128,244,338613,1,0,0:0:0:0:
44,124,338788,1,0,0:0:0:0:
232,108,338962,2,0,L|320:108,1,70
166,77,339311,5,0,0:0:0:0:
274,47,339485,1,0,0:0:0:0:
141,283,339659,1,0,0:0:0:0:
111,175,339834,1,0,0:0:0:0:
347,308,340008,1,0,0:0:0:0:
239,338,340182,1,0,0:0:0:0:
372,102,340357,1,0,0:0:0:0:
402,210,340532,1,0,0:0:0:0:
402,210,340706,5,0,0:0:0:0:
111,175,340881,1,0,0:0:0:0:
372,102,341055,1,0,0:0:0:0:
141,283,341229,1,0,0:0:0:0:
274,47,341404,1,0,0:0:0:0:
239,338,341578,1,0,0:0:0:0:
166,77,341753,1,0,0:0:0:0:
347,308,341927,1,0,0:0:0:0:
368,205,342102,6,0,L|402:210,1,35
146,179,342277,2,0,L|111:175,1,35
338,110,342451,2,0,L|372:102,1,35
167,260,342626,2,0,L|136:276,1,35
256,77,342800,2,0,L|274:47,1,35
244,302,342975,2,0,P|241:319|240:336,1,35
181,109,343149,2,0,L|166:77,1,35
321,275,343323,2,0,L|340:304,1,35
256,192,343497,5,0,0:0:0:0:
180,296,343671,2,0,L|96:296,1,70
256,192,344020,5,0,0:0:0:0:
384,312,344195,1,0,0:0:0:0:
424,208,344369,2,0,L|428:132,1,70
400,36,344718,5,0,0:0:0:0:
320,100,344892,1,0,0:0:0:0:
244,32,345067,2,0,L|168:32,1,70
320,100,345416,5,0,0:0:0:0:
400,36,345590,1,0,0:0:0:0:
172,32,345764,2,0,L|100:32,1,70
76,196,346113,5,0,0:0:0:0:
168,308,346288,1,0,0:0:0:0:
224,184,346462,2,0,L|316:184,1,70
404,40,346811,5,0,0:0:0:0:
268,36,346985,1,0,0:0:0:0:
416,120,347160,2,0,L|416:208,1,70
320,296,347509,5,0,0:0:0:0:
240,248,347683,2,0,L|188:264,3,35
203,216,348032,2,0,L|158:187,3,35
212,172,348381,5,0,0:0:0:0:
232,144,348468,1,0,0:0:0:0:
262,127,348555,1,0,0:0:0:0:
297,126,348642,1,0,0:0:0:0:
331,132,348729,1,0,0:0:0:0:
366,132,348817,1,0,0:0:0:0:
395,113,348904,1,0,0:0:0:0:
398,80,348991,1,0,0:0:0:0:
372,52,349078,6,0,P|312:28|284:28,1,70
176,80,349427,2,0,L|256:80,1,70
368,184,349776,2,0,P|308:160|280:160,1,70
176,232,350125,2,0,L|256:232,1,70
432,296,350474,6,0,L|348:256,1,70
304,120,350823,2,0,L|304:204,1,70
224,272,351171,5,0,0:0:0:0:
156,336,351346,1,0,0:0:0:0:
108,256,351520,2,0,L|108:168,1,70
208,176,351869,5,0,0:0:0:0:
243,170,351956,1,0,0:0:0:0:
278,165,352043,1,0,0:0:0:0:
313,164,352130,1,0,0:0:0:0:
347,166,352217,1,0,0:0:0:0:
382,169,352305,1,0,0:0:0:0:
417,171,352392,1,0,0:0:0:0:
452,166,352479,1,0,0:0:0:0:
481,148,352566,1,0,0:0:0:0:
495,116,352653,1,0,0:0:0:0:
489,82,352741,1,0,0:0:0:0:
465,57,352828,1,0,0:0:0:0:
431,56,352915,1,0,0:0:0:0:
398,69,353002,1,0,0:0:0:0:
366,84,353089,1,0,0:0:0:0:
332,91,353177,1,0,0:0:0:0:
300,79,353264,5,0,0:0:0:0:
300,79,353352,1,0,0:0:0:0:
269,64,353439,1,0,0:0:0:0:
235,59,353526,1,0,0:0:0:0:
201,67,353613,1,0,0:0:0:0:
171,86,353700,1,0,0:0:0:0:
149,112,353788,1,0,0:0:0:0:
135,144,353875,1,0,0:0:0:0:
136,179,353962,1,0,0:0:0:0:
152,210,354049,1,0,0:0:0:0:
177,234,354136,1,0,0:0:0:0:
198,261,354224,1,0,0:0:0:0:
187,292,354311,1,0,0:0:0:0:
158,311,354398,1,0,0:0:0:0:
123,314,354485,1,0,0:0:0:0:
90,304,354572,1,0,0:0:0:0:
76,272,354660,5,0,0:0:0:0:
76,128,354834,1,0,0:0:0:0:
296,192,355009,5,0,0:0:0:0:
152,192,355183,1,0,0:0:0:0:
220,324,355357,5,0,0:0:0:0:
232,64,355532,1,0,0:0:0:0:
84,192,355706,5,0,0:0:0:0:
376,196,355881,1,0,0:0:0:0:
408,48,356055,5,0,0:0:0:0:
376,196,356230,1,0,0:0:0:0:
208,348,356404,5,0,0:0:0:0:
256,192,356578,1,0,0:0:0:0:
458,137,356753,5,0,0:0:0:0:
361,252,356928,1,0,0:0:0:0:
141,308,357102,5,0,0:0:0:0:
256,192,357276,1,0,0:0:0:0:
188,112,357450,5,0,0:0:0:0:
180,79,357537,1,0,0:0:0:0:
158,52,357624,1,0,0:0:0:0:
126,39,357711,1,0,0:0:0:0:
92,43,357798,1,0,0:0:0:0:
64,64,357886,1,0,0:0:0:0:
50,96,357973,1,0,0:0:0:0:
47,131,358060,1,0,0:0:0:0:
52,165,358147,1,0,0:0:0:0:
65,198,358234,1,0,0:0:0:0:
85,226,358322,1,0,0:0:0:0:
114,245,358409,1,0,0:0:0:0:
148,254,358496,1,0,0:0:0:0:
183,256,358583,1,0,0:0:0:0:
218,252,358672,1,0,0:0:0:0:
252,244,358758,1,0,0:0:0:0:
284,230,358845,5,0,0:0:0:0:
311,208,358932,1,0,0:0:0:0:
328,178,359019,1,0,0:0:0:0:
337,144,359108,1,0,0:0:0:0:
348,111,359194,1,0,0:0:0:0:
373,87,359281,1,0,0:0:0:0:
407,86,359368,1,0,0:0:0:0:
435,106,359455,1,0,0:0:0:0:
448,140,359544,2,0,L|448:156,28,8.75
448,140,360241,6,0,L|384:200,1,70
454,213,360590,2,0,L|373:246,1,70
431,288,360939,2,0,L|343:287,1,70
393,338,361288,2,0,L|310:309,1,70
64,244,361637,6,0,L|116:197,1,70
59,172,361986,2,0,L|123:146,1,70
82,97,362335,2,0,L|152:98,1,70
120,47,362684,2,0,L|187:70,1,70
256,192,363032,1,0,0:0:0:0:
127,341,363206,1,0,0:0:0:0:
374,47,363419,5,0,0:0:0:0:
256,192,363595,1,0,0:0:0:0:
98,48,363831,1,0,0:0:0:0:
256,192,364066,1,0,0:0:0:0:
254,193,364302,1,0,0:0:0:0:
255,98,364810,6,0,B|177:6|139:10|83:33|65:74|64:107|87:197|126:224|132:266|168:311|256:368|256:368|284:356|336:308|388:252|424:215|432:172|462:61|433:15|393:-2|358:11|292:49|281:58|251:100|241:122,1,1117.19995397278
219,83,368680,6,0,L|370:107,1,140
252,220,369425,1,0,0:0:0:0:
399,293,369728,6,0,L|399:182,1,105
194,106,370747,2,0,P|257:133|324:102,1,140
161,192,371733,5,0,0:0:0:0:
249,336,372273,1,0,0:0:0:0:
339,191,372813,1,0,0:0:0:0:
251,237,373626,5,0,0:0:0:0:
473,354,373816,6,0,B|407:309|303:338|198:368|113:363|59:336|44:311,1,420
259,117,375583,5,0,0:0:0:0:
220,216,375849,6,0,B|220:288|256:328|256:328|296:288|296:212,1,245
255,40,378031,1,0,0:0:0:0:
256,192,378864,12,0,382197,0:0:0:0:
