osu file format v14

[General]
AudioFilename: oddsends.mp3
AudioLeadIn: 0
PreviewTime: 120119
Countdown: 1
SampleSet: Soft
StackLeniency: 0.7
Mode: 0
LetterboxInBreaks: 1
WidescreenStoryboard: 0

[Editor]
Bookmarks: 354,10354,22854,35354,45354,47854,55354,63322,65354,66604,75354,85354,95354,105197,120354,130354,140354,150354,160354,170354,180197,195354,205354,215354,225354,235354,250354,260354,275344,285344,295344,305344,315344,328469
DistanceSpacing: 2.1
BeatDivisor: 4
GridSize: 4
TimelineZoom: 2.4

[Metadata]
Title:ODDS&ENDS
TitleUnicode:ODDS&ENDS
Artist:ryo(supercell) feat.Hatsune Miku
ArtistUnicode:ryo(supercell) feat.初音ミク
Creator:rui
Version:Collab
Source:
Tags:satellite Dagger-Gazel
BeatmapID:1164060
BeatmapSetID:549726

[Difficulty]
HPDrainRate:3.9
CircleSize:3.9
OverallDifficulty:9.3
ApproachRate:9.3
SliderMultiplier:1.7
SliderTickRate:1

[Events]
//Background and Video events
0,0,"38762398_p0.jpg",0,0
//Break Periods
//Storyboard Layer 0 (Background)
//Storyboard Layer 1 (Fail)
//Storyboard Layer 2 (Pass)
//Storyboard Layer 3 (Foreground)
//Storyboard Sound Samples

[TimingPoints]
354,312.5,4,2,1,30,1,0
354,-200,4,2,1,30,0,0
10354,-166.666662777778,4,2,1,30,0,0
17229,-199.9999944,4,2,1,30,0,0
20354,-166.666662777778,4,2,1,30,0,0
35354,-133.333333333333,4,2,1,30,0,0
100041,-181.818181818181,4,2,1,30,0,0
100354,-133.333333333333,4,2,1,30,0,0
105197,-111.111111111111,4,2,1,30,0,0
120354,-100,4,2,1,30,0,0
275344,312.5,4,2,1,30,1,0

[Colours]
Combo1 : 128,255,128
Combo2 : 0,255,255
Combo3 : 255,128,0
Combo4 : 247,115,135

[HitObjects]
456,44,354,6,0,P|416:48|372:60,1,85
220,40,979,1,0,0:0:0:0:
168,96,1135,1,0,0:0:0:0:
176,172,1291,1,0,0:0:0:0:
364,172,1604,6,0,P|336:204|314:241,1,85
190,329,2229,1,0,0:0:0:0:
136,273,2385,1,0,0:0:0:0:
145,196,2541,1,0,0:0:0:0:
52,92,2854,6,0,P|92:78|133:70,1,85
300,28,3479,1,0,0:0:0:0:
299,104,3635,1,0,0:0:0:0:
259,171,3791,1,0,0:0:0:0:
177,365,4104,6,0,P|160:325|148:284,1,85
76,132,4729,1,0,0:0:0:0:
152,126,4885,1,0,0:0:0:0:
222,161,5041,1,0,0:0:0:0:
380,28,5354,6,0,P|396:67|408:108,1,85
475,284,5979,1,0,0:0:0:0:
391,291,6135,1,0,0:0:0:0:
314,252,6291,1,0,0:0:0:0:
168,72,6604,6,0,P|167:111|176:158,1,85
102,346,7229,1,0,0:0:0:0:
186,354,7385,1,0,0:0:0:0:
259,311,7541,1,0,0:0:0:0:
456,352,7854,6,0,P|442:314|432:268,1,85
332,80,8479,1,0,0:0:0:0:
415,66,8635,1,0,0:0:0:0:
490,106,8791,1,0,0:0:0:0:
48,192,9104,5,0,0:0:0:0:
92,117,10354,6,0,B|104:197|65:184|76:273,1,153.000009338379
146,384,10979,2,0,B|134:304|173:317|162:228,1,153.000009338379
75,267,11604,6,0,P|106:303|207:310,1,153.000009338379
418,311,12229,2,0,P|387:275|286:268,1,153.000009338379
331,355,12854,5,0,0:0:0:0:
491,238,13479,2,0,P|489:182|480:129,1,102.000006225586
438,49,14104,5,0,0:0:0:0:
278,166,14729,2,0,P|280:222|289:275,1,102.000006225586
331,355,15354,5,0,0:0:0:0:
439,334,15666,1,0,0:0:0:0:
491,238,15979,2,0,P|489:182|480:129,1,102.000006225586
219,240,16604,5,0,0:0:0:0:
312,258,16916,1,0,0:0:0:0:
377,187,17229,2,0,P|375:149|362:103,1,85
119,216,17854,6,0,P|121:254|134:300,1,85
475,261,18479,2,0,P|499:185|260:160,1,425
376,186,20354,5,0,0:0:0:0:
299,253,20666,1,0,0:0:0:0:
197,243,20979,2,0,P|145:237|107:203,1,102.000006225586
179,48,21604,1,0,0:0:0:0:
179,48,22229,2,0,P|199:96|189:145,1,102.000006225586
60,220,22854,5,0,0:0:0:0:
160,236,23479,1,0,0:0:0:0:
240,252,24104,1,0,0:0:0:0:
300,268,24729,1,0,0:0:0:0:
340,276,25354,6,0,P|388:260|440:268,1,102.000006225586
496,184,25979,2,0,P|468:172|440:164,2,51.0000031127932
184,48,26916,2,0,P|188:76|200:108,1,51.0000031127932
288,152,27229,2,0,P|296:132|304:92,2,51.0000031127932
60,328,27854,6,0,P|108:331|160:312,1,102.000006225586
211,229,28479,2,0,P|188:219|164:212,2,51.0000031127932
396,298,29104,6,0,P|346:287|296:284,1,102.000006225586
196,184,29729,2,0,P|214:166|233:151,2,51.0000031127932
10,192,30354,6,0,P|53:165|100:145,1,102.000006225586
316,28,30979,2,0,P|336:44|355:61,2,51.0000031127932
256,192,31604,12,0,35041,0:0:0:0:
113,310,35197,5,0,0:0:0:0:
113,310,35275,1,0,0:0:0:0:
113,310,35354,2,0,P|159:302|184:300,1,63.7500024318696
343,334,35666,1,0,0:0:0:0:
343,334,35979,2,0,P|335:288|333:263,1,63.7500024318696
367,104,36291,1,0,0:0:0:0:
367,104,36604,2,0,P|321:112|296:114,1,63.7500024318696
137,80,36916,1,0,0:0:0:0:
137,80,37229,2,0,P|145:126|147:151,1,63.7500024318696
113,310,37541,1,0,0:0:0:0:
329,221,37854,6,0,P|362:217|393:215,2,63.7500024318696
484,137,38479,1,0,0:0:0:0:
472,313,38791,1,0,0:0:0:0:
257,256,39104,6,0,P|251:228|256:192,1,63.7500024318696
257,130,39416,6,0,P|261:161|255:192,1,63.7500024318696
192,193,39729,6,0,P|220:187|256:192,1,63.7500024318696
318,193,40041,6,0,P|286:197|255:191,1,63.7500024318696
113,74,40354,6,0,P|159:82|184:84,1,63.7500024318696
343,50,40666,1,0,0:0:0:0:
343,50,40979,2,0,P|335:96|333:121,1,63.7500024318696
367,280,41291,1,0,0:0:0:0:
367,280,41604,2,0,P|321:272|296:270,1,63.7500024318696
137,304,41916,1,0,0:0:0:0:
137,304,42229,2,0,P|145:258|147:233,1,63.7500024318696
113,74,42541,1,0,0:0:0:0:
329,163,42854,6,0,P|362:167|393:169,2,63.7500024318696
484,247,43479,1,0,0:0:0:0:
472,71,43791,1,0,0:0:0:0:
257,128,44104,6,0,P|251:156|256:192,1,63.7500024318696
257,254,44416,6,0,P|261:222|255:191,1,63.7500024318696
192,191,44729,6,0,P|220:197|256:192,1,63.7500024318696
318,191,45041,6,0,P|286:186|255:192,1,63.7500024318696
113,310,45354,6,0,P|168:336|236:328,1,127.500004863739
316,272,45822,1,0,0:0:0:0:
255,191,45979,1,0,0:0:0:0:
156,168,46135,2,0,P|160:208|168:240,1,63.7500024318696
404,296,46447,2,0,P|400:256|392:224,1,63.7500024318696
352,80,46760,6,0,P|384:72|420:64,1,63.7500024318696
332,168,47072,1,0,0:0:0:0:
252,128,47228,1,0,0:0:0:0:
230,41,47385,2,0,P|291:56|351:79,1,127.500004863739
71,260,47854,6,0,P|133:244|197:239,1,127.500004863739
358,194,48322,2,0,P|328:188|286:182,1,63.7500024318696
192,128,48635,1,0,0:0:0:0:
316,100,48791,1,0,0:0:0:0:
256,32,48947,1,0,0:0:0:0:
438,63,49104,2,0,P|376:78|316:100,1,127.500004863739
128,220,49572,6,0,L|48:236,1,63.7500024318696
112,320,49885,1,0,0:0:0:0:
192,164,50041,2,0,P|165:146|135:136,1,63.7500024318696
324,83,50354,6,0,P|299:102|280:128,1,63.7500024318696
192,276,50666,1,0,0:0:0:0:
204,288,50822,2,0,P|212:328|216:368,1,63.7500024318696
421,294,51135,2,0,P|425:263|432:232,2,63.7500024318696
312,244,51604,6,0,P|308:176|296:104,1,127.500004863739
144,28,52072,1,0,0:0:0:0:
132,40,52228,2,0,P|124:80|120:120,1,63.7500024318696
28,228,52541,2,0,P|68:220|108:216,1,63.7500024318696
184,260,52854,2,0,P|243:236|304:216,1,127.500004863739
456,176,53322,6,0,P|416:168|376:164,1,63.7500024318696
328,84,53635,1,0,0:0:0:0:
303,216,53791,1,0,0:0:0:0:
204,128,53947,2,0,P|208:164|216:192,1,63.7500024318696
296,296,54260,2,0,P|291:328|283:359,1,63.7500024318696
303,216,54572,5,0,0:0:0:0:
216,276,54729,1,0,0:0:0:0:
216,276,54807,1,0,0:0:0:0:
216,276,54885,1,0,0:0:0:0:
176,180,55041,1,0,0:0:0:0:
132,336,55197,1,0,0:0:0:0:
313,248,55354,6,0,P|349:247|377:249,1,63.7500024318696
462,330,55666,1,0,0:0:0:0:
349,169,55822,1,0,0:0:0:0:
493,39,55979,2,0,P|491:74|487:110,1,63.7500024318696
460,219,56291,1,0,0:0:0:0:
370,59,56447,6,0,P|329:54|243:51,1,127.500004863739
101,109,56916,1,0,0:0:0:0:
189,190,57072,2,0,P|192:154|191:125,1,63.7500024318696
7,28,57385,2,0,P|6:59|9:91,1,63.7500024318696
81,234,57697,1,0,0:0:0:0:
93,142,57854,6,0,P|40:132|0:188,1,127.500004863739
39,309,58322,1,0,0:0:0:0:
162,270,58479,2,0,P|215:260|255:316,1,127.500004863739
86,358,58947,2,0,L|71:327,1,31.8750012159348
39,309,59104,6,0,L|49:178,1,127.500004863739
182,210,59572,1,0,0:0:0:0:
105,101,59729,1,0,0:0:0:0:
264,66,59885,2,0,L|273:193,1,127.500004863739
449,359,60354,6,0,B|431:313|431:313|442:222,1,127.500004863739
465,51,60822,2,0,P|442:75|356:85,1,95.6250036478044
343,71,61135,1,0,0:0:0:0:
462,153,61291,1,0,0:0:0:0:
330,210,61447,1,0,0:0:0:0:
479,148,61604,6,0,B|497:194|497:194|486:285,1,127.500004863739
449,359,62072,1,0,0:0:0:0:
330,210,62229,1,0,0:0:0:0:
330,210,62541,2,0,L|404:206,1,63.7500024318696
268,161,62854,6,0,P|251:195|296:281,1,127.500004863739
452,257,63322,2,0,P|469:223|424:137,2,127.500004863739
395,323,64025,1,0,0:0:0:0:
378,310,64104,6,0,L|313:304,1,63.7500024318696
133,242,64416,2,0,L|198:236,1,63.7500024318696
313,184,64729,1,0,0:0:0:0:
323,57,64885,2,0,L|312:204,1,127.500004863739
196,236,65354,5,0,0:0:0:0:
199,267,65432,1,0,0:0:0:0:
199,299,65510,1,0,0:0:0:0:
203,331,65588,1,0,0:0:0:0:
206,363,65666,1,0,0:0:0:0:
313,184,65979,5,0,0:0:0:0:
72,272,66291,1,0,0:0:0:0:
313,184,66604,5,0,0:0:0:0:
72,272,66916,1,0,0:0:0:0:
313,184,67229,5,0,0:0:0:0:
72,272,67541,1,0,0:0:0:0:
216,92,67854,5,0,0:0:0:0:
200,204,68010,1,0,0:0:0:0:
232,316,68166,5,0,0:0:0:0:
364,96,68479,1,0,0:0:0:0:
232,316,68791,5,0,0:0:0:0:
364,96,69104,6,0,L|328:156,1,63.7500024318696
180,233,69416,2,0,L|148:288,1,63.7500024318696
352,300,69729,2,0,L|297:267,1,63.7500024318696
214,116,70041,2,0,L|160:84,1,63.7500024318696
364,96,70354,5,0,0:0:0:0:
367,127,70432,1,0,0:0:0:0:
367,159,70510,1,0,0:0:0:0:
371,191,70588,1,0,0:0:0:0:
374,223,70666,1,0,0:0:0:0:
212,60,70979,5,0,0:0:0:0:
452,140,71291,1,0,0:0:0:0:
212,60,71604,5,0,0:0:0:0:
452,140,71916,1,0,0:0:0:0:
212,60,72229,5,0,0:0:0:0:
452,140,72541,1,0,0:0:0:0:
268,280,72854,5,0,0:0:0:0:
288,168,73010,1,0,0:0:0:0:
344,68,73166,5,0,0:0:0:0:
108,164,73479,1,0,0:0:0:0:
344,68,73791,5,0,0:0:0:0:
108,164,74104,6,0,L|184:136,1,63.7500024318696
344,242,74416,2,0,L|404:220,1,63.7500024318696
228,340,74729,2,0,L|205:280,1,63.7500024318696
306,103,75041,2,0,L|284:44,1,63.7500024318696
404,220,75354,5,0,0:0:0:0:
344,268,75510,1,0,0:0:0:0:
267,262,75666,1,0,0:0:0:0:
183,79,75822,5,0,0:0:0:0:
219,146,75979,2,0,L|207:218,2,63.7500024318696
276,95,76447,2,0,L|344:87,1,63.7500024318696
405,126,76760,2,0,P|416:92|412:63,1,63.7500024318696
336,162,77072,5,0,0:0:0:0:
398,206,77229,1,0,0:0:0:0:
469,178,77385,2,0,P|474:219|461:247,1,63.7500024318696
374,356,77697,5,0,0:0:0:0:
326,298,77854,2,0,P|375:281|437:317,1,127.500004863739
389,257,78322,2,0,L|399:191,1,63.7500024318696
355,130,78635,2,0,P|393:117|426:124,2,63.7500024318696
226,254,79104,6,0,P|249:207|223:115,1,127.500004863739
169,169,79572,1,0,0:0:0:0:
171,92,79729,1,0,0:0:0:0:
103,126,79885,2,2,P|80:173|106:265,1,127.500004863739,0|0,0:0|0:0,0:0:0:0:
284,358,80354,5,0,0:0:0:0:
219,316,80510,1,0,0:0:0:0:
152,352,80666,1,0,0:0:0:0:
80,326,80822,2,0,L|11:324,1,63.7500024318696
216,218,81135,5,0,0:0:0:0:
141,236,81291,1,0,0:0:0:0:
72,201,81447,1,0,0:0:0:0:
294,248,81604,6,0,L|305:312,1,63.7500024318696
216,218,81916,1,0,0:0:0:0:
282,163,82072,2,0,L|414:150,1,127.500004863739
222,93,82541,5,0,0:0:0:0:
222,93,82697,1,0,0:0:0:0:
300,37,82854,6,0,L|377:28,2,63.7500024318696
222,93,83322,2,0,L|155:86,1,63.7500024318696
282,163,83635,1,0,0:0:0:0:
282,163,83947,6,0,L|297:227,1,63.7500024318696
162,321,84260,2,0,P|174:286|190:258,1,63.7500024318696
375,282,84572,1,0,0:0:0:0:
282,163,84729,1,0,0:0:0:0:
296,353,84885,5,0,0:0:0:0:
296,353,84963,1,0,0:0:0:0:
296,353,85041,1,0,0:0:0:0:
192,32,85354,5,0,0:0:0:0:
140,149,85510,1,0,0:0:0:0:
284,69,85666,2,0,P|316:76|348:96,1,63.7500024318696
408,152,85979,1,0,0:0:0:0:
311,283,86135,2,0,P|291:222|286:159,1,127.500004863739
284,69,86604,1,0,0:0:0:0:
180,211,86760,6,0,P|179:179|186:148,1,63.7500024318696
270,275,87072,2,0,P|243:291|212:302,1,63.7500024318696
284,157,87385,2,0,P|312:173|336:195,1,63.7500024318696
124,292,87697,1,0,0:0:0:0:
59,224,87854,6,0,B|108:200|108:200|184:212,1,127.500004863739
268,228,88322,1,0,0:0:0:0:
338,43,88479,2,0,P|284:59|216:99,1,127.500004863739
252,180,88947,1,0,0:0:0:0:
430,129,89104,2,0,P|382:89|338:43,1,127.500004863739
168,16,89572,1,0,0:0:0:0:
210,92,89729,1,0,0:0:0:0:
158,167,89885,1,0,0:0:0:0:
68,157,90041,2,0,L|83:227,1,63.7500024318696
190,308,90354,6,0,P|159:300|128:296,1,63.7500024318696
202,165,90666,2,0,P|264:156|328:132,1,127.500004863739
388,72,91135,1,0,0:0:0:0:
452,132,91291,1,0,0:0:0:0:
476,48,91447,1,0,0:0:0:0:
368,160,91604,5,0,0:0:0:0:
308,224,91760,1,0,0:0:0:0:
336,308,91916,1,0,0:0:0:0:
420,340,92072,2,0,P|436:296|440:248,1,95.6250036478044
413,201,92385,2,0,P|387:183|367:159,1,63.7500024318696
348,28,92697,1,0,0:0:0:0:
276,120,92854,6,0,L|176:136,1,95.6250036478044
136,144,93166,1,0,0:0:0:0:
248,220,93322,2,0,L|312:208,1,63.7500024318696
416,160,93635,1,0,0:0:0:0:
352,296,93791,2,0,L|288:308,1,63.7500024318696
112,244,94104,5,0,0:0:0:0:
256,344,94260,1,0,0:0:0:0:
128,360,94416,1,0,0:0:0:0:
208,200,94572,1,0,0:0:0:0:
208,200,94650,1,0,0:0:0:0:
208,200,94729,1,0,0:0:0:0:
328,308,94885,1,0,0:0:0:0:
412,176,95041,2,0,P|418:131|421:76,1,95.6250036478044
401,27,95354,5,0,0:0:0:0:
378,25,95432,1,0,0:0:0:0:
356,23,95510,1,0,0:0:0:0:
334,21,95588,1,0,0:0:0:0:
312,19,95666,1,0,0:0:0:0:
268,112,95822,1,0,0:0:0:0:
178,61,95979,2,0,L|89:55,1,63.7500024318696
23,10,96291,5,0,0:0:0:0:
42,316,96447,1,0,0:0:0:0:
130,264,96604,6,0,L|139:190,1,63.7500024318696
294,348,96916,1,0,0:0:0:0:
285,246,97072,2,0,L|211:238,1,63.7500024318696
381,293,97385,1,0,0:0:0:0:
274,144,97541,1,0,0:0:0:0:
146,329,97697,5,0,0:0:0:0:
168,327,97775,1,0,0:0:0:0:
190,324,97854,1,0,0:0:0:0:
283,364,98010,1,0,0:0:0:0:
324,270,98166,1,0,0:0:0:0:
230,228,98322,2,0,P|226:182|225:126,1,95.6250036478044
236,82,98635,1,0,0:0:0:0:
319,140,98791,1,0,0:0:0:0:
138,94,98947,5,0,0:0:0:0:
320,0,99104,2,0,P|316:30|305:79,1,63.7500024318696
156,241,99416,5,0,0:0:0:0:
338,212,99572,1,0,0:0:0:0:
189,155,99729,5,0,0:0:0:0:
306,299,99885,1,0,0:0:0:0:
370,125,100041,6,0,P|336:119|294:129,1,70.1250021400452
218,210,100354,6,0,L|213:174,1,31.8750012159348
163,105,100510,2,0,L|172:72,1,31.8750012159348
261,31,100666,5,0,0:0:0:0:
301,125,100822,1,0,0:0:0:0:
214,179,100979,1,0,0:0:0:0:
301,125,101135,1,0,0:0:0:0:
261,31,101291,5,0,0:0:0:0:
237,355,101447,1,0,0:0:0:0:
275,260,101604,6,0,L|202:255,1,63.7500024318696
342,341,101916,1,0,0:0:0:0:
212,167,102072,1,0,0:0:0:0:
132,369,102229,5,0,0:0:0:0:
237,355,102385,1,0,0:0:0:0:
342,341,102541,1,0,0:0:0:0:
45,302,102697,5,0,0:0:0:0:
447,327,102854,1,0,0:0:0:0:
466,298,103166,6,0,P|464:336|466:366,1,63.7500024318696
394,225,103479,2,0,P|365:250|345:273,1,63.7500024318696
491,202,103791,1,0,0:0:0:0:
350,135,103947,1,0,0:0:0:0:
328,139,104025,1,0,0:0:0:0:
306,145,104104,1,0,0:0:0:0:
394,225,104260,5,0,0:0:0:0:
383,44,104416,1,0,0:0:0:0:
217,115,104572,2,0,P|214:161|219:182,1,63.7500024318696
307,349,104885,5,0,0:0:0:0:
258,35,105041,1,0,0:0:0:0:
367,208,105197,6,0,L|216:177,1,152.999995330811
56,104,105666,2,0,P|96:88|152:84,1,76.4999976654053
217,276,105979,2,0,P|180:268|148:248,1,76.4999976654053
276,64,106291,2,0,P|255:96|247:133,1,76.4999976654053
316,296,106604,1,0,0:0:0:0:
176,188,106760,1,0,0:0:0:0:
344,140,106916,1,0,0:0:0:0:
156,268,107072,2,0,P|193:267|227:252,1,76.4999976654053
400,200,107385,1,0,0:0:0:0:
244,120,107541,1,0,0:0:0:0:
416,59,107697,6,0,B|432:159|432:159|400:199,1,152.999995330811
284,300,108166,2,0,P|244:296|208:284,1,76.4999976654053
64,232,108479,2,0,P|87:199|115:174,1,76.4999976654053
228,72,108791,2,0,P|244:108|252:145,1,76.4999976654053
240,340,109104,1,0,0:0:0:0:
384,200,109260,1,0,0:0:0:0:
332,124,109416,1,0,0:0:0:0:
144,236,109572,1,0,0:0:0:0:
400,300,109729,1,0,0:0:0:0:
412,332,109807,1,0,0:0:0:0:
400,364,109885,1,0,0:0:0:0:
368,380,109963,1,0,0:0:0:0:
348,353,110041,2,0,P|326:326|310:280,1,76.4999976654053
288,168,110354,5,0,0:0:0:0:
248,84,110510,1,0,0:0:0:0:
248,84,110588,1,0,0:0:0:0:
248,84,110666,1,0,0:0:0:0:
156,100,110822,1,0,0:0:0:0:
120,184,110979,1,0,0:0:0:0:
120,276,111135,1,0,0:0:0:0:
120,276,111213,1,0,0:0:0:0:
120,276,111291,1,0,0:0:0:0:
48,336,111447,1,0,0:0:0:0:
24,248,111604,5,0,0:0:0:0:
76,192,111760,1,0,0:0:0:0:
156,172,111916,1,0,0:0:0:0:
240,208,112072,1,0,0:0:0:0:
288,296,112229,1,0,0:0:0:0:
392,324,112385,1,0,0:0:0:0:
488,260,112541,1,0,0:0:0:0:
504,140,112697,1,0,0:0:0:0:
392,76,112854,5,0,0:0:0:0:
414,185,113010,1,0,0:0:0:0:
293,138,113166,1,0,0:0:0:0:
339,265,113322,1,0,0:0:0:0:
195,213,113479,1,0,0:0:0:0:
264,351,113635,1,0,0:0:0:0:
100,368,113791,5,0,0:0:0:0:
249,272,113947,1,0,0:0:0:0:
56,228,114104,1,0,0:0:0:0:
244,167,114260,1,0,0:0:0:0:
40,86,114416,1,0,0:0:0:0:
267,65,114572,1,0,0:0:0:0:
27,9,114729,2,0,P|31:46|39:84,1,76.4999976654053
196,244,115041,1,0,0:0:0:0:
196,244,115197,6,0,P|168:316|112:364,1,152.999995330811
58,235,115666,1,0,0:0:0:0:
124,56,115822,1,0,0:0:0:0:
196,244,115979,1,0,0:0:0:0:
224,72,116135,1,0,0:0:0:0:
332,272,116291,1,0,0:0:0:0:
320,56,116447,1,0,0:0:0:0:
471,252,116604,6,0,L|460:328,1,76.4999976654053
408,16,116916,2,0,L|418:91,1,76.4999976654053
376,272,117229,1,0,0:0:0:0:
492,48,117385,1,0,0:0:0:0:
472,252,117541,1,0,0:0:0:0:
328,88,117697,6,0,B|256:64|256:64|180:80,1,152.999995330811
52,112,118166,1,0,0:0:0:0:
248,192,118322,1,0,0:0:0:0:
56,268,118479,1,0,0:0:0:0:
280,232,118635,1,0,0:0:0:0:
104,380,118791,1,0,0:0:0:0:
312,272,118947,1,0,0:0:0:0:
96,140,119104,5,0,0:0:0:0:
96,140,119182,1,0,0:0:0:0:
96,140,119260,1,0,0:0:0:0:
416,228,119416,1,0,0:0:0:0:
416,228,119494,1,0,0:0:0:0:
416,228,119572,1,0,0:0:0:0:
60,280,119729,5,0,0:0:0:0:
452,44,119885,1,0,0:0:0:0:
414,23,120354,6,0,B|434:101|434:101|428:157,1,127.5
416,228,120666,1,0,0:0:0:0:
169,167,120822,1,0,0:0:0:0:
169,167,120900,1,0,0:0:0:0:
169,167,120979,2,0,L|178:119,1,42.5
329,53,121135,2,0,L|336:94,1,42.5
152,264,121291,1,0,0:0:0:0:
355,179,121447,5,0,0:0:0:0:
355,179,121525,1,0,0:0:0:0:
355,179,121604,2,0,L|458:176,1,85
223,44,121916,2,0,L|120:41,1,85
59,303,122229,1,0,0:0:0:0:
83,337,122307,1,0,0:0:0:0:
120,358,122385,1,0,0:0:0:0:
162,364,122463,1,0,0:0:0:0:
202,353,122541,2,0,L|212:308,1,42.5
97,132,122697,2,0,L|105:173,1,42.5
287,277,122854,6,0,B|258:238|258:238|169:228,1,127.5
93,258,123166,1,0,0:0:0:0:
288,152,123322,1,0,0:0:0:0:
288,152,123400,1,0,0:0:0:0:
288,152,123479,1,0,0:0:0:0:
182,62,123635,1,0,0:0:0:0:
419,115,123791,2,0,P|427:158|418:202,1,85
381,279,124025,1,0,0:0:0:0:
367,273,124104,6,0,B|292:252|315:290|242:275,1,127.5
166,243,124416,1,0,0:0:0:0:
331,83,124572,1,0,0:0:0:0:
139,128,124729,2,0,P|184:128|224:139,1,85
332,360,125041,1,0,0:0:0:0:
491,248,125197,5,0,0:0:0:0:
491,248,125275,1,0,0:0:0:0:
491,248,125354,2,0,B|504:163|504:163|490:124,1,127.5
451,51,125666,1,0,0:0:0:0:
292,197,125822,5,0,0:0:0:0:
411,176,125979,1,0,0:0:0:0:
200,120,126135,1,0,0:0:0:0:
411,176,126291,1,0,0:0:0:0:
231,13,126447,5,0,0:0:0:0:
231,13,126525,1,0,0:0:0:0:
231,13,126604,2,0,B|142:10|142:10|108:53,1,127.5
75,111,126916,2,0,L|30:108,1,42.5
187,208,127072,2,0,L|232:205,1,42.5
9,233,127229,2,0,B|6:276|6:276|15:316,1,85
76,380,127463,1,0,0:0:0:0:
91,373,127541,2,0,B|138:366|138:366|168:379|168:379|217:370,1,127.5
309,361,127854,6,0,B|318:321|318:321|319:274,1,85
218,116,128166,1,0,0:0:0:0:
88,253,128322,1,0,0:0:0:0:
88,253,128400,1,0,0:0:0:0:
88,253,128479,2,0,L|190:241,1,85
445,172,128791,2,0,L|343:160,1,85
154,56,129104,5,0,0:0:0:0:
139,339,129260,1,0,0:0:0:0:
422,354,129416,2,0,L|424:303,1,42.5
437,71,129572,2,0,L|388:66,1,42.5
360,162,129729,6,0,L|444:171,1,85
154,56,130041,2,0,L|152:108,1,42.5
139,339,130197,2,0,L|188:344,1,42.5
216,248,130354,6,0,L|131:238,1,85
356,120,130666,2,0,P|372:152|384:200,1,85
385,324,130979,2,0,L|372:284,1,42.5
272,128,131135,2,0,L|258:168,1,42.5
248,348,131291,2,0,L|162:325,1,85
91,244,131525,1,0,0:0:0:0:
91,244,131604,6,0,L|173:223,1,85
376,120,131916,2,0,L|296:150,1,85
84,84,132229,2,0,P|92:64|104:44,1,42.5
196,194,132385,2,0,P|204:214|215:233,1,42.5
436,180,132541,2,0,P|454:141|457:99,1,85
304,24,132854,5,0,0:0:0:0:
215,233,133010,1,0,0:0:0:0:
1,98,133166,2,0,P|41:98|97:74,1,85
346,47,133479,2,0,L|290:65,1,42.5
214,232,133635,2,0,L|260:240,1,42.5
443,343,133791,2,0,P|421:306|412:265,1,85
464,104,134104,5,0,0:0:0:0:
264,192,134260,1,0,0:0:0:0:
380,4,134416,2,0,L|352:52,1,42.5
320,268,134572,1,0,0:0:0:0:
232,64,134729,5,0,0:0:0:0:
220,284,134885,1,0,0:0:0:0:
108,88,135041,2,0,L|160:96,1,42.5
352,220,135197,1,0,0:0:0:0:
120,336,135354,6,0,P|126:300|153:236,1,85
320,44,135666,2,0,P|314:80|287:144,1,85
252,232,135979,2,0,P|256:256|268:288,1,42.5
410,329,136135,2,0,P|416:308|420:288,1,42.5
379,103,136291,2,0,L|296:124,1,85
68,136,136604,5,0,0:0:0:0:
244,192,136760,1,0,0:0:0:0:
28,280,136916,2,0,P|64:262|98:231,1,85
212,72,137229,2,0,L|224:124,1,42.5
316,16,137385,2,0,L|328:68,1,42.5
420,244,137541,2,0,P|460:240|504:216,1,85
432,132,137775,1,0,0:0:0:0:
432,132,137854,6,0,B|363:150|363:150|340:208,1,127.5
377,363,138166,2,0,L|361:323,1,42.5
204,192,138322,2,0,P|184:232|168:268,1,85
196,360,138635,1,0,0:0:0:0:
342,202,138791,2,0,P|324:160|316:104,1,85
124,15,139104,5,0,0:0:0:0:
99,31,139182,1,0,0:0:0:0:
83,57,139260,1,0,0:0:0:0:
74,93,139338,1,0,0:0:0:0:
84,132,139416,1,0,0:0:0:0:
116,171,139494,1,0,0:0:0:0:
173,182,139572,1,0,0:0:0:0:
230,145,139650,1,0,0:0:0:0:
243,70,139729,5,0,0:0:0:0:
159,95,139807,1,0,0:0:0:0:
116,171,139885,1,0,0:0:0:0:
139,254,139963,1,0,0:0:0:0:
214,298,140041,1,0,0:0:0:0:
290,268,140119,1,0,0:0:0:0:
342,202,140197,1,0,0:0:0:0:
356,120,140275,1,0,0:0:0:0:
327,42,140354,6,0,P|287:38|233:32,1,85
139,254,140666,2,0,P|179:250|233:244,1,85
87,170,140979,1,0,0:0:0:0:
233,337,141135,1,0,0:0:0:0:
172,109,141291,1,0,0:0:0:0:
76,320,141447,1,0,0:0:0:0:
317,280,141604,6,0,P|321:232|311:192,1,85
83,136,141916,1,0,0:0:0:0:
139,254,142072,2,0,P|179:250|233:244,1,85
460,91,142385,1,0,0:0:0:0:
397,205,142541,2,0,P|357:201|303:195,1,85
224,163,142775,1,0,0:0:0:0:
249,135,142854,6,0,P|257:69|256:41,1,85
148,78,143166,1,0,0:0:0:0:
364,118,143322,1,0,0:0:0:0:
169,204,143479,1,0,0:0:0:0:
338,220,143635,1,0,0:0:0:0:
122,318,143791,1,0,0:0:0:0:
378,343,143947,1,0,0:0:0:0:
171,120,144104,6,0,B|163:163|163:163|169:209,1,85
254,340,144416,1,0,0:0:0:0:
422,227,144572,2,0,L|338:220,1,85
296,217,144807,1,0,0:0:0:0:
296,217,144885,1,0,0:0:0:0:
458,349,145041,1,0,0:0:0:0:
378,57,145197,1,0,0:0:0:0:
107,202,145354,5,0,0:0:0:0:
399,143,145510,1,0,0:0:0:0:
144,113,145666,5,0,0:0:0:0:
422,227,145822,1,0,0:0:0:0:
72,285,145979,5,0,0:0:0:0:
378,57,146135,1,0,0:0:0:0:
181,26,146291,5,0,0:0:0:0:
447,316,146447,1,0,0:0:0:0:
36,367,146604,6,0,P|26:326|30:278,1,85
476,17,146916,2,0,P|486:58|482:106,1,85
35,42,147229,6,0,P|76:32|124:36,1,85
477,342,147541,2,0,P|436:352|388:348,1,85
196,80,147854,5,0,0:0:0:0:
409,164,148010,2,0,L|417:261,1,85
337,39,148322,5,0,0:0:0:0:
103,164,148479,2,0,L|95:261,1,85
330,338,148791,6,0,P|286:292|213:302,1,127.5
152,354,149104,1,0,0:0:0:0:
440,282,149260,1,0,0:0:0:0:
461,278,149572,5,0,0:0:0:0:
206,57,149729,1,0,0:0:0:0:
253,380,149886,1,0,0:0:0:0:
392,193,150354,5,0,0:0:0:0:
