osu file format v14

[General]
AudioFilename: audio.mp3
AudioLeadIn: 0
PreviewTime: 295041
Countdown: 0
SampleSet: Soft
StackLeniency: 0.7
Mode: 3
LetterboxInBreaks: 0
SpecialStyle: 0
WidescreenStoryboard: 1

[Editor]
DistanceSpacing: 0.1
BeatDivisor: 4
GridSize: 4
TimelineZoom: 2

[Metadata]
Title:ODDS&ENDS
TitleUnicode:ODDS&ENDS
Artist:ryo(supercell) feat.Hatsune Miku
ArtistUnicode:ryo(supercell) feat.初音ミク
Creator:Alsty-
Version:hs
Source:初音ミク -Project DIVA- F
Tags:Miku Hatsune VOCALOID 超BEST -memories- Sky of Beginning Magical Mirai 2014 Sony Music Direct (Japan)
BeatmapID:1264490
BeatmapSetID:597260

[Difficulty]
HPDrainRate:0
CircleSize:6
OverallDifficulty:0
ApproachRate:5
SliderMultiplier:1.4
SliderTickRate:1

[Events]
//Background and Video events
0,0,"BG.jpg",0,0
//Break Periods
2,245554,249154
2,250554,258529
2,270397,274154
//Storyboard Layer 0 (Background)
//Storyboard Layer 1 (Fail)
//Storyboard Layer 2 (Pass)
//Storyboard Layer 3 (Foreground)
//Storyboard Sound Samples

[TimingPoints]
354,312.5,4,2,0,30,1,0
9104,-14.2857142857143,4,2,0,30,0,0
9182,-285.714285714286,4,2,0,30,0,0
10354,-100,4,2,0,30,0,0
34416,-10,4,2,0,30,0,0
34494,-250,4,2,0,30,0,0
34807,-166.666666666667,4,2,0,30,0,0
35197,-100,4,2,0,30,0,0
120354,-100,4,2,0,30,0,1
149885,-100,4,2,0,30,0,0
195354,-100,4,2,0,30,0,1
224885,-100,4,2,0,30,0,0
245354,-125,4,2,0,30,0,0
250354,-100,4,2,0,30,0,0
270354,-125,4,2,0,30,0,0
275354,-111.111111111111,4,2,0,30,0,0
292854,-20,4,2,0,30,0,0
293010,-200,4,2,0,30,0,0
293479,-20,4,2,0,30,0,0
293635,-200,4,2,0,30,0,0
294104,-20,4,2,0,30,0,0
294260,-200,4,2,0,30,0,0
294729,-20,4,2,0,30,0,0
294807,-200,4,2,0,30,0,0
295354,-100,4,2,0,30,0,1
325354,-100,4,2,0,30,0,0
327385,-100,4,2,0,30,0,1
328010,-100,4,2,0,30,0,0

[HitObjects]
358,192,979,5,0,0:0:0:40:clap.wav
358,192,2072,1,0,0:0:0:40:clap.wav
358,192,3479,1,0,0:0:0:40:clap.wav
358,192,4572,1,0,0:0:0:40:clap.wav
358,192,5979,1,0,0:0:0:40:clap.wav
358,192,7072,1,0,0:0:0:40:clap.wav
358,192,8479,1,0,0:0:0:40:clap.wav
358,192,10979,1,0,0:0:0:40:clap.wav
358,192,12072,1,0,0:0:0:40:clap.wav
358,192,13479,1,0,0:0:0:40:clap.wav
358,192,14572,1,0,0:0:0:40:clap.wav
358,192,15979,1,0,0:0:0:40:clap.wav
358,192,17072,1,0,0:0:0:40:clap.wav
358,192,18479,1,0,0:0:0:40:clap.wav
358,192,19572,1,0,0:0:0:40:clap.wav
358,192,20979,1,0,0:0:0:40:clap.wav
358,192,22072,1,0,0:0:0:40:clap.wav
358,192,23479,1,0,0:0:0:40:clap.wav
358,192,24572,1,0,0:0:0:40:clap.wav
51,192,25354,1,0,0:0:0:40:kick.wav
51,192,25510,1,0,0:0:0:40:kick.wav
358,192,25979,1,0,0:0:0:40:clap.wav
358,192,27072,1,0,0:0:0:40:clap.wav
358,192,28479,1,0,0:0:0:40:clap.wav
358,192,29572,1,0,0:0:0:40:clap.wav
51,192,30354,1,0,0:0:0:40:kick.wav
51,192,30510,1,0,0:0:0:40:kick.wav
358,192,30979,1,0,0:0:0:40:clap.wav
358,192,32072,1,0,0:0:0:40:clap.wav
153,192,35197,1,0,0:0:0:40:drum.wav
153,192,35275,1,0,0:0:0:40:drum.wav
460,192,35354,1,0,0:0:0:40:crash.wav
51,192,35354,1,0,0:0:0:40:kick.wav
213,192,35666,1,0,0:0:0:40:hihat.wav
213,192,35822,1,0,0:0:0:40:hihat.wav
213,192,35979,1,0,0:0:0:40:hihat.wav
213,192,36135,1,0,0:0:0:40:hihat.wav
213,192,36291,1,0,0:0:0:40:hihat.wav
213,192,36447,1,0,0:0:0:40:hihat.wav
213,192,36604,1,0,0:0:0:40:hihat.wav
213,192,36760,1,0,0:0:0:40:hihat.wav
213,192,36916,1,0,0:0:0:40:hihat.wav
213,192,37072,1,0,0:0:0:40:hihat.wav
213,192,37229,1,0,0:0:0:40:hihat.wav
298,192,37229,1,0,0:0:0:40:LR_Drum EDge.wav
213,192,37385,1,0,0:0:0:40:hihat.wav
213,192,37541,1,0,0:0:0:40:hihat.wav
298,192,37541,1,0,0:0:0:40:LR_Drum EDge.wav
213,192,37697,1,0,0:0:0:40:hihat.wav
298,192,37854,1,0,0:0:0:40:LR_Drum EDge.wav
213,192,37854,1,0,0:0:0:40:hihat.wav
213,192,38010,1,0,0:0:0:40:hihat.wav
213,192,38166,1,0,0:0:0:40:hihat.wav
298,192,38166,1,0,0:0:0:40:LR_Drum EDge.wav
213,192,38322,1,0,0:0:0:40:hihat.wav
213,192,38479,1,0,0:0:0:40:hihat.wav
298,192,38479,1,0,0:0:0:40:LR_Drum EDge.wav
213,192,38635,1,0,0:0:0:40:hihat.wav
213,192,38791,1,0,0:0:0:40:hihat.wav
298,192,38791,1,0,0:0:0:40:LR_Drum EDge.wav
213,192,38947,1,0,0:0:0:40:hihat.wav
213,192,39104,1,0,0:0:0:40:hihat.wav
298,192,39104,1,0,0:0:0:40:LR_Drum EDge.wav
213,192,39260,1,0,0:0:0:40:hihat.wav
213,192,39416,1,0,0:0:0:40:hihat.wav
298,192,39416,1,0,0:0:0:40:LR_Drum EDge.wav
213,192,39572,1,0,0:0:0:40:hihat.wav
213,192,39729,1,0,0:0:0:40:hihat.wav
298,192,39729,1,0,0:0:0:40:LR_Drum EDge.wav
213,192,39885,1,0,0:0:0:40:hihat.wav
213,192,40041,1,0,0:0:0:40:hihat.wav
298,192,40041,1,0,0:0:0:40:LR_Drum EDge.wav
51,192,40197,1,0,0:0:0:40:kick.wav
51,192,40354,1,0,0:0:0:40:kick.wav
213,192,40354,1,0,0:0:0:40:hihat.wav
213,192,40510,1,0,0:0:0:40:hihat.wav
213,192,40666,1,0,0:0:0:40:hihat.wav
298,192,40666,1,0,0:0:0:40:LR_Drum EDge.wav
213,192,40822,1,0,0:0:0:40:hihat.wav
213,192,40979,1,0,0:0:0:40:hihat.wav
298,192,40979,1,0,0:0:0:40:LR_Drum EDge.wav
213,192,41135,1,0,0:0:0:40:hihat.wav
213,192,41291,1,0,0:0:0:40:hihat.wav
298,192,41291,1,0,0:0:0:40:LR_Drum EDge.wav
213,192,41447,1,0,0:0:0:40:hihat.wav
213,192,41604,1,0,0:0:0:40:hihat.wav
298,192,41604,1,0,0:0:0:40:LR_Drum EDge.wav
213,192,41760,1,0,0:0:0:40:hihat.wav
213,192,41916,1,0,0:0:0:40:hihat.wav
298,192,41916,1,0,0:0:0:40:LR_Drum EDge.wav
213,192,42072,1,0,0:0:0:40:hihat.wav
213,192,42229,1,0,0:0:0:40:hihat.wav
298,192,42229,1,0,0:0:0:40:LR_Drum EDge.wav
213,192,42385,1,0,0:0:0:40:hihat.wav
213,192,42541,1,0,0:0:0:40:hihat.wav
298,192,42541,1,0,0:0:0:40:LR_Drum EDge.wav
213,192,42697,1,0,0:0:0:40:hihat.wav
213,192,42854,1,0,0:0:0:40:hihat.wav
298,192,42854,1,0,0:0:0:40:LR_Drum EDge.wav
213,192,43010,1,0,0:0:0:40:hihat.wav
213,192,43166,1,0,0:0:0:40:hihat.wav
298,192,43166,1,0,0:0:0:40:LR_Drum EDge.wav
213,192,43322,1,0,0:0:0:40:hihat.wav
213,192,43479,1,0,0:0:0:40:hihat.wav
298,192,43479,1,0,0:0:0:40:LR_Drum EDge.wav
213,192,43635,1,0,0:0:0:40:hihat.wav
213,192,43791,1,0,0:0:0:40:hihat.wav
298,192,43791,1,0,0:0:0:40:LR_Drum EDge.wav
213,192,43947,1,0,0:0:0:40:hihat.wav
213,192,44104,1,0,0:0:0:40:hihat.wav
298,192,44104,1,0,0:0:0:40:LR_Drum EDge.wav
213,192,44260,1,0,0:0:0:40:hihat.wav
213,192,44416,1,0,0:0:0:40:hihat.wav
298,192,44416,1,0,0:0:0:40:LR_Drum EDge.wav
213,192,44572,1,0,0:0:0:40:hihat.wav
213,192,44729,1,0,0:0:0:40:hihat.wav
298,192,44729,1,0,0:0:0:40:LR_Drum EDge.wav
213,192,44885,1,0,0:0:0:40:hihat.wav
213,192,45041,1,0,0:0:0:40:hihat.wav
298,192,45041,1,0,0:0:0:40:LR_Drum EDge.wav
51,192,45354,1,0,0:0:0:40:kick.wav
460,192,45354,1,0,0:0:0:40:crash.wav
213,192,45666,1,0,0:0:0:40:hihat.wav
213,192,45822,1,0,0:0:0:40:hihat.wav
213,192,45979,1,0,0:0:0:40:hihat.wav
213,192,46135,1,0,0:0:0:40:hihat.wav
213,192,46291,1,0,0:0:0:40:hihat.wav
213,192,46447,1,0,0:0:0:40:hihat.wav
213,192,46604,1,0,0:0:0:40:hihat.wav
298,192,46604,1,0,0:0:0:40:LR_Drum EDge.wav
213,192,46760,1,0,0:0:0:40:hihat.wav
298,192,46916,1,0,0:0:0:40:LR_Drum EDge.wav
213,192,46916,1,0,0:0:0:40:hihat.wav
213,192,47072,1,0,0:0:0:40:hihat.wav
298,192,47229,1,0,0:0:0:40:LR_Drum EDge.wav
213,192,47229,1,0,0:0:0:40:hihat.wav
213,192,47385,1,0,0:0:0:40:hihat.wav
298,192,47541,1,0,0:0:0:40:LR_Drum EDge.wav
213,192,47541,1,0,0:0:0:40:hihat.wav
213,192,47697,1,0,0:0:0:40:hihat.wav
213,192,47854,1,0,0:0:0:40:hihat.wav
298,192,47854,1,0,0:0:0:40:LR_Drum EDge.wav
213,192,48010,1,0,0:0:0:40:hihat.wav
213,192,48166,1,0,0:0:0:40:hihat.wav
298,192,48166,1,0,0:0:0:40:LR_Drum EDge.wav
213,192,48322,1,0,0:0:0:40:hihat.wav
213,192,48479,1,0,0:0:0:40:hihat.wav
298,192,48479,1,0,0:0:0:40:LR_Drum EDge.wav
213,192,48635,1,0,0:0:0:40:hihat.wav
298,192,48791,1,0,0:0:0:40:LR_Drum EDge.wav
213,192,48791,1,0,0:0:0:40:hihat.wav
213,192,48947,1,0,0:0:0:40:hihat.wav
298,192,49104,1,0,0:0:0:40:LR_Drum EDge.wav
213,192,49104,1,0,0:0:0:40:hihat.wav
213,192,49260,1,0,0:0:0:40:hihat.wav
298,192,49416,1,0,0:0:0:40:LR_Drum EDge.wav
213,192,49416,1,0,0:0:0:40:hihat.wav
213,192,49572,1,0,0:0:0:40:hihat.wav
213,192,49729,1,0,0:0:0:40:hihat.wav
298,192,49729,1,0,0:0:0:40:LR_Drum EDge.wav
213,192,49885,1,0,0:0:0:40:hihat.wav
213,192,50041,1,0,0:0:0:40:hihat.wav
298,192,50041,1,0,0:0:0:40:LR_Drum EDge.wav
51,192,50197,1,0,0:0:0:40:kick.wav
51,192,50354,1,0,0:0:0:40:kick.wav
213,192,50354,1,0,0:0:0:40:hihat.wav
298,192,50666,1,0,0:0:0:40:LR_Drum EDge.wav
213,192,50666,1,0,0:0:0:40:hihat.wav
213,192,50822,1,0,0:0:0:40:hihat.wav
213,192,50979,1,0,0:0:0:40:hihat.wav
298,192,50979,1,0,0:0:0:40:LR_Drum EDge.wav
213,192,51135,1,0,0:0:0:40:hihat.wav
213,192,51291,1,0,0:0:0:40:hihat.wav
298,192,51291,1,0,0:0:0:40:LR_Drum EDge.wav
213,192,51447,1,0,0:0:0:40:hihat.wav
213,192,51604,1,0,0:0:0:40:hihat.wav
298,192,51604,1,0,0:0:0:40:LR_Drum EDge.wav
213,192,51760,1,0,0:0:0:40:hihat.wav
298,192,51916,1,0,0:0:0:40:LR_Drum EDge.wav
213,192,51916,1,0,0:0:0:40:hihat.wav
213,192,52072,1,0,0:0:0:40:hihat.wav
298,192,52229,1,0,0:0:0:40:LR_Drum EDge.wav
213,192,52229,1,0,0:0:0:40:hihat.wav
213,192,52385,1,0,0:0:0:40:hihat.wav
298,192,52541,1,0,0:0:0:40:LR_Drum EDge.wav
213,192,52541,1,0,0:0:0:40:hihat.wav
213,192,52697,1,0,0:0:0:40:hihat.wav
213,192,52854,1,0,0:0:0:40:hihat.wav
298,192,52854,1,0,0:0:0:40:LR_Drum EDge.wav
213,192,53010,1,0,0:0:0:40:hihat.wav
213,192,53166,1,0,0:0:0:40:hihat.wav
298,192,53166,1,0,0:0:0:40:LR_Drum EDge.wav
213,192,53322,1,0,0:0:0:40:hihat.wav
213,192,53479,1,0,0:0:0:40:hihat.wav
298,192,53479,1,0,0:0:0:40:LR_Drum EDge.wav
213,192,53635,1,0,0:0:0:40:hihat.wav
298,192,53791,1,0,0:0:0:40:LR_Drum EDge.wav
213,192,53791,1,0,0:0:0:40:hihat.wav
213,192,53947,1,0,0:0:0:40:hihat.wav
298,192,54104,1,0,0:0:0:40:LR_Drum EDge.wav
213,192,54104,1,0,0:0:0:40:hihat.wav
213,192,54260,1,0,0:0:0:40:hihat.wav
298,192,54416,1,0,0:0:0:40:LR_Drum EDge.wav
213,192,54416,1,0,0:0:0:40:hihat.wav
213,192,54572,1,0,0:0:0:40:hihat.wav
213,192,54729,1,0,0:0:0:40:hihat.wav
298,192,54729,1,0,0:0:0:40:LR_Drum EDge.wav
213,192,54885,1,0,0:0:0:40:hihat.wav
298,192,54963,1,0,0:0:0:40:LR_Drum EDge.wav
213,192,55041,1,0,0:0:0:40:hihat.wav
213,192,55197,1,0,0:0:0:40:hihat.wav
51,192,55354,1,0,0:0:0:40:kick.wav
460,192,55354,1,0,0:0:0:40:crash.wav
213,192,55666,1,0,0:0:0:40:hihat.wav
298,192,55666,1,0,0:0:0:40:LR_Drum EDge.wav
213,192,55822,1,0,0:0:0:40:hihat.wav
213,192,55979,1,0,0:0:0:40:hihat.wav
298,192,55979,1,0,0:0:0:40:LR_Drum EDge.wav
213,192,56135,1,0,0:0:0:40:hihat.wav
213,192,56291,1,0,0:0:0:40:hihat.wav
298,192,56291,1,0,0:0:0:40:LR_Drum EDge.wav
213,192,56447,1,0,0:0:0:40:hihat.wav
213,192,56604,1,0,0:0:0:40:hihat.wav
298,192,56604,1,0,0:0:0:40:LR_Drum EDge.wav
213,192,56760,1,0,0:0:0:40:hihat.wav
213,192,56916,1,0,0:0:0:40:hihat.wav
298,192,56916,1,0,0:0:0:40:LR_Drum EDge.wav
213,192,57072,1,0,0:0:0:40:hihat.wav
298,192,57229,1,0,0:0:0:40:LR_Drum EDge.wav
213,192,57229,1,0,0:0:0:40:hihat.wav
213,192,57385,1,0,0:0:0:40:hihat.wav
298,192,57541,1,0,0:0:0:40:LR_Drum EDge.wav
213,192,57541,1,0,0:0:0:40:hihat.wav
213,192,57697,1,0,0:0:0:40:hihat.wav
298,192,57854,1,0,0:0:0:40:LR_Drum EDge.wav
213,192,57854,1,0,0:0:0:40:hihat.wav
213,192,58010,1,0,0:0:0:40:hihat.wav
213,192,58166,1,0,0:0:0:40:hihat.wav
298,192,58166,1,0,0:0:0:40:LR_Drum EDge.wav
213,192,58322,1,0,0:0:0:40:hihat.wav
213,192,58479,1,0,0:0:0:40:hihat.wav
298,192,58479,1,0,0:0:0:40:LR_Drum EDge.wav
213,192,58635,1,0,0:0:0:40:hihat.wav
213,192,58791,1,0,0:0:0:40:hihat.wav
298,192,58791,1,0,0:0:0:40:LR_Drum EDge.wav
213,192,58947,1,0,0:0:0:40:hihat.wav
298,192,59104,1,0,0:0:0:40:LR_Drum EDge.wav
213,192,59104,1,0,0:0:0:40:hihat.wav
213,192,59260,1,0,0:0:0:40:hihat.wav
298,192,59416,1,0,0:0:0:40:LR_Drum EDge.wav
213,192,59416,1,0,0:0:0:40:hihat.wav
213,192,59572,1,0,0:0:0:40:hihat.wav
298,192,59729,1,0,0:0:0:40:LR_Drum EDge.wav
213,192,59729,1,0,0:0:0:40:hihat.wav
213,192,59885,1,0,0:0:0:40:hihat.wav
213,192,60041,1,0,0:0:0:40:hihat.wav
298,192,60041,1,0,0:0:0:40:LR_Drum EDge.wav
42,192,60197,1,0,0:0:0:40:kick.wav
42,192,60354,1,0,0:0:0:40:kick.wav
469,192,60354,1,0,0:0:0:40:crash.wav
213,192,60354,1,0,0:0:0:40:hihat.wav
298,192,60666,1,0,0:0:0:40:LR_Drum EDge.wav
213,192,60666,1,0,0:0:0:40:hihat.wav
213,192,60822,1,0,0:0:0:40:hihat.wav
213,192,60979,1,0,0:0:0:40:hihat.wav
298,192,60979,1,0,0:0:0:40:LR_Drum EDge.wav
213,192,61135,1,0,0:0:0:40:hihat.wav
213,192,61291,1,0,0:0:0:40:hihat.wav
298,192,61291,1,0,0:0:0:40:LR_Drum EDge.wav
213,192,61447,1,0,0:0:0:40:hihat.wav
213,192,61604,1,0,0:0:0:40:hihat.wav
298,192,61604,1,0,0:0:0:40:LR_Drum EDge.wav
213,192,61760,1,0,0:0:0:40:hihat.wav
213,192,61916,1,0,0:0:0:40:hihat.wav
298,192,61916,1,0,0:0:0:40:LR_Drum EDge.wav
213,192,62072,1,0,0:0:0:40:hihat.wav
298,192,62229,1,0,0:0:0:40:LR_Drum EDge.wav
213,192,62229,1,0,0:0:0:40:hihat.wav
213,192,62385,1,0,0:0:0:40:hihat.wav
298,192,62541,1,0,0:0:0:40:LR_Drum EDge.wav
213,192,62541,1,0,0:0:0:40:hihat.wav
213,192,62697,1,0,0:0:0:40:hihat.wav
298,192,62854,1,0,0:0:0:40:LR_Drum EDge.wav
213,192,62854,1,0,0:0:0:40:hihat.wav
213,192,63010,1,0,0:0:0:40:hihat.wav
213,192,63166,1,0,0:0:0:40:hihat.wav
298,192,63166,1,0,0:0:0:40:LR_Drum EDge.wav
213,192,63322,1,0,0:0:0:40:hihat.wav
213,192,63479,1,0,0:0:0:40:hihat.wav
298,192,63479,1,0,0:0:0:40:LR_Drum EDge.wav
213,192,63635,1,0,0:0:0:40:hihat.wav
213,192,63791,1,0,0:0:0:40:hihat.wav
298,192,63791,1,0,0:0:0:40:LR_Drum EDge.wav
213,192,63947,1,0,0:0:0:40:hihat.wav
298,192,64104,1,0,0:0:0:40:LR_Drum EDge.wav
213,192,64104,1,0,0:0:0:40:hihat.wav
213,192,64260,1,0,0:0:0:40:hihat.wav
298,192,64416,1,0,0:0:0:40:LR_Drum EDge.wav
213,192,64416,1,0,0:0:0:40:hihat.wav
213,192,64572,1,0,0:0:0:40:hihat.wav
298,192,64729,1,0,0:0:0:40:LR_Drum EDge.wav
213,192,64729,1,0,0:0:0:40:hihat.wav
213,192,64885,1,0,0:0:0:40:hihat.wav
298,192,64963,1,0,0:0:0:40:LR_Drum EDge.wav
213,192,65041,1,0,0:0:0:40:hihat.wav
213,192,65197,1,0,0:0:0:40:hihat.wav
128,192,65354,1,0,0:0:0:40:drum.wav
128,192,65432,1,0,0:0:0:40:drum.wav
128,192,65510,1,0,0:0:0:40:drum.wav
128,192,65588,1,0,0:0:0:40:drum.wav
128,192,65666,1,0,0:0:0:40:drum.wav
213,192,65979,1,0,0:0:0:40:hihat.wav
128,192,66291,1,0,0:0:0:40:drum.wav
213,192,66447,1,0,0:0:0:40:hihat.wav
213,192,66604,1,0,0:0:0:40:hihat.wav
213,192,66760,1,0,0:0:0:40:hihat.wav
128,192,66916,1,0,0:0:0:40:drum.wav
213,192,67072,1,0,0:0:0:40:hihat.wav
213,192,67229,1,0,0:0:0:40:hihat.wav
213,192,67385,1,0,0:0:0:40:hihat.wav
128,192,67541,1,0,0:0:0:40:drum.wav
213,192,67697,1,0,0:0:0:40:hihat.wav
42,192,67854,1,0,0:0:0:40:kick.wav
42,192,68010,1,0,0:0:0:40:kick.wav
128,192,68166,1,0,0:0:0:40:drum.wav
213,192,68322,1,0,0:0:0:40:hihat.wav
213,192,68479,1,0,0:0:0:40:hihat.wav
213,192,68635,1,0,0:0:0:40:hihat.wav
128,192,68791,1,0,0:0:0:40:drum.wav
213,192,68947,1,0,0:0:0:40:hihat.wav
213,192,69104,1,0,0:0:0:40:hihat.wav
213,192,69260,1,0,0:0:0:40:hihat.wav
128,192,69416,1,0,0:0:0:40:drum.wav
213,192,69572,1,0,0:0:0:40:hihat.wav
213,192,69729,1,0,0:0:0:40:hihat.wav
128,192,70041,1,0,0:0:0:40:drum.wav
128,192,70354,1,0,0:0:0:40:drum.wav
128,192,70432,1,0,0:0:0:40:drum.wav
128,192,70510,1,0,0:0:0:40:drum.wav
128,192,70588,1,0,0:0:0:40:drum.wav
128,192,70666,1,0,0:0:0:40:drum.wav
213,192,70979,1,0,0:0:0:40:hihat.wav
128,192,71291,1,0,0:0:0:40:drum.wav
213,192,71447,1,0,0:0:0:40:hihat.wav
213,192,71604,1,0,0:0:0:40:hihat.wav
213,192,71760,1,0,0:0:0:40:hihat.wav
128,192,71916,1,0,0:0:0:40:drum.wav
213,192,72072,1,0,0:0:0:40:hihat.wav
213,192,72229,1,0,0:0:0:40:hihat.wav
213,192,72385,1,0,0:0:0:40:hihat.wav
128,192,72541,1,0,0:0:0:40:drum.wav
213,192,72697,1,0,0:0:0:40:hihat.wav
42,192,72854,1,0,0:0:0:40:kick.wav
42,192,73010,1,0,0:0:0:40:kick.wav
128,192,73166,1,0,0:0:0:40:drum.wav
213,192,73322,1,0,0:0:0:40:hihat.wav
213,192,73479,1,0,0:0:0:40:hihat.wav
213,192,73635,1,0,0:0:0:40:hihat.wav
128,192,73791,1,0,0:0:0:40:drum.wav
213,192,73947,1,0,0:0:0:40:hihat.wav
213,192,74104,1,0,0:0:0:40:hihat.wav
213,192,74260,1,0,0:0:0:40:hihat.wav
128,192,74416,1,0,0:0:0:40:drum.wav
213,192,74572,1,0,0:0:0:40:hihat.wav
213,192,74729,1,0,0:0:0:40:hihat.wav
213,192,74885,1,0,0:0:0:40:hihat.wav
128,192,75041,1,0,0:0:0:40:drum.wav
469,192,75041,1,0,0:0:0:40:crash.wav
42,192,75354,1,0,0:0:0:40:kick.wav
213,192,75510,1,0,0:0:0:40:hihat.wav
42,192,75666,1,0,0:0:0:40:kick.wav
213,192,75822,1,0,0:0:0:40:hihat.wav
42,192,75979,1,0,0:0:0:40:kick.wav
213,192,76135,1,0,0:0:0:40:hihat.wav
42,192,76291,1,0,0:0:0:40:kick.wav
213,192,76447,1,0,0:0:0:40:hihat.wav
42,192,76604,1,0,0:0:0:40:kick.wav
213,192,76760,1,0,0:0:0:40:hihat.wav
42,192,76916,1,0,0:0:0:40:kick.wav
213,192,77072,1,0,0:0:0:40:hihat.wav
42,192,77229,1,0,0:0:0:40:kick.wav
213,192,77385,1,0,0:0:0:40:hihat.wav
42,192,77541,1,0,0:0:0:40:kick.wav
213,192,77697,1,0,0:0:0:40:hihat.wav
42,192,77854,1,0,0:0:0:40:kick.wav
213,192,78010,1,0,0:0:0:40:hihat.wav
42,192,78166,1,0,0:0:0:40:kick.wav
213,192,78322,1,0,0:0:0:40:hihat.wav
42,192,78479,1,0,0:0:0:40:kick.wav
213,192,78635,1,0,0:0:0:40:hihat.wav
42,192,78791,1,0,0:0:0:40:kick.wav
213,192,78947,1,0,0:0:0:40:hihat.wav
42,192,79104,1,0,0:0:0:40:kick.wav
213,192,79260,1,0,0:0:0:40:hihat.wav
42,192,79416,1,0,0:0:0:40:kick.wav
213,192,79572,1,0,0:0:0:40:hihat.wav
42,192,79729,1,0,0:0:0:40:kick.wav
213,192,79885,1,0,0:0:0:40:hihat.wav
42,192,80041,1,0,0:0:0:40:kick.wav
213,192,80197,1,0,0:0:0:40:hihat.wav
42,192,80354,1,0,0:0:0:40:kick.wav
213,192,80510,1,0,0:0:0:40:hihat.wav
42,192,80666,1,0,0:0:0:40:kick.wav
213,192,80822,1,0,0:0:0:40:hihat.wav
42,192,80979,1,0,0:0:0:40:kick.wav
213,192,81135,1,0,0:0:0:40:hihat.wav
42,192,81291,1,0,0:0:0:40:kick.wav
213,192,81447,1,0,0:0:0:40:hihat.wav
42,192,81604,1,0,0:0:0:40:kick.wav
213,192,81760,1,0,0:0:0:40:hihat.wav
42,192,81916,1,0,0:0:0:40:kick.wav
213,192,82072,1,0,0:0:0:40:hihat.wav
42,192,82229,1,0,0:0:0:40:kick.wav
213,192,82385,1,0,0:0:0:40:hihat.wav
42,192,82541,1,0,0:0:0:40:kick.wav
213,192,82697,1,0,0:0:0:40:hihat.wav
42,192,82854,1,0,0:0:0:40:kick.wav
213,192,83010,1,0,0:0:0:40:hihat.wav
42,192,83166,1,0,0:0:0:40:kick.wav
213,192,83322,1,0,0:0:0:40:hihat.wav
42,192,83479,1,0,0:0:0:40:kick.wav
213,192,83635,1,0,0:0:0:40:hihat.wav
42,192,83791,1,0,0:0:0:40:kick.wav
213,192,83947,1,0,0:0:0:40:hihat.wav
42,192,84104,1,0,0:0:0:40:kick.wav
213,192,84260,1,0,0:0:0:40:hihat.wav
42,192,84416,1,0,0:0:0:40:kick.wav
213,192,84572,1,0,0:0:0:40:hihat.wav
42,192,84729,1,0,0:0:0:40:kick.wav
128,192,84885,1,0,0:0:0:40:drum.wav
128,192,84963,1,0,0:0:0:40:drum.wav
128,192,85041,1,0,0:0:0:40:drum.wav
42,192,85354,1,0,0:0:0:40:kick.wav
469,192,85354,1,0,0:0:0:40:crash.wav
42,192,85510,1,0,0:0:0:40:kick.wav
128,192,85666,1,0,0:0:0:40:drum.wav
42,192,85822,1,0,0:0:0:40:kick.wav
213,192,85979,1,0,0:0:0:40:hihat.wav
42,192,86135,1,0,0:0:0:40:kick.wav
128,192,86291,1,0,0:0:0:40:drum.wav
213,192,86447,1,0,0:0:0:40:hihat.wav
213,192,86604,1,0,0:0:0:40:hihat.wav
42,192,86760,1,0,0:0:0:40:kick.wav
128,192,86916,1,0,0:0:0:40:drum.wav
42,192,87072,1,0,0:0:0:40:kick.wav
213,192,87229,1,0,0:0:0:40:hihat.wav
42,192,87385,1,0,0:0:0:40:kick.wav
128,192,87541,1,0,0:0:0:40:drum.wav
213,192,87697,1,0,0:0:0:40:hihat.wav
42,192,87854,1,0,0:0:0:40:kick.wav
42,192,88010,1,0,0:0:0:40:kick.wav
128,192,88166,1,0,0:0:0:40:drum.wav
42,192,88322,1,0,0:0:0:40:kick.wav
213,192,88479,1,0,0:0:0:40:hihat.wav
42,192,88635,1,0,0:0:0:40:kick.wav
128,192,88791,1,0,0:0:0:40:drum.wav
213,192,88947,1,0,0:0:0:40:hihat.wav
213,192,89104,1,0,0:0:0:40:hihat.wav
42,192,89260,1,0,0:0:0:40:kick.wav
128,192,89416,1,0,0:0:0:40:drum.wav
213,192,89572,1,0,0:0:0:40:hihat.wav
213,192,89729,1,0,0:0:0:40:hihat.wav
42,192,89885,1,0,0:0:0:40:kick.wav
128,192,90041,1,0,0:0:0:40:drum.wav
469,192,90041,1,0,0:0:0:40:crash.wav
469,192,90354,1,0,0:0:0:40:crash.wav
42,192,90354,1,0,0:0:0:40:kick.wav
128,192,90666,1,0,0:0:0:40:drum.wav
42,192,90822,1,0,0:0:0:40:kick.wav
213,192,90979,1,0,0:0:0:40:hihat.wav
42,192,91135,1,0,0:0:0:40:kick.wav
128,192,91291,1,0,0:0:0:40:drum.wav
213,192,91447,1,0,0:0:0:40:hihat.wav
213,192,91604,1,0,0:0:0:40:hihat.wav
42,192,91760,1,0,0:0:0:40:kick.wav
128,192,91916,1,0,0:0:0:40:drum.wav
42,192,92072,1,0,0:0:0:40:kick.wav
213,192,92229,1,0,0:0:0:40:hihat.wav
42,192,92385,1,0,0:0:0:40:kick.wav
128,192,92541,1,0,0:0:0:40:drum.wav
213,192,92697,1,0,0:0:0:40:hihat.wav
42,192,92854,1,0,0:0:0:40:kick.wav
213,192,93010,1,0,0:0:0:40:hihat.wav
128,192,93166,1,0,0:0:0:40:drum.wav
42,192,93322,1,0,0:0:0:40:kick.wav
213,192,93479,1,0,0:0:0:40:hihat.wav
42,192,93635,1,0,0:0:0:40:kick.wav
128,192,93791,1,0,0:0:0:40:drum.wav
213,192,93947,1,0,0:0:0:40:hihat.wav
42,192,94104,1,0,0:0:0:40:kick.wav
42,192,94260,1,0,0:0:0:40:kick.wav
128,192,94416,1,0,0:0:0:40:drum.wav
384,192,94572,1,0,0:0:0:40:LR_Tom Hit 3.wav
384,192,94650,1,0,0:0:0:40:LR_Tom Hit 2.wav
42,192,94729,1,0,0:0:0:40:kick.wav
42,192,94885,1,0,0:0:0:40:kick.wav
128,192,95041,1,0,0:0:0:40:drum.wav
469,192,95041,1,0,0:0:0:40:crash.wav
384,192,95354,1,0,0:0:0:40:LR_Tom Hit 3.wav
384,192,95432,1,0,0:0:0:40:LR_Tom Hit 3.wav
384,192,95510,1,0,0:0:0:40:LR_Tom Hit 2.wav
384,192,95588,1,0,0:0:0:40:LR_Tom Hit.wav
42,192,95666,1,0,0:0:0:40:kick.wav
42,192,95979,1,0,0:0:0:40:kick.wav
42,192,96291,1,0,0:0:0:40:kick.wav
469,192,96447,1,0,0:0:0:40:crash.wav
128,192,96447,1,0,0:0:0:40:drum.wav
42,192,96604,1,0,0:0:0:40:kick.wav
42,192,96916,1,0,0:0:0:40:kick.wav
42,192,97229,1,0,0:0:0:40:kick.wav
42,192,97541,1,0,0:0:0:40:kick.wav
384,192,97697,1,0,0:0:0:40:LR_Tom Hit 2.wav
384,192,97775,1,0,0:0:0:40:LR_Tom Hit 2.wav
42,192,97854,1,0,0:0:0:40:kick.wav
42,192,98166,1,0,0:0:0:40:kick.wav
42,192,98479,1,0,0:0:0:40:kick.wav
42,192,98791,1,0,0:0:0:40:kick.wav
42,192,99104,1,0,0:0:0:40:kick.wav
128,192,99260,1,0,0:0:0:40:drum.wav
42,192,99416,1,0,0:0:0:40:kick.wav
384,192,99572,1,0,0:0:0:40:LR_Tom Hit 3.wav
384,192,99650,1,0,0:0:0:40:LR_Tom Hit 3.wav
384,192,99729,1,0,0:0:0:40:LR_Tom Hit 2.wav
42,192,99729,1,0,0:0:0:40:kick.wav
384,192,99885,1,0,0:0:0:40:LR_Tom Hit.wav
42,192,100041,1,0,0:0:0:40:kick.wav
384,192,100354,1,0,0:0:0:40:LR_Tom Hit 3.wav
384,192,100432,1,0,0:0:0:40:LR_Tom Hit 3.wav
384,192,100510,1,0,0:0:0:40:LR_Tom Hit 2.wav
384,192,100588,1,0,0:0:0:40:LR_Tom Hit.wav
42,192,100666,1,0,0:0:0:40:kick.wav
42,192,100979,1,0,0:0:0:40:kick.wav
42,192,101291,1,0,0:0:0:40:kick.wav
128,192,101447,1,0,0:0:0:40:drum.wav
469,192,101447,1,0,0:0:0:40:crash.wav
42,192,101604,1,0,0:0:0:40:kick.wav
42,192,101916,1,0,0:0:0:40:kick.wav
42,192,102229,1,0,0:0:0:40:kick.wav
42,192,102541,1,0,0:0:0:40:kick.wav
213,192,102697,1,0,0:0:0:40:hihat.wav
42,192,102854,1,0,0:0:0:40:kick.wav
42,192,103166,1,0,0:0:0:40:kick.wav
42,192,103479,1,0,0:0:0:40:kick.wav
42,192,103791,1,0,0:0:0:40:kick.wav
384,192,103947,1,0,0:0:0:40:LR_Tom Hit 3.wav
384,192,104025,1,0,0:0:0:40:LR_Tom Hit 3.wav
42,192,104104,1,0,0:0:0:40:kick.wav
384,192,104104,1,0,0:0:0:40:LR_Tom Hit 2.wav
42,192,104416,1,0,0:0:0:40:kick.wav
42,192,104729,1,0,0:0:0:40:kick.wav
128,192,105041,1,0,0:0:0:40:drum.wav
213,192,105041,1,0,0:0:0:40:hihat.wav
42,192,105197,1,0,0:0:0:40:kick.wav
469,192,105197,1,0,0:0:0:40:crash.wav
42,192,105666,1,0,0:0:0:40:kick.wav
213,192,105666,1,0,0:0:0:40:hihat.wav
213,192,105822,1,0,0:0:0:40:hihat.wav
42,192,105979,1,0,0:0:0:40:kick.wav
213,192,106135,1,0,0:0:0:40:hihat.wav
42,192,106291,1,0,0:0:0:40:kick.wav
213,192,106447,1,0,0:0:0:40:hihat.wav
42,192,106604,1,0,0:0:0:40:kick.wav
213,192,106760,1,0,0:0:0:40:hihat.wav
42,192,106916,1,0,0:0:0:40:kick.wav
213,192,107072,1,0,0:0:0:40:hihat.wav
42,192,107229,1,0,0:0:0:40:kick.wav
213,192,107385,1,0,0:0:0:40:hihat.wav
42,192,107541,1,0,0:0:0:40:kick.wav
469,192,107697,1,0,0:0:0:40:crash.wav
42,192,107854,1,0,0:0:0:40:kick.wav
213,192,108010,1,0,0:0:0:40:hihat.wav
42,192,108166,1,0,0:0:0:40:kick.wav
213,192,108322,1,0,0:0:0:40:hihat.wav
42,192,108479,1,0,0:0:0:40:kick.wav
213,192,108635,1,0,0:0:0:40:hihat.wav
42,192,108791,1,0,0:0:0:40:kick.wav
213,192,108947,1,0,0:0:0:40:hihat.wav
42,192,109104,1,0,0:0:0:40:kick.wav
213,192,109260,1,0,0:0:0:40:hihat.wav
42,192,109416,1,0,0:0:0:40:kick.wav
213,192,109572,1,0,0:0:0:40:hihat.wav
42,192,109729,1,0,0:0:0:40:kick.wav
213,192,109885,1,0,0:0:0:40:hihat.wav
42,192,110041,1,0,0:0:0:40:kick.wav
213,192,110197,1,0,0:0:0:40:hihat.wav
42,192,110354,1,0,0:0:0:40:kick.wav
469,192,110354,1,0,0:0:0:40:crash.wav
42,192,110666,1,0,0:0:0:40:kick.wav
213,192,110822,1,0,0:0:0:40:hihat.wav
42,192,110979,1,0,0:0:0:40:kick.wav
213,192,111135,1,0,0:0:0:40:hihat.wav
42,192,111291,1,0,0:0:0:40:kick.wav
213,192,111447,1,0,0:0:0:40:hihat.wav
42,192,111604,1,0,0:0:0:40:kick.wav
128,192,111760,1,0,0:0:0:40:drum.wav
128,192,111916,1,0,0:0:0:40:drum.wav
42,192,111916,1,0,0:0:0:40:kick.wav
128,192,112072,1,0,0:0:0:40:drum.wav
42,192,112229,1,0,0:0:0:40:kick.wav
128,192,112229,1,0,0:0:0:40:drum.wav
128,192,112385,1,0,0:0:0:40:drum.wav
42,192,112385,1,0,0:0:0:40:kick.wav
42,192,112541,1,0,0:0:0:40:kick.wav
128,192,112541,1,0,0:0:0:40:drum.wav
42,192,112697,1,0,0:0:0:40:kick.wav
128,192,112697,1,0,0:0:0:40:drum.wav
42,192,112854,1,0,0:0:0:40:kick.wav
128,192,112854,1,0,0:0:0:40:drum.wav
42,192,113010,1,0,0:0:0:40:kick.wav
128,192,113010,1,0,0:0:0:40:drum.wav
42,192,113166,1,0,0:0:0:40:kick.wav
128,192,113166,1,0,0:0:0:40:drum.wav
42,192,113322,1,0,0:0:0:40:kick.wav
128,192,113322,1,0,0:0:0:40:drum.wav
42,192,113479,1,0,0:0:0:40:kick.wav
128,192,113479,1,0,0:0:0:40:drum.wav
42,192,113635,1,0,0:0:0:40:kick.wav
128,192,113635,1,0,0:0:0:40:drum.wav
42,192,113791,1,0,0:0:0:40:kick.wav
128,192,113791,1,0,0:0:0:40:drum.wav
42,192,113947,1,0,0:0:0:40:kick.wav
128,192,113947,1,0,0:0:0:40:drum.wav
42,192,114104,1,0,0:0:0:40:kick.wav
128,192,114104,1,0,0:0:0:40:drum.wav
42,192,114260,1,0,0:0:0:40:kick.wav
128,192,114260,1,0,0:0:0:40:drum.wav
42,192,114416,1,0,0:0:0:40:kick.wav
128,192,114416,1,0,0:0:0:40:drum.wav
42,192,114572,1,0,0:0:0:40:kick.wav
128,192,114729,1,0,0:0:0:40:drum.wav
42,192,114885,1,0,0:0:0:40:kick.wav
128,192,115041,1,0,0:0:0:40:drum.wav
128,192,115197,1,0,0:0:0:40:drum.wav
469,192,115197,1,0,0:0:0:40:crash.wav
42,192,115510,1,0,0:0:0:40:kick.wav
128,192,115666,1,0,0:0:0:40:drum.wav
42,192,115822,1,0,0:0:0:40:kick.wav
128,192,115979,1,0,0:0:0:40:drum.wav
42,192,116135,1,0,0:0:0:40:kick.wav
128,192,116291,1,0,0:0:0:40:drum.wav
42,192,116447,1,0,0:0:0:40:kick.wav
128,192,116604,1,0,0:0:0:40:drum.wav
42,192,116760,1,0,0:0:0:40:kick.wav
128,192,116916,1,0,0:0:0:40:drum.wav
42,192,117072,1,0,0:0:0:40:kick.wav
42,192,117150,1,0,0:0:0:40:kick.wav
128,192,117229,1,0,0:0:0:40:drum.wav
42,192,117385,1,0,0:0:0:40:kick.wav
128,192,117541,1,0,0:0:0:40:drum.wav
42,192,117697,1,0,0:0:0:40:kick.wav
469,192,117697,1,0,0:0:0:40:crash.wav
42,192,118010,1,0,0:0:0:40:kick.wav
128,192,118166,1,0,0:0:0:40:drum.wav
42,192,118322,1,0,0:0:0:40:kick.wav
128,192,118479,1,0,0:0:0:40:drum.wav
42,192,118635,1,0,0:0:0:40:kick.wav
128,192,118791,1,0,0:0:0:40:drum.wav
42,192,118947,1,0,0:0:0:40:kick.wav
128,192,119104,1,0,0:0:0:40:drum.wav
128,192,119182,1,0,0:0:0:40:drum.wav
42,192,119260,1,0,0:0:0:40:kick.wav
384,192,119416,1,0,0:0:0:40:LR_Tom Hit 2.wav
384,192,119494,1,0,0:0:0:40:LR_Tom Hit 2.wav
42,192,119572,1,0,0:0:0:40:kick.wav
128,192,119729,1,0,0:0:0:40:drum.wav
469,192,119729,1,0,0:0:0:40:crash.wav
384,192,119885,1,0,0:0:0:40:LR_Tom Hit.wav
42,192,119885,1,0,0:0:0:40:kick.wav
128,192,120354,1,0,0:0:0:40:drum.wav
42,192,120354,1,0,0:0:0:40:kick.wav
469,192,120354,1,0,0:0:0:40:crash.wav
213,192,120510,1,0,0:0:0:40:hihat.wav
128,192,120666,1,0,0:0:0:40:drum.wav
213,192,120822,1,0,0:0:0:40:hihat.wav
42,192,120979,1,0,0:0:0:40:kick.wav
42,192,121135,1,0,0:0:0:40:kick.wav
128,192,121291,1,0,0:0:0:40:drum.wav
213,192,121447,1,0,0:0:0:40:hihat.wav
42,192,121604,1,0,0:0:0:40:kick.wav
42,192,121760,1,0,0:0:0:40:kick.wav
128,192,121916,1,0,0:0:0:40:drum.wav
213,192,122072,1,0,0:0:0:40:hihat.wav
42,192,122229,1,0,0:0:0:40:kick.wav
42,192,122385,1,0,0:0:0:40:kick.wav
128,192,122541,1,0,0:0:0:40:drum.wav
213,192,122697,1,0,0:0:0:40:hihat.wav
42,192,122854,1,0,0:0:0:40:kick.wav
42,192,123010,1,0,0:0:0:40:kick.wav
128,192,123166,1,0,0:0:0:40:drum.wav
213,192,123322,1,0,0:0:0:40:hihat.wav
42,192,123479,1,0,0:0:0:40:kick.wav
42,192,123635,1,0,0:0:0:40:kick.wav
128,192,123791,1,0,0:0:0:40:drum.wav
213,192,123947,1,0,0:0:0:40:hihat.wav
42,192,124104,1,0,0:0:0:40:kick.wav
42,192,124260,1,0,0:0:0:40:kick.wav
128,192,124416,1,0,0:0:0:40:drum.wav
213,192,124572,1,0,0:0:0:40:hihat.wav
42,192,124729,1,0,0:0:0:40:kick.wav
42,192,124885,1,0,0:0:0:40:kick.wav
128,192,125041,1,0,0:0:0:40:drum.wav
213,192,125197,1,0,0:0:0:40:hihat.wav
42,192,125354,1,0,0:0:0:40:kick.wav
469,192,125354,1,0,0:0:0:40:crash.wav
128,192,125666,1,0,0:0:0:40:drum.wav
213,192,125822,1,0,0:0:0:40:hihat.wav
42,192,125979,1,0,0:0:0:40:kick.wav
42,192,126135,1,0,0:0:0:40:kick.wav
128,192,126291,1,0,0:0:0:40:drum.wav
213,192,126447,1,0,0:0:0:40:hihat.wav
42,192,126604,1,0,0:0:0:40:kick.wav
42,192,126760,1,0,0:0:0:40:kick.wav
128,192,126916,1,0,0:0:0:40:drum.wav
213,192,127072,1,0,0:0:0:40:hihat.wav
42,192,127229,1,0,0:0:0:40:kick.wav
42,192,127385,1,0,0:0:0:40:kick.wav
128,192,127541,1,0,0:0:0:40:drum.wav
213,192,127697,1,0,0:0:0:40:hihat.wav
42,192,127854,1,0,0:0:0:40:kick.wav
42,192,128010,1,0,0:0:0:40:kick.wav
128,192,128166,1,0,0:0:0:40:drum.wav
213,192,128322,1,0,0:0:0:40:hihat.wav
42,192,128479,1,0,0:0:0:40:kick.wav
42,192,128635,1,0,0:0:0:40:kick.wav
128,192,128791,1,0,0:0:0:40:drum.wav
213,192,128947,1,0,0:0:0:40:hihat.wav
42,192,129104,1,0,0:0:0:40:kick.wav
42,192,129260,1,0,0:0:0:40:kick.wav
128,192,129416,1,0,0:0:0:40:drum.wav
213,192,129572,1,0,0:0:0:40:hihat.wav
42,192,129729,1,0,0:0:0:40:kick.wav
42,192,129885,1,0,0:0:0:40:kick.wav
128,192,130041,1,0,0:0:0:40:drum.wav
469,192,130041,1,0,0:0:0:40:crash.wav
213,192,130197,1,0,0:0:0:40:hihat.wav
469,192,130354,1,0,0:0:0:40:crash.wav
42,192,130354,1,0,0:0:0:40:kick.wav
128,192,130666,1,0,0:0:0:40:drum.wav
213,192,130822,1,0,0:0:0:40:hihat.wav
42,192,130979,1,0,0:0:0:40:kick.wav
42,192,131135,1,0,0:0:0:40:kick.wav
128,192,131291,1,0,0:0:0:40:drum.wav
213,192,131447,1,0,0:0:0:40:hihat.wav
42,192,131604,1,0,0:0:0:40:kick.wav
42,192,131760,1,0,0:0:0:40:kick.wav
128,192,131916,1,0,0:0:0:40:drum.wav
213,192,132072,1,0,0:0:0:40:hihat.wav
42,192,132229,1,0,0:0:0:40:kick.wav
42,192,132385,1,0,0:0:0:40:kick.wav
128,192,132541,1,0,0:0:0:40:drum.wav
213,192,132697,1,0,0:0:0:40:hihat.wav
42,192,132854,1,0,0:0:0:40:kick.wav
42,192,133010,1,0,0:0:0:40:kick.wav
128,192,133166,1,0,0:0:0:40:drum.wav
213,192,133322,1,0,0:0:0:40:hihat.wav
42,192,133479,1,0,0:0:0:40:kick.wav
42,192,133635,1,0,0:0:0:40:kick.wav
128,192,133791,1,0,0:0:0:40:drum.wav
213,192,133947,1,0,0:0:0:40:hihat.wav
42,192,134104,1,0,0:0:0:40:kick.wav
42,192,134260,1,0,0:0:0:40:kick.wav
128,192,134416,1,0,0:0:0:40:drum.wav
213,192,134572,1,0,0:0:0:40:hihat.wav
42,192,134729,1,0,0:0:0:40:kick.wav
42,192,134885,1,0,0:0:0:40:kick.wav
128,192,135041,1,0,0:0:0:40:drum.wav
42,192,135354,1,0,0:0:0:40:kick.wav
469,192,135354,1,0,0:0:0:40:crash.wav
128,192,135666,1,0,0:0:0:40:drum.wav
213,192,135822,1,0,0:0:0:40:hihat.wav
42,192,135979,1,0,0:0:0:40:kick.wav
42,192,136135,1,0,0:0:0:40:kick.wav
128,192,136291,1,0,0:0:0:40:drum.wav
213,192,136447,1,0,0:0:0:40:hihat.wav
42,192,136604,1,0,0:0:0:40:kick.wav
42,192,136760,1,0,0:0:0:40:kick.wav
128,192,136916,1,0,0:0:0:40:drum.wav
213,192,137072,1,0,0:0:0:40:hihat.wav
42,192,137229,1,0,0:0:0:40:kick.wav
42,192,137385,1,0,0:0:0:40:kick.wav
128,192,137541,1,0,0:0:0:40:drum.wav
213,192,137697,1,0,0:0:0:40:hihat.wav
42,192,137854,1,0,0:0:0:40:kick.wav
42,192,138010,1,0,0:0:0:40:kick.wav
128,192,138166,1,0,0:0:0:40:drum.wav
213,192,138322,1,0,0:0:0:40:hihat.wav
42,192,138479,1,0,0:0:0:40:kick.wav
42,192,138635,1,0,0:0:0:40:kick.wav
128,192,138791,1,0,0:0:0:40:drum.wav
42,192,138947,1,0,0:0:0:40:kick.wav
128,192,139104,1,0,0:0:0:40:drum.wav
128,192,139260,1,0,0:0:0:40:drum.wav
128,192,139338,1,0,0:0:0:40:drum.wav
42,192,139416,1,0,0:0:0:40:kick.wav
128,192,139572,1,0,0:0:0:40:drum.wav
128,192,139729,1,0,0:0:0:40:drum.wav
128,192,139885,1,0,0:0:0:40:drum.wav
42,192,140041,1,0,0:0:0:40:kick.wav
213,192,140197,1,0,0:0:0:40:hihat.wav
42,192,140354,1,0,0:0:0:40:kick.wav
469,192,140354,1,0,0:0:0:40:crash.wav
128,192,140666,1,0,0:0:0:40:drum.wav
213,192,140822,1,0,0:0:0:40:hihat.wav
42,192,140979,1,0,0:0:0:40:kick.wav
42,192,141135,1,0,0:0:0:40:kick.wav
128,192,141291,1,0,0:0:0:40:drum.wav
213,192,141447,1,0,0:0:0:40:hihat.wav
42,192,141604,1,0,0:0:0:40:kick.wav
42,192,141760,1,0,0:0:0:40:kick.wav
128,192,141916,1,0,0:0:0:40:drum.wav
213,192,142072,1,0,0:0:0:40:hihat.wav
42,192,142229,1,0,0:0:0:40:kick.wav
42,192,142385,1,0,0:0:0:40:kick.wav
128,192,142541,1,0,0:0:0:40:drum.wav
42,192,142854,1,0,0:0:0:40:kick.wav
469,192,142854,1,0,0:0:0:40:crash.wav
128,192,143166,1,0,0:0:0:40:drum.wav
213,192,143322,1,0,0:0:0:40:hihat.wav
42,192,143479,1,0,0:0:0:40:kick.wav
42,192,143635,1,0,0:0:0:40:kick.wav
128,192,143791,1,0,0:0:0:40:drum.wav
213,192,143947,1,0,0:0:0:40:hihat.wav
42,192,144104,1,0,0:0:0:40:kick.wav
42,192,144260,1,0,0:0:0:40:kick.wav
128,192,144416,1,0,0:0:0:40:drum.wav
213,192,144572,1,0,0:0:0:40:hihat.wav
42,192,144729,1,0,0:0:0:40:kick.wav
42,192,144807,1,0,0:0:0:40:kick.wav
42,192,144885,1,0,0:0:0:40:kick.wav
128,192,145041,1,0,0:0:0:40:drum.wav
213,192,145197,1,0,0:0:0:40:hihat.wav
128,192,145354,1,0,0:0:0:40:drum.wav
469,192,145354,1,0,0:0:0:40:crash.wav
128,192,145666,1,0,0:0:0:40:drum.wav
42,192,145822,1,0,0:0:0:40:kick.wav
128,192,145979,1,0,0:0:0:40:drum.wav
42,192,146135,1,0,0:0:0:40:kick.wav
128,192,146291,1,0,0:0:0:40:drum.wav
42,192,146447,1,0,0:0:0:40:kick.wav
128,192,146604,1,0,0:0:0:40:drum.wav
42,192,146760,1,0,0:0:0:40:kick.wav
128,192,146916,1,0,0:0:0:40:drum.wav
42,192,147072,1,0,0:0:0:40:kick.wav
128,192,147229,1,0,0:0:0:40:drum.wav
42,192,147385,1,0,0:0:0:40:kick.wav
128,192,147541,1,0,0:0:0:40:drum.wav
42,192,147697,1,0,0:0:0:40:kick.wav
128,192,147854,1,0,0:0:0:40:drum.wav
42,192,147854,1,0,0:0:0:40:kick.wav
469,192,147854,1,0,0:0:0:40:crash.wav
42,192,148010,1,0,0:0:0:40:kick.wav
213,192,148166,1,0,0:0:0:40:hihat.wav
42,192,148322,1,0,0:0:0:40:kick.wav
128,192,148479,1,0,0:0:0:40:drum.wav
42,192,148635,1,0,0:0:0:40:kick.wav
213,192,148791,1,0,0:0:0:40:hihat.wav
42,192,149104,1,0,0:0:0:40:kick.wav
128,192,149260,1,0,0:0:0:40:drum.wav
213,192,149416,1,0,0:0:0:40:hihat.wav
42,192,149572,1,0,0:0:0:40:kick.wav
128,192,149729,1,0,0:0:0:40:drum.wav
42,192,149885,1,0,0:0:0:40:kick.wav
42,192,150354,1,0,0:0:0:40:kick.wav
469,192,150354,1,0,0:0:0:40:crash.wav
213,192,150666,1,0,0:0:0:40:hihat.wav
213,192,150822,1,0,0:0:0:40:hihat.wav
213,192,150979,1,0,0:0:0:40:hihat.wav
213,192,151135,1,0,0:0:0:40:hihat.wav
213,192,151291,1,0,0:0:0:40:hihat.wav
213,192,151447,1,0,0:0:0:40:hihat.wav
213,192,151604,1,0,0:0:0:40:hihat.wav
298,192,151604,1,0,0:0:0:40:LR_Drum EDge.wav
213,192,151760,1,0,0:0:0:40:hihat.wav
298,192,151916,1,0,0:0:0:40:LR_Drum EDge.wav
213,192,151916,1,0,0:0:0:40:hihat.wav
213,192,152072,1,0,0:0:0:40:hihat.wav
298,192,152229,1,0,0:0:0:40:LR_Drum EDge.wav
213,192,152229,1,0,0:0:0:40:hihat.wav
213,192,152385,1,0,0:0:0:40:hihat.wav
298,192,152541,1,0,0:0:0:40:LR_Drum EDge.wav
213,192,152541,1,0,0:0:0:40:hihat.wav
213,192,152697,1,0,0:0:0:40:hihat.wav
213,192,152854,1,0,0:0:0:40:hihat.wav
298,192,152854,1,0,0:0:0:40:LR_Drum EDge.wav
213,192,153010,1,0,0:0:0:40:hihat.wav
213,192,153166,1,0,0:0:0:40:hihat.wav
298,192,153166,1,0,0:0:0:40:LR_Drum EDge.wav
213,192,153322,1,0,0:0:0:40:hihat.wav
213,192,153479,1,0,0:0:0:40:hihat.wav
298,192,153479,1,0,0:0:0:40:LR_Drum EDge.wav
213,192,153635,1,0,0:0:0:40:hihat.wav
298,192,153791,1,0,0:0:0:40:LR_Drum EDge.wav
213,192,153791,1,0,0:0:0:40:hihat.wav
213,192,153947,1,0,0:0:0:40:hihat.wav
298,192,154104,1,0,0:0:0:40:LR_Drum EDge.wav
213,192,154104,1,0,0:0:0:40:hihat.wav
213,192,154260,1,0,0:0:0:40:hihat.wav
298,192,154416,1,0,0:0:0:40:LR_Drum EDge.wav
213,192,154416,1,0,0:0:0:40:hihat.wav
213,192,154572,1,0,0:0:0:40:hihat.wav
213,192,154729,1,0,0:0:0:40:hihat.wav
298,192,154729,1,0,0:0:0:40:LR_Drum EDge.wav
213,192,154885,1,0,0:0:0:40:hihat.wav
213,192,155041,1,0,0:0:0:40:hihat.wav
298,192,155041,1,0,0:0:0:40:LR_Drum EDge.wav
51,192,155197,1,0,0:0:0:40:kick.wav
51,192,155354,1,0,0:0:0:40:kick.wav
213,192,155354,1,0,0:0:0:40:hihat.wav
469,192,155354,1,0,0:0:0:40:crash.wav
298,192,155666,1,0,0:0:0:40:LR_Drum EDge.wav
213,192,155666,1,0,0:0:0:40:hihat.wav
213,192,155822,1,0,0:0:0:40:hihat.wav
213,192,155979,1,0,0:0:0:40:hihat.wav
298,192,155979,1,0,0:0:0:40:LR_Drum EDge.wav
213,192,156135,1,0,0:0:0:40:hihat.wav
213,192,156291,1,0,0:0:0:40:hihat.wav
298,192,156291,1,0,0:0:0:40:LR_Drum EDge.wav
213,192,156447,1,0,0:0:0:40:hihat.wav
213,192,156604,1,0,0:0:0:40:hihat.wav
298,192,156604,1,0,0:0:0:40:LR_Drum EDge.wav
213,192,156760,1,0,0:0:0:40:hihat.wav
298,192,156916,1,0,0:0:0:40:LR_Drum EDge.wav
213,192,156916,1,0,0:0:0:40:hihat.wav
213,192,157072,1,0,0:0:0:40:hihat.wav
298,192,157229,1,0,0:0:0:40:LR_Drum EDge.wav
213,192,157229,1,0,0:0:0:40:hihat.wav
213,192,157385,1,0,0:0:0:40:hihat.wav
298,192,157541,1,0,0:0:0:40:LR_Drum EDge.wav
213,192,157541,1,0,0:0:0:40:hihat.wav
213,192,157697,1,0,0:0:0:40:hihat.wav
213,192,157854,1,0,0:0:0:40:hihat.wav
298,192,157854,1,0,0:0:0:40:LR_Drum EDge.wav
213,192,158010,1,0,0:0:0:40:hihat.wav
213,192,158166,1,0,0:0:0:40:hihat.wav
298,192,158166,1,0,0:0:0:40:LR_Drum EDge.wav
213,192,158322,1,0,0:0:0:40:hihat.wav
213,192,158479,1,0,0:0:0:40:hihat.wav
298,192,158479,1,0,0:0:0:40:LR_Drum EDge.wav
213,192,158635,1,0,0:0:0:40:hihat.wav
298,192,158791,1,0,0:0:0:40:LR_Drum EDge.wav
213,192,158791,1,0,0:0:0:40:hihat.wav
213,192,158947,1,0,0:0:0:40:hihat.wav
298,192,159104,1,0,0:0:0:40:LR_Drum EDge.wav
213,192,159104,1,0,0:0:0:40:hihat.wav
213,192,159260,1,0,0:0:0:40:hihat.wav
298,192,159416,1,0,0:0:0:40:LR_Drum EDge.wav
213,192,159416,1,0,0:0:0:40:hihat.wav
213,192,159572,1,0,0:0:0:40:hihat.wav
213,192,159729,1,0,0:0:0:40:hihat.wav
298,192,159729,1,0,0:0:0:40:LR_Drum EDge.wav
213,192,159885,1,0,0:0:0:40:hihat.wav
298,192,159963,1,0,0:0:0:40:LR_Drum EDge.wav
213,192,160041,1,0,0:0:0:40:hihat.wav
213,192,160197,1,0,0:0:0:40:hihat.wav
51,192,160354,1,0,0:0:0:40:kick.wav
460,192,160354,1,0,0:0:0:40:crash.wav
42,192,160666,1,0,0:0:0:40:kick.wav
213,192,160822,1,0,0:0:0:40:hihat.wav
42,192,160979,1,0,0:0:0:40:kick.wav
213,192,161135,1,0,0:0:0:40:hihat.wav
42,192,161291,1,0,0:0:0:40:kick.wav
213,192,161447,1,0,0:0:0:40:hihat.wav
42,192,161604,1,0,0:0:0:40:kick.wav
213,192,161760,1,0,0:0:0:40:hihat.wav
42,192,161916,1,0,0:0:0:40:kick.wav
213,192,162072,1,0,0:0:0:40:hihat.wav
42,192,162229,1,0,0:0:0:40:kick.wav
213,192,162385,1,0,0:0:0:40:hihat.wav
42,192,162541,1,0,0:0:0:40:kick.wav
213,192,162697,1,0,0:0:0:40:hihat.wav
42,192,162854,1,0,0:0:0:40:kick.wav
213,192,163010,1,0,0:0:0:40:hihat.wav
42,192,163166,1,0,0:0:0:40:kick.wav
213,192,163322,1,0,0:0:0:40:hihat.wav
42,192,163479,1,0,0:0:0:40:kick.wav
213,192,163635,1,0,0:0:0:40:hihat.wav
42,192,163791,1,0,0:0:0:40:kick.wav
213,192,163947,1,0,0:0:0:40:hihat.wav
42,192,164104,1,0,0:0:0:40:kick.wav
213,192,164260,1,0,0:0:0:40:hihat.wav
42,192,164416,1,0,0:0:0:40:kick.wav
213,192,164572,1,0,0:0:0:40:hihat.wav
42,192,164729,1,0,0:0:0:40:kick.wav
213,192,164885,1,0,0:0:0:40:hihat.wav
42,192,165041,1,0,0:0:0:40:kick.wav
213,192,165197,1,0,0:0:0:40:hihat.wav
42,192,165354,1,0,0:0:0:40:kick.wav
213,192,165510,1,0,0:0:0:40:hihat.wav
42,192,165666,1,0,0:0:0:40:kick.wav
213,192,165822,1,0,0:0:0:40:hihat.wav
42,192,165979,1,0,0:0:0:40:kick.wav
213,192,166135,1,0,0:0:0:40:hihat.wav
42,192,166291,1,0,0:0:0:40:kick.wav
213,192,166447,1,0,0:0:0:40:hihat.wav
42,192,166604,1,0,0:0:0:40:kick.wav
213,192,166760,1,0,0:0:0:40:hihat.wav
42,192,166916,1,0,0:0:0:40:kick.wav
213,192,167072,1,0,0:0:0:40:hihat.wav
42,192,167229,1,0,0:0:0:40:kick.wav
213,192,167385,1,0,0:0:0:40:hihat.wav
42,192,167541,1,0,0:0:0:40:kick.wav
213,192,167697,1,0,0:0:0:40:hihat.wav
42,192,167854,1,0,0:0:0:40:kick.wav
213,192,168010,1,0,0:0:0:40:hihat.wav
42,192,168166,1,0,0:0:0:40:kick.wav
213,192,168322,1,0,0:0:0:40:hihat.wav
42,192,168479,1,0,0:0:0:40:kick.wav
213,192,168635,1,0,0:0:0:40:hihat.wav
42,192,168791,1,0,0:0:0:40:kick.wav
213,192,168947,1,0,0:0:0:40:hihat.wav
42,192,169104,1,0,0:0:0:40:kick.wav
213,192,169260,1,0,0:0:0:40:hihat.wav
42,192,169416,1,0,0:0:0:40:kick.wav
213,192,169572,1,0,0:0:0:40:hihat.wav
42,192,169729,1,0,0:0:0:40:kick.wav
128,192,169885,1,0,0:0:0:40:drum.wav
128,192,169963,1,0,0:0:0:40:drum.wav
128,192,170041,1,0,0:0:0:40:drum.wav
384,192,170354,1,0,0:0:0:40:LR_Tom Hit 3.wav
384,192,170432,1,0,0:0:0:40:LR_Tom Hit 3.wav
384,192,170510,1,0,0:0:0:40:LR_Tom Hit 2.wav
384,192,170588,1,0,0:0:0:40:LR_Tom Hit.wav
42,192,170666,1,0,0:0:0:40:kick.wav
42,192,170979,1,0,0:0:0:40:kick.wav
42,192,171291,1,0,0:0:0:40:kick.wav
469,192,171447,1,0,0:0:0:40:crash.wav
128,192,171447,1,0,0:0:0:40:drum.wav
42,192,171604,1,0,0:0:0:40:kick.wav
42,192,171916,1,0,0:0:0:40:kick.wav
42,192,172229,1,0,0:0:0:40:kick.wav
42,192,172541,1,0,0:0:0:40:kick.wav
384,192,172697,1,0,0:0:0:40:LR_Tom Hit 3.wav
384,192,172775,1,0,0:0:0:40:LR_Tom Hit 2.wav
42,192,172854,1,0,0:0:0:40:kick.wav
384,192,172854,1,0,0:0:0:40:LR_Tom Hit.wav
42,192,173166,1,0,0:0:0:40:kick.wav
42,192,173479,1,0,0:0:0:40:kick.wav
42,192,173791,1,0,0:0:0:40:kick.wav
42,192,174104,1,0,0:0:0:40:kick.wav
128,192,174260,1,0,0:0:0:40:drum.wav
42,192,174416,1,0,0:0:0:40:kick.wav
384,192,174572,1,0,0:0:0:40:LR_Tom Hit 3.wav
42,192,174729,1,0,0:0:0:40:kick.wav
384,192,174885,1,0,0:0:0:40:LR_Tom Hit 2.wav
42,192,175041,1,0,0:0:0:40:kick.wav
384,192,175354,1,0,0:0:0:40:LR_Tom Hit 3.wav
384,192,175432,1,0,0:0:0:40:LR_Tom Hit 3.wav
384,192,175510,1,0,0:0:0:40:LR_Tom Hit 2.wav
384,192,175588,1,0,0:0:0:40:LR_Tom Hit.wav
42,192,175666,1,0,0:0:0:40:kick.wav
42,192,175979,1,0,0:0:0:40:kick.wav
42,192,176291,1,0,0:0:0:40:kick.wav
128,192,176447,1,0,0:0:0:40:drum.wav
469,192,176447,1,0,0:0:0:40:crash.wav
42,192,176604,1,0,0:0:0:40:kick.wav
42,192,176916,1,0,0:0:0:40:kick.wav
42,192,177229,1,0,0:0:0:40:kick.wav
42,192,177541,1,0,0:0:0:40:kick.wav
384,192,177697,1,0,0:0:0:40:LR_Tom Hit 3.wav
384,192,177775,1,0,0:0:0:40:LR_Tom Hit 3.wav
42,192,177854,1,0,0:0:0:40:kick.wav
384,192,177854,1,0,0:0:0:40:LR_Tom Hit.wav
42,192,178166,1,0,0:0:0:40:kick.wav
42,192,178479,1,0,0:0:0:40:kick.wav
42,192,178791,1,0,0:0:0:40:kick.wav
42,192,179104,1,0,0:0:0:40:kick.wav
42,192,179416,1,0,0:0:0:40:kick.wav
42,192,179729,1,0,0:0:0:40:kick.wav
128,192,180041,1,0,0:0:0:40:drum.wav
213,192,180041,1,0,0:0:0:40:hihat.wav
42,192,180197,1,0,0:0:0:40:kick.wav
469,192,180197,1,0,0:0:0:40:crash.wav
42,192,180666,1,0,0:0:0:40:kick.wav
213,192,180666,1,0,0:0:0:40:hihat.wav
213,192,180822,1,0,0:0:0:40:hihat.wav
42,192,180979,1,0,0:0:0:40:kick.wav
213,192,181135,1,0,0:0:0:40:hihat.wav
42,192,181291,1,0,0:0:0:40:kick.wav
213,192,181447,1,0,0:0:0:40:hihat.wav
42,192,181604,1,0,0:0:0:40:kick.wav
213,192,181760,1,0,0:0:0:40:hihat.wav
42,192,181916,1,0,0:0:0:40:kick.wav
213,192,182072,1,0,0:0:0:40:hihat.wav
42,192,182229,1,0,0:0:0:40:kick.wav
213,192,182385,1,0,0:0:0:40:hihat.wav
42,192,182541,1,0,0:0:0:40:kick.wav
213,192,182697,1,0,0:0:0:40:hihat.wav
469,192,182697,1,0,0:0:0:40:crash.wav
42,192,182854,1,0,0:0:0:40:kick.wav
213,192,183010,1,0,0:0:0:40:hihat.wav
42,192,183166,1,0,0:0:0:40:kick.wav
213,192,183322,1,0,0:0:0:40:hihat.wav
42,192,183479,1,0,0:0:0:40:kick.wav
213,192,183635,1,0,0:0:0:40:hihat.wav
42,192,183791,1,0,0:0:0:40:kick.wav
213,192,183947,1,0,0:0:0:40:hihat.wav
42,192,184104,1,0,0:0:0:40:kick.wav
213,192,184260,1,0,0:0:0:40:hihat.wav
42,192,184416,1,0,0:0:0:40:kick.wav
213,192,184572,1,0,0:0:0:40:hihat.wav
42,192,184729,1,0,0:0:0:40:kick.wav
213,192,184885,1,0,0:0:0:40:hihat.wav
42,192,185041,1,0,0:0:0:40:kick.wav
213,192,185197,1,0,0:0:0:40:hihat.wav
42,192,185354,1,0,0:0:0:40:kick.wav
469,192,185354,1,0,0:0:0:40:crash.wav
42,192,185666,1,0,0:0:0:40:kick.wav
213,192,185822,1,0,0:0:0:40:hihat.wav
42,192,185979,1,0,0:0:0:40:kick.wav
213,192,186135,1,0,0:0:0:40:hihat.wav
42,192,186291,1,0,0:0:0:40:kick.wav
213,192,186447,1,0,0:0:0:40:hihat.wav
42,192,186604,1,0,0:0:0:40:kick.wav
128,192,186760,1,0,0:0:0:40:drum.wav
128,192,186916,1,0,0:0:0:40:drum.wav
42,192,186916,1,0,0:0:0:40:kick.wav
128,192,187072,1,0,0:0:0:40:drum.wav
42,192,187229,1,0,0:0:0:40:kick.wav
128,192,187229,1,0,0:0:0:40:drum.wav
128,192,187385,1,0,0:0:0:40:drum.wav
42,192,187385,1,0,0:0:0:40:kick.wav
42,192,187541,1,0,0:0:0:40:kick.wav
128,192,187541,1,0,0:0:0:40:drum.wav
42,192,187697,1,0,0:0:0:40:kick.wav
128,192,187697,1,0,0:0:0:40:drum.wav
42,192,187854,1,0,0:0:0:40:kick.wav
128,192,187854,1,0,0:0:0:40:drum.wav
42,192,188010,1,0,0:0:0:40:kick.wav
128,192,188010,1,0,0:0:0:40:drum.wav
42,192,188166,1,0,0:0:0:40:kick.wav
128,192,188166,1,0,0:0:0:40:drum.wav
42,192,188322,1,0,0:0:0:40:kick.wav
128,192,188322,1,0,0:0:0:40:drum.wav
42,192,188479,1,0,0:0:0:40:kick.wav
128,192,188479,1,0,0:0:0:40:drum.wav
42,192,188635,1,0,0:0:0:40:kick.wav
128,192,188635,1,0,0:0:0:40:drum.wav
42,192,188791,1,0,0:0:0:40:kick.wav
128,192,188791,1,0,0:0:0:40:drum.wav
42,192,188947,1,0,0:0:0:40:kick.wav
128,192,188947,1,0,0:0:0:40:drum.wav
42,192,189104,1,0,0:0:0:40:kick.wav
128,192,189104,1,0,0:0:0:40:drum.wav
42,192,189260,1,0,0:0:0:40:kick.wav
128,192,189260,1,0,0:0:0:40:drum.wav
42,192,189416,1,0,0:0:0:40:kick.wav
128,192,189416,1,0,0:0:0:40:drum.wav
42,192,189572,1,0,0:0:0:40:kick.wav
128,192,189729,1,0,0:0:0:40:drum.wav
42,192,189807,1,0,0:0:0:40:kick.wav
213,192,189885,1,0,0:0:0:40:hihat.wav
128,192,190041,1,0,0:0:0:40:drum.wav
128,192,190197,1,0,0:0:0:40:drum.wav
469,192,190197,1,0,0:0:0:40:crash.wav
42,192,190510,1,0,0:0:0:40:kick.wav
128,192,190666,1,0,0:0:0:40:drum.wav
42,192,190822,1,0,0:0:0:40:kick.wav
128,192,190979,1,0,0:0:0:40:drum.wav
42,192,191135,1,0,0:0:0:40:kick.wav
128,192,191291,1,0,0:0:0:40:drum.wav
42,192,191447,1,0,0:0:0:40:kick.wav
128,192,191604,1,0,0:0:0:40:drum.wav
42,192,191760,1,0,0:0:0:40:kick.wav
128,192,191916,1,0,0:0:0:40:drum.wav
42,192,192072,1,0,0:0:0:40:kick.wav
42,192,192150,1,0,0:0:0:40:kick.wav
128,192,192229,1,0,0:0:0:40:drum.wav
42,192,192385,1,0,0:0:0:40:kick.wav
128,192,192541,1,0,0:0:0:40:drum.wav
42,192,192697,1,0,0:0:0:40:kick.wav
469,192,192697,1,0,0:0:0:40:crash.wav
42,192,193010,1,0,0:0:0:40:kick.wav
128,192,193166,1,0,0:0:0:40:drum.wav
42,192,193322,1,0,0:0:0:40:kick.wav
128,192,193479,1,0,0:0:0:40:drum.wav
42,192,193635,1,0,0:0:0:40:kick.wav
128,192,193791,1,0,0:0:0:40:drum.wav
42,192,193947,1,0,0:0:0:40:kick.wav
128,192,194104,1,0,0:0:0:40:drum.wav
128,192,194182,1,0,0:0:0:40:drum.wav
42,192,194260,1,0,0:0:0:40:kick.wav
384,192,194416,1,0,0:0:0:40:LR_Tom Hit 3.wav
384,192,194494,1,0,0:0:0:40:LR_Tom Hit 3.wav
42,192,194572,1,0,0:0:0:40:kick.wav
128,192,194729,1,0,0:0:0:40:drum.wav
469,192,194729,1,0,0:0:0:40:crash.wav
384,192,194885,1,0,0:0:0:40:LR_Tom Hit 2.wav
42,192,194885,1,0,0:0:0:40:kick.wav
128,192,195354,1,0,0:0:0:40:drum.wav
42,192,195354,1,0,0:0:0:40:kick.wav
469,192,195354,1,0,0:0:0:40:crash.wav
213,192,195510,1,0,0:0:0:40:hihat.wav
128,192,195666,1,0,0:0:0:40:drum.wav
213,192,195822,1,0,0:0:0:40:hihat.wav
42,192,195979,1,0,0:0:0:40:kick.wav
42,192,196135,1,0,0:0:0:40:kick.wav
128,192,196291,1,0,0:0:0:40:drum.wav
213,192,196447,1,0,0:0:0:40:hihat.wav
42,192,196604,1,0,0:0:0:40:kick.wav
42,192,196760,1,0,0:0:0:40:kick.wav
128,192,196916,1,0,0:0:0:40:drum.wav
213,192,197072,1,0,0:0:0:40:hihat.wav
42,192,197229,1,0,0:0:0:40:kick.wav
42,192,197385,1,0,0:0:0:40:kick.wav
128,192,197541,1,0,0:0:0:40:drum.wav
213,192,197697,1,0,0:0:0:40:hihat.wav
42,192,197854,1,0,0:0:0:40:kick.wav
42,192,198010,1,0,0:0:0:40:kick.wav
128,192,198166,1,0,0:0:0:40:drum.wav
213,192,198322,1,0,0:0:0:40:hihat.wav
42,192,198479,1,0,0:0:0:40:kick.wav
42,192,198635,1,0,0:0:0:40:kick.wav
128,192,198791,1,0,0:0:0:40:drum.wav
213,192,198947,1,0,0:0:0:40:hihat.wav
42,192,199104,1,0,0:0:0:40:kick.wav
42,192,199260,1,0,0:0:0:40:kick.wav
128,192,199416,1,0,0:0:0:40:drum.wav
213,192,199572,1,0,0:0:0:40:hihat.wav
42,192,199729,1,0,0:0:0:40:kick.wav
42,192,199885,1,0,0:0:0:40:kick.wav
128,192,200041,1,0,0:0:0:40:drum.wav
213,192,200197,1,0,0:0:0:40:hihat.wav
42,192,200354,1,0,0:0:0:40:kick.wav
469,192,200354,1,0,0:0:0:40:crash.wav
128,192,200666,1,0,0:0:0:40:drum.wav
213,192,200822,1,0,0:0:0:40:hihat.wav
42,192,200979,1,0,0:0:0:40:kick.wav
42,192,201135,1,0,0:0:0:40:kick.wav
128,192,201291,1,0,0:0:0:40:drum.wav
213,192,201447,1,0,0:0:0:40:hihat.wav
42,192,201604,1,0,0:0:0:40:kick.wav
42,192,201760,1,0,0:0:0:40:kick.wav
128,192,201916,1,0,0:0:0:40:drum.wav
213,192,202072,1,0,0:0:0:40:hihat.wav
42,192,202229,1,0,0:0:0:40:kick.wav
42,192,202385,1,0,0:0:0:40:kick.wav
128,192,202541,1,0,0:0:0:40:drum.wav
213,192,202697,1,0,0:0:0:40:hihat.wav
42,192,202854,1,0,0:0:0:40:kick.wav
42,192,203010,1,0,0:0:0:40:kick.wav
128,192,203166,1,0,0:0:0:40:drum.wav
213,192,203322,1,0,0:0:0:40:hihat.wav
42,192,203479,1,0,0:0:0:40:kick.wav
42,192,203635,1,0,0:0:0:40:kick.wav
128,192,203791,1,0,0:0:0:40:drum.wav
213,192,203947,1,0,0:0:0:40:hihat.wav
42,192,204104,1,0,0:0:0:40:kick.wav
42,192,204260,1,0,0:0:0:40:kick.wav
128,192,204416,1,0,0:0:0:40:drum.wav
384,192,204572,1,0,0:0:0:40:LR_Tom Hit 3.wav
384,192,204650,1,0,0:0:0:40:LR_Tom Hit 3.wav
42,192,204729,1,0,0:0:0:40:kick.wav
42,192,204885,1,0,0:0:0:40:kick.wav
128,192,205041,1,0,0:0:0:40:drum.wav
469,192,205041,1,0,0:0:0:40:crash.wav
213,192,205197,1,0,0:0:0:40:hihat.wav
469,192,205354,1,0,0:0:0:40:crash.wav
42,192,205354,1,0,0:0:0:40:kick.wav
128,192,205666,1,0,0:0:0:40:drum.wav
213,192,205822,1,0,0:0:0:40:hihat.wav
42,192,205979,1,0,0:0:0:40:kick.wav
42,192,206135,1,0,0:0:0:40:kick.wav
128,192,206291,1,0,0:0:0:40:drum.wav
213,192,206447,1,0,0:0:0:40:hihat.wav
42,192,206604,1,0,0:0:0:40:kick.wav
42,192,206760,1,0,0:0:0:40:kick.wav
128,192,206916,1,0,0:0:0:40:drum.wav
213,192,207072,1,0,0:0:0:40:hihat.wav
42,192,207229,1,0,0:0:0:40:kick.wav
42,192,207385,1,0,0:0:0:40:kick.wav
128,192,207541,1,0,0:0:0:40:drum.wav
213,192,207697,1,0,0:0:0:40:hihat.wav
42,192,207854,1,0,0:0:0:40:kick.wav
42,192,208010,1,0,0:0:0:40:kick.wav
128,192,208166,1,0,0:0:0:40:drum.wav
213,192,208322,1,0,0:0:0:40:hihat.wav
42,192,208479,1,0,0:0:0:40:kick.wav
42,192,208635,1,0,0:0:0:40:kick.wav
128,192,208791,1,0,0:0:0:40:drum.wav
213,192,208947,1,0,0:0:0:40:hihat.wav
42,192,209104,1,0,0:0:0:40:kick.wav
42,192,209260,1,0,0:0:0:40:kick.wav
128,192,209416,1,0,0:0:0:40:drum.wav
213,192,209572,1,0,0:0:0:40:hihat.wav
42,192,209729,1,0,0:0:0:40:kick.wav
42,192,209885,1,0,0:0:0:40:kick.wav
128,192,210041,1,0,0:0:0:40:drum.wav
213,192,210197,1,0,0:0:0:40:hihat.wav
42,192,210354,1,0,0:0:0:40:kick.wav
469,192,210354,1,0,0:0:0:40:crash.wav
128,192,210666,1,0,0:0:0:40:drum.wav
213,192,210822,1,0,0:0:0:40:hihat.wav
42,192,210979,1,0,0:0:0:40:kick.wav
42,192,211135,1,0,0:0:0:40:kick.wav
128,192,211291,1,0,0:0:0:40:drum.wav
213,192,211447,1,0,0:0:0:40:hihat.wav
42,192,211604,1,0,0:0:0:40:kick.wav
42,192,211760,1,0,0:0:0:40:kick.wav
128,192,211916,1,0,0:0:0:40:drum.wav
213,192,212072,1,0,0:0:0:40:hihat.wav
42,192,212229,1,0,0:0:0:40:kick.wav
42,192,212385,1,0,0:0:0:40:kick.wav
128,192,212541,1,0,0:0:0:40:drum.wav
213,192,212697,1,0,0:0:0:40:hihat.wav
42,192,212854,1,0,0:0:0:40:kick.wav
42,192,213010,1,0,0:0:0:40:kick.wav
128,192,213166,1,0,0:0:0:40:drum.wav
213,192,213322,1,0,0:0:0:40:hihat.wav
42,192,213479,1,0,0:0:0:40:kick.wav
42,192,213635,1,0,0:0:0:40:kick.wav
128,192,213791,1,0,0:0:0:40:drum.wav
42,192,213947,1,0,0:0:0:40:kick.wav
128,192,214104,1,0,0:0:0:40:drum.wav
128,192,214260,1,0,0:0:0:40:drum.wav
128,192,214338,1,0,0:0:0:40:drum.wav
42,192,214416,1,0,0:0:0:40:kick.wav
128,192,214572,1,0,0:0:0:40:drum.wav
128,192,214729,1,0,0:0:0:40:drum.wav
42,192,214885,1,0,0:0:0:40:kick.wav
128,192,215041,1,0,0:0:0:40:drum.wav
213,192,215197,1,0,0:0:0:40:hihat.wav
469,192,215354,1,0,0:0:0:40:crash.wav
42,192,215354,1,0,0:0:0:40:kick.wav
128,192,215666,1,0,0:0:0:40:drum.wav
469,192,215666,1,0,0:0:0:40:crash.wav
213,192,215822,1,0,0:0:0:40:hihat.wav
42,192,215979,1,0,0:0:0:40:kick.wav
42,192,216135,1,0,0:0:0:40:kick.wav
128,192,216291,1,0,0:0:0:40:drum.wav
213,192,216447,1,0,0:0:0:40:hihat.wav
42,192,216604,1,0,0:0:0:40:kick.wav
42,192,216760,1,0,0:0:0:40:kick.wav
128,192,216916,1,0,0:0:0:40:drum.wav
213,192,217072,1,0,0:0:0:40:hihat.wav
42,192,217229,1,0,0:0:0:40:kick.wav
42,192,217385,1,0,0:0:0:40:kick.wav
128,192,217541,1,0,0:0:0:40:drum.wav
42,192,217854,1,0,0:0:0:40:kick.wav
469,192,217854,1,0,0:0:0:40:crash.wav
128,192,218166,1,0,0:0:0:40:drum.wav
213,192,218322,1,0,0:0:0:40:hihat.wav
42,192,218479,1,0,0:0:0:40:kick.wav
42,192,218635,1,0,0:0:0:40:kick.wav
128,192,218791,1,0,0:0:0:40:drum.wav
213,192,218947,1,0,0:0:0:40:hihat.wav
42,192,219104,1,0,0:0:0:40:kick.wav
42,192,219260,1,0,0:0:0:40:kick.wav
128,192,219416,1,0,0:0:0:40:drum.wav
128,192,219572,1,0,0:0:0:40:drum.wav
42,192,219729,1,0,0:0:0:40:kick.wav
42,192,219885,1,0,0:0:0:40:kick.wav
128,192,220041,1,0,0:0:0:40:drum.wav
213,192,220197,1,0,0:0:0:40:hihat.wav
128,192,220354,1,0,0:0:0:40:drum.wav
469,192,220354,1,0,0:0:0:40:crash.wav
128,192,220666,1,0,0:0:0:40:drum.wav
42,192,220822,1,0,0:0:0:40:kick.wav
128,192,220979,1,0,0:0:0:40:drum.wav
42,192,221135,1,0,0:0:0:40:kick.wav
128,192,221291,1,0,0:0:0:40:drum.wav
42,192,221447,1,0,0:0:0:40:kick.wav
128,192,221604,1,0,0:0:0:40:drum.wav
42,192,221760,1,0,0:0:0:40:kick.wav
128,192,221916,1,0,0:0:0:40:drum.wav
42,192,222072,1,0,0:0:0:40:kick.wav
128,192,222229,1,0,0:0:0:40:drum.wav
42,192,222385,1,0,0:0:0:40:kick.wav
128,192,222541,1,0,0:0:0:40:drum.wav
42,192,222697,1,0,0:0:0:40:kick.wav
128,192,222854,1,0,0:0:0:40:drum.wav
42,192,222854,1,0,0:0:0:40:kick.wav
469,192,222854,1,0,0:0:0:40:crash.wav
42,192,223010,1,0,0:0:0:40:kick.wav
213,192,223166,1,0,0:0:0:40:hihat.wav
42,192,223322,1,0,0:0:0:40:kick.wav
128,192,223479,1,0,0:0:0:40:drum.wav
42,192,223635,1,0,0:0:0:40:kick.wav
213,192,223791,1,0,0:0:0:40:hihat.wav
128,192,223947,1,0,0:0:0:40:drum.wav
42,192,224104,1,0,0:0:0:40:kick.wav
42,192,224260,1,0,0:0:0:40:kick.wav
213,192,224416,1,0,0:0:0:40:hihat.wav
42,192,224572,1,0,0:0:0:40:kick.wav
42,192,225354,1,0,0:0:0:40:kick.wav
469,192,225354,1,0,0:0:0:40:crash.wav
128,192,225666,1,0,0:0:0:40:drum.wav
42,192,225979,1,0,0:0:0:40:kick.wav
42,192,226135,1,0,0:0:0:40:kick.wav
128,192,226291,1,0,0:0:0:40:drum.wav
384,192,226447,1,0,0:0:0:40:LR_Tom Hit.wav
42,192,226604,1,0,0:0:0:40:kick.wav
42,192,226760,1,0,0:0:0:40:kick.wav
128,192,226916,1,0,0:0:0:40:drum.wav
384,192,227072,1,0,0:0:0:40:LR_Tom Hit.wav
42,192,227229,1,0,0:0:0:40:kick.wav
42,192,227385,1,0,0:0:0:40:kick.wav
128,192,227541,1,0,0:0:0:40:drum.wav
384,192,227697,1,0,0:0:0:40:LR_Tom Hit 3.wav
384,192,227775,1,0,0:0:0:40:LR_Tom Hit 2.wav
42,192,227854,1,0,0:0:0:40:kick.wav
42,192,228010,1,0,0:0:0:40:kick.wav
128,192,228166,1,0,0:0:0:40:drum.wav
384,192,228322,1,0,0:0:0:40:LR_Tom Hit.wav
42,192,228479,1,0,0:0:0:40:kick.wav
42,192,228635,1,0,0:0:0:40:kick.wav
128,192,228791,1,0,0:0:0:40:drum.wav
384,192,228947,1,0,0:0:0:40:LR_Tom Hit.wav
42,192,229104,1,0,0:0:0:40:kick.wav
42,192,229260,1,0,0:0:0:40:kick.wav
128,192,229416,1,0,0:0:0:40:drum.wav
213,192,229572,1,0,0:0:0:40:hihat.wav
42,192,229729,1,0,0:0:0:40:kick.wav
42,192,229885,1,0,0:0:0:40:kick.wav
128,192,230041,1,0,0:0:0:40:drum.wav
42,192,230197,1,0,0:0:0:40:kick.wav
384,192,230275,1,0,0:0:0:40:LR_Tom Hit 2.wav
42,192,230354,1,0,0:0:0:40:kick.wav
469,192,230354,1,0,0:0:0:40:crash.wav
128,192,230666,1,0,0:0:0:40:drum.wav
384,192,230822,1,0,0:0:0:40:LR_Tom Hit.wav
42,192,230979,1,0,0:0:0:40:kick.wav
42,192,231135,1,0,0:0:0:40:kick.wav
128,192,231291,1,0,0:0:0:40:drum.wav
384,192,231447,1,0,0:0:0:40:LR_Tom Hit.wav
42,192,231604,1,0,0:0:0:40:kick.wav
42,192,231760,1,0,0:0:0:40:kick.wav
128,192,231916,1,0,0:0:0:40:drum.wav
384,192,232072,1,0,0:0:0:40:LR_Tom Hit.wav
42,192,232229,1,0,0:0:0:40:kick.wav
42,192,232385,1,0,0:0:0:40:kick.wav
128,192,232541,1,0,0:0:0:40:drum.wav
384,192,232697,1,0,0:0:0:40:LR_Tom Hit 3.wav
384,192,232775,1,0,0:0:0:40:LR_Tom Hit 2.wav
42,192,232854,1,0,0:0:0:40:kick.wav
128,192,233166,1,0,0:0:0:40:drum.wav
384,192,233322,1,0,0:0:0:40:LR_Tom Hit.wav
42,192,233479,1,0,0:0:0:40:kick.wav
42,192,233635,1,0,0:0:0:40:kick.wav
128,192,233791,1,0,0:0:0:40:drum.wav
384,192,233947,1,0,0:0:0:40:LR_Tom Hit.wav
42,192,234104,1,0,0:0:0:40:kick.wav
42,192,234260,1,0,0:0:0:40:kick.wav
128,192,234416,1,0,0:0:0:40:drum.wav
469,192,234416,1,0,0:0:0:40:crash.wav
213,192,234729,1,0,0:0:0:40:hihat.wav
42,192,234729,1,0,0:0:0:40:kick.wav
128,192,234963,1,0,0:0:0:40:drum.wav
128,192,235041,1,0,0:0:0:40:drum.wav
128,192,235119,1,0,0:0:0:40:drum.wav
128,192,235197,1,0,0:0:0:40:drum.wav
469,192,235354,1,0,0:0:0:40:crash.wav
42,192,235354,1,0,0:0:0:40:kick.wav
213,192,235666,1,0,0:0:0:40:hihat.wav
42,192,235822,1,0,0:0:0:40:kick.wav
128,192,235979,1,0,0:0:0:40:drum.wav
42,192,236135,1,0,0:0:0:40:kick.wav
213,192,236291,1,0,0:0:0:40:hihat.wav
42,192,236604,1,0,0:0:0:40:kick.wav
42,192,236760,1,0,0:0:0:40:kick.wav
213,192,236916,1,0,0:0:0:40:hihat.wav
42,192,237072,1,0,0:0:0:40:kick.wav
128,192,237229,1,0,0:0:0:40:drum.wav
42,192,237385,1,0,0:0:0:40:kick.wav
213,192,237541,1,0,0:0:0:40:hihat.wav
42,192,237854,1,0,0:0:0:40:kick.wav
42,192,238010,1,0,0:0:0:40:kick.wav
213,192,238166,1,0,0:0:0:40:hihat.wav
42,192,238322,1,0,0:0:0:40:kick.wav
128,192,238479,1,0,0:0:0:40:drum.wav
213,192,238791,1,0,0:0:0:40:hihat.wav
42,192,239104,1,0,0:0:0:40:kick.wav
128,192,239260,1,0,0:0:0:40:drum.wav
213,192,239416,1,0,0:0:0:40:hihat.wav
42,192,239572,1,0,0:0:0:40:kick.wav
128,192,239729,1,0,0:0:0:40:drum.wav
42,192,239885,1,0,0:0:0:40:kick.wav
128,192,240041,1,0,0:0:0:40:drum.wav
213,192,240197,1,0,0:0:0:40:hihat.wav
42,192,240354,1,0,0:0:0:40:kick.wav
469,192,240354,1,0,0:0:0:40:crash.wav
128,192,240666,1,0,0:0:0:40:drum.wav
213,192,240822,1,0,0:0:0:40:hihat.wav
42,192,240979,1,0,0:0:0:40:kick.wav
42,192,241135,1,0,0:0:0:40:kick.wav
128,192,241291,1,0,0:0:0:40:drum.wav
213,192,241447,1,0,0:0:0:40:hihat.wav
213,192,241604,1,0,0:0:0:40:hihat.wav
42,192,241760,1,0,0:0:0:40:kick.wav
128,192,241916,1,0,0:0:0:40:drum.wav
128,192,242072,1,0,0:0:0:40:drum.wav
42,192,242229,1,0,0:0:0:40:kick.wav
42,192,242385,1,0,0:0:0:40:kick.wav
128,192,242541,1,0,0:0:0:40:drum.wav
213,192,242697,1,0,0:0:0:40:hihat.wav
128,192,242854,1,0,0:0:0:40:drum.wav
42,192,243010,1,0,0:0:0:40:kick.wav
42,192,243166,1,0,0:0:0:40:kick.wav
128,192,243322,1,0,0:0:0:40:drum.wav
42,192,243479,1,0,0:0:0:40:kick.wav
42,192,243635,1,0,0:0:0:40:kick.wav
128,192,243791,1,0,0:0:0:40:drum.wav
469,192,243791,1,0,0:0:0:40:crash.wav
42,192,244104,1,0,0:0:0:40:kick.wav
42,192,244260,1,0,0:0:0:40:kick.wav
128,192,244416,1,0,0:0:0:40:drum.wav
42,192,244572,1,0,0:0:0:40:kick.wav
42,192,244729,1,0,0:0:0:40:kick.wav
42,192,244885,1,0,0:0:0:40:kick.wav
42,192,245041,1,0,0:0:0:40:kick.wav
213,192,245041,1,0,0:0:0:40:hihat.wav
42,192,245197,1,0,0:0:0:40:kick.wav
213,192,245197,1,0,0:0:0:40:hihat.wav
42,192,245354,1,0,0:0:0:40:kick.wav
469,192,245354,1,0,0:0:0:40:crash.wav
213,192,245354,1,0,0:0:0:40:hihat.wav
469,192,250354,5,0,0:0:0:40:crash.wav
384,192,259729,5,0,0:0:0:40:LR_Tom Hit.wav
469,192,259729,1,0,0:0:0:40:crash.wav
42,192,260354,1,0,0:0:0:40:kick.wav
213,192,260510,1,0,0:0:0:40:hihat.wav
42,192,260666,1,0,0:0:0:40:kick.wav
213,192,260822,1,0,0:0:0:40:hihat.wav
42,192,260979,1,0,0:0:0:40:kick.wav
213,192,261135,1,0,0:0:0:40:hihat.wav
42,192,261291,1,0,0:0:0:40:kick.wav
213,192,261447,1,0,0:0:0:40:hihat.wav
42,192,261604,1,0,0:0:0:40:kick.wav
213,192,261760,1,0,0:0:0:40:hihat.wav
42,192,261916,1,0,0:0:0:40:kick.wav
213,192,262072,1,0,0:0:0:40:hihat.wav
42,192,262229,1,0,0:0:0:40:kick.wav
213,192,262385,1,0,0:0:0:40:hihat.wav
42,192,262541,1,0,0:0:0:40:kick.wav
213,192,262697,1,0,0:0:0:40:hihat.wav
42,192,262854,1,0,0:0:0:40:kick.wav
213,192,263010,1,0,0:0:0:40:hihat.wav
42,192,263166,1,0,0:0:0:40:kick.wav
213,192,263322,1,0,0:0:0:40:hihat.wav
42,192,263479,1,0,0:0:0:40:kick.wav
213,192,263635,1,0,0:0:0:40:hihat.wav
42,192,263791,1,0,0:0:0:40:kick.wav
213,192,263947,1,0,0:0:0:40:hihat.wav
42,192,264104,1,0,0:0:0:40:kick.wav
213,192,264260,1,0,0:0:0:40:hihat.wav
42,192,264416,1,0,0:0:0:40:kick.wav
213,192,264572,1,0,0:0:0:40:hihat.wav
42,192,264729,1,0,0:0:0:40:kick.wav
213,192,264885,1,0,0:0:0:40:hihat.wav
42,192,265041,1,0,0:0:0:40:kick.wav
213,192,265197,1,0,0:0:0:40:hihat.wav
42,192,265354,1,0,0:0:0:40:kick.wav
213,192,265510,1,0,0:0:0:40:hihat.wav
42,192,265666,1,0,0:0:0:40:kick.wav
213,192,265822,1,0,0:0:0:40:hihat.wav
42,192,265979,1,0,0:0:0:40:kick.wav
213,192,266135,1,0,0:0:0:40:hihat.wav
42,192,266291,1,0,0:0:0:40:kick.wav
213,192,266447,1,0,0:0:0:40:hihat.wav
42,192,266604,1,0,0:0:0:40:kick.wav
213,192,266760,1,0,0:0:0:40:hihat.wav
42,192,266916,1,0,0:0:0:40:kick.wav
213,192,267072,1,0,0:0:0:40:hihat.wav
42,192,267229,1,0,0:0:0:40:kick.wav
213,192,267385,1,0,0:0:0:40:hihat.wav
42,192,267541,1,0,0:0:0:40:kick.wav
213,192,267697,1,0,0:0:0:40:hihat.wav
42,192,267854,1,0,0:0:0:40:kick.wav
213,192,268010,1,0,0:0:0:40:hihat.wav
42,192,268166,1,0,0:0:0:40:kick.wav
213,192,268322,1,0,0:0:0:40:hihat.wav
42,192,268479,1,0,0:0:0:40:kick.wav
213,192,268635,1,0,0:0:0:40:hihat.wav
42,192,268791,1,0,0:0:0:40:kick.wav
213,192,268947,1,0,0:0:0:40:hihat.wav
42,192,269104,1,0,0:0:0:40:kick.wav
213,192,269260,1,0,0:0:0:40:hihat.wav
42,192,269416,1,0,0:0:0:40:kick.wav
213,192,269572,1,0,0:0:0:40:hihat.wav
42,192,269729,1,0,0:0:0:40:kick.wav
213,192,269885,1,0,0:0:0:40:hihat.wav
42,192,270041,1,0,0:0:0:40:kick.wav
213,192,270197,1,0,0:0:0:40:hihat.wav
384,192,275354,5,0,0:0:0:70:bell.wav
384,192,275979,1,0,0:0:0:70:bell.wav
384,192,276604,1,0,0:0:0:70:bell.wav
384,192,277229,1,0,0:0:0:70:bell.wav
384,192,277854,1,0,0:0:0:70:bell.wav
384,192,278479,1,0,0:0:0:70:bell.wav
384,192,279104,1,0,0:0:0:70:bell.wav
384,192,279729,1,0,0:0:0:70:bell.wav
384,192,280354,1,0,0:0:0:70:bell.wav
384,192,280979,1,0,0:0:0:70:bell.wav
384,192,281604,1,0,0:0:0:70:bell.wav
384,192,282229,1,0,0:0:0:70:bell.wav
384,192,282854,1,0,0:0:0:70:bell.wav
384,192,283479,1,0,0:0:0:70:bell.wav
384,192,284104,1,0,0:0:0:70:bell.wav
384,192,284729,1,0,0:0:0:70:bell.wav
384,192,285354,1,0,0:0:0:70:bell.wav
384,192,285979,1,0,0:0:0:70:bell.wav
384,192,286604,1,0,0:0:0:70:bell.wav
384,192,287229,1,0,0:0:0:70:bell.wav
384,192,287854,1,0,0:0:0:70:bell.wav
384,192,288479,1,0,0:0:0:70:bell.wav
384,192,289104,1,0,0:0:0:70:bell.wav
384,192,289729,1,0,0:0:0:70:bell.wav
384,192,290354,1,0,0:0:0:70:bell.wav
384,192,290979,1,0,0:0:0:70:bell.wav
384,192,291604,1,0,0:0:0:70:bell.wav
384,192,292229,1,0,0:0:0:70:bell.wav
128,192,295354,1,0,0:0:0:40:drum.wav
42,192,295354,1,0,0:0:0:40:kick.wav
469,192,295354,1,0,0:0:0:40:crash.wav
213,192,295510,1,0,0:0:0:40:hihat.wav
128,192,295666,1,0,0:0:0:40:drum.wav
213,192,295822,1,0,0:0:0:40:hihat.wav
42,192,295979,1,0,0:0:0:40:kick.wav
42,192,296135,1,0,0:0:0:40:kick.wav
128,192,296291,1,0,0:0:0:40:drum.wav
213,192,296447,1,0,0:0:0:40:hihat.wav
42,192,296604,1,0,0:0:0:40:kick.wav
42,192,296760,1,0,0:0:0:40:kick.wav
128,192,296916,1,0,0:0:0:40:drum.wav
213,192,297072,1,0,0:0:0:40:hihat.wav
42,192,297229,1,0,0:0:0:40:kick.wav
42,192,297385,1,0,0:0:0:40:kick.wav
128,192,297541,1,0,0:0:0:40:drum.wav
213,192,297697,1,0,0:0:0:40:hihat.wav
42,192,297854,1,0,0:0:0:40:kick.wav
42,192,298010,1,0,0:0:0:40:kick.wav
128,192,298166,1,0,0:0:0:40:drum.wav
213,192,298322,1,0,0:0:0:40:hihat.wav
42,192,298479,1,0,0:0:0:40:kick.wav
42,192,298635,1,0,0:0:0:40:kick.wav
128,192,298791,1,0,0:0:0:40:drum.wav
213,192,298947,1,0,0:0:0:40:hihat.wav
42,192,299104,1,0,0:0:0:40:kick.wav
42,192,299260,1,0,0:0:0:40:kick.wav
128,192,299416,1,0,0:0:0:40:drum.wav
213,192,299572,1,0,0:0:0:40:hihat.wav
42,192,299729,1,0,0:0:0:40:kick.wav
42,192,299885,1,0,0:0:0:40:kick.wav
128,192,300041,1,0,0:0:0:40:drum.wav
213,192,300197,1,0,0:0:0:40:hihat.wav
42,192,300354,1,0,0:0:0:40:kick.wav
469,192,300354,1,0,0:0:0:40:crash.wav
128,192,300666,1,0,0:0:0:40:drum.wav
213,192,300822,1,0,0:0:0:40:hihat.wav
42,192,300979,1,0,0:0:0:40:kick.wav
42,192,301135,1,0,0:0:0:40:kick.wav
128,192,301291,1,0,0:0:0:40:drum.wav
213,192,301447,1,0,0:0:0:40:hihat.wav
42,192,301604,1,0,0:0:0:40:kick.wav
42,192,301760,1,0,0:0:0:40:kick.wav
128,192,301916,1,0,0:0:0:40:drum.wav
213,192,302072,1,0,0:0:0:40:hihat.wav
42,192,302229,1,0,0:0:0:40:kick.wav
42,192,302385,1,0,0:0:0:40:kick.wav
128,192,302541,1,0,0:0:0:40:drum.wav
213,192,302697,1,0,0:0:0:40:hihat.wav
42,192,302854,1,0,0:0:0:40:kick.wav
42,192,303010,1,0,0:0:0:40:kick.wav
128,192,303166,1,0,0:0:0:40:drum.wav
213,192,303322,1,0,0:0:0:40:hihat.wav
42,192,303479,1,0,0:0:0:40:kick.wav
42,192,303635,1,0,0:0:0:40:kick.wav
128,192,303791,1,0,0:0:0:40:drum.wav
213,192,303947,1,0,0:0:0:40:hihat.wav
42,192,304104,1,0,0:0:0:40:kick.wav
42,192,304260,1,0,0:0:0:40:kick.wav
128,192,304416,1,0,0:0:0:40:drum.wav
384,192,304572,1,0,0:0:0:70:LR_Tom Hit 3.wav
384,192,304650,1,0,0:0:0:70:LR_Tom Hit 3.wav
42,192,304729,1,0,0:0:0:40:kick.wav
42,192,304885,1,0,0:0:0:40:kick.wav
128,192,305041,1,0,0:0:0:40:drum.wav
469,192,305041,1,0,0:0:0:40:crash.wav
213,192,305197,1,0,0:0:0:40:hihat.wav
469,192,305354,1,0,0:0:0:40:crash.wav
42,192,305354,1,0,0:0:0:40:kick.wav
128,192,305666,1,0,0:0:0:40:drum.wav
213,192,305822,1,0,0:0:0:40:hihat.wav
42,192,305979,1,0,0:0:0:40:kick.wav
42,192,306135,1,0,0:0:0:40:kick.wav
128,192,306291,1,0,0:0:0:40:drum.wav
213,192,306447,1,0,0:0:0:40:hihat.wav
42,192,306604,1,0,0:0:0:40:kick.wav
42,192,306760,1,0,0:0:0:40:kick.wav
128,192,306916,1,0,0:0:0:40:drum.wav
213,192,307072,1,0,0:0:0:40:hihat.wav
42,192,307229,1,0,0:0:0:40:kick.wav
42,192,307385,1,0,0:0:0:40:kick.wav
128,192,307541,1,0,0:0:0:40:drum.wav
213,192,307697,1,0,0:0:0:40:hihat.wav
42,192,307854,1,0,0:0:0:40:kick.wav
42,192,308010,1,0,0:0:0:40:kick.wav
128,192,308166,1,0,0:0:0:40:drum.wav
213,192,308322,1,0,0:0:0:40:hihat.wav
42,192,308479,1,0,0:0:0:40:kick.wav
42,192,308635,1,0,0:0:0:40:kick.wav
128,192,308791,1,0,0:0:0:40:drum.wav
213,192,308947,1,0,0:0:0:40:hihat.wav
42,192,309104,1,0,0:0:0:40:kick.wav
42,192,309260,1,0,0:0:0:40:kick.wav
128,192,309416,1,0,0:0:0:40:drum.wav
213,192,309572,1,0,0:0:0:40:hihat.wav
42,192,309729,1,0,0:0:0:40:kick.wav
42,192,309885,1,0,0:0:0:40:kick.wav
128,192,310041,1,0,0:0:0:40:drum.wav
469,192,310041,1,0,0:0:0:40:crash.wav
213,192,310197,1,0,0:0:0:40:hihat.wav
42,192,310354,1,0,0:0:0:40:kick.wav
469,192,310354,1,0,0:0:0:40:crash.wav
128,192,310666,1,0,0:0:0:40:drum.wav
213,192,310822,1,0,0:0:0:40:hihat.wav
42,192,310979,1,0,0:0:0:40:kick.wav
42,192,311135,1,0,0:0:0:40:kick.wav
128,192,311291,1,0,0:0:0:40:drum.wav
213,192,311447,1,0,0:0:0:40:hihat.wav
42,192,311604,1,0,0:0:0:40:kick.wav
42,192,311760,1,0,0:0:0:40:kick.wav
128,192,311916,1,0,0:0:0:40:drum.wav
213,192,312072,1,0,0:0:0:40:hihat.wav
42,192,312229,1,0,0:0:0:40:kick.wav
42,192,312385,1,0,0:0:0:40:kick.wav
128,192,312541,1,0,0:0:0:40:drum.wav
213,192,312697,1,0,0:0:0:40:hihat.wav
42,192,312854,1,0,0:0:0:40:kick.wav
42,192,313010,1,0,0:0:0:40:kick.wav
128,192,313166,1,0,0:0:0:40:drum.wav
213,192,313322,1,0,0:0:0:40:hihat.wav
42,192,313479,1,0,0:0:0:40:kick.wav
42,192,313635,1,0,0:0:0:40:kick.wav
128,192,313791,1,0,0:0:0:40:drum.wav
42,192,313947,1,0,0:0:0:40:kick.wav
128,192,314104,1,0,0:0:0:40:drum.wav
128,192,314260,1,0,0:0:0:40:drum.wav
128,192,314338,1,0,0:0:0:40:drum.wav
42,192,314416,1,0,0:0:0:40:kick.wav
128,192,314572,1,0,0:0:0:40:drum.wav
128,192,314729,1,0,0:0:0:40:drum.wav
128,192,314807,1,0,0:0:0:40:drum.wav
128,192,314885,1,0,0:0:0:40:drum.wav
128,192,314963,1,0,0:0:0:40:drum.wav
42,192,315041,1,0,0:0:0:40:kick.wav
128,192,315041,1,0,0:0:0:40:drum.wav
213,192,315197,1,0,0:0:0:40:hihat.wav
128,192,315275,1,0,0:0:0:40:drum.wav
42,192,315354,1,0,0:0:0:40:kick.wav
469,192,315354,1,0,0:0:0:40:crash.wav
128,192,315666,1,0,0:0:0:40:drum.wav
469,192,315666,1,0,0:0:0:40:crash.wav
213,192,315822,1,0,0:0:0:40:hihat.wav
42,192,315979,1,0,0:0:0:40:kick.wav
42,192,316135,1,0,0:0:0:40:kick.wav
128,192,316291,1,0,0:0:0:40:drum.wav
213,192,316447,1,0,0:0:0:40:hihat.wav
42,192,316604,1,0,0:0:0:40:kick.wav
42,192,316760,1,0,0:0:0:40:kick.wav
128,192,316916,1,0,0:0:0:40:drum.wav
213,192,317072,1,0,0:0:0:40:hihat.wav
42,192,317229,1,0,0:0:0:40:kick.wav
42,192,317385,1,0,0:0:0:40:kick.wav
128,192,317541,1,0,0:0:0:40:drum.wav
42,192,317854,1,0,0:0:0:40:kick.wav
469,192,317854,1,0,0:0:0:40:crash.wav
128,192,318166,1,0,0:0:0:40:drum.wav
213,192,318322,1,0,0:0:0:40:hihat.wav
42,192,318479,1,0,0:0:0:40:kick.wav
42,192,318635,1,0,0:0:0:40:kick.wav
128,192,318791,1,0,0:0:0:40:drum.wav
213,192,318947,1,0,0:0:0:40:hihat.wav
42,192,319104,1,0,0:0:0:40:kick.wav
42,192,319260,1,0,0:0:0:40:kick.wav
128,192,319416,1,0,0:0:0:40:drum.wav
42,192,319572,1,0,0:0:0:40:kick.wav
128,192,319729,1,0,0:0:0:40:drum.wav
42,192,319885,1,0,0:0:0:40:kick.wav
128,192,320041,1,0,0:0:0:40:drum.wav
213,192,320197,1,0,0:0:0:40:hihat.wav
128,192,320354,1,0,0:0:0:40:drum.wav
469,192,320354,1,0,0:0:0:40:crash.wav
128,192,320666,1,0,0:0:0:40:drum.wav
42,192,320822,1,0,0:0:0:40:kick.wav
128,192,320979,1,0,0:0:0:40:drum.wav
42,192,321135,1,0,0:0:0:40:kick.wav
128,192,321291,1,0,0:0:0:40:drum.wav
42,192,321447,1,0,0:0:0:40:kick.wav
128,192,321604,1,0,0:0:0:40:drum.wav
42,192,321760,1,0,0:0:0:40:kick.wav
128,192,321916,1,0,0:0:0:40:drum.wav
42,192,322072,1,0,0:0:0:40:kick.wav
128,192,322229,1,0,0:0:0:40:drum.wav
42,192,322385,1,0,0:0:0:40:kick.wav
128,192,322541,1,0,0:0:0:40:drum.wav
42,192,322697,1,0,0:0:0:40:kick.wav
128,192,322854,1,0,0:0:0:40:drum.wav
42,192,322854,1,0,0:0:0:40:kick.wav
469,192,322854,1,0,0:0:0:40:crash.wav
42,192,323010,1,0,0:0:0:40:kick.wav
213,192,323166,1,0,0:0:0:40:hihat.wav
42,192,323322,1,0,0:0:0:40:kick.wav
128,192,323479,1,0,0:0:0:40:drum.wav
42,192,323635,1,0,0:0:0:40:kick.wav
213,192,323791,1,0,0:0:0:40:hihat.wav
42,192,324104,1,0,0:0:0:40:kick.wav
128,192,324260,1,0,0:0:0:40:drum.wav
213,192,324416,1,0,0:0:0:40:hihat.wav
42,192,324572,1,0,0:0:0:40:kick.wav
128,192,324729,1,0,0:0:0:40:drum.wav
42,192,324885,1,0,0:0:0:40:kick.wav
213,192,325041,1,0,0:0:0:40:hihat.wav
42,192,325354,1,0,0:0:0:40:kick.wav
469,192,325354,1,0,0:0:0:40:crash.wav
213,192,325510,1,0,0:0:0:40:hihat.wav
213,192,325666,1,0,0:0:0:40:hihat.wav
42,192,325822,1,0,0:0:0:40:kick.wav
128,192,325979,1,0,0:0:0:40:drum.wav
42,192,326135,1,0,0:0:0:40:kick.wav
213,192,326291,1,0,0:0:0:40:hihat.wav
213,192,326447,1,0,0:0:0:40:hihat.wav
213,192,326604,1,0,0:0:0:40:hihat.wav
213,192,326760,1,0,0:0:0:40:hihat.wav
213,192,326916,1,0,0:0:0:40:hihat.wav
42,192,327072,1,0,0:0:0:40:kick.wav
128,192,327385,1,0,0:0:0:40:drum.wav
42,192,327385,1,0,0:0:0:40:kick.wav
42,192,327541,1,0,0:0:0:40:kick.wav
128,192,327541,1,0,0:0:0:40:drum.wav
42,192,327697,1,0,0:0:0:40:kick.wav
128,192,327697,1,0,0:0:0:40:drum.wav
213,192,327697,1,0,0:0:0:40:hihat.wav
