osu file format v14

[General]
AudioFilename: audio.mp3
AudioLeadIn: 0
PreviewTime: 295041
Countdown: 0
SampleSet: Soft
StackLeniency: 1
Mode: 0
LetterboxInBreaks: 0
WidescreenStoryboard: 1

[Editor]
Bookmarks: 17541,20041,147854
DistanceSpacing: 1.3
BeatDivisor: 4
GridSize: 8
TimelineZoom: 2.5

[Metadata]
Title:ODDS&ENDS
TitleUnicode:ODDS&ENDS
Artist:ryo(supercell) feat.Hatsune Miku
ArtistUnicode:ryo(supercell) feat.初音ミク
Creator:Alsty-
Version:Powerless emotions
Source:初音ミク -Project DIVA- F
Tags:Miku Hatsune VOCALOID 超BEST -memories- Sky of Beginning Magical Mirai 2014 Sony Music Direct (Japan)
BeatmapID:1861898
BeatmapSetID:597260

[Difficulty]
HPDrainRate:6
CircleSize:4
OverallDifficulty:8
ApproachRate:9.2
SliderMultiplier:1.4
SliderTickRate:1

[Events]
//Background and Video events
0,0,"BG.jpg",0,0
//Break Periods
2,28049,32280
//Storyboard Layer 0 (Background)
//Storyboard Layer 1 (Fail)
//Storyboard Layer 2 (Pass)
//Storyboard Layer 3 (Foreground)
//Storyboard Sound Samples

[TimingPoints]
350,312.5,4,2,0,75,1,0
10350,-399.999999999997,4,2,0,75,0,0
32850,-100,4,2,0,75,0,0
39412,-133.333333333333,4,2,0,75,0,0
40037,-100,4,2,0,75,0,0
85350,-83.3333333333333,4,2,0,75,0,0
90662,-100,4,2,0,75,0,0
92537,-83.3333333333333,4,2,0,75,0,0
93787,-100,4,2,0,75,0,0
120350,-100,4,2,0,75,0,1
149881,-100,4,2,0,75,0,0
195350,-100,4,2,0,75,0,1
224881,-100,4,2,0,75,0,0
295350,-100,4,2,0,75,0,1
325350,-100,4,2,0,75,0,0
327381,-100,4,2,0,75,0,1
328006,-100,4,2,0,75,0,0

[HitObjects]
302,61,10350,6,0,L|293:99,1,35
426,192,10975,2,0,L|389:194,1,35
351,334,11600,2,0,L|324:303,1,35
146,285,12225,2,0,L|168:255,1,35
194,55,12850,2,0,L|203:88,1,35
279,226,13475,2,0,L|244:215,1,35
95,80,14100,2,0,L|112:118,1,35
114,281,14725,2,0,L|147:255,1,35
263,142,15350,2,0,B|292:79|342:75|382:109|382:109|377:182|377:182|353:193,1,245
193,266,17850,6,0,B|142:267|142:267|91:226|91:226|89:171|133:144|179:158,1,245
325,299,20350,6,0,L|306:267,1,35
384,58,20975,2,0,L|366:88,1,35
241,207,21600,2,0,L|218:172,1,35
80,80,22225,2,0,L|97:117,1,35
110,263,22850,2,0,L|134:294,1,35
223,167,23475,2,0,L|240:199,1,35
378,88,24100,2,0,L|362:122,1,35
392,309,24725,2,0,L|369:275,1,35
173,215,25350,2,0,B|220:148|290:131|365:167|402:237,1,280
256,192,32850,12,0,35350,0:0:0:0:
262,274,35662,5,0,0:0:0:0:
360,102,35975,1,0,0:0:0:0:
397,237,36287,1,0,0:0:0:0:
220,135,36600,2,0,B|278:100|328:103|355:135,1,140
181,244,37225,1,0,0:0:0:0:
248,101,37537,1,0,0:0:0:0:
338,229,37850,6,0,P|287:287|225:299,1,140
132,133,38475,1,0,0:0:0:0:
253,236,38787,1,0,0:0:0:0:
102,288,39100,1,0,0:0:0:0:
194,178,39412,2,0,P|246:117|285:94,2,105.000004005432
206,279,40193,5,0,0:0:0:0:
206,279,40350,2,0,P|267:231|345:240,1,140
296,327,40975,1,0,0:0:0:0:
296,165,41287,1,0,0:0:0:0:
432,242,41600,2,0,P|360:234|298:183,1,140
351,36,42225,1,0,0:0:0:0:
407,190,42537,1,0,0:0:0:0:
240,161,42850,2,0,P|180:126|100:158,1,140
190,54,43475,5,0,0:0:0:0:
190,218,43787,1,0,0:0:0:0:
47,136,44100,1,0,0:0:0:0:
188,135,44412,1,0,0:0:0:0:
110,284,44725,1,0,0:0:0:0:
262,272,45037,1,0,0:0:0:0:
357,104,45350,6,0,P|442:159|460:200,1,140
382,271,45818,1,0,0:0:0:0:
382,271,45975,1,0,0:0:0:0:
317,183,46131,2,0,P|266:213|263:233,1,70
276,312,46443,2,0,P|215:299|198:280,1,70
107,303,46756,2,0,P|81:255|92:218,1,70
164,225,47068,2,0,P|158:185|125:157,1,70
66,127,47381,2,0,P|100:87|129:80,1,70
139,164,47693,5,0,0:0:0:0:
139,164,47850,2,0,P|199:130|221:134,1,70
373,134,48162,1,0,0:0:0:0:
373,134,48318,2,0,P|317:119|287:126,1,70
224,216,48631,5,0,0:0:0:0:
309,295,48787,1,0,0:0:0:0:
309,295,48943,2,0,P|369:285|420:211,1,140
283,142,49568,1,0,0:0:0:0:
369,42,49725,1,0,0:0:0:0:
443,139,49881,2,0,P|422:174|368:192,1,70
267,64,50193,5,0,0:0:0:0:
267,64,50350,2,0,P|216:58|182:68,1,70
89,163,50662,1,0,0:0:0:0:
89,163,50818,2,0,P|145:131|172:129,1,70
259,197,51131,2,0,P|217:229|180:234,2,70
251,323,51600,6,0,P|168:316|125:281,1,140
223,176,52068,1,0,0:0:0:0:
322,234,52225,1,0,0:0:0:0:
238,269,52537,6,0,L|276:340,1,70
148,235,52850,2,0,P|87:128|88:88,1,140
172,67,53318,2,0,P|203:169|236:195,1,140
317,150,53787,1,0,0:0:0:0:
317,150,53943,2,0,P|255:61|256:30,2,140
357,63,54725,2,0,P|407:98|413:120,1,70
422,135,54959,1,0,0:0:0:0:
411,178,55037,5,0,0:0:0:0:
301,289,55193,1,0,0:0:0:0:
287,152,55350,2,0,P|230:147|207:163,2,70
188,290,55818,1,0,0:0:0:0:
54,195,55975,1,0,0:0:0:0:
179,148,56131,2,0,P|165:201|139:218,1,70
97,115,56443,6,0,P|115:51|142:35,1,70
268,47,56756,2,0,P|266:107|246:135,1,70
195,254,57068,2,0,P|164:221|157:181,1,70
350,200,57381,2,0,P|346:260|331:274,1,70
239,140,57693,1,0,0:0:0:0:
239,140,57850,6,0,P|274:85|343:58,1,140
453,130,58318,6,0,P|475:181|470:221,1,70
392,318,58631,2,0,P|336:312|304:289,1,70
369,205,58943,1,0,0:0:0:0:
369,205,59100,2,0,P|301:195|224:221,1,140
89,314,59568,2,0,P|78:246|86:220,1,70
160,253,59881,2,0,P|157:179|117:121,1,140
51,61,60350,6,0,B|133:49|133:49|192:68,1,140
262,152,60818,1,0,0:0:0:0:
262,152,61131,1,0,0:0:0:0:
382,79,61287,1,0,0:0:0:0:
454,199,61443,1,0,0:0:0:0:
330,269,61600,2,0,P|328:210|386:148,1,140
406,242,62068,2,0,P|405:291|371:331,1,70
328,268,62537,6,0,P|279:260|234:270,1,70
265,342,62850,2,0,P|191:318|148:266,1,140
49,205,63318,2,0,P|72:157|104:136,1,70
163,90,63631,1,0,0:0:0:0:
264,64,63787,1,0,0:0:0:0:
352,109,63943,1,0,0:0:0:0:
399,193,64100,2,0,P|392:246|361:276,1,70
282,294,64412,6,0,P|229:283|200:263,1,70
170,184,64725,6,0,P|247:168|322:217,1,140
237,252,65350,1,0,0:0:0:0:
206,269,65428,1,0,0:0:0:0:
173,280,65506,1,0,0:0:0:0:
139,284,65584,1,0,0:0:0:0:
104,281,65662,5,0,0:0:0:0:
244,124,65975,1,0,0:0:0:0:
441,195,66287,1,0,0:0:0:0:
280,330,66600,1,0,0:0:0:0:
178,99,66912,1,0,0:0:0:0:
375,170,67225,1,0,0:0:0:0:
214,305,67537,1,0,0:0:0:0:
254,222,67850,5,0,0:0:0:0:
254,222,68006,1,0,0:0:0:0:
333,66,68162,1,0,0:0:0:0:
203,101,68475,1,0,0:0:0:0:
361,191,68787,1,0,0:0:0:0:
203,279,69100,2,0,P|126:225|98:164,1,140
203,55,69725,6,0,P|271:109|291:166,1,140
408,261,70350,1,0,0:0:0:0:
378,242,70428,1,0,0:0:0:0:
345,231,70506,1,0,0:0:0:0:
310,227,70584,1,0,0:0:0:0:
275,231,70662,5,0,0:0:0:0:
65,152,70975,1,0,0:0:0:0:
266,94,71287,1,0,0:0:0:0:
216,297,71600,1,0,0:0:0:0:
182,120,71912,1,0,0:0:0:0:
382,58,72225,1,0,0:0:0:0:
335,263,72537,1,0,0:0:0:0:
242,189,72850,5,0,0:0:0:0:
242,189,73006,1,0,0:0:0:0:
132,91,73162,1,0,0:0:0:0:
154,268,73475,1,0,0:0:0:0:
36,166,73787,1,0,0:0:0:0:
232,98,74100,1,0,0:0:0:0:
433,152,74412,2,0,P|418:226|367:284,1,140
332,183,75037,1,0,0:0:0:0:
423,94,75350,6,0,P|449:181|437:236,1,140
352,300,75818,1,0,0:0:0:0:
352,300,75975,1,0,0:0:0:0:
297,212,76131,2,0,P|255:257|245:280,1,70
217,341,76443,2,0,P|183:301|170:256,1,70
165,188,76756,2,0,P|194:149|228:136,1,70
256,216,77068,1,0,0:0:0:0:
256,216,77225,5,0,0:0:0:0:
270,312,77381,2,0,P|208:312|174:302,1,70
84,244,77693,1,0,0:0:0:0:
84,244,77850,2,0,P|145:244|177:250,1,70
174,99,78162,2,0,P|227:126|241:157,1,70
160,183,78475,1,0,0:0:0:0:
160,183,78631,1,0,0:0:0:0:
77,120,78787,5,0,0:0:0:0:
77,120,78943,2,0,P|142:78|211:98,1,140
149,161,79412,1,0,0:0:0:0:
147,158,79568,2,0,P|206:181|244:174,1,70
204,97,79881,2,0,P|264:115|285:147,1,70
279,204,80193,2,0,P|328:178|340:143,1,70
391,94,80506,5,0,0:0:0:0:
419,280,80662,1,0,0:0:0:0:
471,182,80818,2,0,L|323:192,1,140
221,274,81287,2,0,L|298:270,1,70
379,268,81600,5,0,0:0:0:0:
404,89,81756,1,0,0:0:0:0:
479,166,81912,2,0,L|395:174,1,70
235,142,82225,2,0,L|321:134,1,70
296,216,82537,1,0,0:0:0:0:
234,320,82693,5,0,0:0:0:0:
234,320,82771,1,0,0:0:0:0:
234,320,82850,2,0,L|153:289,1,70
196,195,83162,5,0,0:0:0:0:
63,186,83318,2,0,P|92:132|110:113,1,70
205,49,83631,2,0,P|183:108|158:137,1,70
263,169,83943,2,0,P|229:224|216:235,1,70
168,309,84256,2,0,L|142:280,1,35
75,323,84412,6,0,P|71:272|87:229,1,70
75,61,84725,6,0,P|71:112|87:155,1,70
168,75,84959,2,0,L|142:104,1,35
151,172,85350,1,0,0:0:0:0:
308,172,85506,1,0,0:0:0:0:
225,306,85662,2,0,P|210:264|221:221,1,83.9999974365235
235,134,85975,5,0,0:0:0:0:
368,141,86131,1,0,0:0:0:0:
320,79,86287,2,0,P|353:102|369:146,1,83.9999974365235
289,234,86600,5,0,0:0:0:0:
409,267,86756,1,0,0:0:0:0:
361,329,86912,2,0,P|394:306|410:262,1,83.9999974365235
473,191,87225,2,0,P|465:135|440:105,1,83.9999974365235
397,172,87537,2,0,P|337:178|296:164,1,83.9999974365235
230,269,87850,5,0,0:0:0:0:
230,75,88006,1,0,0:0:0:0:
397,172,88162,2,0,P|337:178|296:164,1,83.9999974365235
226,167,88475,1,0,0:0:0:0:
148,64,88631,1,0,0:0:0:0:
112,137,88787,2,0,P|125:90|162:53,1,83.9999974365235
188,165,89100,5,0,0:0:0:0:
110,268,89256,1,0,0:0:0:0:
74,195,89412,2,0,P|83:235|109:268,1,83.9999974365235
172,336,89725,2,0,P|195:278|184:235,1,83.9999974365235
167,175,90037,1,0,0:0:0:0:
182,138,90350,6,0,P|275:137|349:175,1,167.999994873047
472,248,90818,2,0,P|383:228|314:236,1,140
263,329,91287,2,0,P|207:293|188:265,1,70
100,250,91600,2,0,P|153:212|189:210,1,70
140,86,91912,2,0,P|191:124|202:159,1,70
256,189,92225,5,0,0:0:0:0:
348,94,92381,1,0,0:0:0:0:
372,167,92537,2,0,P|367:113|326:84,1,83.9999974365235
464,151,92850,2,0,P|459:218|399:296,1,167.999994873047
265,292,93318,6,0,P|290:182|339:142,1,167.999994873047
366,235,93787,2,0,P|308:237|267:224,1,70
277,145,94100,2,0,P|209:144|184:146,1,70
102,233,94412,2,0,P|161:230|188:234,1,70
188,233,94646,1,0,0:0:0:0:
205,240,94725,5,0,0:0:0:0:
259,319,94881,2,0,P|208:323|171:316,1,70
188,233,95350,5,0,0:0:0:0:
219,218,95428,1,0,0:0:0:0:
253,210,95506,1,0,0:0:0:0:
288,208,95584,1,0,0:0:0:0:
323,212,95662,1,0,0:0:0:0:
437,106,95975,6,0,P|356:89|286:98,1,140
140,126,96443,2,0,P|201:105|219:106,1,70
159,241,96912,1,0,0:0:0:0:
159,241,97225,2,0,P|217:222|242:226,1,70
395,234,97537,2,0,P|327:222|310:223,1,70
276,232,97771,1,0,0:0:0:0:
276,232,97850,5,0,0:0:0:0:
389,140,98162,2,0,P|292:124|247:129,1,140
46,183,98787,2,0,P|140:166|195:167,1,140
352,183,99256,2,0,P|288:170|260:171,1,70
183,279,99568,2,0,P|240:260|262:261,1,70
405,284,99881,2,0,P|348:261|326:261,1,70
254,55,100350,1,0,0:0:0:0:
230,80,100428,5,0,0:0:0:0:
212,110,100506,1,0,0:0:0:0:
200,143,100584,1,0,0:0:0:0:
196,178,100662,1,0,0:0:0:0:
303,347,100975,2,0,P|330:248|325:185,1,140
326,48,101443,2,0,P|335:103|334:130,1,70
209,96,101912,5,0,0:0:0:0:
209,96,102225,2,0,P|205:160|209:181,1,70
225,309,102537,2,0,P|213:248|213:228,2,70
134,193,103162,2,0,P|138:120|136:52,1,140
224,196,103787,2,0,P|232:249|224:276,1,70
221,302,104021,1,0,0:0:0:0:
208,341,104100,5,0,0:0:0:0:
142,275,104256,2,0,B|139:231|139:231|126:207,1,70
281,244,104568,2,0,B|302:208|302:208|343:197,2,70
171,176,105037,1,0,0:0:0:0:
256,58,105193,2,0,P|342:72|375:123,1,140
456,193,105662,6,0,P|441:248|415:271,1,70
333,327,105975,2,0,P|307:288|306:241,1,70
135,255,106287,2,0,P|174:218|211:206,1,70
142,51,106600,2,0,P|196:72|210:90,1,70
361,52,106912,2,0,P|360:99|340:128,1,70
316,209,107225,6,0,P|230:186|155:200,1,140
136,121,107693,2,0,P|217:105|287:116,1,140
356,191,108162,6,0,P|341:246|315:269,1,70
233,325,108475,2,0,P|207:286|206:239,1,70
35,253,108787,2,0,P|74:216|111:204,1,70
42,49,109100,2,0,P|96:70|110:88,1,70
269,50,109412,2,0,P|268:97|248:126,1,70
193,202,109725,2,0,P|238:208|274:232,2,70
178,290,110350,6,0,P|240:262|318:250,1,140
384,90,110818,2,0,P|376:188|364:241,1,140
403,326,111287,2,0,P|349:294|326:268,1,70
261,226,111600,5,0,0:0:0:0:
173,268,111756,1,0,0:0:0:0:
98,222,111912,1,0,0:0:0:0:
97,131,112068,1,0,0:0:0:0:
151,58,112225,1,0,0:0:0:0:
243,96,112381,5,0,0:0:0:0:
253,132,112537,1,0,0:0:0:0:
346,112,112693,1,0,0:0:0:0:
371,300,112850,2,0,P|313:252|248:234,1,140
164,115,113318,5,0,0:0:0:0:
131,300,113475,1,0,0:0:0:0:
258,127,113631,1,0,0:0:0:0:
300,311,113787,1,0,0:0:0:0:
212,217,113943,5,0,0:0:0:0:
278,43,114100,1,0,0:0:0:0:
329,216,114256,1,0,0:0:0:0:
195,102,114412,1,0,0:0:0:0:
342,180,114568,1,0,0:0:0:0:
417,58,114725,2,0,P|355:56|318:72,1,70
255,98,115037,1,0,0:0:0:0:
465,143,115193,2,0,P|383:140|320:164,1,140
188,275,115662,6,0,L|249:213,1,70
104,78,115975,2,0,L|170:112,1,70
301,333,116287,2,0,L|354:282,1,70
246,60,116600,2,0,L|318:111,1,70
494,71,116912,2,0,L|447:132,1,70
426,155,117146,5,0,0:0:0:0:
376,172,117225,1,0,0:0:0:0:
223,167,117381,2,0,L|150:167,1,70
85,292,117693,2,0,L|236:291,1,140
294,124,118162,5,0,0:0:0:0:
248,317,118318,1,0,0:0:0:0:
409,123,118475,5,0,0:0:0:0:
455,302,118631,1,0,0:0:0:0:
320,75,118787,5,0,0:0:0:0:
274,254,118943,1,0,0:0:0:0:
105,79,119100,6,0,P|141:69|157:76,2,35
198,128,119412,6,0,L|236:142,2,35
397,49,119725,1,0,0:0:0:0:
193,175,119881,1,0,0:0:0:0:
431,126,120193,5,0,0:0:0:0:
431,126,120350,2,0,P|372:146|352:176,1,70
424,210,120662,2,0,P|433:260|411:297,1,70
337,301,120975,5,0,0:0:0:0:
337,301,121131,1,0,0:0:0:0:
238,190,121287,2,0,P|235:145|254:105,1,70
329,151,121600,5,0,0:0:0:0:
329,151,121756,1,0,0:0:0:0:
241,318,121912,2,0,P|190:319|169:296,1,70
126,237,122224,5,0,0:0:0:0:
126,237,122381,1,0,0:0:0:0:
200,54,122537,2,0,P|235:88|239:120,1,70
242,193,122850,5,0,0:0:0:0:
242,193,123006,1,0,0:0:0:0:
53,143,123162,2,0,P|69:100|96:79,1,70
161,57,123475,5,0,0:0:0:0:
161,57,123631,1,0,0:0:0:0:
145,245,123787,2,0,P|123:304|99:317,1,70
220,311,124100,2,0,P|299:283|362:299,1,140
447,203,124568,6,0,L|432:272,1,70
406,137,124881,2,0,L|440:202,1,70
449,51,125193,1,0,0:0:0:0:
345,60,125350,2,0,P|292:115|223:133,1,140
86,83,125818,5,0,0:0:0:0:
89,216,125975,1,0,0:0:0:0:
172,81,126131,1,0,0:0:0:0:
204,201,126287,1,0,0:0:0:0:
125,294,126443,2,0,P|158:273|193:273,2,70
262,297,126912,1,0,0:0:0:0:
352,207,127068,6,0,P|308:180|269:191,1,70
226,208,127381,2,0,P|173:179|157:144,2,70
282,64,127850,2,0,L|333:126,1,70
397,304,128162,2,0,L|380:164,1,140
232,158,128631,5,0,0:0:0:0:
177,318,128787,2,0,L|188:218,1,70
103,56,129100,2,0,L|136:128,1,70
242,84,129412,2,0,L|223:158,1,70
281,158,129646,1,0,0:0:0:0:
332,192,129725,6,0,L|264:232,1,70
274,353,130037,2,0,L|229:292,1,70
369,325,130350,2,0,P|399:266|400:240,1,70
475,228,130662,6,0,P|475:171|453:138,1,70
311,226,130975,1,0,0:0:0:0:
356,60,131131,1,0,0:0:0:0:
441,174,131287,2,0,P|418:220|390:238,1,70
271,128,131600,5,0,0:0:0:0:
219,302,131756,1,0,0:0:0:0:
151,176,131912,2,0,P|159:106|168:95,1,70
316,218,132225,5,0,0:0:0:0:
147,332,132381,1,0,0:0:0:0:
191,183,132537,2,0,P|219:142|217:106,1,70
112,157,132850,2,0,P|54:243|38:291,1,140
135,263,133318,6,0,P|106:320|104:352,1,70
204,314,133631,2,0,P|224:255|220:224,1,70
201,89,133943,1,0,0:0:0:0:
197,183,134100,1,0,0:0:0:0:
267,144,134256,2,0,P|286:94|279:56,1,70
307,207,134568,6,0,P|279:174|267:130,1,70
272,270,134881,2,0,P|299:234|302:207,1,70
187,304,135193,1,0,0:0:0:0:
187,304,135350,2,0,P|140:227|86:198,1,140
71,101,135818,6,0,P|136:78|165:78,2,70
202,166,136287,1,0,0:0:0:0:
202,166,136443,2,0,P|277:158|336:120,1,140
406,75,136912,1,0,0:0:0:0:
468,144,137068,2,0,P|443:220|389:280,1,140
357,191,137537,6,0,P|326:244|305:259,1,70
132,116,137850,1,0,0:0:0:0:
323,64,138006,1,0,0:0:0:0:
277,274,138162,2,0,P|241:230|241:197,1,70
323,64,138475,5,0,0:0:0:0:
504,170,138631,1,0,0:0:0:0:
351,220,138787,2,0,P|328:256|322:308,1,70
232,284,139100,2,0,P|221:243|214:240,3,35
144,260,139412,6,0,P|146:223|155:206,3,35
68,183,139725,1,0,0:0:0:0:
91,157,139803,1,0,0:0:0:0:
120,138,139881,1,0,0:0:0:0:
153,125,139959,1,0,0:0:0:0:
187,119,140037,5,0,0:0:0:0:
222,118,140115,1,0,0:0:0:0:
257,124,140193,1,0,0:0:0:0:
289,136,140271,1,0,0:0:0:0:
319,154,140350,1,0,0:0:0:0:
406,80,140662,5,0,0:0:0:0:
406,80,140975,5,0,0:0:0:0:
389,292,141131,1,0,0:0:0:0:
276,169,141287,2,0,P|332:149|363:166,1,70
321,235,141600,5,0,0:0:0:0:
144,307,141756,1,0,0:0:0:0:
162,129,141912,2,0,P|202:173|205:197,1,70
126,200,142225,5,0,0:0:0:0:
240,37,142381,1,0,0:0:0:0:
291,192,142537,2,0,P|242:181|229:158,1,70
287,111,142850,2,0,P|354:112|394:158,1,105
436,192,143162,6,0,P|389:231|362:263,1,70
341,314,143475,1,0,0:0:0:0:
148,279,143631,1,0,0:0:0:0:
268,139,143787,2,0,P|283:181|277:210,1,70
196,187,144100,5,0,0:0:0:0:
254,50,144256,1,0,0:0:0:0:
275,242,144412,2,0,P|306:208|313:177,1,70
338,114,144725,1,0,0:0:0:0:
338,114,144803,1,0,0:0:0:0:
338,114,144881,2,0,L|407:158,1,70
337,198,145193,5,0,0:0:0:0:
131,258,145350,1,0,0:0:0:0:
142,96,145662,5,0,0:0:0:0:
175,49,145818,5,0,0:0:0:0:
167,260,145975,1,0,0:0:0:0:
258,77,146131,5,0,0:0:0:0:
285,285,146287,1,0,0:0:0:0:
195,132,146443,5,0,0:0:0:0:
117,328,146600,1,0,0:0:0:0:
269,174,146756,5,0,0:0:0:0:
380,344,146912,1,0,0:0:0:0:
223,100,147068,5,0,0:0:0:0:
145,296,147225,1,0,0:0:0:0:
297,142,147381,5,0,0:0:0:0:
411,314,147537,2,0,P|394:263|359:233,1,70
269,168,147850,2,0,P|231:218|197:229,2,70
181,136,148318,6,0,P|217:86|245:73,2,70
265,159,148787,1,0,0:0:0:0:
316,83,148943,2,0,P|349:119|362:156,2,70
250,153,149412,1,0,0:0:0:0:
208,292,149568,2,0,P|155:256|139:226,1,70
121,167,149881,1,0,0:0:0:0:
125,241,150350,6,0,B|201:241|264:224|264:224|208:178,1,210
172,91,150975,1,0,0:0:0:0:
172,91,151131,2,0,P|241:79|323:97,2,140
247,182,152068,5,0,0:0:0:0:
247,182,152225,1,0,0:0:0:0:
247,182,152381,2,0,P|323:191|375:241,1,140
388,71,152850,2,0,P|377:140|397:212,1,140
283,297,153318,2,0,P|205:321|129:309,1,140
66,242,153787,6,0,P|119:226|160:228,2,70
79,69,154256,2,0,P|119:97|133:132,1,70
228,84,154568,2,0,P|214:142|199:164,1,70
281,210,154881,2,0,P|339:176|424:182,1,140
371,271,155350,2,0,P|340:191|288:158,1,140
118,186,155818,6,0,P|203:147|222:103,1,140
125,95,156287,2,0,P|64:121|45:147,1,70
66,231,156600,2,0,P|18:232|-18:210,1,70
115,303,156912,1,0,0:0:0:0:
115,303,157068,6,0,P|175:283|199:288,1,70
251,338,157381,2,0,P|285:279|280:255,2,70
388,292,157850,2,0,P|351:224|296:196,1,140
415,160,158318,2,0,P|468:178|512:252,1,140
419,245,158787,5,0,0:0:0:0:
339,201,158943,2,0,P|335:272|383:339,2,140
411,103,159881,1,0,0:0:0:0:
411,103,159959,1,0,0:0:0:0:
411,103,160037,1,0,0:0:0:0:
263,49,160193,5,0,0:0:0:0:
328,98,160350,2,0,P|318:139|287:172,1,70
206,138,160662,2,0,P|217:195|241:230,1,70
184,316,160975,2,0,P|160:267|163:233,1,70
274,237,161287,5,0,0:0:0:0:
274,237,161443,2,0,P|284:172|279:148,1,70
322,47,161756,6,0,P|305:112|300:123,1,70
200,131,162068,2,0,P|212:172|226:203,1,70
310,225,162381,2,0,P|298:289|293:302,1,70
115,237,162693,1,0,0:0:0:0:
115,237,162850,2,0,P|97:156|125:85,1,140
255,95,163318,1,0,0:0:0:0:
255,95,163475,2,0,P|265:152|259:171,2,70
397,237,163943,5,0,0:0:0:0:
397,237,164100,2,0,P|415:156|387:85,1,140
330,168,164568,2,0,P|277:157|251:124,1,70
272,50,164881,2,0,P|231:97|219:187,1,140
181,264,165350,2,0,P|235:247|319:260,1,140
391,81,165818,5,0,0:0:0:0:
310,255,166131,2,0,P|260:216|247:187,1,70
336,45,166443,2,0,P|372:59|398:95,1,70
444,251,166756,2,0,P|470:218|463:181,1,70
372,173,167068,2,0,P|281:136|216:148,1,140
286,221,167537,5,0,0:0:0:0:
213,279,167693,1,0,0:0:0:0:
120,307,167850,2,0,P|82:244|79:164,1,140
184,84,168318,2,0,L|163:227,1,140
244,193,168787,5,0,0:0:0:0:
317,149,168943,1,0,0:0:0:0:
394,105,169100,2,0,L|420:204,1,70
412,326,169412,2,0,L|387:254,1,70
391,104,169725,2,0,L|415:178,1,70
422,211,169959,1,0,0:0:0:0:
436,250,170037,1,0,0:0:0:0:
311,221,170350,5,0,0:0:0:0:
280,204,170428,1,0,0:0:0:0:
247,193,170506,1,0,0:0:0:0:
212,188,170584,1,0,0:0:0:0:
177,190,170662,1,0,0:0:0:0:
122,239,170975,5,0,0:0:0:0:
130,267,171287,5,0,0:0:0:0:
181,64,171443,1,0,0:0:0:0:
251,212,171600,5,0,0:0:0:0:
256,234,171912,5,0,0:0:0:0:
262,260,172225,6,0,L|278:333,2,70
313,136,172693,5,0,0:0:0:0:
320,163,172771,1,0,0:0:0:0:
328,186,172850,1,0,0:0:0:0:
394,76,173162,5,0,0:0:0:0:
414,104,173475,5,0,0:0:0:0:
400,134,173787,5,0,0:0:0:0:
438,158,174100,5,0,0:0:0:0:
428,211,174256,1,0,0:0:0:0:
285,166,174412,5,0,0:0:0:0:
292,218,174568,1,0,0:0:0:0:
157,222,174725,5,0,0:0:0:0:
185,267,174881,1,0,0:0:0:0:
96,316,175037,1,0,0:0:0:0:
247,215,175350,5,0,0:0:0:0:
277,198,175428,1,0,0:0:0:0:
310,187,175506,1,0,0:0:0:0:
345,182,175584,1,0,0:0:0:0:
380,184,175662,1,0,0:0:0:0:
436,233,175975,5,0,0:0:0:0:
428,261,176287,5,0,0:0:0:0:
377,58,176443,1,0,0:0:0:0:
307,206,176600,5,0,0:0:0:0:
296,255,176912,5,0,0:0:0:0:
209,68,177225,6,0,L|189:157,1,70
178,203,177537,1,0,0:0:0:0:
83,290,177693,2,0,L|94:245,2,35
112,168,178162,5,0,0:0:0:0:
106,125,178475,5,0,0:0:0:0:
141,103,178787,5,0,0:0:0:0:
155,55,179100,5,0,0:0:0:0:
200,178,179256,1,0,0:0:0:0:
242,55,179412,1,0,0:0:0:0:
211,163,179568,1,0,0:0:0:0:
309,223,179725,1,0,0:0:0:0:
357,121,179881,1,0,0:0:0:0:
427,57,180037,5,0,0:0:0:0:
340,257,180193,2,0,P|223:207|182:209,1,140
56,193,180662,6,0,P|71:248|97:271,1,70
179,327,180975,2,0,P|205:288|206:241,1,70
377,255,181287,2,0,P|338:218|301:206,1,70
370,51,181600,2,0,P|316:72|302:90,1,70
151,52,181912,2,0,P|152:99|172:128,1,70
196,209,182225,6,0,P|282:186|357:200,1,140
376,121,182693,2,0,P|295:105|225:116,1,140
156,191,183162,6,0,P|171:246|197:269,1,70
279,325,183475,2,0,P|305:286|306:239,1,70
477,253,183787,2,0,P|438:216|401:204,1,70
470,49,184100,2,0,P|416:70|402:88,1,70
243,50,184412,2,0,P|244:97|264:126,1,70
319,202,184725,2,0,P|274:208|238:232,2,70
151,158,185350,6,0,P|222:127|288:125,1,140
237,205,185818,2,0,L|166:325,1,140
86,180,186287,2,0,P|118:215|165:231,1,70
341,159,186600,2,0,P|304:221|288:234,1,70
194,74,186912,2,0,P|213:128|235:158,1,70
311,69,187225,5,0,0:0:0:0:
278,223,187381,1,0,0:0:0:0:
180,74,187537,5,0,0:0:0:0:
211,246,187693,1,0,0:0:0:0:
285,98,187850,6,0,P|366:79|430:98,1,140
344,169,188318,5,0,0:0:0:0:
138,268,188475,1,0,0:0:0:0:
335,261,188631,5,0,0:0:0:0:
127,156,188787,1,0,0:0:0:0:
382,134,188943,5,0,0:0:0:0:
176,233,189100,1,0,0:0:0:0:
271,77,189256,1,0,0:0:0:0:
241,65,189412,1,0,0:0:0:0:
249,281,189568,5,0,0:0:0:0:
279,298,189725,1,0,0:0:0:0:
157,208,189881,5,0,0:0:0:0:
358,68,190037,1,0,0:0:0:0:
384,285,190193,2,0,P|315:303|245:274,1,140
304,223,190662,6,0,L|243:161,1,70
388,26,190975,2,0,L|322:60,1,70
213,251,191287,2,0,L|160:200,1,70
201,31,191600,2,0,L|129:82,1,70
44,172,191912,2,0,L|91:233,1,70
112,256,192146,5,0,0:0:0:0:
162,273,192225,1,0,0:0:0:0:
289,167,192381,2,0,L|362:167,1,70
427,292,192693,2,0,L|276:291,1,140
218,124,193162,5,0,0:0:0:0:
264,317,193318,1,0,0:0:0:0:
103,123,193475,5,0,0:0:0:0:
57,302,193631,1,0,0:0:0:0:
192,75,193787,5,0,0:0:0:0:
238,254,193943,1,0,0:0:0:0:
305,84,194100,6,0,P|341:74|357:81,2,35
398,133,194412,6,0,L|436:147,2,35
128,91,194725,1,0,0:0:0:0:
348,178,194881,1,0,0:0:0:0:
375,121,195193,5,0,0:0:0:0:
375,121,195350,2,0,P|325:96|299:96,1,70
309,170,195662,2,0,L|268:241,1,70
118,197,195975,1,0,0:0:0:0:
122,155,196131,1,0,0:0:0:0:
258,265,196287,2,0,L|218:336,1,70
226,115,196600,5,0,0:0:0:0:
231,59,196756,1,0,0:0:0:0:
372,203,196912,2,0,L|332:274,1,70
355,63,197225,1,0,0:0:0:0:
359,21,197381,1,0,0:0:0:0:
495,131,197537,2,0,L|455:202,1,70
364,188,197850,6,0,P|283:187|211:232,1,140
306,287,198318,1,0,0:0:0:0:
121,240,198475,1,0,0:0:0:0:
120,289,198631,1,0,0:0:0:0:
269,235,198787,2,0,L|248:169,1,70
284,41,199100,2,0,L|325:179,1,140
409,177,199568,6,0,P|455:141|493:139,1,70
480,214,199881,2,0,P|452:247|409:254,1,70
369,53,200193,1,0,0:0:0:0:
369,53,200350,2,0,P|292:71|249:132,1,140
318,165,200818,5,0,0:0:0:0:
276,304,200975,1,0,0:0:0:0:
156,154,201131,1,0,0:0:0:0:
197,309,201287,1,0,0:0:0:0:
236,159,201443,2,0,P|149:186|83:218,1,140
72,81,201912,1,0,0:0:0:0:
165,74,202068,2,0,L|96:203,1,140
33,292,202537,6,0,P|76:279|105:281,1,70
200,328,202850,1,0,0:0:0:0:
200,328,203006,1,0,0:0:0:0:
348,112,203162,2,0,L|347:192,1,70
229,73,203475,5,0,0:0:0:0:
229,73,203631,1,0,0:0:0:0:
396,275,203787,2,0,L|396:200,1,70
485,109,204100,2,0,P|425:107|400:126,1,70
263,137,204412,2,0,P|293:172|333:186,1,70
337,146,204646,1,0,0:0:0:0:
344,108,204725,2,0,P|397:147|402:174,1,70
434,254,205037,2,0,P|407:299|368:320,1,70
143,325,205350,2,0,P|113:266|112:240,1,70
37,228,205662,6,0,P|37:171|59:138,1,70
201,226,205975,1,0,0:0:0:0:
156,60,206131,1,0,0:0:0:0:
71,174,206287,2,0,P|94:220|122:238,1,70
241,128,206600,5,0,0:0:0:0:
293,302,206756,1,0,0:0:0:0:
361,176,206912,2,0,P|353:106|344:95,1,70
196,218,207225,5,0,0:0:0:0:
365,332,207381,1,0,0:0:0:0:
321,183,207537,2,0,P|293:142|295:106,1,70
400,157,207850,2,0,P|458:243|474:291,1,140
377,263,208318,6,0,P|406:320|408:352,1,70
308,314,208631,2,0,P|288:255|292:224,1,70
311,89,208943,1,0,0:0:0:0:
315,183,209100,1,0,0:0:0:0:
245,144,209256,2,0,P|226:94|233:56,1,70
205,207,209568,6,0,P|233:174|245:130,1,70
240,270,209881,2,0,P|213:234|210:207,1,70
325,304,210193,1,0,0:0:0:0:
325,304,210350,2,0,P|372:227|426:198,1,140
441,101,210818,6,0,P|376:78|347:78,2,70
310,166,211287,1,0,0:0:0:0:
310,166,211443,2,0,P|235:158|176:120,1,140
106,75,211912,1,0,0:0:0:0:
44,144,212068,2,0,P|69:220|123:280,1,140
155,191,212537,6,0,P|186:244|207:259,1,70
380,116,212850,1,0,0:0:0:0:
189,64,213006,1,0,0:0:0:0:
235,274,213162,2,0,P|271:230|271:197,1,70
271,143,213475,1,0,0:0:0:0:
81,85,213631,1,0,0:0:0:0:
131,290,213787,2,0,P|154:254|153:205,1,70
199,142,214100,6,0,L|211:179,1,35
271,253,214256,2,0,L|255:198,1,35
285,124,214412,2,0,L|298:179,1,35
349,243,214568,2,0,L|335:199,1,35
407,101,214725,5,0,0:0:0:0:
377,81,214803,1,0,0:0:0:0:
344,70,214881,1,0,0:0:0:0:
310,69,214959,1,0,0:0:0:0:
276,79,215037,1,0,0:0:0:0:
252,102,215115,1,0,0:0:0:0:
230,129,215193,1,0,0:0:0:0:
199,146,215271,1,0,0:0:0:0:
165,142,215350,1,0,0:0:0:0:
106,80,215662,5,0,0:0:0:0:
106,80,215975,5,0,0:0:0:0:
123,292,216131,1,0,0:0:0:0:
236,169,216287,2,0,P|180:149|149:166,1,70
191,235,216600,5,0,0:0:0:0:
368,307,216756,1,0,0:0:0:0:
350,129,216912,2,0,P|310:173|307:197,1,70
386,200,217225,5,0,0:0:0:0:
272,37,217381,1,0,0:0:0:0:
221,192,217537,2,0,P|270:181|283:158,1,70
225,111,217850,2,0,P|158:112|118:158,1,105
76,192,218162,6,0,P|123:231|150:263,1,70
171,314,218475,1,0,0:0:0:0:
364,279,218631,1,0,0:0:0:0:
244,139,218787,2,0,P|229:181|235:210,1,70
303,258,219100,5,0,0:0:0:0:
274,304,219256,1,0,0:0:0:0:
164,79,219412,1,0,0:0:0:0:
174,115,219568,1,0,0:0:0:0:
246,319,219725,1,0,0:0:0:0:
269,278,219881,1,0,0:0:0:0:
288,85,220037,2,0,L|297:164,1,70
401,128,220350,1,0,0:0:0:0:
370,96,220662,5,0,0:0:0:0:
337,49,220818,5,0,0:0:0:0:
345,260,220975,1,0,0:0:0:0:
254,77,221131,5,0,0:0:0:0:
227,285,221287,1,0,0:0:0:0:
329,53,221443,5,0,0:0:0:0:
390,244,221600,1,0,0:0:0:0:
209,68,221756,5,0,0:0:0:0:
155,247,221912,1,0,0:0:0:0:
289,100,222068,5,0,0:0:0:0:
305,161,222146,1,0,0:0:0:0:
322,213,222225,1,0,0:0:0:0:
204,135,222381,5,0,0:0:0:0:
144,315,222537,1,0,0:0:0:0:
236,210,222850,6,0,P|289:192|314:199,1,70
302,195,223162,1,0,0:0:0:0:
355,89,223318,2,0,P|396:119|416:163,2,70
234,85,223787,1,0,0:0:0:0:
155,152,223943,2,0,P|152:207|162:237,1,70
155,220,224256,1,0,0:0:0:0:
258,187,224568,1,0,0:0:0:0:
