osu file format v14

[General]
AudioFilename: audio.mp3
AudioLeadIn: 0
PreviewTime: 274233
Countdown: 0
SampleSet: Soft
StackLeniency: 0.4
Mode: 0
LetterboxInBreaks: 0
WidescreenStoryboard: 0

[Editor]
Bookmarks: 45951,235483,260483,295483
DistanceSpacing: 2.3
BeatDivisor: 4
GridSize: 4
TimelineZoom: 3.199999

[Metadata]
Title:ODDS&ENDS
TitleUnicode:ODDS&ENDS
Artist:ryo(supercell)
ArtistUnicode:ryo(supercell)
Creator:[ Marley ]
Version:Your Words
Source:
Tags:vocaloid ryo supercell hatsune miku
BeatmapID:1399192
BeatmapSetID:660840

[Difficulty]
HPDrainRate:5
CircleSize:4
OverallDifficulty:9
ApproachRate:9.3
SliderMultiplier:1.3
SliderTickRate:1

[Events]
//Background and Video events
0,0,"Hatsune.Miku.full.1600872.jpg",0,0
//Break Periods
2,16308,17413
2,18808,19929
2,26308,27413
2,28261,34772
2,150683,152429
2,154276,154929
2,275683,292429
//Storyboard Layer 0 (Background)
//Storyboard Layer 1 (Fail)
//Storyboard Layer 2 (Pass)
//Storyboard Layer 3 (Foreground)
//Storyboard Layer 4 (Overlay)
//Storyboard Sound Samples

[TimingPoints]
483,312.5,4,2,0,80,1,0
10483,-200,4,2,0,40,0,0
10583,-200,4,2,0,40,0,0
13295,-200,4,2,0,5,0,0
13608,-200,4,2,0,40,0,0
15483,-200,4,2,0,80,0,0
16108,-200,4,2,0,5,0,0
17983,-200,4,2,0,40,0,0
18608,-200,4,2,0,5,0,0
20483,-200,4,2,0,40,0,0
23295,-200,4,2,0,5,0,0
23608,-200,4,2,0,40,0,0
26108,-200,4,2,0,5,0,0
27983,-200,4,2,0,40,0,0
28061,-200,4,2,0,5,0,0
28217,-200,4,2,0,80,0,0
35483,-133.333333333333,4,2,0,60,0,0
45951,-133.333333333333,4,1,0,50,0,0
105326,-100,4,2,0,60,0,0
107826,-83.3333333333333,4,2,0,85,0,0
110483,-125,4,2,0,60,0,0
120480,-83.3333333333333,4,2,0,60,0,1
150483,-133.333333333333,4,2,0,60,0,0
151420,-133.333333333333,4,2,0,60,0,0
155483,-133.333333333333,4,2,0,60,0,0
170795,-100,4,2,0,60,0,0
180326,-83.3333333333333,4,2,0,60,0,0
195483,-83.3333333333333,4,2,0,60,0,1
221733,-76.9230769230769,4,2,0,60,0,1
224858,-76.9230769230769,4,2,0,60,0,0
234701,-133.333333333333,4,2,0,40,0,0
240483,-100,4,2,0,40,0,0
245483,-200,4,3,0,20,0,0
270483,-200,4,2,0,80,0,0
270561,-200,4,2,0,5,0,0
271733,-200,4,2,0,80,0,0
271811,-200,4,2,0,5,0,0
272983,-200,4,2,0,80,0,0
273061,-200,4,2,0,5,0,0
274233,-200,4,2,0,80,0,0
274311,-200,4,2,0,5,0,0
275483,-200,4,2,0,80,0,0
295480,-83.3333333333333,4,2,0,50,0,1
324233,-125,4,2,0,50,0,1
327826,-200,4,2,0,80,0,1
328295,-200,4,2,0,5,0,0

[Colours]
Combo1 : 27,192,109
Combo2 : 192,27,27
Combo3 : 27,103,192
Combo4 : 158,27,192

[HitObjects]
256,192,9233,5,2,0:0:0:0:
146,229,10483,6,0,P|167:262|196:276,1,65
329,138,11108,2,0,P|301:109|270:101,1,65
240,293,11733,2,0,P|278:297|307:284,1,65
243,101,12358,2,0,P|202:105|177:125,1,65
314,262,12983,6,0,P|348:236|360:215,1,65,8|0,0:0|0:0,0:0:0:0:
181,136,13608,2,0,P|155:166|151:194,1,65
345,207,14233,2,0,P|345:166|327:140,1,65
154,225,14858,2,0,P|176:260|204:272,1,65
385,318,15483,6,0,L|469:218,1,130,2|2,0:0|0:0,0:0:0:0:
452,296,17983,6,0,L|368:188,1,130,2|0,0:0|0:0,0:0:0:0:
146,155,20483,6,0,P|167:122|196:108,1,65
329,246,21108,6,0,P|301:275|270:283,1,65
240,91,21733,2,0,P|278:87|307:100,1,65
243,283,22358,2,0,P|202:279|177:259,1,65
314,122,22983,6,0,P|348:148|360:169,1,65,8|0,0:0|0:0,0:0:0:0:
181,248,23608,2,0,P|155:218|151:190,1,65
345,177,24233,2,0,P|345:218|327:244,1,65
154,159,24858,2,0,P|176:124|204:112,1,65
349,161,25483,6,0,L|428:264,1,130,10|2,0:0|0:0,0:0:0:0:
120,206,27983,6,0,L|132:178,1,16.25,2|2,0:0|0:0,0:0:0:0:
227,70,35326,5,0,0:0:0:0:
216,73,35404,1,0,0:0:0:0:
208,76,35483,6,0,P|168:100|156:160,1,97.50000371933
224,147,36108,2,0,P|220:191|181:226,1,97.50000371933
155,160,36733,2,0,P|117:193|110:244,1,97.50000371933
183,231,37358,2,0,P|171:279|127:311,1,97.50000371933
109,240,37983,6,0,P|125:186|155:159,1,97.50000371933
183,231,38608,2,0,P|219:191|224:135,1,97.50000371933
147,158,39233,1,0,0:0:0:0:
173,84,39545,1,0,0:0:0:0:
246,109,39858,1,0,0:0:0:0:
221,182,40170,1,0,0:0:0:0:
120,240,40326,5,2,0:0:0:0:
204,308,40483,2,0,P|260:284|272:248,1,97.50000371933
202,240,41108,2,0,P|220:200|286:182,1,97.50000371933
271,252,41733,2,0,P|328:218|336:174,1,97.50000371933
267,179,42358,2,0,P|311:118|342:113,1,97.50000371933
343,149,42826,1,0,0:0:0:0:
336,191,42983,6,0,P|332:227|288:275,1,97.50000371933
265,206,43608,2,0,P|230:237|225:291,1,97.50000371933
293,272,44233,2,0,P|280:331|236:352,1,97.50000371933
223,285,44858,2,0,P|187:314|173:363,1,97.50000371933
350,334,45483,1,2,0:0:0:0:
348,72,45951,6,0,P|312:56|296:56,1,48.750001859665
236,76,46264,1,0,0:0:0:0:
192,128,46420,1,0,0:0:0:0:
196,196,46576,2,0,P|184:232|176:244,1,48.750001859665
60,100,46889,5,0,0:0:0:0:
52,168,47045,1,0,0:0:0:0:
72,232,47201,2,0,L|95:291,2,48.750001859665
248,204,47670,6,0,L|284:160,1,48.750001859665
336,128,47983,6,0,P|384:176|388:212,1,97.50000371933
318,198,48451,2,0,P|317:243|280:285,1,97.50000371933
241,219,48920,1,0,0:0:0:0:
183,283,49076,2,0,B|151:251|151:251|159:187,1,97.50000371933
168,116,49545,6,0,P|184:92|200:112,1,48.750001859665
241,219,49858,1,0,0:0:0:0:
324,192,50015,1,0,0:0:0:0:
320,80,50170,6,0,L|368:96,1,48.750001859665
436,184,50483,6,0,P|432:224|384:272,1,97.50000371933
363,201,50951,2,0,P|325:214|263:193,1,97.50000371933
206,110,51420,6,0,L|159:134,1,48.750001859665
61,193,51733,5,0,0:0:0:0:
87,287,51889,1,0,0:0:0:0:
182,261,52045,1,0,0:0:0:0:
154,166,52201,2,0,P|175:137|159:75,1,97.50000371933
248,64,52670,5,0,0:0:0:0:
363,97,52826,1,0,0:0:0:0:
286,173,52983,2,0,L|253:216,1,48.750001859665
373,237,53295,1,0,0:0:0:0:
293,312,53451,6,0,P|333:328|357:324,1,48.750001859665
116,280,53764,1,0,0:0:0:0:
224,216,53920,6,0,L|172:248,1,48.750001859665
176,88,54233,6,0,P|228:64|286:76,1,97.50000371933
236,159,54701,1,0,0:0:0:0:
320,216,54858,6,0,L|364:136,2,73.1250027894975
263,307,55483,6,0,P|226:295|192:243,1,97.50000371933
284,140,55951,6,0,P|257:98|200:80,1,97.50000371933
180,184,56420,2,0,P|150:172|132:156,1,48.750001859665
116,60,56733,2,0,P|81:75|60:96,1,48.750001859665
40,180,57045,1,0,0:0:0:0:
104,240,57201,1,0,0:0:0:0:
188,212,57358,6,0,B|212:248|248:264|248:264|240:288,1,97.50000371933
424,252,57826,2,0,L|432:216,1,24.3750009298325
402,175,57983,6,0,L|346:95,1,97.50000371933
191,131,58608,2,0,L|127:47,1,97.50000371933
49,247,59233,2,0,L|109:327,1,97.50000371933
216,312,59701,5,0,0:0:0:0:
253,248,59858,1,0,0:0:0:0:
314,287,60014,6,0,P|370:263|390:215,1,97.50000371933
363,163,60483,6,0,L|278:99,1,97.50000371933
212,105,60951,6,0,P|176:125|116:137,1,97.50000371933
84,200,61420,1,0,0:0:0:0:
145,238,61576,1,0,0:0:0:0:
217,251,61733,6,0,P|241:199|279:174,1,97.50000371933
344,192,62201,1,0,0:0:0:0:
104,92,62670,5,0,0:0:0:0:
85,162,62826,1,0,0:0:0:0:
138,212,62983,2,0,L|238:176,1,97.50000371933
302,185,63451,2,0,L|346:281,1,97.50000371933
284,318,63920,1,0,0:0:0:0:
245,256,64076,5,0,0:0:0:0:
215,188,64233,2,0,P|171:148|123:148,1,97.50000371933
145,217,64701,5,0,0:0:0:0:
62,95,64858,2,0,P|106:59|150:59,1,97.50000371933
210,175,65326,5,2,0:0:0:0:
352,268,65483,5,8,0:0:0:0:
364,256,65561,1,8,0:0:0:0:
372,244,65639,1,8,0:0:0:0:
380,232,65717,1,8,0:0:0:0:
388,216,65795,2,0,P|400:176|396:148,1,48.750001859665,2|0,0:0|0:0,0:0:0:0:
368,63,66108,6,0,L|321:139,1,73.1250027894975
306,153,66420,1,0,0:0:0:0:
227,51,66733,6,0,L|188:131,1,73.1250027894975
179,146,67045,1,0,0:0:0:0:
98,39,67358,6,0,L|65:94,1,48.750001859665
6,193,67670,1,0,0:0:0:0:
137,336,67983,6,0,L|110:286,1,48.750001859665
6,193,68295,1,0,0:0:0:0:
393,191,68608,6,0,P|397:152|395:129,1,48.750001859665
332,39,68920,1,0,0:0:0:0:
264,184,69233,6,0,P|237:146|197:128,1,73.1250027894975
177,127,69545,1,0,0:0:0:0:
108,224,69858,2,0,L|68:256,1,48.750001859665
158,356,70170,5,0,0:0:0:0:
152,148,70326,1,0,0:0:0:0:
232,228,70483,5,8,0:0:0:0:
244,244,70561,1,8,0:0:0:0:
256,260,70639,1,8,0:0:0:0:
268,276,70717,1,8,0:0:0:0:
280,292,70795,2,0,L|324:320,1,48.750001859665,2|0,0:0|0:0,0:0:0:0:
144,63,71108,6,0,L|191:139,1,73.1250027894975
206,153,71420,1,0,0:0:0:0:
285,51,71733,6,0,L|324:131,1,73.1250027894975
333,146,72045,1,0,0:0:0:0:
414,39,72358,6,0,L|447:94,1,48.750001859665
506,193,72670,1,0,0:0:0:0:
375,336,72983,6,0,L|402:286,1,48.750001859665
506,193,73295,1,0,0:0:0:0:
119,191,73608,6,0,P|115:152|117:129,1,48.750001859665
180,39,73920,1,0,0:0:0:0:
248,184,74233,6,0,P|275:146|315:128,1,73.1250027894975
331,127,74545,2,0,L|384:131,1,48.750001859665
330,315,74858,2,0,L|265:317,1,48.750001859665
331,127,75170,2,0,P|300:107|248:92,1,73.1250027894975
214,101,75483,5,0,0:0:0:0:
127,157,75639,1,0,0:0:0:0:
165,259,75795,1,0,0:0:0:0:
314,231,76108,6,0,L|382:303,2,97.50000371933
196,152,76889,1,0,0:0:0:0:
136,208,77045,2,0,P|152:252|212:272,1,97.50000371933
268,316,77514,1,0,0:0:0:0:
360,220,77670,6,0,L|396:276,1,48.750001859665
249,207,77983,6,0,L|260:151,2,48.750001859665
406,167,78451,1,0,0:0:0:0:
416,32,78608,2,0,P|360:32|320:64,1,97.50000371933
196,52,79076,1,0,0:0:0:0:
416,32,79233,1,0,0:0:0:0:
336,176,79389,6,0,P|328:208|312:196,1,48.750001859665
168,148,79701,5,0,0:0:0:0:
336,176,79858,2,0,P|332:228|287:264,1,97.50000371933
120,264,80326,6,0,L|148:276,1,24.3750009298325
160,332,80483,2,0,L|264:320,1,97.50000371933
271,235,80951,1,0,0:0:0:0:
366,203,81108,2,0,P|346:159|296:134,1,97.50000371933
202,151,81576,1,0,0:0:0:0:
86,103,81733,5,0,0:0:0:0:
100,266,81889,1,0,0:0:0:0:
202,151,82045,1,0,0:0:0:0:
239,289,82201,2,0,P|271:297|303:293,1,48.750001859665
328,118,82514,1,0,0:0:0:0:
418,297,82670,2,0,P|442:267|451:243,1,48.750001859665
471,137,82983,6,0,P|447:85|424:66,1,73.1250027894975
398,65,83295,1,0,0:0:0:0:
337,191,83451,1,0,0:0:0:0:
264,68,83608,2,0,P|220:68|172:100,1,97.50000371933
216,212,84076,5,0,0:0:0:0:
15,206,84233,1,0,0:0:0:0:
127,109,84389,1,0,0:0:0:0:
30,339,84545,5,0,0:0:0:0:
216,212,84701,2,0,L|203:278,1,48.750001859665
308,300,85014,1,0,0:0:0:0:
320,288,85092,1,0,0:0:0:0:
332,276,85170,2,0,L|385:205,1,73.1250027894975
390,197,85483,1,0,0:0:0:0:
324,148,85639,5,0,0:0:0:0:
268,74,85795,1,0,0:0:0:0:
223,155,85951,1,0,0:0:0:0:
35,73,86108,5,0,0:0:0:0:
59,204,86264,1,0,0:0:0:0:
168,39,86420,2,0,P|185:65|191:101,1,48.750001859665
293,161,86733,1,0,0:0:0:0:
174,213,86889,5,0,0:0:0:0:
463,348,87201,1,0,0:0:0:0:
336,41,87514,1,0,0:0:0:0:
336,41,87670,1,0,0:0:0:0:
260,82,87826,5,0,0:0:0:0:
250,171,87983,2,0,L|198:205,1,48.750001859665
308,248,88295,1,0,0:0:0:0:
221,304,88451,1,0,0:0:0:0:
106,220,88608,6,0,P|110:172|117:153,1,48.750001859665
194,92,88920,1,0,0:0:0:0:
236,204,89076,1,0,0:0:0:0:
343,113,89233,6,0,P|365:146|367:172,1,48.750001859665
468,193,89545,1,0,0:0:0:0:
411,339,89701,6,0,P|434:304|441:280,1,48.750001859665
255,191,90014,1,0,0:0:0:0:
309,345,90170,2,0,P|285:322|254:301,1,48.750001859665
120,296,90483,6,0,P|100:244|116:196,1,97.50000371933
218,248,90951,1,0,0:0:0:0:
372,92,91264,5,0,0:0:0:0:
260,84,91420,1,0,0:0:0:0:
334,194,91576,1,0,0:0:0:0:
208,210,91733,2,0,L|160:246,2,48.750001859665
164,48,92201,6,0,P|120:56|88:108,1,97.50000371933
280,292,92670,1,0,0:0:0:0:
280,292,92826,1,0,0:0:0:0:
204,182,92983,2,0,P|256:158|304:166,1,97.50000371933
400,240,93451,5,0,0:0:0:0:
444,112,93608,1,0,0:0:0:0:
279,166,93764,1,0,0:0:0:0:
212,252,93920,6,0,P|193:265|168:268,1,48.750001859665
112,76,94233,6,0,L|172:100,1,48.750001859665
372,84,94545,2,0,L|328:124,1,48.750001859665
312,136,94779,1,0,0:0:0:0:
288,160,94858,1,0,0:0:0:0:
340,300,95014,1,0,0:0:0:0:
188,292,95170,6,0,P|136:272|128:216,1,97.50000371933
124,208,95561,1,0,0:0:0:0:
132,184,95639,1,0,0:0:0:0:
140,160,95717,1,0,0:0:0:0:
152,136,95795,1,0,0:0:0:0:
280,216,96108,6,0,L|328:128,1,97.50000371933
468,52,96576,1,0,0:0:0:0:
365,78,96733,1,0,0:0:0:0:
389,239,97045,2,0,L|341:279,1,48.750001859665
236,280,97358,5,0,0:0:0:0:
169,215,97514,1,0,0:0:0:0:
178,123,97670,1,0,0:0:0:0:
257,75,97826,5,0,0:0:0:0:
291,69,97904,1,0,0:0:0:0:
323,85,97983,1,0,0:0:0:0:
304,224,98295,5,0,0:0:0:0:
304,224,98608,1,0,0:0:0:0:
304,224,98920,1,0,0:0:0:0:
304,224,99233,1,0,0:0:0:0:
380,172,99389,1,0,0:0:0:0:
315,106,99545,1,0,0:0:0:0:
228,74,99701,2,0,P|184:78|136:114,1,97.50000371933
213,165,100170,1,0,0:0:0:0:
352,292,100483,5,0,0:0:0:0:
356,276,100561,1,0,0:0:0:0:
360,260,100639,1,0,0:0:0:0:
364,244,100717,1,0,0:0:0:0:
368,228,100795,1,0,0:0:0:0:
244,104,101108,5,0,0:0:0:0:
244,104,101420,1,0,0:0:0:0:
153,123,101576,2,0,L|89:143,1,48.750001859665
166,208,101889,1,0,0:0:0:0:
89,260,102045,1,0,0:0:0:0:
163,315,102201,1,0,0:0:0:0:
293,202,102358,5,0,0:0:0:0:
387,96,102514,1,0,0:0:0:0:
417,233,102670,1,0,0:0:0:0:
321,129,102826,2,0,L|284:98,1,48.750001859665
40,320,103295,5,0,0:0:0:0:
40,320,103608,1,0,0:0:0:0:
40,320,103920,1,0,0:0:0:0:
132,340,104076,1,0,0:0:0:0:
164,336,104154,1,0,0:0:0:0:
192,320,104233,2,0,P|224:296|228:232,1,97.50000371933
112,204,104701,5,0,0:0:0:0:
173,73,104858,1,0,0:0:0:0:
231,241,105014,1,0,0:0:0:0:
376,220,105170,6,0,L|384:192,1,24.3750009298325
356,140,105326,2,0,P|340:112|224:88,1,130,10|0,0:3|0:0,0:0:0:0:
70,158,105795,2,0,P|106:202|134:206,1,65
401,168,106108,2,0,P|365:124|337:120,1,65
176,274,106420,2,0,P|223:304|251:299,1,65
323,88,106733,2,0,P|275:57|247:62,1,65
225,173,107045,1,8,0:0:0:0:
453,329,107201,1,10,3:0:0:0:
290,216,107358,6,0,P|274:260|282:284,1,65
358,255,107670,1,0,0:0:0:0:
126,216,107826,6,0,P|78:220|34:324,1,155.999995239258
248,342,108295,2,0,P|280:306|288:274,1,77.999997619629
138,135,108608,2,0,P|154:95|182:67,1,77.999997619629
473,65,108920,2,0,P|470:103|452:138,1,77.999997619629
208,76,109233,5,0,0:0:0:0:
295,289,109389,1,0,0:0:0:0:
80,192,109545,1,0,0:0:0:0:
297,129,109701,1,0,0:0:0:0:
372,317,109858,1,0,0:0:0:0:
433,206,110014,1,0,0:0:0:0:
212,292,110170,6,0,P|160:268|160:184,1,116.999996429443
192,184,110483,2,0,P|196:148|152:92,1,104
84,176,110951,1,0,0:0:0:0:
192,184,111108,2,0,P|232:204|284:172,1,104
227,64,111576,1,0,0:0:0:0:
368,77,111733,6,0,P|392:105|400:129,1,52
335,284,112045,2,0,P|295:312|275:312,1,52
127,227,112358,2,0,P|99:187|95:167,1,52
216,73,112670,5,0,0:0:0:0:
373,208,112826,1,0,0:0:0:0:
381,24,112983,5,0,0:0:0:0:
263,151,113139,1,0,0:0:0:0:
266,14,113295,1,0,0:0:0:0:
362,135,113451,1,0,0:0:0:0:
111,162,113608,5,0,0:0:0:0:
288,81,113764,1,0,0:0:0:0:
212,234,113920,1,0,0:0:0:0:
181,56,114076,1,0,0:0:0:0:
110,296,114233,5,0,0:0:0:0:
186,154,114389,1,0,0:0:0:0:
29,208,114545,1,0,0:0:0:0:
223,311,114701,1,0,0:0:0:0:
92,139,114858,1,0,0:0:0:0:
333,270,115014,5,0,0:0:0:0:
224,52,115170,1,0,0:0:0:0:
404,60,115326,2,0,L|428:164,1,104
344,308,115795,5,0,0:0:0:0:
144,184,115951,1,0,0:0:0:0:
236,340,116108,5,0,0:0:0:0:
325,152,116264,1,0,0:0:0:0:
188,68,116420,5,0,0:0:0:0:
412,18,116576,1,0,0:0:0:0:
192,228,116733,5,0,0:0:0:0:
9,53,116889,1,0,0:0:0:0:
64,284,117045,5,0,0:0:0:0:
185,51,117201,1,0,0:0:0:0:
156,308,117358,5,0,0:0:0:0:
290,107,117514,1,0,0:0:0:0:
304,340,117670,5,0,0:0:0:0:
368,65,117826,2,0,P|326:29|264:25,1,104
196,288,118295,5,0,0:0:0:0:
211,14,118451,1,0,0:0:0:0:
83,270,118608,1,0,0:0:0:0:
307,108,118764,1,0,0:0:0:0:
25,127,118920,1,0,0:0:0:0:
302,286,119076,1,0,0:0:0:0:
108,48,119233,5,0,0:0:0:0:
116,64,119311,1,0,0:0:0:0:
124,80,119389,1,0,0:0:0:0:
132,96,119467,1,0,0:0:0:0:
140,112,119545,1,0,0:0:0:0:
148,133,119623,2,0,L|168:177,1,26
364,204,119858,6,0,P|378:187|411:185,1,52
196,68,120326,1,0,0:0:0:0:
196,68,120483,6,0,P|152:100|144:144,1,77.999997619629
340,236,120795,1,0,0:0:0:0:
116,232,120951,1,0,0:0:0:0:
288,84,121108,1,0,0:0:0:0:
216,318,121264,1,0,0:0:0:0:
120,124,121420,2,0,P|132:87|146:71,1,38.9999988098145
159,64,121576,1,0,0:0:0:0:
348,154,121733,6,0,P|336:196|309:229,1,77.999997619629
207,141,122045,1,0,0:0:0:0:
443,252,122201,1,0,0:0:0:0:
232,49,122358,2,0,P|176:53|140:85,1,77.999997619629
170,325,122670,1,0,0:0:0:0:
372,256,122826,6,0,L|336:284,1,38.9999988098145
288,256,122983,2,0,P|252:228|196:224,1,77.999997619629
140,308,123295,1,0,0:0:0:0:
164,140,123451,1,0,0:0:0:0:
32,252,123608,1,0,0:0:0:0:
228,236,123764,1,0,0:0:0:0:
33,135,123920,2,0,P|49:88|62:73,1,38.9999988098145
65,73,124076,1,0,0:0:0:0:
276,78,124233,6,0,P|291:129|248:176,1,116.999996429443
207,181,124545,1,0,0:0:0:0:
309,325,124701,1,0,0:0:0:0:
404,192,124858,5,0,0:0:0:0:
381,17,125014,1,0,0:0:0:0:
495,150,125170,1,0,0:0:0:0:
288,56,125326,1,0,0:0:0:0:
447,269,125483,2,0,B|433:301|433:301|388:307|349:332,1,116.999996429443
335,340,125795,1,0,0:0:0:0:
143,110,125951,5,0,0:0:0:0:
1,127,126108,2,0,L|72:182,1,77.999997619629
124,280,126420,1,0,0:0:0:0:
317,271,126576,1,0,0:0:0:0:
219,176,126733,6,0,B|216:151|216:151|255:119|277:69,1,116.999996429443
301,69,127045,1,0,0:0:0:0:
145,52,127201,1,0,0:0:0:0:
223,289,127358,2,0,P|245:329|278:353,1,77.999997619629
469,191,127670,2,0,L|499:111,1,77.999997619629
324,252,127983,5,0,0:0:0:0:
348,80,128139,1,0,0:0:0:0:
243,310,128295,1,0,0:0:0:0:
422,109,128451,1,0,0:0:0:0:
152,284,128608,1,0,0:0:0:0:
445,187,128764,1,0,0:0:0:0:
146,169,128920,6,0,L|70:113,1,77.999997619629
260,104,129233,5,0,0:0:0:0:
336,284,129389,1,0,0:0:0:0:
163,262,129545,1,0,0:0:0:0:
373,162,129701,1,0,0:0:0:0:
401,182,129779,1,0,0:0:0:0:
420,211,129858,5,0,0:0:0:0:
248,361,130014,1,0,0:0:0:0:
249,176,130170,1,0,0:0:0:0:
70,298,130326,1,0,0:0:0:0:
16,94,130483,6,0,P|1:137|6:179,1,77.999997619629
248,93,130795,1,0,0:0:0:0:
96,157,130951,1,0,0:0:0:0:
230,295,131108,2,0,P|282:295|326:267,1,77.999997619629
464,140,131420,5,0,0:0:0:0:
316,72,131576,1,0,0:0:0:0:
481,247,131733,2,0,P|434:230|385:236,1,77.999997619629
240,149,132045,1,0,0:0:0:0:
388,29,132201,1,0,0:0:0:0:
70,92,132358,6,0,P|79:137|105:168,1,77.999997619629
147,301,132670,2,0,P|103:293|66:264,1,77.999997619629
158,97,132983,1,0,0:0:0:0:
280,88,133139,1,0,0:0:0:0:
220,199,133295,2,0,P|212:245|222:282,1,77.999997619629
327,297,133608,2,0,P|362:257|365:218,1,77.999997619629
268,108,133920,5,0,0:0:0:0:
418,85,134076,1,0,0:0:0:0:
457,228,134233,2,0,P|473:276|469:316,1,77.999997619629
324,252,134545,1,0,0:0:0:0:
169,131,134701,1,0,0:0:0:0:
224,316,134858,2,0,P|168:312|128:288,1,77.999997619629
91,179,135170,1,0,0:0:0:0:
396,244,135326,1,0,0:0:0:0:
252,56,135483,6,0,L|188:132,1,77.999997619629
160,248,135795,2,0,L|264:220,1,77.999997619629
368,176,136108,2,0,L|320:104,1,77.999997619629
184,116,136420,1,0,0:0:0:0:
264,250,136576,1,0,0:0:0:0:
116,216,136733,2,0,L|64:144,1,77.999997619629
204,277,137045,2,0,L|241:318,1,38.9999988098145
272,316,137201,5,0,0:0:0:0:
499,220,137358,1,0,0:0:0:0:
230,158,137514,1,0,0:0:0:0:
398,318,137670,1,0,0:0:0:0:
345,134,137826,1,0,0:0:0:0:
240,30,137983,6,0,P|179:35|151:67,1,77.999997619629
224,236,138295,1,0,0:0:0:0:
64,144,138451,1,0,0:0:0:0:
116,324,138608,2,0,P|176:340|220:328,1,77.999997619629
317,276,138920,1,0,0:0:0:0:
212,164,139076,1,0,0:0:0:0:
396,103,139233,6,0,L|340:162,1,77.999997619629
67,321,139545,2,0,L|131:265,1,77.999997619629
265,20,139858,2,0,L|205:76,1,77.999997619629
180,95,140092,1,0,0:0:0:0:
153,118,140170,1,0,0:0:0:0:
45,65,140326,1,0,0:0:0:0:
156,201,140483,6,0,P|204:185|252:197,1,77.999997619629
203,274,140795,1,0,0:0:0:0:
326,149,140951,1,0,0:0:0:0:
411,325,141108,2,0,P|363:301|339:265,1,77.999997619629
439,207,141420,1,0,0:0:0:0:
441,38,141576,1,0,0:0:0:0:
314,132,141733,2,0,P|271:115|250:88,1,77.999997619629
343,29,142045,1,0,0:0:0:0:
288,288,142201,6,0,L|196:248,1,77.999997619629
144,120,142514,1,0,0:0:0:0:
37,207,142670,1,0,0:0:0:0:
128,320,142826,1,0,0:0:0:0:
284,144,142983,6,0,P|316:92|360:76,1,77.999997619629
440,236,143295,1,0,0:0:0:0:
272,320,143451,1,0,0:0:0:0:
153,173,143608,2,0,L|113:77,2,77.999997619629
340,100,144076,1,0,0:0:0:0:
224,248,144233,6,0,P|156:276|120:268,2,77.999997619629
400,188,144701,2,0,P|432:216|448:280,1,77.999997619629,0|4,0:0|0:0,0:0:0:0:
324,104,145014,2,0,P|364:80|416:84,1,77.999997619629,0|4,0:0|0:0,0:0:0:0:
296,236,145326,5,0,0:0:0:0:
61,210,145483,5,0,0:0:0:0:
80,28,145639,1,0,0:0:0:0:
206,212,145795,5,0,0:0:0:0:
23,88,145951,1,0,0:0:0:0:
236,61,146108,5,0,0:0:0:0:
78,242,146264,1,0,0:0:0:0:
295,151,146420,5,0,0:0:0:0:
103,28,146576,1,0,0:0:0:0:
176,221,146733,5,0,0:0:0:0:
311,353,146889,1,0,0:0:0:0:
248,128,147045,5,0,0:0:0:0:
225,357,147201,1,0,0:0:0:0:
346,163,147358,5,0,0:0:0:0:
119,338,147514,1,0,0:0:0:0:
394,240,147670,5,0,0:0:0:0:
32,137,147826,1,0,0:0:0:0:
189,280,147983,5,0,0:0:0:0:
320,56,148139,1,0,0:0:0:0:
424,332,148451,5,0,0:0:0:0:
131,188,148608,1,0,0:0:0:0:
432,52,148920,6,0,L|352:80,1,77.999997619629
400,213,149233,1,0,0:0:0:0:
273,133,149389,2,0,P|245:193|213:205,1,77.999997619629
126,106,149701,1,0,0:0:0:0:
49,262,149858,2,0,L|189:342,1,155.999995239258
368,96,150483,1,0,0:0:0:0:
332,80,152983,5,0,0:0:0:0:
368,160,153139,1,0,0:0:0:0:
320,232,153295,1,0,0:0:0:0:
236,224,153451,2,0,P|200:200|196:144,1,97.50000371933
332,80,153920,1,0,0:0:0:0:
184,40,154076,1,0,0:0:0:0:
176,88,155483,6,0,P|183:136|176:152,1,48.750001859665
104,196,155795,1,0,0:0:0:0:
160,280,155951,2,0,P|192:306|208:308,2,48.750001859665
184,200,156420,5,0,0:0:0:0:
264,168,156576,1,0,0:0:0:0:
204,108,156733,2,0,P|200:64|209:44,1,48.750001859665
296,80,157045,1,0,0:0:0:0:
389,33,157201,2,0,P|391:88|388:100,2,48.750001859665
284,180,157670,5,0,0:0:0:0:
288,296,157826,1,0,0:0:0:0:
188,232,157983,2,0,P|144:208|128:208,1,48.750001859665
24,140,158295,1,0,0:0:0:0:
108,60,158451,2,0,P|156:40|168:40,2,48.750001859665
180,144,158920,1,0,0:0:0:0:
284,80,159076,6,0,P|284:128|296:144,1,48.750001859665
384,100,159389,2,0,B|404:128|404:128|404:164,1,48.750001859665
324,208,159701,2,0,P|328:260|336:268,1,48.750001859665
436,236,160014,2,0,B|448:268|448:268|409:337,1,97.50000371933
150,43,160483,5,0,0:0:0:0:
216,128,160639,2,0,P|240:144|248:124,1,48.750001859665
472,72,160951,1,0,0:0:0:0:
332,260,161108,5,0,0:0:0:0:
332,260,161420,1,0,0:0:0:0:
332,260,161733,1,0,0:0:0:0:
224,192,161889,5,0,0:0:0:0:
332,260,162045,1,0,0:0:0:0:
392,164,162201,1,0,0:0:0:0:
332,260,162358,1,0,0:0:0:0:
224,192,162514,1,0,0:0:0:0:
124,130,162670,1,0,0:0:0:0:
60,324,162983,5,0,0:0:0:0:
60,324,163295,1,0,0:0:0:0:
68,208,163608,6,0,P|60:156|59:155,1,48.750001859665
60,324,163920,1,0,0:0:0:0:
68,208,164233,6,0,P|112:216|128:212,1,48.750001859665
60,324,164545,1,0,0:0:0:0:
236,76,164858,5,0,0:0:0:0:
340,184,165014,1,0,0:0:0:0:
192,204,165170,2,0,P|160:200|132:180,1,48.750001859665
268,280,165483,2,0,P|272:316|281:333,2,48.750001859665
340,148,165951,1,0,0:0:0:0:
204,84,166108,2,0,P|232:44|240:40,1,48.750001859665
380,64,166420,5,0,0:0:0:0:
472,184,166576,1,0,0:0:0:0:
340,256,166733,2,0,P|300:260|288:256,1,48.750001859665
300,108,167045,1,0,0:0:0:0:
177,166,167201,2,0,B|116:166|85:121,1,97.50000371933
183,38,167670,1,0,0:0:0:0:
33,219,167826,1,0,0:0:0:0:
308,292,167983,2,0,P|336:272|364:196,1,97.50000371933
280,156,168451,5,0,0:0:0:0:
320,60,168608,2,0,P|356:64|376:80,1,48.750001859665
430,170,168920,1,0,0:0:0:0:
280,156,169076,1,0,0:0:0:0:
216,76,169233,2,0,P|168:80|120:116,1,97.50000371933
164,204,169701,1,0,0:0:0:0:
264,224,169858,6,0,P|276:260|264:288,1,48.750001859665
264,292,170092,1,0,0:0:0:0:
252,312,170170,1,0,0:0:0:0:
232,328,170248,1,0,0:0:0:0:
212,340,170326,1,0,0:0:0:0:
108,128,170483,5,0,0:0:0:0:
124,140,170561,1,0,0:0:0:0:
140,152,170639,1,0,0:0:0:0:
156,164,170717,1,0,0:0:0:0:
172,176,170795,2,0,L|240:196,1,65
272,96,171108,2,0,P|312:92|360:112,1,65
408,180,171420,1,0,0:0:0:0:
276,312,171576,5,0,0:0:0:0:
292,168,171733,2,0,L|232:204,1,65
112,268,172045,1,0,0:0:0:0:
204,127,172201,1,0,0:0:0:0:
28,124,172358,5,0,0:0:0:0:
149,31,172514,1,0,0:0:0:0:
165,216,172670,1,0,0:0:0:0:
251,145,172826,1,0,0:0:0:0:
275,149,172904,1,0,0:0:0:0:
295,157,172983,6,0,L|359:209,1,65
240,288,173295,2,0,P|272:312|304:312,1,65
420,243,173608,2,0,L|456:175,2,65
291,228,174076,1,0,0:0:0:0:
148,152,174233,1,0,0:0:0:0:
198,298,174389,1,0,0:0:0:0:
60,318,174545,1,0,0:0:0:0:
240,176,174701,1,0,3:0:0:0:
260,156,174779,1,0,3:0:0:0:
280,136,174858,1,0,3:0:0:0:
372,84,175014,1,0,0:0:0:0:
368,284,175170,1,0,0:0:0:0:
244,324,175326,5,0,0:0:0:0:
188,204,175483,1,0,3:0:0:0:
180,180,175561,1,0,3:0:0:0:
172,156,175639,1,0,3:0:0:0:
160,132,175717,1,0,3:0:0:0:
152,108,175795,2,0,B|148:64|148:64|168:36,1,65,0|0,3:0|3:0,3:0:0:0:
312,88,176108,6,0,B|324:128|324:128|300:176,1,65
184,236,176420,1,0,3:0:0:0:
346,305,176576,1,8,3:0:0:0:
176,332,176733,2,0,P|120:320|96:308,2,65
248,192,177201,5,0,0:0:0:0:
280,40,177358,2,0,P|320:36|356:48,1,65
413,188,177670,1,0,0:0:0:0:
296,304,177826,1,0,3:0:0:0:
268,316,177904,1,0,3:0:0:0:
240,308,177983,2,0,P|200:296|180:268,1,65,0|0,3:0|3:0,3:0:0:0:
256,120,178295,1,0,0:0:0:0:
96,232,178608,6,0,L|84:152,1,65,0|8,3:0|3:0,3:0:0:0:
132,88,178920,1,0,0:0:0:0:
208,140,179076,2,0,L|244:72,1,65
346,132,179389,5,0,0:0:0:0:
415,215,179545,1,0,0:0:0:0:
356,301,179701,1,0,0:0:0:0:
248,288,179858,2,0,L|184:252,1,65
44,340,180170,1,0,3:0:0:0:
44,340,180326,6,0,L|36:164,1,155.999995239258,0|0,3:0|0:0,0:0:0:0:
86,69,180795,2,0,P|141:61|182:78,1,77.999997619629
154,192,181108,2,0,P|202:196|246:176,1,77.999997619629
273,72,181420,1,0,0:0:0:0:
273,72,181576,1,0,0:0:0:0:
397,88,181733,5,0,0:0:0:0:
326,190,181889,1,0,0:0:0:0:
450,186,182045,1,0,0:0:0:0:
399,300,182201,2,0,L|455:376,1,77.999997619629
217,270,182514,5,0,0:0:0:0:
74,308,182670,1,0,0:0:0:0:
76,105,182826,2,0,P|100:65|177:33,1,116.999996429443
201,50,183139,1,0,0:0:0:0:
215,192,183295,1,0,0:0:0:0:
333,349,183451,2,0,P|373:301|373:261,1,77.999997619629
344,88,183764,1,0,0:0:0:0:
178,301,183920,2,0,P|138:273|122:225,1,77.999997619629
223,73,184233,5,0,0:0:0:0:
332,259,184389,1,0,0:0:0:0:
102,173,184545,1,0,0:0:0:0:
349,107,184701,1,0,0:0:0:0:
451,295,184858,6,0,L|366:340,1,77.999997619629
102,173,185170,2,0,P|90:225|150:289,1,116.999996429443
216,264,185483,2,0,B|224:208|244:160|244:160|276:184|312:164,1,155.999995239258
360,112,185951,1,0,0:0:0:0:
400,288,186108,5,0,0:0:0:0:
260,176,186264,1,0,0:0:0:0:
436,196,186420,1,0,0:0:0:0:
284,292,186576,1,0,0:0:0:0:
360,112,186733,1,0,0:0:0:0:
184,140,186889,5,0,0:0:0:0:
60,324,187045,1,0,0:0:0:0:
48,104,187201,1,0,0:0:0:0:
198,311,187358,1,0,0:0:0:0:
277,86,187514,5,0,0:0:0:0:
414,323,187670,1,0,0:0:0:0:
186,164,187826,1,0,0:0:0:0:
435,229,187983,2,0,L|499:163,1,77.999997619629
416,74,188295,1,0,0:0:0:0:
92,304,188451,5,0,0:0:0:0:
272,152,188608,1,0,0:0:0:0:
48,212,188764,1,0,0:0:0:0:
224,60,188920,1,0,0:0:0:0:
0,128,189076,1,0,0:0:0:0:
204,244,189233,5,0,0:0:0:0:
400,120,189389,1,0,0:0:0:0:
448,348,189545,1,0,0:0:0:0:
284,180,189701,5,0,0:0:0:0:
88,40,189858,1,0,0:0:0:0:
124,280,190014,1,0,0:0:0:0:
396,312,190170,5,0,0:0:0:0:
172,156,190326,2,0,L|308:60,1,155.999995239258
476,276,190795,5,0,0:0:0:0:
284,64,190951,1,0,0:0:0:0:
384,336,191108,5,0,0:0:0:0:
164,152,191264,1,0,0:0:0:0:
316,376,191420,5,0,0:0:0:0:
44,288,191576,1,0,0:0:0:0:
332,252,191733,5,0,0:0:0:0:
104,72,191889,1,0,0:0:0:0:
236,328,192045,5,0,0:0:0:0:
384,80,192201,1,0,0:0:0:0:
134,235,192358,5,0,0:0:0:0:
219,23,192514,1,0,0:0:0:0:
8,248,192670,5,0,0:0:0:0:
280,336,192826,2,0,L|440:236,1,155.999995239258
244,56,193295,5,0,0:0:0:0:
347,300,193451,1,0,0:0:0:0:
107,55,193608,5,0,0:0:0:0:
198,360,193764,1,0,0:0:0:0:
32,116,193920,5,0,0:0:0:0:
423,236,194076,1,0,0:0:0:0:
50,310,194233,5,0,0:0:0:0:
84,312,194311,1,0,0:0:0:0:
115,292,194389,1,0,0:0:0:0:
145,175,194545,1,0,0:0:0:0:
168,149,194623,1,0,0:0:0:0:
203,140,194701,1,0,0:0:0:0:
464,348,194858,5,0,0:0:0:0:
118,71,195014,1,2,0:0:0:0:
372,220,195326,1,0,0:0:0:0:
372,220,195483,6,0,P|384:168|368:116,1,77.999997619629
196,128,195795,1,0,0:0:0:0:
272,300,195951,5,0,0:0:0:0:
96,236,196108,1,0,0:0:0:0:
141,363,196264,1,0,0:0:0:0:
287,171,196420,6,0,P|307:127|307:83,1,77.999997619629
108,96,196733,5,0,0:0:0:0:
144,280,196889,1,0,0:0:0:0:
244,120,197045,6,0,L|320:60,1,77.999997619629
392,236,197358,5,0,0:0:0:0:
244,352,197514,1,0,0:0:0:0:
188,176,197670,2,0,L|120:124,1,77.999997619629
293,33,197983,6,0,P|262:69|252:107,1,77.999997619629
318,210,198295,2,0,P|262:234|229:232,1,77.999997619629
192,80,198608,1,0,0:0:0:0:
116,248,198764,1,0,0:0:0:0:
301,303,198920,2,0,P|317:322|344:334,1,38.9999988098145
361,330,199076,1,0,0:0:0:0:
470,212,199233,1,0,0:0:0:0:
269,58,199389,1,0,0:0:0:0:
482,212,199545,1,0,0:0:0:0:
164,288,199701,5,0,0:0:0:0:
340,220,199858,1,0,0:0:0:0:
190,190,200014,2,0,P|138:186|114:198,1,77.999997619629
200,103,200326,2,0,P|209:64|220:52,1,38.9999988098145
247,42,200483,2,0,L|328:-7,1,77.999997619629
465,121,200795,1,0,0:0:0:0:
288,168,200951,5,0,0:0:0:0:
348,348,201108,1,0,0:0:0:0:
188,252,201264,1,0,0:0:0:0:
376,240,201420,1,0,0:0:0:0:
218,347,201576,1,0,0:0:0:0:
384,52,201733,2,0,P|328:32|292:48,1,77.999997619629
280,220,202045,1,0,0:0:0:0:
116,240,202201,1,0,0:0:0:0:
236,128,202358,5,0,0:0:0:0:
192,284,202514,1,0,0:0:0:0:
388,232,202670,2,0,P|408:184|408:144,1,77.999997619629
240,48,202983,6,0,L|152:40,1,77.999997619629
54,117,203295,1,0,0:0:0:0:
332,228,203451,2,0,L|404:196,1,77.999997619629
481,273,203764,1,0,0:0:0:0:
176,336,203920,2,0,P|232:312|264:336,1,77.999997619629
349,369,204233,1,0,0:0:0:0:
292,120,204389,5,0,0:0:0:0:
392,296,204545,1,0,0:0:0:0:
196,252,204701,1,0,0:0:0:0:
388,184,204858,2,0,L|408:100,1,77.999997619629
204,76,205170,2,0,L|132:128,1,77.999997619629
268,280,205483,5,0,0:0:0:0:
368,84,205639,1,0,0:0:0:0:
200,220,205795,1,0,0:0:0:0:
400,103,205951,1,0,0:0:0:0:
172,109,206108,2,0,P|128:152|112:201,1,77.999997619629
394,223,206420,2,0,P|429:169|434:135,1,77.999997619629
243,147,206733,5,0,0:0:0:0:
260,348,206889,1,0,0:0:0:0:
76,232,207045,1,0,0:0:0:0:
296,232,207201,1,0,0:0:0:0:
104,336,207358,2,0,L|20:304,1,77.999997619629
80,96,207670,2,0,L|184:64,1,77.999997619629
318,258,207983,6,0,B|279:291|279:291|234:274|186:286,1,116.999996429443
190,261,208295,1,0,0:0:0:0:
412,192,208451,1,0,0:0:0:0:
228,68,208608,2,0,L|160:16,1,77.999997619629
330,20,208920,1,0,0:0:0:0:
104,248,209076,5,0,0:0:0:0:
312,320,209233,1,0,0:0:0:0:
244,112,209389,1,0,0:0:0:0:
28,104,209545,2,0,L|176:168,1,155.999995239258
248,372,210014,1,0,0:0:0:0:
332,172,210170,2,0,P|328:120|308:92,1,77.999997619629
156,140,210483,5,0,0:0:0:0:
8,196,210639,1,0,0:0:0:0:
92,288,210795,2,0,P|156:300|188:288,1,77.999997619629
232,200,211108,1,0,0:0:0:0:
312,344,211264,1,0,0:0:0:0:
340,184,211420,2,0,L|372:104,1,77.999997619629
249,39,211733,6,0,B|205:35|205:35|173:64|125:68,1,116.999996429443
114,81,212045,1,0,0:0:0:0:
205,178,212201,2,0,P|197:216|170:245,1,77.999997619629
38,79,212514,1,0,0:0:0:0:
352,68,212670,2,0,L|360:168,1,77.999997619629
477,210,212983,6,0,B|454:246|454:246|435:253|413:276,1,77.999997619629
189,177,213295,1,0,0:0:0:0:
291,322,213451,1,0,0:0:0:0:
62,318,213608,2,0,P|14:294|-6:250,1,77.999997619629
320,168,213920,5,0,0:0:0:0:
120,100,214076,1,0,0:0:0:0:
240,276,214233,1,0,0:0:0:0:
228,68,214389,1,0,0:0:0:0:
264,76,214467,1,0,0:0:0:0:
296,92,214545,1,0,0:0:0:0:
356,268,214701,5,0,0:0:0:0:
320,284,214779,1,0,0:0:0:0:
280,288,214858,1,0,0:0:0:0:
140,208,215014,5,0,0:0:0:0:
120,180,215092,1,0,0:0:0:0:
116,144,215170,1,0,0:0:0:0:
128,112,215248,1,0,0:0:0:0:
146,91,215326,1,0,0:0:0:0:
167,73,215404,1,0,0:0:0:0:
192,63,215483,6,0,B|244:71|244:71|284:119,1,77.999997619629
316,204,215795,1,0,0:0:0:0:
224,288,215951,1,0,0:0:0:0:
196,168,216108,1,0,0:0:0:0:
288,84,216264,1,0,0:0:0:0:
364,264,216420,2,0,L|440:208,1,77.999997619629
368,32,216733,5,0,0:0:0:0:
288,212,216889,1,0,0:0:0:0:
156,68,217045,1,0,0:0:0:0:
68,240,217201,2,0,L|68:336,2,77.999997619629
244,156,217670,6,0,P|280:140|284:176,1,77.999997619629
176,328,217983,5,0,0:0:0:0:
388,260,218139,1,0,0:0:0:0:
164,240,218295,1,0,0:0:0:0:
372,141,218451,1,0,0:0:0:0:
144,144,218608,2,0,P|96:128|72:92,2,77.999997619629
312,44,219076,5,0,0:0:0:0:
252,232,219233,1,0,0:0:0:0:
172,52,219389,1,0,0:0:0:0:
348,136,219545,1,0,0:0:0:0:
156,168,219701,2,0,L|60:216,2,77.999997619629
348,136,220170,1,0,0:0:0:0:
348,136,220326,1,0,0:0:0:0:
156,100,220483,6,0,L|116:16,1,77.999997619629
368,108,220795,2,0,L|416:20,1,77.999997619629
164,132,221108,2,0,L|112:44,1,77.999997619629
372,132,221420,2,0,L|412:48,1,77.999997619629
172,216,221733,6,0,L|188:312,1,84.4999961318971
471,242,222045,2,0,L|443:322,1,84.4999961318971
156,198,222358,2,0,L|172:290,1,84.4999961318971
497,214,222670,2,0,L|457:314,1,84.4999961318971
164,276,222983,5,0,0:0:0:0:
85,68,223139,1,0,0:0:0:0:
312,326,223451,5,0,0:0:0:0:
500,160,223608,1,0,0:0:0:0:
64,44,223920,5,0,0:0:0:0:
196,119,224076,1,0,0:0:0:0:
61,221,224233,2,0,P|89:261|133:277,2,84.4999961318971
416,91,224701,2,0,L|494:32,1,84.4999961318971
357,19,225014,1,0,0:0:0:0:
434,335,225483,5,0,0:0:0:0:
372,186,225639,1,0,0:0:0:0:
341,343,225795,1,0,0:0:0:0:
465,241,225951,1,0,0:0:0:0:
304,253,226108,2,0,L|232:197,2,84.4999961318971
420,142,226576,5,0,0:0:0:0:
310,31,226733,1,0,0:0:0:0:
283,151,226889,1,0,0:0:0:0:
408,60,227045,2,0,L|496:32,2,84.4999961318971
232,76,227514,1,0,0:0:0:0:
356,200,227670,6,0,P|328:240|288:244,1,84.4999961318971
268,236,227904,1,0,0:0:0:0:
240,224,227983,1,0,0:0:0:0:
156,108,228139,1,0,0:0:0:0:
140,252,228295,1,0,0:0:0:0:
32,160,228451,1,0,0:0:0:0:
176,184,228608,2,0,L|272:148,2,84.4999961318971
208,324,229076,1,0,0:0:0:0:
332,252,229233,6,0,L|400:188,1,84.4999961318971
284,100,229545,1,0,0:0:0:0:
252,288,229701,1,0,0:0:0:0:
152,183,229858,2,0,L|140:100,1,84.4999961318971
348,184,230170,5,0,0:0:0:0:
372,160,230248,1,0,0:0:0:0:
380,128,230326,1,0,0:0:0:0:
240,96,230483,6,0,P|208:140|168:152,1,84.4999961318971
52,88,230795,1,0,0:0:0:0:
68,232,230951,1,0,0:0:0:0:
176,136,231108,1,0,0:0:0:0:
36,164,231264,1,0,0:0:0:0:
164,224,231420,2,0,L|248:280,1,84.4999961318971
443,287,231733,1,0,0:0:0:0:
308,208,231889,1,0,0:0:0:0:
264,72,232045,6,0,L|189:29,2,84.4999961318971
184,192,232514,1,0,0:0:0:0:
392,96,232670,5,0,0:0:0:0:
368,324,232826,1,0,0:0:0:0:
268,124,232983,2,0,B|302:111|302:111|310:70|344:32,1,126.749994197846
379,24,233295,1,0,0:0:0:0:
454,251,233451,1,0,0:0:0:0:
268,124,233764,5,0,0:0:0:0:
128,48,233920,1,0,0:0:0:0:
176,200,234076,1,0,0:0:0:0:
320,268,234233,2,0,P|368:240|380:192,1,84.4999961318971
391,58,234545,1,0,0:0:0:0:
151,18,234701,1,0,0:0:0:0:
286,76,234858,2,0,L|270:137,1,48.750001859665
264,152,235092,1,0,0:0:0:0:
252,180,235170,1,0,0:0:0:0:
236,204,235248,1,0,0:0:0:0:
212,224,235326,1,0,0:0:0:0:
184,236,235404,1,0,0:0:0:0:
156,236,235483,5,0,0:0:0:0:
168,48,235639,1,0,0:0:0:0:
446,24,235951,5,0,0:0:0:0:
365,220,236108,1,0,0:0:0:0:
512,65,236264,1,0,0:0:0:0:
205,219,236576,5,0,0:0:0:0:
322,107,236733,1,0,0:0:0:0:
139,137,236889,2,0,B|110:136|110:136|79:161,1,48.750001859665
57,337,237201,5,0,0:0:0:0:
267,250,237358,1,0,0:0:0:0:
43,266,237514,2,0,B|69:249|69:249|99:258,1,48.750001859665
370,304,237826,5,0,0:0:0:0:
492,146,237983,1,0,0:0:0:0:
286,197,238139,2,0,B|258:185|258:185|234:201,1,48.750001859665
167,324,238451,1,0,0:0:0:0:
96,172,238608,2,0,L|115:116,1,48.750001859665
8,364,239076,5,0,0:0:0:0:
96,172,239233,1,0,0:0:0:0:
125,340,239389,2,0,L|155:389,1,48.750001859665
424,100,239701,5,0,0:0:0:0:
223,108,239858,2,0,P|179:112|159:100,2,48.750001859665
320,48,240326,1,0,0:0:0:0:
344,208,240483,6,0,P|288:228|229:192,1,130
136,112,240951,2,0,L|164:155,1,32.5
136,188,241108,2,0,P|164:208|259:191,1,130
283,39,241576,1,0,0:0:0:0:
399,193,241733,2,0,P|410:229|404:262,1,65
272,296,242045,2,0,P|280:252|270:222,1,65
220,152,242358,5,0,0:0:0:0:
145,281,242514,1,0,0:0:0:0:
78,126,242670,1,0,0:0:0:0:
272,296,242826,1,0,0:0:0:0:
148,62,242983,2,0,L|137:-10,1,65
444,243,243295,1,0,0:0:0:0:
401,304,243451,6,0,L|365:361,1,65
171,173,243764,1,0,0:0:0:0:
213,105,243920,6,0,L|247:36,1,65
368,92,244233,5,0,0:0:0:0:
372,220,244389,1,0,0:0:0:0:
480,127,244545,1,0,0:0:0:0:
448,356,244858,6,0,P|412:316|342:348,1,130
316,116,245483,6,0,B|280:112|248:152|248:152|212:84|128:104|128:200|200:224|200:224|180:236|144:296|196:336,2,422.5
318,218,249858,2,0,P|323:254|306:289,1,65
70,68,250483,6,0,B|118:51|118:51|151:70|208:66,1,130
312,101,251420,1,0,0:0:0:0:
266,215,251733,2,0,B|218:232|218:232|185:213|128:217,1,130
37,148,252670,1,0,0:0:0:0:
24,208,252826,1,0,0:0:0:0:
56,260,252983,2,0,B|104:277|104:277|137:258|194:262,1,130
298,226,253920,2,0,L|275:187,1,32.5
294,137,254233,2,0,P|306:99|384:104,1,130
436,214,255170,5,0,0:0:0:0:
419,273,255326,2,0,B|384:264|384:264|348:268,1,65
302,300,255795,1,0,0:0:0:0:
245,275,255951,2,0,B|210:280|210:280|178:264,1,65
149,217,256420,5,0,0:0:0:0:
126,159,256576,2,0,B|106:132|106:132|73:118,1,65
62,59,257045,1,0,0:0:0:0:
107,17,257201,2,0,L|149:16,1,32.5
223,106,257670,5,0,0:0:0:0:
277,133,257826,1,0,0:0:0:0:
332,104,257983,2,0,P|358:93|402:101,1,65
435,142,258451,1,0,0:0:0:0:
418,201,258608,2,0,P|391:222|349:220,1,65
305,198,259076,1,0,0:0:0:0:
250,227,259233,5,0,0:0:0:0:
332,76,259858,6,0,L|272:116,1,65
387,220,260483,6,0,L|393:185,1,32.5
321,268,260795,2,0,L|314:308,1,32.5
269,208,261108,2,0,L|275:172,1,32.5
200,257,261420,2,0,L|193:292,1,32.5
114,111,261733,6,0,L|153:106,1,32.5
84,194,262045,2,0,L|41:202,1,32.5
157,253,262358,2,0,L|193:244,1,32.5
109,338,262670,2,0,L|72:349,1,32.5
382,230,262983,6,0,L|412:205,1,32.5
305,187,263295,2,0,L|279:208,1,32.5
307,100,263608,2,0,L|343:76,1,32.5
229,71,263920,2,0,L|202:88,1,32.5
284,196,264233,6,0,L|319:220,1,32.5
197,200,264545,2,0,L|166:178,1,32.5
193,281,264858,2,0,L|224:307,1,32.5
115,299,265170,2,0,L|86:275,1,32.5,0|0,3:0|3:0,3:0:0:0:
294,352,265483,6,0,L|263:318,1,32.5
380,336,265795,2,0,L|407:360,1,32.5
370,249,266108,2,0,L|339:223,1,32.5
465,254,266420,2,0,L|495:276,1,32.5
202,126,266733,6,0,L|176:96,1,32.5
154,205,267045,2,0,L|179:231,1,32.5
66,218,267358,2,0,L|37:194,1,32.5
111,304,267670,2,0,L|138:327,1,32.5
314,96,267983,6,0,L|353:82,1,32.5
312,173,268295,2,0,L|277:184,1,32.5
375,228,268608,2,0,L|418:214,1,32.5
348,307,268920,2,0,L|315:318,1,32.5
117,194,269233,6,0,L|95:162,1,32.5
197,202,269545,2,0,L|215:228,1,32.5
261,149,269858,2,0,L|241:115,1,32.5
342,179,270170,2,0,L|360:209,1,32.5
416,328,270483,6,0,L|432:308,1,16.25,2|0,0:0|0:0,0:0:0:0:
192,76,271733,2,0,L|200:104,1,16.25,2|0,0:0|0:0,0:0:0:0:
216,296,272983,2,0,L|200:280,1,16.25,2|0,0:0|0:0,0:0:0:0:
376,92,274233,2,0,L|360:72,1,16.25,2|0,0:0|0:0,0:0:0:0:
256,192,275483,5,2,2:2:0:0:
256,192,292983,5,2,0:0:0:0:
256,192,293295,12,0,295170,0:0:0:0:
256,192,295483,6,0,P|220:168|168:168,1,77.999997619629
169,335,295795,1,0,0:0:0:0:
48,175,295951,1,0,0:0:0:0:
335,74,296108,2,0,L|271:118,1,77.999997619629
79,256,296420,2,0,P|120:263|135:260,1,38.9999988098145
141,256,296576,1,0,0:0:0:0:
108,60,296733,5,0,0:0:0:0:
249,122,296889,1,0,0:0:0:0:
173,257,297045,2,0,P|229:281|269:269,1,77.999997619629
391,108,297358,5,0,0:0:0:0:
426,314,297514,1,0,0:0:0:0:
238,178,297670,2,0,P|193:161|160:169,1,77.999997619629
74,48,297983,6,0,B|58:82|58:82|76:121|43:166,1,116.999996429443
34,193,298295,1,0,0:0:0:0:
288,242,298451,1,0,0:0:0:0:
226,111,298608,2,0,P|274:91|322:107,1,77.999997619629
421,214,298920,1,0,0:0:0:0:
310,332,299076,1,0,0:0:0:0:
304,67,299233,6,0,B|278:37|278:37|232:50|186:37,1,116.999996429443
162,51,299545,1,0,0:0:0:0:
237,163,299701,5,0,0:0:0:0:
147,289,299858,1,0,0:0:0:0:
77,26,300014,1,0,0:0:0:0:
136,161,300170,1,0,0:0:0:0:
136,161,300326,2,0,B|93:174|93:174|75:214|27:238,1,116.999996429443
29,241,300639,1,0,0:0:0:0:
175,227,300795,5,0,0:0:0:0:
331,324,300951,1,0,0:0:0:0:
200,123,301108,1,0,0:0:0:0:
175,228,301264,2,0,B|145:219|145:219|136:177|111:135,1,116.999996429443
97,110,301576,1,0,0:0:0:0:
360,215,301733,6,0,L|267:177,1,77.999997619629
290,86,302045,1,0,0:0:0:0:
172,247,302201,1,0,0:0:0:0:
244,17,302358,2,0,P|308:1|336:17,1,77.999997619629
426,104,302670,1,0,0:0:0:0:
328,253,302826,1,0,0:0:0:0:
112,222,302983,6,0,P|136:266|180:286,1,77.999997619629
60,344,303295,1,0,0:0:0:0:
176,168,303451,2,0,P|204:200|252:208,1,77.999997619629
348,112,303764,5,0,0:0:0:0:
206,112,303920,2,0,L|252:176,1,77.999997619629
374,307,304232,1,0,0:0:0:0:
135,25,304389,1,0,0:0:0:0:
108,216,304545,5,0,0:0:0:0:
228,378,304701,1,0,0:0:0:0:
46,337,304858,2,0,L|126:289,2,77.999997619629
188,248,305326,5,0,0:0:0:0:
145,64,305483,2,0,B|167:40|167:40|213:51|261:41,1,116.999996429443
277,54,305795,1,0,0:0:0:0:
302,320,305951,1,0,0:0:0:0:
232,130,306108,1,0,0:0:0:0:
398,306,306264,1,0,0:0:0:0:
153,273,306420,2,0,B|130:253|130:253|126:214|126:214|114:167,1,116.999996429443
92,143,306733,1,0,0:0:0:0:
305,191,306889,5,0,0:0:0:0:
140,36,307045,1,0,0:0:0:0:
224,288,307201,1,0,0:0:0:0:
59,250,307358,2,0,P|70:213|95:184,1,77.999997619629
301,15,307670,1,0,0:0:0:0:
168,146,307826,1,0,0:0:0:0:
382,254,307983,6,0,P|420:226|430:177,1,77.999997619629
274,123,308295,2,0,P|241:143|223:178,1,77.999997619629
404,332,308607,1,0,0:0:0:0:
512,152,308764,1,0,0:0:0:0:
248,326,308920,5,0,0:0:0:0:
503,234,309076,1,0,0:0:0:0:
283,178,309233,2,0,P|247:138|239:102,2,77.999997619629
103,140,309701,1,0,0:0:0:0:
65,283,309858,2,0,P|129:291|157:271,2,77.999997619629
219,104,310326,6,0,L|255:132,1,38.9999988098145
308,112,310483,2,0,P|316:168|308:200,1,77.999997619629
125,221,310795,1,0,0:0:0:0:
80,376,310951,1,0,0:0:0:0:
339,311,311108,2,0,P|387:259|381:227,1,77.999997619629
111,64,311420,1,0,0:0:0:0:
254,163,311576,1,0,0:0:0:0:
108,265,311733,2,0,P|76:301|36:309,1,77.999997619629
240,344,312045,1,0,0:0:0:0:
438,262,312201,1,0,0:0:0:0:
170,200,312358,2,0,P|158:147|182:107,2,77.999997619629
400,117,312826,5,0,0:0:0:0:
367,297,312983,2,0,L|323:234,1,77.999997619629
216,61,313295,1,0,0:0:0:0:
212,262,313451,1,0,0:0:0:0:
150,127,313608,2,0,L|81:93,1,77.999997619629
101,210,313920,1,0,0:0:0:0:
252,346,314076,1,0,0:0:0:0:
375,173,314233,6,0,L|310:113,1,77.999997619629
46,41,314545,2,0,L|118:106,1,77.999997619629
174,379,314858,2,0,L|112:325,1,77.999997619629
280,36,315170,5,0,0:0:0:0:
372,164,315326,5,0,0:0:0:0:
352,184,315404,1,0,0:0:0:0:
332,200,315483,2,0,P|272:208|248:192,1,77.999997619629
184,37,315795,1,0,0:0:0:0:
177,289,315951,1,0,0:0:0:0:
11,48,316108,1,0,0:0:0:0:
287,194,316264,1,0,0:0:0:0:
36,207,316420,2,0,P|8:247|12:287,1,77.999997619629
400,300,316733,6,0,L|421:216,1,77.999997619629
204,160,317045,2,0,P|206:199|227:232,1,77.999997619629
361,384,317357,1,0,0:0:0:0:
116,128,317514,1,0,0:0:0:0:
414,149,317670,1,0,0:0:0:0:
264,50,317826,1,0,0:0:0:0:
158,219,317983,6,0,L|211:286,1,77.999997619629
92,358,318295,1,0,0:0:0:0:
332,144,318451,1,0,0:0:0:0:
331,373,318608,2,0,P|399:377|423:361,2,77.999997619629
182,153,319076,1,0,0:0:0:0:
392,84,319233,5,0,0:0:0:0:
294,369,319389,1,0,0:0:0:0:
452,291,319545,2,0,P|442:254|422:221,1,77.999997619629
215,25,319857,1,0,0:0:0:0:
53,100,320014,2,0,P|77:48|107:34,1,77.999997619629
263,333,320326,1,0,0:0:0:0:
32,348,320483,5,0,0:0:0:0:
137,158,320639,1,0,0:0:0:0:
145,369,320795,5,0,0:0:0:0:
282,166,320951,1,0,0:0:0:0:
291,375,321108,5,0,0:0:0:0:
215,121,321264,1,0,0:0:0:0:
174,371,321420,5,0,0:0:0:0:
117,92,321576,1,0,0:0:0:0:
33,368,321733,5,0,0:0:0:0:
189,55,321889,1,0,0:0:0:0:
151,378,322045,5,0,0:0:0:0:
290,52,322201,1,0,0:0:0:0:
285,382,322358,5,0,0:0:0:0:
170,39,322514,1,0,0:0:0:0:
190,378,322670,5,0,0:0:0:0:
76,28,322826,1,0,0:0:0:0:
80,303,322983,5,0,0:0:0:0:
223,87,323139,1,0,0:0:0:0:
333,312,323451,5,0,0:0:0:0:
93,92,323608,1,0,0:0:0:0:
440,80,323920,5,0,0:0:0:0:
436,236,324076,1,0,0:0:0:0:
290,149,324233,2,0,P|242:149|214:205,1,104
314,285,324701,1,0,0:0:0:0:
222,342,324858,1,0,0:0:0:0:
116,272,325014,2,0,L|106:213,1,52
275,191,325326,1,0,0:0:0:0:
275,191,325483,2,0,P|303:135|267:47,1,156
165,117,326108,1,0,0:0:0:0:
176,304,326576,5,0,0:0:0:0:
336,252,326733,1,0,0:0:0:0:
72,171,327045,5,0,0:0:0:0:
231,52,327201,1,0,0:0:0:0:
183,322,327514,5,0,0:0:0:0:
318,50,327670,1,0,0:0:0:0:
422,336,327826,1,2,0:0:0:0:
