osu file format v14

[General]
AudioFilename: audio.mp3
AudioLeadIn: 0
PreviewTime: 80390
Countdown: 1
SampleSet: Soft
StackLeniency: 0.3
Mode: 0
LetterboxInBreaks: 0
WidescreenStoryboard: 0

[Editor]
DistanceSpacing: 0.5
BeatDivisor: 4
GridSize: 32
TimelineZoom: 1.4

[Metadata]
Title:Great Distance
TitleUnicode:Great Distance
Artist:ryo (supercell) feat.chelly
ArtistUnicode:ryo (supercell) feat.chelly
Creator:shadow_neko
Version:Prodigious
Source:Bravely second: End layer
Tags:Game OP opening theme song
BeatmapID:2392162
BeatmapSetID:1145769

[Difficulty]
HPDrainRate:7
CircleSize:4.1
OverallDifficulty:8
ApproachRate:9.6
SliderMultiplier:1.8
SliderTickRate:1

[Events]
//Background and Video events
0,0,"737400.jpg",0,0
//Break Periods
//Storyboard Layer 0 (Background)
//Storyboard Layer 1 (Fail)
//Storyboard Layer 2 (Pass)
//Storyboard Layer 3 (Foreground)
//Storyboard Layer 4 (Overlay)
//Storyboard Sound Samples

[TimingPoints]
670,304.568527918782,4,2,0,100,1,0
670,-166.666666666667,4,2,0,20,0,0
12091,-100,4,2,0,80,0,0
27472,-125,4,2,0,60,0,0
37218,-125,4,2,0,80,0,0
42091,-166.666666666667,4,2,0,60,0,0
43233,-166.666666666667,4,2,0,5,0,0
43309,-166.666666666667,4,2,0,60,0,0
44451,-166.666666666667,4,2,0,5,0,0
44527,-100,4,2,0,60,0,0
46964,-100,4,2,0,80,0,0
68817,-100,4,2,0,5,0,0
68893,-100,4,2,0,80,0,0
70035,-100,4,2,0,5,0,0
70111,-100,4,2,0,80,0,0
71558,-100,4,2,0,5,0,0
71634,-100,4,2,0,80,0,0
71862,-100,4,2,0,5,0,0
71939,-100,4,2,0,80,0,0
80466,-125,4,2,0,80,0,0
80847,-125,4,2,0,5,0,0
80923,-76.9230769230769,4,2,0,100,0,1
89680,-76.9230769230769,4,2,0,5,0,1
89756,-76.9230769230769,4,2,0,100,0,1
89984,-76.9230769230769,4,2,0,5,0,1
90060,-76.9230769230769,4,2,0,100,0,1
90289,-76.9230769230769,4,2,0,5,0,1
90365,-76.9230769230769,4,2,0,100,0,1
102852,-125,4,2,0,60,0,0
105137,-100,4,2,0,80,0,0
117624,-166.666666666667,4,2,0,60,0,0
118766,-166.666666666667,4,2,0,5,0,0
118842,-166.666666666667,4,2,0,60,0,0
120060,-100,4,2,0,80,0,0
120289,-100,4,2,0,5,0,0
120365,-100,4,2,0,80,0,0
144350,-100,4,2,0,5,0,0
144426,-100,4,2,0,80,0,0
145568,-100,4,2,0,5,0,0
145644,-100,4,2,0,80,0,0
149527,-100,4,2,0,5,0,0
149604,-100,4,2,0,80,0,0
149832,-100,4,2,0,5,0,0
149908,-100,4,2,0,80,0,0
151964,-100,4,2,0,5,0,0
152040,-100,4,2,0,80,0,0
152268,-100,4,2,0,5,0,0
152345,-100,4,2,0,80,0,0
155999,-125,4,2,0,80,0,0
156380,-125,4,2,0,5,0,0
156456,-76.9230769230769,4,2,0,100,0,1
165213,-76.9230769230769,4,2,0,5,0,1
165289,-76.9230769230769,4,2,0,100,0,1
165517,-76.9230769230769,4,2,0,5,0,1
165593,-76.9230769230769,4,2,0,100,0,1
165822,-76.9230769230769,4,2,0,5,0,1
165898,-76.9230769230769,4,2,0,100,0,1
175949,-76.9230769230769,4,2,0,100,0,0
185162,-76.9230769230769,4,2,0,5,0,0
185238,-76.9230769230769,4,2,0,100,0,0
187294,-76.9230769230769,4,2,0,5,0,0
187370,-76.9230769230769,4,2,0,100,0,0
188284,-100,4,2,0,80,0,0
193157,-76.9230769230769,4,2,0,100,0,0
215162,-76.9230769230769,4,2,0,5,0,0
215238,-76.9230769230769,4,2,0,100,0,0
222091,-125,4,2,0,100,0,0
222319,-125,4,2,0,5,0,0
222395,-76.9230769230769,4,2,0,100,0,0
222472,-76.9230769230769,4,2,0,5,0,0
222548,-76.9230769230769,4,2,0,100,0,0
222776,-76.9230769230769,4,2,0,5,0,0
222852,-76.9230769230769,4,2,0,100,0,0
222928,-76.9230769230769,4,2,0,5,0,0
223005,-76.9230769230769,4,2,0,100,0,0
223233,-76.9230769230769,4,2,0,5,0,0
223309,-76.9230769230769,4,2,0,100,0,0
223385,-76.9230769230769,4,2,0,5,0,0
223461,-76.9230769230769,4,2,0,100,0,0
224223,-125,4,2,0,100,0,0
224604,-125,4,2,0,5,0,0
224680,-76.9230769230769,4,2,0,100,0,1
233436,-76.9230769230769,4,2,0,5,0,1
233512,-76.9230769230769,4,2,0,100,0,1
233741,-76.9230769230769,4,2,0,5,0,1
233817,-76.9230769230769,4,2,0,100,0,1
234045,-76.9230769230769,4,2,0,5,0,1
234121,-76.9230769230769,4,2,0,100,0,1
241812,-76.9230769230769,4,2,0,5,0,1
241888,-76.9230769230769,4,2,0,100,0,1
247370,-76.9230769230769,4,2,0,5,0,1
247865,-166.666666666667,4,2,0,60,0,0
250720,-166.666666666667,4,2,0,5,0,0
250873,-100,4,2,0,80,0,0
251482,-100,4,2,0,100,0,0
261228,-66.6666666666667,4,2,0,100,0,0
261380,-66.6666666666667,4,2,0,5,0,0
261532,-66.6666666666667,4,2,0,100,0,0
268461,-100,4,2,0,5,0,0
268538,-100,4,2,0,100,0,0

[Colours]
Combo1 : 250,196,135
Combo2 : 97,152,243
Combo3 : 184,134,251
Combo4 : 247,142,249

[HitObjects]
80,256,670,6,0,P|156:264|200:196,1,161.999995056153
134,88,1431,6,0,L|75:124,2,53.9999983520508
221,127,1888,2,0,P|257:63|341:68,1,161.999995056153
303,191,2649,6,0,L|300:131,2,53.9999983520508
353,273,3106,2,0,P|293:222|221:247,1,161.999995056153
246,374,3867,6,0,L|231:299,1,53.9999983520508
221,246,4172,1,0,0:0:0:0:
207,172,4324,2,0,L|244:102,2,53.9999983520508
137,203,4781,2,0,L|100:273,2,53.9999983520508
207,172,5238,2,0,L|244:102,1,53.9999983520508
302,93,5543,5,0,0:0:0:0:
146,134,5999,1,0,0:0:0:0:
261,249,6456,1,0,0:0:0:0:
302,93,6913,2,0,L|354:78,2,53.9999983520508
224,114,7370,1,0,0:0:0:0:
146,134,7522,2,0,L|93:119,2,53.9999983520508
202,192,7979,5,0,0:0:0:0:
224,114,8131,1,0,0:0:0:0:
244,35,8283,1,0,0:0:0:0:
359,152,8436,1,0,0:0:0:0:
280,171,8588,1,0,0:0:0:0:
202,192,8740,1,0,0:0:0:0:
303,94,8893,1,0,0:0:0:0:
256,192,8969,12,0,11634,0:0:0:0:
130,61,12091,5,0,0:0:0:0:
130,61,12167,1,0,0:0:0:0:
130,61,12243,1,0,0:0:0:0:
102,273,12395,1,0,0:0:0:0:
261,128,12548,1,0,0:0:0:0:
233,340,12700,6,0,P|244:255|328:241,1,180
325,334,13157,1,0,0:0:0:0:
102,273,13309,1,0,0:0:0:0:
111,233,13385,1,0,0:0:0:0:
121,194,13461,2,0,L|145:100,1,90
288,16,13766,1,0,0:0:0:0:
66,123,13918,6,0,P|88:50|199:54,1,180
200,268,14375,2,0,L|171:182,1,90
157,144,14604,1,0,0:0:0:0:
143,106,14680,1,0,0:0:0:0:
93,312,14832,1,0,0:0:0:0:
272,192,14984,1,0,0:0:0:0:
66,123,15137,6,0,P|88:50|199:54,1,180
214,305,15593,1,0,0:0:0:0:
337,64,15746,1,0,0:0:0:0:
337,64,15822,1,0,0:0:0:0:
337,64,15898,1,0,0:0:0:0:
98,166,16050,1,0,0:0:0:0:
298,312,16202,1,0,0:0:0:0:
221,23,16355,2,0,L|213:138,1,90
77,297,16659,5,0,0:0:0:0:
266,215,16812,1,0,0:0:0:0:
109,117,16964,1,0,0:0:0:0:
195,312,17116,1,0,0:0:0:0:
228,329,17192,1,0,0:0:0:0:
266,335,17268,1,0,0:0:0:0:
303,329,17344,1,0,0:0:0:0:
337,311,17420,1,0,0:0:0:0:
214,112,17573,1,0,0:0:0:0:
77,297,17725,5,0,0:0:0:0:
266,215,17878,1,0,0:0:0:0:
271,177,17954,1,0,0:0:0:0:
277,139,18030,1,0,0:0:0:0:
283,101,18106,1,0,0:0:0:0:
289,63,18182,1,0,0:0:0:0:
78,133,18334,1,0,0:0:0:0:
195,312,18487,1,0,0:0:0:0:
190,274,18563,1,0,0:0:0:0:
184,236,18639,1,0,0:0:0:0:
221,23,18791,1,0,0:0:0:0:
112,249,18944,5,0,0:0:0:0:
116,204,19020,1,0,0:0:0:0:
145,171,19096,1,0,0:0:0:0:
188,160,19172,1,0,0:0:0:0:
229,175,19248,1,0,0:0:0:0:
270,190,19324,1,0,0:0:0:0:
313,179,19400,1,0,0:0:0:0:
342,146,19476,1,0,0:0:0:0:
347,102,19553,2,0,L|330:38,3,45
408,187,19857,2,0,L|425:123,3,45
347,274,20162,5,0,0:0:0:0:
320,238,20238,1,0,0:0:0:0:
278,222,20314,1,0,0:0:0:0:
234,229,20390,1,0,0:0:0:0:
201,258,20466,2,0,L|185:305,1,45
75,203,20619,5,0,0:0:0:0:
101,167,20695,1,0,0:0:0:0:
143,151,20771,1,0,0:0:0:0:
187,158,20847,1,0,0:0:0:0:
220,187,20923,2,0,L|236:233,1,45
346,131,21076,5,0,0:0:0:0:
320,95,21152,1,0,0:0:0:0:
278,79,21228,1,0,0:0:0:0:
234,86,21304,1,0,0:0:0:0:
201,115,21380,6,0,L|163:233,1,90
257,11,21685,1,0,0:0:0:0:
73,128,21837,1,0,0:0:0:0:
259,279,21989,1,0,0:0:0:0:
144,36,22142,1,0,0:0:0:0:
103,280,22294,1,0,0:0:0:0:
292,102,22446,1,0,0:0:0:0:
290,93,22751,5,0,0:0:0:0:
306,308,22903,1,0,0:0:0:0:
311,315,23208,5,0,0:0:0:0:
163,158,23360,1,0,0:0:0:0:
156,163,23664,5,0,0:0:0:0:
330,33,23817,1,0,0:0:0:0:
329,24,24121,5,0,0:0:0:0:
345,239,24274,1,0,0:0:0:0:
155,154,24426,1,0,0:0:0:0:
140,111,24502,1,0,0:0:0:0:
147,68,24578,1,0,0:0:0:0:
176,33,24654,1,0,0:0:0:0:
217,17,24730,1,0,0:0:0:0:
236,214,24883,6,0,P|189:255|82:222,1,180
294,141,25340,2,0,B|319:164|319:164|330:232,1,90
200,135,25644,2,0,P|212:93|257:54,1,90
398,22,25949,2,0,P|386:64|341:103,1,90
200,135,26253,5,0,0:0:0:0:
253,356,26406,1,0,0:0:0:0:
253,356,26558,1,0,0:0:0:0:
243,60,26710,5,0,0:0:0:0:
190,281,26863,1,0,0:0:0:0:
190,281,27015,1,0,0:0:0:0:
169,5,27167,5,0,0:0:0:0:
241,220,27320,1,0,0:0:0:0:
84,179,27472,6,0,L|115:96,1,72
233,51,27776,2,0,P|204:77|165:83,1,72
241,220,28081,2,0,P|232:181|247:145,1,72
315,285,28385,2,0,P|286:311|246:317,1,72
335,187,28690,6,0,L|404:215,1,72
243,151,28994,2,0,L|315:121,1,72
151,187,29299,2,0,L|220:215,1,72
59,151,29604,2,0,L|128:123,1,72
194,306,29908,5,0,0:0:0:0:
275,51,30060,1,0,0:0:0:0:
151,187,30213,2,0,P|129:158|129:111,1,72
179,2,30517,2,0,P|164:35|124:59,1,72
5,70,30822,2,0,P|41:65|81:88,1,72
144,258,31126,6,0,L|153:158,1,72
225,330,31431,2,0,L|218:258,1,72
292,258,31735,2,0,L|301:158,1,72
373,330,32040,2,0,L|364:230,1,72
445,75,32345,5,0,0:0:0:0:
298,186,32497,1,0,0:0:0:0:
467,258,32649,2,0,P|448:228|441:191,1,72
445,75,32954,2,0,P|428:106|399:131,1,72
298,186,33258,2,0,P|333:184|369:196,1,72
215,274,33563,6,0,L|200:186,1,72
122,195,33867,2,0,L|167:117,1,72
101,74,34172,2,0,L|185:43,1,72
235,100,34477,2,0,L|280:22,1,72
285,284,34781,5,0,0:0:0:0:
271,37,34933,1,0,0:0:0:0:
359,188,35086,2,0,P|396:187|433:167,1,72
283,128,35390,2,0,P|265:160|263:202,1,72
373,91,35695,2,0,P|353:60|317:37,1,72
363,285,35999,5,0,0:0:0:0:
325,40,36152,1,0,0:0:0:0:
262,195,36304,2,0,P|227:206|185:200,1,72
82,106,36609,2,0,P|109:129|125:168,1,72
93,304,36913,2,0,P|100:267|126:234,1,72
283,128,37218,5,0,0:0:0:0:
114,29,37370,1,0,0:0:0:0:
184,305,37523,1,0,0:0:0:0:
224,37,37675,1,0,0:0:0:0:
119,239,37827,2,0,P|135:208|168:183,1,72
339,222,38131,2,0,P|304:223|266:207,1,72
224,37,38436,5,0,0:0:0:0:
184,305,38588,1,0,0:0:0:0:
348,142,38741,1,0,0:0:0:0:
160,98,38893,1,0,0:0:0:0:
276,297,39045,1,0,0:0:0:0:
345,40,39198,1,0,0:0:0:0:
186,218,39350,1,0,0:0:0:0:
407,177,39502,1,0,0:0:0:0:
224,37,39654,6,0,L|238:124,1,72
407,177,39959,1,0,0:0:0:0:
154,115,40111,6,0,L|168:202,1,72
407,177,40416,1,0,0:0:0:0:
84,193,40568,6,0,L|98:280,1,72
407,177,40873,6,0,L|393:90,2,72
326,304,41329,1,0,0:0:0:0:
295,104,41482,2,0,L|309:17,2,72
214,231,41939,1,0,0:0:0:0:
143,98,42091,6,0,B|170:67|219:53|261:68|295:104|295:104|281:59|281:59|328:90|369:88|417:73|449:11,1,413.999987365723
435,34,43309,2,0,B|408:77|402:114|390:188|419:213|469:210|505:183|500:118|466:80|417:101|401:148|421:172|377:190|326:194|279:173,1,404.999987640381
281,170,44527,6,0,L|294:290,1,90
333,67,44832,1,0,0:0:0:0:
199,129,44984,1,0,0:0:0:0:
368,189,45137,1,0,0:0:0:0:
256,36,45289,1,0,0:0:0:0:
290,259,45441,1,0,0:0:0:0:
406,66,45593,5,0,0:0:0:0:
406,66,45670,1,0,0:0:0:0:
406,66,45746,1,0,0:0:0:0:
214,206,45898,5,0,0:0:0:0:
214,206,45974,1,0,0:0:0:0:
214,206,46050,1,0,0:0:0:0:
352,326,46202,5,0,0:0:0:0:
268,90,46355,1,0,0:0:0:0:
224,280,46507,1,0,0:0:0:0:
406,66,46659,1,0,0:0:0:0:
177,139,46812,1,0,0:0:0:0:
162,92,46888,1,0,0:0:0:0:
172,43,46964,6,0,L|263:13,1,90
224,280,47268,1,0,0:0:0:0:
177,139,47421,1,0,0:0:0:0:
304,213,47573,2,0,P|326:258|322:311,1,90
157,213,47878,5,0,0:0:0:0:
231,86,48030,2,0,P|276:64|328:67,1,90
231,233,48334,5,0,0:0:0:0:
104,159,48487,2,0,P|82:114|85:61,1,90
251,159,48791,5,0,0:0:0:0:
177,286,48944,2,0,P|132:308|79:304,2,90
251,159,49400,5,0,0:0:0:0:
148,52,49553,1,0,0:0:0:0:
119,236,49705,1,0,0:0:0:0:
265,51,49857,1,0,0:0:0:0:
78,154,50010,2,0,L|192:135,1,90
265,51,50314,5,0,0:0:0:0:
204,254,50467,2,0,L|271:159,1,90
265,51,50770,5,0,0:0:0:0:
365,237,50923,2,0,L|346:123,2,90
279,334,51380,1,0,0:0:0:0:
246,210,51532,1,0,0:0:0:0:
160,307,51685,2,0,L|138:224,1,45
127,183,51837,5,0,0:0:0:0:
222,47,51989,1,0,0:0:0:0:
246,210,52142,1,0,0:0:0:0:
146,78,52294,1,0,0:0:0:0:
274,124,52446,2,0,P|318:120|353:93,1,90
146,78,52751,5,0,0:0:0:0:
42,163,52903,2,0,P|23:200|28:247,1,90
146,78,53208,5,0,0:0:0:0:
64,47,53360,1,0,0:0:0:0:
162,165,53512,1,0,0:0:0:0:
217,22,53664,2,0,L|115:104,1,90
42,163,53969,5,0,0:0:0:0:
170,315,54121,1,0,0:0:0:0:
170,315,54197,1,0,0:0:0:0:
170,315,54274,1,0,0:0:0:0:
146,78,54426,1,0,0:0:0:0:
71,271,54578,1,0,0:0:0:0:
254,159,54730,1,0,0:0:0:0:
64,47,54883,2,0,L|83:169,1,90
71,271,55187,5,0,0:0:0:0:
108,233,55263,1,0,0:0:0:0:
161,224,55339,1,0,0:0:0:0:
209,247,55415,1,0,0:0:0:0:
235,294,55491,1,0,0:0:0:0:
77,135,55644,6,0,L|68:69,2,45
235,294,55949,6,0,L|226:360,2,45
305,89,56253,5,0,0:0:0:0:
108,233,56406,1,0,0:0:0:0:
335,316,56558,1,0,0:0:0:0:
222,101,56710,6,0,P|227:58|255:22,1,90
279,199,57015,2,0,P|239:216|194:209,1,90
89,108,57319,1,0,0:0:0:0:
141,296,57472,1,0,0:0:0:0:
226,122,57624,2,0,P|265:104|310:111,1,90
374,245,57928,5,0,0:0:0:0:
321,23,58081,1,0,0:0:0:0:
279,199,58233,1,0,0:0:0:0:
417,73,58385,1,0,0:0:0:0:
226,122,58538,2,0,P|270:128|310:110,1,90
114,92,58842,2,0,P|154:74|198:81,1,90
255,345,59147,5,0,0:0:0:0:
215,312,59224,1,0,0:0:0:0:
206,262,59300,1,0,0:0:0:0:
231,217,59376,1,0,0:0:0:0:
279,199,59452,1,0,0:0:0:0:
329,201,59527,1,0,0:0:0:0:
373,176,59604,1,0,0:0:0:0:
398,132,59680,1,0,0:0:0:0:
396,81,59756,1,0,0:0:0:0:
368,39,59832,1,0,0:0:0:0:
321,18,59908,1,0,0:0:0:0:
271,25,59984,1,0,0:0:0:0:
231,57,60060,1,0,0:0:0:0:
214,104,60137,1,0,0:0:0:0:
180,141,60213,1,0,0:0:0:0:
131,149,60289,1,0,0:0:0:0:
85,126,60365,6,0,L|122:81,2,45
46,237,60593,5,0,0:0:0:0:
40,220,60670,2,0,L|20:165,2,45
133,297,60898,5,0,0:0:0:0:
132,315,60975,2,0,L|128:373,1,45
180,141,61126,1,0,0:0:0:0:
46,237,61279,1,0,0:0:0:0:
206,328,61431,1,0,0:0:0:0:
113,91,61583,5,0,0:0:0:0:
132,315,61735,2,0,L|157:209,1,90
113,91,62040,5,0,0:0:0:0:
284,234,62192,2,0,L|226:141,1,90
113,91,62497,5,0,0:0:0:0:
335,71,62649,2,0,L|229:46,1,90
353,203,62954,5,0,0:0:0:0:
461,65,63106,1,0,0:0:0:0:
438,281,63258,5,0,0:0:0:0:
386,120,63411,1,0,0:0:0:0:
362,337,63563,5,0,0:0:0:0:
467,159,63715,2,0,P|408:208|347:201,1,135
315,175,64020,5,0,0:0:0:0:
272,336,64172,2,0,L|273:210,1,90
228,100,64477,5,0,0:0:0:0:
185,261,64629,2,0,L|186:135,1,90
141,25,64934,5,0,0:0:0:0:
98,186,65086,2,0,L|99:60,1,90
141,25,65314,1,0,0:0:0:0:
198,34,65390,1,0,0:0:0:0:
234,80,65466,1,0,0:0:0:0:
226,139,65543,1,0,0:0:0:0:
286,8,65695,5,0,0:0:0:0:
150,110,65847,1,0,0:0:0:0:
255,243,65999,5,0,0:0:0:0:
198,34,66152,1,0,0:0:0:0:
182,275,66304,1,0,0:0:0:0:
315,78,66456,5,0,0:0:0:0:
96,168,66609,2,0,P|128:187|197:174,1,90
150,110,66913,5,0,0:0:0:0:
239,327,67065,2,0,P|257:295|244:226,1,90
182,275,67370,5,0,0:0:0:0:
399,186,67522,2,0,P|367:167|298:180,1,90
347,243,67827,5,0,0:0:0:0:
258,26,67979,1,0,0:0:0:0:
179,184,68131,5,0,0:0:0:0:
396,95,68283,1,0,0:0:0:0:
210,95,68436,5,0,0:0:0:0:
239,327,68588,2,0,P|257:295|211:200,1,135
179,184,68893,5,0,0:0:0:0:
347,243,69045,2,0,P|384:241|434:193,1,90
315,69,69350,5,0,0:0:0:0:
179,184,69502,2,0,P|162:222|176:278,1,90
347,243,69807,2,0,P|332:187|266:146,1,135
219,152,70111,5,0,0:0:0:0:
239,327,70263,1,0,0:0:0:0:
315,69,70416,1,0,0:0:0:0:
127,280,70568,1,0,0:0:0:0:
170,268,70644,1,0,0:0:0:0:
214,257,70720,1,0,0:0:0:0:
133,123,70873,2,0,P|206:152|243:72,1,180
61,251,71329,6,0,P|76:333|145:352,1,135
160,345,71634,2,0,P|216:314|287:339,1,135
305,370,71939,2,0,L|314:321,1,45
398,181,72091,1,0,0:0:0:0:
247,243,72243,1,0,0:0:0:0:
396,344,72395,6,0,B|387:271|387:271|394:244,1,90
472,132,72700,2,0,B|413:176|413:176|386:183,1,90
250,171,73005,6,0,P|272:208|268:256,1,90
149,123,73309,2,0,P|170:85|213:64,1,90
151,259,73614,1,0,0:0:0:0:
314,131,73766,6,0,P|374:150|399:236,1,135
390,254,74071,2,0,P|323:238|271:273,1,135
256,312,74375,1,0,0:0:0:0:
314,131,74527,1,0,0:0:0:0:
187,206,74680,1,0,0:0:0:0:
340,330,74832,6,0,B|322:262,1,45
386,105,74984,1,0,0:0:0:0:
259,180,75137,1,0,0:0:0:0:
412,304,75289,1,0,0:0:0:0:
314,131,75441,6,0,P|310:86|334:46,1,90
384,211,75746,2,0,P|347:236|300:236,1,90
193,128,76050,1,0,0:0:0:0:
168,322,76202,2,0,P|195:245|265:241,1,135
280,253,76507,5,0,0:0:0:0:
331,48,76659,1,0,0:0:0:0:
193,128,76812,1,0,0:0:0:0:
342,205,76964,2,0,P|358:262|325:318,2,90
277,340,77421,6,0,P|310:369|354:375,1,90
259,180,77725,1,0,0:0:0:0:
203,303,77878,1,0,0:0:0:0:
342,205,78030,2,0,L|356:100,1,90
277,340,78334,2,0,L|265:233,1,90
301,34,78639,5,0,0:0:0:0:
135,163,78791,1,0,0:0:0:0:
342,205,78944,1,0,0:0:0:0:
184,75,79096,5,0,0:0:0:0:
203,303,79248,1,0,0:0:0:0:
311,118,79401,1,0,0:0:0:0:
129,236,79553,5,0,0:0:0:0:
332,305,79705,1,0,0:0:0:0:
332,305,80466,6,0,P|301:246|361:140,1,180
352,155,80923,6,0,P|401:170|459:144,1,116.999994644165,8|0,0:0|0:0,0:0:0:0:
268,48,81228,1,0,0:0:0:0:
332,305,81380,1,0,0:0:0:0:
399,91,81532,5,0,0:0:0:0:
399,91,81609,1,0,0:0:0:0:
399,91,81685,1,0,0:0:0:0:
207,178,81837,1,0,0:0:0:0:
429,234,81989,1,0,0:0:0:0:
256,115,82142,6,0,P|286:171|263:235,1,116.999994644165,8|0,0:0|0:0,0:0:0:0:
313,30,82446,1,0,0:0:0:0:
136,133,82598,1,0,0:0:0:0:
218,320,82751,5,0,0:0:0:0:
218,320,82827,1,0,0:0:0:0:
218,320,82903,1,0,0:0:0:0:
184,54,83055,1,0,0:0:0:0:
111,261,83208,1,0,0:0:0:0:
256,115,83360,6,0,B|377:96,1,116.999994644165,8|0,0:0|0:0,0:0:0:0:
429,234,83664,1,0,0:0:0:0:
338,17,83817,1,0,0:0:0:0:
303,309,83969,5,0,0:0:0:0:
303,309,84045,1,0,0:0:0:0:
303,309,84121,1,0,0:0:0:0:
445,82,84274,1,0,0:0:0:0:
207,178,84426,5,0,0:0:0:0:
429,234,84578,2,0,P|379:121|270:117,1,233.999989288331,8|0,0:0|0:0,0:0:0:0:
121,264,85035,2,0,P|179:283|236:250,1,116.999994644165,8|0,0:0|0:0,0:0:0:0:
292,183,85263,1,0,0:0:0:0:
293,193,85340,2,0,L|304:313,1,116.999994644165,8|8,0:0|0:0,0:0:0:0:
371,96,85644,1,8,0:0:0:0:
171,210,85796,6,0,P|142:160|155:105,1,116.999994644165,8|0,0:0|0:0,0:0:0:0:
309,4,86101,1,8,0:0:0:0:
83,56,86253,2,0,P|127:18|183:22,1,116.999994644165,8|0,0:0|0:0,0:0:0:0:
227,260,86558,5,8,0:0:0:0:
309,4,86710,1,8,0:0:0:0:
154,105,86862,1,8,0:0:0:0:
303,309,87015,6,0,L|293:193,2,116.999994644165,8|0|8,0:0|0:0|0:0,0:0:0:0:
371,96,87472,1,8,0:0:0:0:
171,210,87624,1,0,0:0:0:0:
375,316,87776,5,8,0:0:0:0:
257,119,87928,1,8,0:0:0:0:
230,368,88081,2,0,L|240:284,1,58.4999973220826,8|0,0:0|0:0,0:0:0:0:
257,119,88233,6,0,L|294:257,1,116.999994644165,8|0,0:0|0:0,0:0:0:0:
330,33,88538,1,8,0:0:0:0:
171,210,88690,2,0,L|208:348,1,116.999994644165,8|0,0:0|0:0,0:0:0:0:
250,31,88994,5,8,0:0:0:0:
87,166,89147,1,8,0:0:0:0:
287,232,89299,1,8,0:0:0:0:
151,95,89451,6,0,P|181:179|117:257,1,175.499991966248,8|0,0:0|0:0,0:0:0:0:
87,44,89756,2,0,B|124:12|124:12|272:34,1,175.499991966248,8|0,0:0|0:0,0:0:0:0:
386,88,90060,2,0,P|332:150|256:118,1,175.499991966248,8|0,0:0|0:0,0:0:0:0:
426,24,90365,2,0,B|464:58|464:58|454:160,1,116.999994644165,8|0,0:0|0:0,0:0:0:0:
289,298,90593,1,0,0:0:0:0:
283,290,90670,6,0,P|337:228|415:330,1,233.999989288331,8|0,0:0|0:0,0:0:0:0:
212,240,91126,2,0,L|219:118,1,116.999994644165,8|0,0:0|0:0,0:0:0:0:
382,80,91355,1,0,0:0:0:0:
386,88,91431,2,0,P|332:108|279:84,1,116.999994644165,8|8,0:0|0:0,0:0:0:0:
224,5,91735,1,8,0:0:0:0:
124,236,91888,6,0,P|115:131|220:124,1,233.999989288331,8|0,0:0|0:0,0:0:0:0:
223,356,92345,2,0,L|211:229,1,116.999994644165,8|0,0:0|0:0,0:0:0:0:
325,134,92573,1,0,0:0:0:0:
321,142,92649,2,0,P|265:155|219:123,1,116.999994644165,8|8,0:0|0:0,0:0:0:0:
367,28,92954,1,8,0:0:0:0:
376,257,93106,6,0,B|373:191|373:191|409:142|475:157|475:157|429:126,1,233.999989288331,8|0,0:0|0:0,0:0:0:0:
218,122,93563,6,0,P|255:82|314:78,1,116.999994644165,8|0,0:0|0:0,0:0:0:0:
160,261,93790,1,0,0:0:0:0:
159,252,93867,2,0,L|143:125,1,116.999994644165,8|0,0:0|0:0,0:0:0:0:
332,230,94172,6,0,L|347:357,1,116.999994644165,8|0,0:0|0:0,0:0:0:0:
341,360,94400,1,0,0:0:0:0:
337,375,94477,1,8,0:0:0:0:
405,136,94629,1,0,0:0:0:0:
224,213,94781,1,8,0:0:0:0:
425,326,94933,5,0,0:0:0:0:
425,326,95010,1,0,0:0:0:0:
425,326,95086,1,8,0:0:0:0:
300,121,95238,1,8,0:0:0:0:
259,374,95390,1,8,0:0:0:0:
405,136,95543,2,0,P|392:68|360:32,1,116.999994644165,8|0,0:0|0:0,0:0:0:0:
300,121,95847,5,0,0:0:0:0:
485,56,95999,1,8,0:0:0:0:
448,250,96152,6,0,L|372:183,1,58.4999973220826
300,121,96304,1,8,0:0:0:0:
262,314,96456,5,8,0:0:0:0:
448,250,96609,1,8,0:0:0:0:
300,121,96761,6,0,P|291:63|313:10,1,116.999994644165,8|0,0:0|0:0,0:0:0:0:
353,335,97065,5,8,0:0:0:0:
369,74,97218,1,8,0:0:0:0:
239,304,97370,6,0,L|232:191,1,58.4999973220826,8|0,0:0|0:0,0:0:0:0:
223,43,97523,1,8,0:0:0:0:
93,335,97675,5,8,0:0:0:0:
109,74,97827,1,8,0:0:0:0:
239,304,97979,6,0,P|340:291|283:164,1,233.999989288331,8|0,0:0|0:0,0:0:0:0:
100,202,98436,2,0,P|157:216|209:193,1,116.999994644165,8|0,0:0|0:0,0:0:0:0:
297,86,98664,1,0,0:0:0:0:
292,79,98741,2,8,P|235:65|183:88,2,116.999994644165
271,301,99197,6,0,P|169:303|205:169,1,233.999989288331,8|0,0:0|0:0,0:0:0:0:
392,178,99654,2,0,P|337:200|282:186,1,116.999994644165,8|0,0:0|0:0,0:0:0:0:
179,94,99882,1,0,0:0:0:0:
183,87,99959,2,8,P|237:64|292:78,2,116.999994644165
239,304,100416,5,8,0:0:0:0:
291,77,100568,1,0,0:0:0:0:
161,193,100720,1,0,0:0:0:0:
324,254,100873,5,8,0:0:0:0:
212,118,101025,1,0,0:0:0:0:
156,103,101101,1,0,0:0:0:0:
103,124,101177,1,8,0:0:0:0:
73,173,101253,1,0,0:0:0:0:
79,230,101329,1,8,0:0:0:0:
213,24,101482,1,8,0:0:0:0:
140,292,101634,5,10,0:0:0:0:
178,278,101710,1,0,0:0:0:0:
217,264,101786,1,2,0:0:0:0:
297,323,101939,5,10,0:0:0:0:
305,276,102015,1,0,0:0:0:0:
313,230,102091,1,2,0:0:0:0:
402,202,102243,5,10,0:0:0:0:
361,168,102319,1,0,0:0:0:0:
321,134,102395,1,2,0:0:0:0:
461,127,102548,5,10,0:0:0:0:
493,175,102624,1,0,0:0:0:0:
491,233,102700,1,2,0:0:0:0:
455,278,102776,1,0,0:0:0:0:
400,295,102852,1,10,0:0:0:0:
400,295,103309,6,0,L|401:377,1,72
321,246,103614,2,0,P|346:218|381:203,2,72
469,201,104071,2,0,P|461:164|438:133,2,72
351,112,104527,2,0,P|366:79|393:56,2,72
376,203,104984,1,0,0:0:0:0:
441,136,105137,1,0,0:0:0:0:
224,191,105289,1,0,0:0:0:0:
380,351,105441,6,0,B|365:333|357:299|373:273|377:259|377:259|370:219|370:219|387:172,1,180
491,63,105898,2,0,P|458:87|411:90,1,90
277,24,106202,1,0,0:0:0:0:
384,179,106355,1,0,0:0:0:0:
170,140,106507,6,0,P|203:116|250:113,1,90
384,179,106811,1,0,0:0:0:0:
277,24,106964,1,0,0:0:0:0:
255,262,107116,1,0,0:0:0:0:
410,89,107268,6,0,L|312:104,1,90
127,81,107573,2,0,L|225:66,1,90
94,153,107801,1,0,0:0:0:0:
71,137,107878,6,0,P|49:94|54:50,1,90
195,212,108182,2,0,P|168:252|128:270,1,90
215,67,108487,5,0,0:0:0:0:
71,137,108639,1,0,0:0:0:0:
265,189,108791,1,0,0:0:0:0:
127,81,108944,6,0,P|150:133|134:185,1,90
89,307,109172,1,0,0:0:0:0:
66,323,109248,2,0,P|43:271|59:219,1,90
127,81,109553,5,0,0:0:0:0:
265,189,109705,2,0,P|307:201|349:187,1,90
461,78,110010,2,0,P|429:108|418:151,1,90
432,288,110238,1,0,0:0:0:0:
456,302,110314,2,0,P|444:258|413:227,1,90
265,189,110619,5,0,0:0:0:0:
303,337,110771,1,0,0:0:0:0:
248,119,110923,5,0,0:0:0:0:
138,225,111075,1,0,0:0:0:0:
300,69,111228,5,0,0:0:0:0:
153,27,111380,1,0,0:0:0:0:
349,186,111532,5,0,0:0:0:0:
397,176,111608,1,0,0:0:0:0:
446,166,111685,2,0,L|524:149,1,45
427,331,111837,2,0,L|440:288,1,45
318,152,111989,2,0,L|347:184,1,45
307,299,112142,5,0,0:0:0:0:
388,72,112294,1,0,0:0:0:0:
248,119,112446,5,0,0:0:0:0:
475,45,112598,1,0,0:0:0:0:
256,229,112751,5,0,0:0:0:0:
311,41,112903,1,0,0:0:0:0:
375,257,113055,1,0,0:0:0:0:
228,110,113208,5,0,0:0:0:0:
444,174,113360,1,0,0:0:0:0:
256,229,113512,1,0,0:0:0:0:
318,20,113664,6,0,B|334:75|334:75|326:134,1,90
163,290,113969,5,0,0:0:0:0:
228,110,114121,1,0,0:0:0:0:
283,338,114274,1,0,0:0:0:0:
115,170,114426,5,0,0:0:0:0:
343,225,114578,1,0,0:0:0:0:
163,290,114730,1,0,0:0:0:0:
235,89,114883,6,0,B|290:73|290:73|349:81,1,90
174,216,115187,5,0,0:0:0:0:
375,288,115340,1,0,0:0:0:0:
412,275,115492,1,0,0:0:0:0:
322,77,115644,5,0,0:0:0:0:
250,278,115797,1,0,0:0:0:0:
263,315,115949,1,0,0:0:0:0:
442,74,116101,5,0,0:0:0:0:
228,110,116254,1,0,0:0:0:0:
375,288,116406,6,0,L|382:169,2,90
231,154,116862,2,0,L|224:35,2,90
139,329,117319,2,0,P|108:299|99:251,1,90
320,127,117624,6,0,P|217:247|175:77,1,405
320,127,118842,2,0,B|340:129|381:123|407:95|420:76|420:76|405:116|395:155|408:203|429:234|429:234|433:212|421:192,1,323.999990112305
292,30,120060,6,0,B|244:55|244:55|230:157,1,135
231,154,120365,5,0,0:0:0:0:
320,127,120517,1,0,0:0:0:0:
169,81,120669,1,0,0:0:0:0:
268,261,120822,2,0,L|277:173,1,45
292,30,120974,1,0,0:0:0:0:
171,233,121126,5,0,0:0:0:0:
171,233,121202,1,0,0:0:0:0:
171,233,121279,1,0,0:0:0:0:
364,118,121431,6,0,L|281:133,1,45
128,160,121583,1,0,0:0:0:0:
267,340,121735,5,0,0:0:0:0:
267,340,121812,1,0,0:0:0:0:
267,340,121888,1,0,0:0:0:0:
319,53,122040,5,0,0:0:0:0:
319,53,122116,1,0,0:0:0:0:
319,53,122192,1,0,0:0:0:0:
171,233,122345,5,0,0:0:0:0:
191,181,122421,1,0,0:0:0:0:
245,167,122497,6,0,P|298:151|325:108,1,90
172,105,122801,2,0,P|126:136|115:186,1,90
284,321,123106,2,0,B|281:280|281:280|257:226,1,90
115,168,123411,5,0,0:0:0:0:
331,217,123563,2,0,B|369:204|369:204|415:166,1,90
254,87,123867,5,0,0:0:0:0:
284,321,124020,1,0,0:0:0:0:
355,122,124172,1,0,0:0:0:0:
172,247,124324,2,0,L|261:235,1,90
111,305,124629,2,0,B|90:266|90:266|93:219,1,90
137,144,124857,1,0,0:0:0:0:
153,170,124933,5,0,0:0:0:0:
13,232,125086,1,0,0:0:0:0:
172,247,125238,1,0,0:0:0:0:
37,104,125390,2,0,L|67:186,1,45
111,305,125543,1,0,0:0:0:0:
87,31,125695,1,0,0:0:0:0:
13,232,125847,5,0,0:0:0:0:
236,57,125999,2,0,L|147:72,1,90
13,232,126304,5,0,0:0:0:0:
294,121,126456,2,0,L|205:136,1,90
13,232,126761,5,0,0:0:0:0:
181,334,126913,1,0,0:0:0:0:
147,71,127065,2,0,L|91:138,1,45
13,232,127218,1,0,0:0:0:0:
55,193,127294,1,0,0:0:0:0:
112,197,127370,5,0,0:0:0:0:
181,334,127522,1,0,0:0:0:0:
238,78,127675,1,0,0:0:0:0:
112,197,127827,1,0,0:0:0:0:
284,222,127979,2,0,P|326:194|349:153,1,90
112,197,128284,5,0,0:0:0:0:
423,167,128436,2,0,P|406:119|373:86,1,90
112,197,128741,5,0,0:0:0:0:
181,334,128893,1,0,0:0:0:0:
238,78,129045,1,0,0:0:0:0:
74,267,129197,2,0,P|111:278|159:262,1,90
249,181,129426,1,0,0:0:0:0:
263,166,129502,2,0,P|304:150|347:161,1,90
254,341,129807,5,0,0:0:0:0:
181,155,129960,2,0,B|237:79,1,90
309,227,130263,5,0,0:0:0:0:
112,197,130416,2,0,B|74:110,1,90
270,291,130720,5,0,0:0:0:0:
237,245,130797,1,0,0:0:0:0:
245,189,130873,1,0,0:0:0:0:
290,154,130949,1,0,0:0:0:0:
347,161,131025,1,0,0:0:0:0:
112,197,131177,6,0,L|90:148,2,45
270,291,131482,6,0,L|255:333,2,45
350,56,131786,5,0,0:0:0:0:
112,197,131939,1,0,0:0:0:0:
373,282,132091,1,0,0:0:0:0:
176,83,132243,6,0,P|183:128|177:175,1,90
6,309,132548,2,0,P|41:279|85:261,1,90
281,340,132852,1,0,0:0:0:0:
176,83,133005,1,0,0:0:0:0:
81,262,133157,2,0,P|125:270|169:260,1,90
311,95,133461,5,0,0:0:0:0:
112,197,133614,1,0,0:0:0:0:
281,340,133766,1,0,0:0:0:0:
311,95,133918,1,0,0:0:0:0:
168,260,134071,2,0,P|212:268|256:258,1,90
398,93,134375,2,0,P|354:85|310:95,1,90
281,340,134680,5,0,0:0:0:0:
320,313,134756,1,0,0:0:0:0:
340,270,134832,1,0,0:0:0:0:
334,223,134908,1,0,0:0:0:0:
305,186,134984,1,0,0:0:0:0:
260,170,135060,1,0,0:0:0:0:
213,180,135136,1,0,0:0:0:0:
179,213,135212,1,0,0:0:0:0:
168,260,135289,1,0,0:0:0:0:
215,267,135365,1,0,0:0:0:0:
261,255,135441,1,0,0:0:0:0:
297,223,135517,1,0,0:0:0:0:
317,180,135593,1,0,0:0:0:0:
316,132,135669,1,0,0:0:0:0:
296,89,135746,1,0,0:0:0:0:
259,59,135822,1,0,0:0:0:0:
213,48,135898,6,0,L|226:113,2,45
81,187,136126,5,0,0:0:0:0:
84,169,136202,2,0,L|97:104,2,45
215,267,136431,5,0,0:0:0:0:
219,285,136507,2,0,L|232:350,1,45
259,59,136659,1,0,0:0:0:0:
76,204,136812,1,0,0:0:0:0:
317,180,136964,1,0,0:0:0:0:
74,36,137116,6,0,L|96:142,1,90
129,305,137421,1,0,0:0:0:0:
10,265,137573,6,0,L|90:192,1,90
215,82,137878,1,0,0:0:0:0:
240,205,138030,6,0,L|137:171,1,90
333,135,138334,5,0,0:0:0:0:
260,304,138487,1,0,0:0:0:0:
406,205,138639,5,0,0:0:0:0:
338,34,138791,1,0,0:0:0:0:
240,205,138944,5,0,0:0:0:0:
308,376,139096,1,0,0:0:0:0:
132,272,139248,5,0,0:0:0:0:
205,103,139401,1,0,0:0:0:0:
320,245,139553,6,0,L|234:202,1,90
261,329,139857,1,0,0:0:0:0:
302,139,140010,6,0,L|320:50,1,90
205,103,140314,1,0,0:0:0:0:
399,94,140466,6,0,L|488:88,1,90
197,9,140771,5,0,0:0:0:0:
151,26,140847,1,0,0:0:0:0:
120,65,140923,1,0,0:0:0:0:
113,113,140999,1,0,0:0:0:0:
131,159,141076,5,0,0:0:0:0:
320,245,141228,1,0,0:0:0:0:
205,103,141380,5,0,0:0:0:0:
204,324,141532,1,0,0:0:0:0:
285,107,141685,5,0,0:0:0:0:
90,245,141837,1,0,0:0:0:0:
104,23,141989,6,0,L|112:112,1,90
130,311,142294,1,0,0:0:0:0:
367,145,142446,6,0,L|285:107,1,90
104,23,142751,1,0,0:0:0:0:
130,311,142903,6,0,L|203:259,1,90
367,145,143208,5,0,0:0:0:0:
273,15,143360,1,0,0:0:0:0:
208,161,143512,1,0,0:0:0:0:
461,273,143664,5,0,0:0:0:0:
367,144,143817,1,0,0:0:0:0:
302,290,143969,1,0,0:0:0:0:
349,60,144121,6,0,P|296:98|286:163,1,135
422,207,144426,6,0,P|404:166|366:143,1,90
208,161,144730,1,0,0:0:0:0:
140,328,144883,6,0,P|184:332|223:310,1,90
287,164,145187,1,0,0:0:0:0:
176,23,145340,6,0,P|150:59|186:150,1,135
301,296,145644,6,0,P|280:252|227:230,1,90
84,250,145949,1,0,0:0:0:0:
287,164,146101,1,0,0:0:0:0:
313,128,146177,1,0,0:0:0:0:
313,83,146253,1,0,0:0:0:0:
222,310,146406,2,0,P|239:348|284:375,2,90
405,201,146862,5,0,0:0:0:0:
226,83,147015,1,0,0:0:0:0:
222,310,147167,2,0,L|234:195,1,90
325,49,147472,5,0,0:0:0:0:
134,144,147624,1,0,0:0:0:0:
329,279,147776,2,0,L|312:166,1,90
229,13,148081,5,0,0:0:0:0:
162,216,148233,1,0,0:0:0:0:
372,107,148385,1,0,0:0:0:0:
150,66,148538,1,0,0:0:0:0:
150,66,148614,1,0,0:0:0:0:
150,66,148690,5,0,0:0:0:0:
277,235,148842,1,0,0:0:0:0:
229,13,148994,1,0,0:0:0:0:
162,216,149147,1,0,0:0:0:0:
325,49,149299,6,0,P|384:75|448:46,1,135
484,28,149604,2,0,P|431:66|425:136,1,135
507,111,149908,5,0,0:0:0:0:
327,173,150060,1,0,0:0:0:0:
448,322,150213,2,0,L|434:200,1,90
484,28,150517,5,0,0:0:0:0:
327,173,150670,1,0,0:0:0:0:
376,30,150822,1,0,0:0:0:0:
303,276,150974,1,0,0:0:0:0:
303,276,151050,1,0,0:0:0:0:
303,276,151126,5,0,0:0:0:0:
149,199,151279,1,0,0:0:0:0:
223,26,151431,1,0,0:0:0:0:
303,276,151583,1,0,0:0:0:0:
189,122,151735,6,0,P|233:177|218:251,1,135
218,280,152040,2,0,P|243:214|315:190,1,135
303,276,152345,5,0,0:0:0:0:
382,83,152497,1,0,0:0:0:0:
100,139,152649,2,0,L|188:121,1,90
303,276,152954,5,0,0:0:0:0:
223,26,153106,1,0,0:0:0:0:
164,227,153258,1,0,0:0:0:0:
305,61,153411,5,0,0:0:0:0:
100,139,153563,1,0,0:0:0:0:
222,313,153715,1,0,0:0:0:0:
223,26,153867,2,0,L|223:127,1,90
392,215,154172,5,0,0:0:0:0:
223,116,154324,1,0,0:0:0:0:
222,313,154477,1,0,0:0:0:0:
352,28,154629,5,0,0:0:0:0:
130,184,154781,1,0,0:0:0:0:
315,331,154933,1,0,0:0:0:0:
223,26,155086,5,0,0:0:0:0:
146,302,155238,1,0,0:0:0:0:
146,302,155999,6,0,P|113:226|146:137,1,180
153,144,156456,6,0,P|209:140|253:97,1,116.999994644165,8|0,0:0|0:0,0:0:0:0:
83,36,156761,1,0,0:0:0:0:
206,220,156913,1,0,0:0:0:0:
285,17,157065,5,0,0:0:0:0:
285,17,157142,1,0,0:0:0:0:
285,17,157218,1,0,0:0:0:0:
63,130,157370,1,0,0:0:0:0:
273,263,157522,1,0,0:0:0:0:
155,21,157675,6,0,L|143:137,1,116.999994644165,8|0,0:0|0:0,0:0:0:0:
205,320,157979,1,0,0:0:0:0:
251,99,158131,1,0,0:0:0:0:
85,255,158284,5,0,0:0:0:0:
85,255,158360,1,0,0:0:0:0:
85,255,158436,1,0,0:0:0:0:
344,207,158588,1,0,0:0:0:0:
155,21,158741,1,0,0:0:0:0:
281,297,158893,6,0,P|263:239|274:181,1,116.999994644165,8|0,0:0|0:0,0:0:0:0:
390,87,159197,1,0,0:0:0:0:
281,297,159350,1,0,0:0:0:0:
455,192,159502,5,0,0:0:0:0:
455,192,159578,1,0,0:0:0:0:
455,192,159654,1,0,0:0:0:0:
307,55,159807,1,0,0:0:0:0:
363,341,159959,5,0,0:0:0:0:
374,0,160111,2,0,P|347:133|270:133,1,233.999989288331,8|0,0:0|0:0,0:0:0:0:
86,66,160568,2,0,P|132:36|195:44,1,116.999994644165,8|0,0:0|0:0,0:0:0:0:
271,123,160796,1,0,0:0:0:0:
271,133,160873,2,0,L|271:255,1,116.999994644165,8|8,0:0|0:0,0:0:0:0:
374,0,161177,1,8,0:0:0:0:
152,143,161329,6,0,P|152:88|194:40,2,116.999994644165,8|0|8,0:0|0:0|0:0,0:0:0:0:
271,250,161786,1,8,0:0:0:0:
191,42,161939,1,0,0:0:0:0:
145,295,162091,5,8,0:0:0:0:
307,55,162243,1,8,0:0:0:0:
80,138,162395,1,8,0:0:0:0:
273,337,162548,6,0,P|326:317|358:249,2,116.999994644165,8|0|8,0:0|0:0|0:0,0:0:0:0:
389,87,163005,1,8,0:0:0:0:
229,196,163157,1,0,0:0:0:0:
425,286,163309,5,8,0:0:0:0:
306,55,163461,1,8,0:0:0:0:
273,337,163614,2,0,L|282:260,1,58.4999973220826,8|0,0:0|0:0,0:0:0:0:
389,87,163766,6,0,P|340:137|296:143,1,116.999994644165,8|0,0:0|0:0,0:0:0:0:
148,42,164071,1,8,0:0:0:0:
457,32,164223,2,0,P|475:99|458:140,1,116.999994644165,8|0,0:0|0:0,0:0:0:0:
279,278,164527,5,8,0:0:0:0:
306,55,164680,1,8,0:0:0:0:
129,191,164832,1,8,0:0:0:0:
352,192,164984,6,0,P|390:260|357:359,1,175.499991966248,8|0,0:0|0:0,0:0:0:0:
295,142,165289,2,0,B|331:113|331:113|483:146,1,175.499991966248,8|0,0:0|0:0,0:0:0:0:
279,278,165593,2,0,P|223:220|223:126,1,175.499991966248,8|0,0:0|0:0,0:0:0:0:
323,7,165898,2,0,B|305:30|305:30|205:56,1,116.999994644165,8|0,0:0|0:0,0:0:0:0:
85,15,166126,1,0,0:0:0:0:
93,8,166202,6,0,P|126:108|17:150,1,233.999989288331,8|0,0:0|0:0,0:0:0:0:
51,77,166659,1,8,0:0:0:0:
102,340,166812,1,0,0:0:0:0:
126,296,166888,1,0,0:0:0:0:
150,250,166964,2,0,L|216:131,2,116.999994644165,8|8|8,0:0|0:0|0:0,0:0:0:0:
350,220,167421,6,0,P|311:121|201:159,1,233.999989288331,8|0,0:0|0:0,0:0:0:0:
275,185,167878,1,8,0:0:0:0:
468,2,168030,1,0,0:0:0:0:
467,52,168106,1,0,0:0:0:0:
467,103,168182,2,0,L|467:228,2,116.999994644165,8|8|8,0:0|0:0|0:0,0:0:0:0:
206,148,168639,6,0,P|311:163|333:49,1,233.999989288331,8|0,0:0|0:0,0:0:0:0:
90,103,169096,6,0,L|90:228,1,116.999994644165,8|0,0:0|0:0,0:0:0:0:
217,373,169324,1,0,0:0:0:0:
229,359,169400,2,0,L|229:242,1,116.999994644165,8|0,0:0|0:0,0:0:0:0:
338,58,169705,6,0,L|338:175,1,116.999994644165,8|0,0:0|0:0,0:0:0:0:
332,193,169933,1,0,0:0:0:0:
326,211,170010,1,8,0:0:0:0:
467,52,170162,1,0,0:0:0:0:
206,148,170314,1,8,0:0:0:0:
373,280,170466,5,0,0:0:0:0:
375,298,170543,1,0,0:0:0:0:
378,316,170619,1,8,0:0:0:0:
338,58,170771,1,8,0:0:0:0:
229,242,170923,1,8,0:0:0:0:
490,146,171076,2,0,L|373:189,1,116.999994644165,8|0,0:0|0:0,0:0:0:0:
206,148,171380,5,0,0:0:0:0:
250,324,171532,1,8,0:0:0:0:
252,75,171685,6,0,L|212:137,1,58.4999973220826
146,242,171837,1,8,0:0:0:0:
338,58,171989,5,8,0:0:0:0:
124,105,172142,1,8,0:0:0:0:
408,110,172294,6,0,P|324:143|257:88,1,175.499991966248,8|0,0:0|0:0,0:0:0:0:
252,75,172598,5,8,0:0:0:0:
316,300,172751,1,8,0:0:0:0:
384,5,172903,6,0,L|361:104,1,58.4999973220826,8|0,0:0|0:0,0:0:0:0:
321,278,173055,1,8,0:0:0:0:
481,51,173208,5,8,0:0:0:0:
206,148,173360,1,8,0:0:0:0:
481,247,173512,1,8,0:0:0:0:
256,192,173588,12,0,175949,0:0:0:0:
86,59,178233,5,0,0:0:0:0:
122,232,178385,1,0,0:0:0:0:
223,83,178538,5,8,0:0:0:0:
57,149,178690,1,0,0:0:0:0:
288,188,178842,1,0,0:0:0:0:
316,160,178994,1,0,0:0:0:0:
149,91,179147,5,8,0:0:0:0:
194,309,179299,1,0,0:0:0:0:
250,42,179451,1,0,0:0:0:0:
224,12,179604,1,0,0:0:0:0:
122,232,179756,5,8,0:0:0:0:
392,143,179908,1,0,0:0:0:0:
86,59,180060,1,0,0:0:0:0:
78,98,180213,1,0,0:0:0:0:
283,305,180365,5,8,0:0:0:0:
330,216,180517,1,0,0:0:0:0:
298,120,180670,1,8,0:0:0:0:
205,80,180822,1,0,0:0:0:0:
330,216,180974,5,8,0:0:0:0:
426,183,181126,1,0,0:0:0:0:
466,90,181279,1,0,0:0:0:0:
230,144,181431,5,0,0:0:0:0:
210,244,181583,1,8,0:0:0:0:
271,325,181735,1,0,0:0:0:0:
341,93,181888,5,0,0:0:0:0:
265,27,182039,1,0,0:0:0:0:
165,39,182192,1,8,0:0:0:0:
210,244,182345,5,0,0:0:0:0:
426,183,182497,1,0,0:0:0:0:
265,27,182649,1,0,0:0:0:0:
271,325,182801,6,0,P|312:274|312:225,1,116.999994644165,8|0,0:0|0:0,0:0:0:0:
82,34,183106,2,0,P|104:95|147:120,1,116.999994644165,8|0,0:0|0:0,0:0:0:0:
434,19,183411,5,8,0:0:0:0:
341,93,183563,1,0,0:0:0:0:
285,48,183715,5,0,0:0:0:0:
311,224,183867,1,0,0:0:0:0:
412,264,184020,5,8,0:0:0:0:
165,362,184172,1,0,0:0:0:0:
333,370,184324,5,0,0:0:0:0:
298,135,184477,1,0,0:0:0:0:
412,264,184629,5,8,0:0:0:0:
204,98,184781,1,0,0:0:0:0:
165,362,184933,2,0,P|240:322|252:234,1,175.499991966248,8|0,0:0|0:0,0:0:0:0:
141,156,185238,2,0,B|168:228|168:228|163:266,1,116.999994644165,8|0,0:0|0:0,0:0:0:0:
70,238,185543,1,8,0:0:0:0:
298,135,185695,1,0,0:0:0:0:
378,196,185847,5,8,0:0:0:0:
321,38,185999,1,0,0:0:0:0:
253,238,186152,5,0,0:0:0:0:
394,65,186304,1,0,0:0:0:0:
188,139,186456,5,8,0:0:0:0:
448,227,186609,1,0,0:0:0:0:
278,350,186761,5,0,0:0:0:0:
424,135,186913,1,0,0:0:0:0:
171,231,187065,2,0,P|103:179|110:88,1,175.499991966248,8|0,0:0|0:0,0:0:0:0:
188,139,187370,5,8,0:0:0:0:
118,349,187522,1,0,0:0:0:0:
253,238,187675,5,8,0:0:0:0:
105,95,187827,1,0,0:0:0:0:
205,349,187979,5,8,0:0:0:0:
276,139,188131,1,0,0:0:0:0:
87,263,188284,6,0,B|150:222|150:222|162:202|162:202,2,90,6|0|0,0:0|0:0|0:0,0:0:0:0:
253,238,188741,2,0,B|316:279|316:279|328:299|328:299,2,90
419,263,189197,2,0,B|482:222|482:222|494:202|494:202,1,90
485,41,189502,5,0,0:0:0:0:
399,51,189654,1,0,0:0:0:0:
360,128,189807,1,0,0:0:0:0:
403,203,189959,1,0,0:0:0:0:
489,208,190111,1,0,0:0:0:0:
313,56,190568,5,0,0:0:0:0:
360,128,190720,2,0,B|343:201|343:201|328:219|328:219,2,90,6|0|0,0:0|0:0|0:0,0:0:0:0:
247,252,191177,2,0,B|263:325|263:325|278:343|278:343,2,90
360,128,191634,2,0,B|288:149|288:149|265:146|265:146,1,90
131,59,191939,5,0,0:0:0:0:
184,126,192091,1,0,0:0:0:0:
156,208,192244,1,0,0:0:0:0:
73,230,192396,1,0,0:0:0:0:
8,173,192548,1,0,0:0:0:0:
184,126,193157,5,8,0:0:0:0:
126,314,193309,1,0,0:0:0:0:
303,187,193461,5,0,0:0:0:0:
165,16,193614,1,0,0:0:0:0:
95,144,193765,5,0,0:0:0:0:
329,52,193918,1,0,0:0:0:0:
221,302,194071,1,0,0:0:0:0:
165,16,194223,5,0,0:0:0:0:
165,16,194299,1,0,0:0:0:0:
165,16,194375,1,8,0:0:0:0:
73,230,194527,5,0,0:0:0:0:
373,130,194680,1,0,0:0:0:0:
46,148,194831,5,0,0:0:0:0:
397,278,194984,1,0,0:0:0:0:
140,339,195137,5,0,0:0:0:0:
275,9,195290,1,0,0:0:0:0:
330,306,195441,5,0,0:0:0:0:
330,306,195517,1,0,0:0:0:0:
330,306,195593,1,8,0:0:0:0:
165,16,195746,5,0,0:0:0:0:
226,292,195898,1,0,0:0:0:0:
358,40,196050,5,0,0:0:0:0:
54,107,196202,1,0,0:0:0:0:
156,345,196355,5,0,0:0:0:0:
258,16,196507,1,0,0:0:0:0:
370,314,196659,1,0,0:0:0:0:
165,16,196811,5,8,0:0:0:0:
47,198,196964,1,0,0:0:0:0:
233,311,197116,1,0,0:0:0:0:
345,124,197268,1,0,0:0:0:0:
74,18,197421,5,0,0:0:0:0:
88,313,197573,1,0,0:0:0:0:
385,298,197726,1,0,0:0:0:0:
369,1,197878,1,0,0:0:0:0:
256,192,198030,12,0,200162,0:0:0:0:
87,278,200314,6,0,B|145:284|145:284|199:257,1,116.999994644165,12|0,0:0|0:0,0:0:0:0:
228,108,200619,1,0,0:0:0:0:
414,295,200771,2,0,B|391:242|391:242|340:208,1,116.999994644165,8|0,0:0|0:0,0:0:0:0:
175,167,200999,1,0,0:0:0:0:
199,182,201076,2,0,P|240:186|298:144,2,116.999994644165,8|0|0,0:0|0:0|0:0,0:0:0:0:
2,52,201532,6,0,P|49:83|63:138,1,116.999994644165,8|0,0:0|0:0,0:0:0:0:
78,291,201837,1,0,0:0:0:0:
298,143,201989,2,0,P|256:181|199:181,1,116.999994644165,8|0,0:0|0:0,0:0:0:0:
331,71,202218,1,0,0:0:0:0:
353,86,202294,2,0,P|378:136|363:191,2,116.999994644165,8|0|0,0:0|0:0|0:0,0:0:0:0:
134,0,202751,6,0,B|194:44|194:44|264:44,1,116.999994644165,12|0,0:0|0:0,0:0:0:0:
455,130,203055,2,0,B|395:86|395:86|325:86,1,116.999994644165,0|8,0:0|0:0,0:0:0:0:
259,330,203360,5,0,0:0:0:0:
247,273,203436,1,0,0:0:0:0:
236,216,203512,1,8,0:0:0:0:
352,86,203664,1,0,0:0:0:0:
115,176,203817,1,0,0:0:0:0:
394,264,203969,6,0,B|341:198|341:198|303:185,1,116.999994644165,8|0,0:0|0:0,0:0:0:0:
154,270,204274,1,0,0:0:0:0:
236,44,204426,1,8,0:0:0:0:
425,165,204578,5,0,0:0:0:0:
367,175,204654,1,0,0:0:0:0:
310,187,204730,2,0,B|233:168|233:168|201:142,2,116.999994644165,8|0|0,0:0|0:0|0:0,0:0:0:0:
130,84,205187,6,0,P|110:143|129:201,1,116.999994644165,12|0,0:0|0:0,0:0:0:0:
271,382,205492,2,0,P|291:323|272:265,1,116.999994644165,0|8,0:0|0:0,0:0:0:0:
65,267,205796,5,0,0:0:0:0:
119,286,205872,1,0,0:0:0:0:
174,272,205948,1,8,0:0:0:0:
130,84,206101,1,0,0:0:0:0:
114,376,206253,1,0,0:0:0:0:
313,148,206406,6,0,P|254:128|196:147,1,116.999994644165,8|0,0:0|0:0,0:0:0:0:
383,247,206710,1,0,0:0:0:0:
385,39,206862,1,8,0:0:0:0:
170,247,207015,5,0,0:0:0:0:
203,199,207091,1,0,0:0:0:0:
203,142,207167,2,0,B|196:64|196:64|221:24,2,116.999994644165,8|0|0,0:0|0:0|0:0,0:0:0:0:
295,352,207624,6,0,B|316:320|316:320|309:242,1,116.999994644165,12|0,0:0|0:0,0:0:0:0:
35,108,207928,2,0,B|53:142|53:142|124:175,1,116.999994644165,0|8,0:0|0:0,0:0:0:0:
377,4,208233,5,0,0:0:0:0:
363,60,208309,1,0,0:0:0:0:
350,117,208385,1,8,0:0:0:0:
430,274,208538,1,0,0:0:0:0:
487,36,208690,1,0,0:0:0:0:
252,105,208842,1,0,0:0:0:0:
430,274,208994,6,0,L|372:161,1,116.999994644165,10|0,0:0|0:0,0:0:0:0:
141,76,209299,6,0,L|199:189,1,116.999994644165,10|0,0:0|0:0,0:0:0:0:
319,269,209527,1,0,0:0:0:0:
297,253,209604,6,0,P|234:246|189:272,1,116.999994644165,10|0,0:0|0:0,0:0:0:0:
75,324,209908,6,0,P|112:272|112:220,1,116.999994644165,10|0,0:0|0:0,0:0:0:0:
53,47,210213,5,12,0:0:0:0:
21,246,210365,1,0,0:0:0:0:
180,371,210517,5,8,0:0:0:0:
74,157,210669,1,0,0:0:0:0:
21,246,210822,5,8,0:0:0:0:
252,105,210974,1,0,0:0:0:0:
226,292,211126,5,8,0:0:0:0:
185,24,211278,1,0,0:0:0:0:
99,263,211431,5,8,0:0:0:0:
337,172,211583,1,0,0:0:0:0:
226,292,211736,5,8,0:0:0:0:
349,69,211888,1,0,0:0:0:0:
177,99,212040,5,8,0:0:0:0:
312,344,212192,1,0,0:0:0:0:
272,17,212345,6,0,L|251:140,1,116.999994644165,8|0,0:0|0:0,0:0:0:0:
154,316,212649,5,12,0:0:0:0:
412,126,212801,1,0,0:0:0:0:
390,317,212954,5,8,0:0:0:0:
272,17,213106,1,0,0:0:0:0:
285,302,213259,5,8,0:0:0:0:
403,2,213411,1,0,0:0:0:0:
168,188,213563,5,8,0:0:0:0:
462,60,213715,1,0,0:0:0:0:
424,104,213791,1,0,0:0:0:0:
387,149,213867,5,8,0:0:0:0:
222,332,214020,1,0,0:0:0:0:
268,40,214172,5,8,0:0:0:0:
384,304,214324,1,0,0:0:0:0:
337,12,214477,6,0,P|325:87|287:112,1,116.999994644165,8|0,0:0|0:0,0:0:0:0:
112,63,214781,1,8,0:0:0:0:
193,334,214934,2,0,P|190:233|248:192,1,175.499991966248,8|0,0:0|0:0,0:0:0:0:
323,265,215238,6,0,P|293:281|263:281,1,58.4999973220826
61,133,215390,2,0,P|93:148|181:117,1,116.999994644165,8|8,0:0|0:0,0:0:0:0:
112,63,215695,5,8,0:0:0:0:
243,193,215847,1,0,0:0:0:0:
292,15,215999,5,8,0:0:0:0:
114,229,216152,2,0,B|146:148|146:148|168:129,1,116.999994644165,8|0,0:0|0:0,0:0:0:0:
193,334,216456,5,8,0:0:0:0:
357,189,216609,2,0,B|270:202|270:202|242:192,1,116.999994644165,8|0,0:0|0:0,0:0:0:0:
408,70,216912,5,8,0:0:0:0:
201,0,217065,2,0,B|256:68|256:68|261:97,2,116.999994644165,8|0|8,0:0|0:0|0:0,0:0:0:0:
61,133,217522,5,8,0:0:0:0:
163,296,217675,2,0,P|221:311|285:296,1,116.999994644165,8|0,0:0|0:0,0:0:0:0:
330,80,217979,5,8,0:0:0:0:
167,182,218131,2,0,P|152:240|167:304,1,116.999994644165,8|0,0:0|0:0,0:0:0:0:
432,243,218436,5,8,0:0:0:0:
330,80,218588,2,0,P|272:65|208:80,1,116.999994644165,8|0,0:0|0:0,0:0:0:0:
162,295,218893,5,8,0:0:0:0:
325,193,219045,2,0,P|340:135|325:71,1,116.999994644165,8|0,0:0|0:0,0:0:0:0:
61,133,219350,5,8,0:0:0:0:
162,295,219502,1,8,0:0:0:0:
266,138,219654,1,0,0:0:0:0:
61,133,219807,1,8,0:0:0:0:
162,295,219959,5,8,0:0:0:0:
187,304,220035,1,0,0:0:0:0:
214,314,220111,1,0,0:0:0:0:
242,327,220187,1,0,0:0:0:0:
269,337,220263,2,0,L|309:386,3,58.4999973220826
281,251,220568,5,8,0:0:0:0:
287,210,220644,1,0,0:0:0:0:
309,177,220720,1,0,0:0:0:0:
344,156,220796,1,0,0:0:0:0:
385,152,220873,2,0,L|402:91,3,58.4999973220826
468,148,221177,5,8,0:0:0:0:
485,99,221253,1,0,0:0:0:0:
472,49,221329,1,0,0:0:0:0:
431,16,221406,1,0,0:0:0:0:
380,14,221481,1,8,0:0:0:0:
336,41,221558,1,0,0:0:0:0:
306,83,221634,1,0,0:0:0:0:
255,98,221710,1,0,0:0:0:0:
207,77,221786,2,0,L|178:27,1,58.4999973220826,8|0,0:0|0:0,0:0:0:0:
385,152,221939,5,8,0:0:0:0:
383,210,222015,1,0,0:0:0:0:
381,268,222091,2,0,P|332:296|278:293,1,108,12|0,0:0|0:0,0:0:0:0:
171,218,222395,6,0,P|195:220|234:204,1,58.4999973220826,8|0,0:0|0:0,0:0:0:0:
98,138,222548,2,0,P|64:210|108:307,1,175.499991966248,12|0,0:0|0:0,0:0:0:0:
283,199,222852,6,0,P|259:197|220:213,1,58.4999973220826,8|0,0:0|0:0,0:0:0:0:
356,279,223005,2,0,P|390:207|346:110,1,175.499991966248,12|0,0:0|0:0,0:0:0:0:
226,208,223309,6,0,L|214:128,1,58.4999973220826,8|0,0:0|0:0,0:0:0:0:
198,30,223461,1,12,0:0:0:0:
198,30,224223,6,0,L|226:208,1,180
237,203,224680,6,0,B|288:179|288:179|355:188,1,116.999994644165,8|0,0:0|0:0,0:0:0:0:
236,329,224984,1,0,0:0:0:0:
117,191,225137,1,0,0:0:0:0:
348,187,225289,5,0,0:0:0:0:
402,164,225365,1,0,0:0:0:0:
436,117,225441,1,0,0:0:0:0:
323,65,225593,1,0,0:0:0:0:
359,321,225746,1,0,0:0:0:0:
323,65,225898,6,0,B|272:41|272:41|205:50,1,116.999994644165,8|0,0:0|0:0,0:0:0:0:
124,267,226202,1,0,0:0:0:0:
348,187,226355,1,0,0:0:0:0:
142,74,226507,5,0,0:0:0:0:
155,130,226583,1,0,0:0:0:0:
169,187,226659,1,0,0:0:0:0:
295,293,226812,1,0,0:0:0:0:
211,49,226964,1,0,0:0:0:0:
124,267,227116,6,0,P|180:279|241:246,1,116.999994644165,8|0,0:0|0:0,0:0:0:0:
323,65,227421,1,0,0:0:0:0:
84,150,227573,1,0,0:0:0:0:
232,254,227725,5,0,0:0:0:0:
211,49,227878,1,0,0:0:0:0:
155,347,228030,1,0,0:0:0:0:
352,256,228182,5,0,0:0:0:0:
84,150,228334,2,0,B|127:104|189:120|189:120|138:162|161:230,1,233.999989288331,8|0,0:0|0:0,0:0:0:0:
309,329,228791,2,0,P|255:293|200:298,1,116.999994644165,8|0,0:0|0:0,0:0:0:0:
39,365,229020,1,0,0:0:0:0:
48,370,229096,2,0,P|112:374|157:342,1,116.999994644165,8|8,0:0|0:0,0:0:0:0:
247,194,229400,1,8,0:0:0:0:
116,46,229553,6,0,P|80:99|85:154,1,116.999994644165,8|0,0:0|0:0,0:0:0:0:
205,296,229857,1,8,0:0:0:0:
172,121,230010,1,8,0:0:0:0:
66,262,230162,1,0,0:0:0:0:
311,67,230313,5,8,0:0:0:0:
83,149,230466,1,8,0:0:0:0:
284,287,230618,1,8,0:0:0:0:
245,22,230771,6,0,P|233:84|264:132,1,116.999994644165,8|0,0:0|0:0,0:0:0:0:
440,148,231076,1,8,0:0:0:0:
311,67,231228,1,8,0:0:0:0:
202,235,231380,1,0,0:0:0:0:
443,240,231532,5,8,0:0:0:0:
311,67,231685,1,8,0:0:0:0:
293,348,231837,2,0,L|264:259,1,58.4999973220826,8|0,0:0|0:0,0:0:0:0:
311,67,231989,6,0,P|338:117|325:173,1,116.999994644165,8|0,0:0|0:0,0:0:0:0:
176,276,232294,1,8,0:0:0:0:
11,203,232446,2,0,P|41:154|95:137,1,116.999994644165,8|0,0:0|0:0,0:0:0:0:
275,293,232751,5,8,0:0:0:0:
191,26,232903,1,8,0:0:0:0:
98,229,233055,1,8,0:0:0:0:
324,173,233208,6,0,B|359:114|311:67|311:67|302:101|266:118,1,175.499991966248,8|0,0:0|0:0,0:0:0:0:
95,136,233512,2,0,P|155:100|213:179,1,175.499991966248,8|0,0:0|0:0,0:0:0:0:
181,305,233817,2,0,B|171:278|141:261|141:261|208:280|265:241,1,175.499991966248,8|0,0:0|0:0,0:0:0:0:
324,173,234121,2,0,P|380:161|437:173,1,116.999994644165,8|0,0:0|0:0,0:0:0:0:
259,256,234350,1,0,0:0:0:0:
252,249,234426,6,0,P|223:147|318:68,1,233.999989288331,8|0,0:0|0:0,0:0:0:0:
353,339,234883,2,0,B|330:361|330:361|330:276,1,116.999994644165,8|0,0:0|0:0,0:0:0:0:
503,231,235111,1,0,0:0:0:0:
510,239,235187,2,0,P|454:251|397:239,1,116.999994644165,8|8,0:0|0:0,0:0:0:0:
308,69,235492,1,8,0:0:0:0:
140,157,235644,6,0,P|250:165|307:70,1,233.999989288331,8|0,0:0|0:0,0:0:0:0:
47,99,236101,2,0,B|47:182|47:182|68:217,1,116.999994644165,8|0,0:0|0:0,0:0:0:0:
213,317,236329,1,0,0:0:0:0:
220,311,236406,2,0,P|161:288|106:301,1,116.999994644165,8|8,0:0|0:0,0:0:0:0:
280,227,236710,1,8,0:0:0:0:
230,49,236862,6,0,P|287:145|383:93,1,233.999989288331,8|0,0:0|0:0,0:0:0:0:
169,205,237319,2,0,B|249:205|249:205|316:253,1,116.999994644165,8|0,0:0|0:0,0:0:0:0:
313,346,237548,1,0,0:0:0:0:
317,355,237624,2,0,B|332:321|332:321|401:281,1,116.999994644165,8|0,0:0|0:0,0:0:0:0:
512,173,237928,6,0,B|442:213|442:213|405:209,1,116.999994644165,8|0,0:0|0:0,0:0:0:0:
399,200,238157,1,0,0:0:0:0:
391,191,238233,1,8,0:0:0:0:
487,19,238385,1,0,0:0:0:0:
307,68,238538,1,8,0:0:0:0:
401,281,238690,5,0,0:0:0:0:
402,292,238766,1,0,0:0:0:0:
403,303,238842,1,8,0:0:0:0:
369,9,238994,1,8,0:0:0:0:
169,205,239147,1,8,0:0:0:0:
403,303,239299,2,0,P|459:295|505:257,1,116.999994644165,8|0,0:0|0:0,0:0:0:0:
307,68,239604,5,0,0:0:0:0:
498,250,239756,1,8,0:0:0:0:
225,152,239908,6,0,L|305:140,1,58.4999973220826
490,111,240060,1,8,0:0:0:0:
329,319,240213,5,8,0:0:0:0:
393,35,240365,1,8,0:0:0:0:
328,328,240517,6,0,P|387:315|415:191,1,175.499991966248,8|0,0:0|0:0,0:0:0:0:
338,238,240822,5,8,0:0:0:0:
237,44,240974,1,8,0:0:0:0:
222,345,241126,5,8,0:0:0:0:
307,68,241279,1,8,0:0:0:0:
49,194,241431,5,8,0:0:0:0:
403,149,241583,1,8,0:0:0:0:
184,274,241735,6,0,L|184:209,1,58.4999973220826,8|0,0:0|0:0,0:0:0:0:
139,103,241888,2,0,P|189:134|253:129,1,116.999994644165,8|0,0:0|0:0,0:0:0:0:
473,102,242192,2,0,P|424:71|366:73,1,116.999994644165,8|0,0:0|0:0,0:0:0:0:
376,267,242421,1,0,0:0:0:0:
384,261,242497,2,0,B|403:226|403:226|403:135,2,116.999994644165,8|8|8,0:0|0:0|0:0,0:0:0:0:
150,186,242954,6,0,P|189:143|245:131,1,116.999994644165,8|0,0:0|0:0,0:0:0:0:
400,344,243258,2,0,P|343:330|304:288,1,116.999994644165,8|8,0:0|0:0,0:0:0:0:
459,72,243563,5,8,0:0:0:0:
466,87,243639,1,0,0:0:0:0:
473,102,243715,1,8,0:0:0:0:
229,214,243867,5,8,0:0:0:0:
508,188,244020,5,8,0:0:0:0:
502,240,244096,1,0,0:0:0:0:
497,292,244172,1,8,0:0:0:0:
240,322,244324,5,8,0:0:0:0:
337,64,244477,1,0,0:0:0:0:
405,272,244629,1,8,0:0:0:0:
150,186,244781,5,0,0:0:0:0:
200,171,244857,1,0,0:0:0:0:
251,157,244933,1,8,0:0:0:0:
165,59,245086,5,0,0:0:0:0:
325,283,245238,1,8,0:0:0:0:
337,64,245390,1,0,0:0:0:0:
240,322,245543,5,12,0:0:0:0:
278,364,245619,1,0,0:0:0:0:
334,376,245695,1,8,0:0:0:0:
387,353,245771,1,0,0:0:0:0:
417,304,245847,1,12,0:0:0:0:
200,171,245999,5,8,0:0:0:0:
185,233,246075,1,0,0:0:0:0:
170,296,246152,1,12,0:0:0:0:
346,148,246304,5,8,0:0:0:0:
298,97,246380,1,0,0:0:0:0:
233,73,246456,1,12,0:0:0:0:
164,82,246532,1,0,0:0:0:0:
107,121,246609,1,12,0:0:0:0:
256,192,246685,12,0,247370,0:0:0:0:
363,25,247865,5,0,0:0:0:0:
313,87,248017,2,0,L|333:194,1,107.999996704102
413,201,248474,2,0,P|389:253|326:274,1,121.499996292114
101,252,249083,2,0,B|123:219|165:208|188:215|205:219|230:240|239:259|239:259|234:204|186:175|186:175|162:163|145:113|135:74|145:26|178:-20|213:-4|221:41|222:101|199:122|180:143,1,580.499982284546
167,301,250873,6,0,L|208:329,1,45
390,211,251025,2,0,P|352:234|330:273,2,90
492,350,251482,6,0,B|459:385|459:385|459:238,1,180
496,79,251939,1,0,0:0:0:0:
334,151,252091,1,0,0:0:0:0:
281,145,252167,1,0,0:0:0:0:
238,112,252243,2,0,L|239:217,1,90
316,53,252548,1,0,0:0:0:0:
133,235,252700,6,0,B|133:104|133:104|159:55,1,180
299,296,253157,2,0,P|228:317|181:297,1,90
367,210,253385,1,0,0:0:0:0:
388,232,253461,2,0,P|409:303|389:350,1,90
497,113,253766,1,0,0:0:0:0:
275,205,253918,6,0,P|311:134|403:122,1,180
189,268,254375,2,0,L|189:178,1,90
205,151,254604,1,0,0:0:0:0:
221,125,254680,1,0,0:0:0:0:
99,229,254832,1,0,0:0:0:0:
299,296,254984,1,0,0:0:0:0:
221,35,255137,2,0,L|221:153,1,90
123,299,255441,5,0,0:0:0:0:
343,164,255593,1,0,0:0:0:0:
140,64,255746,1,0,0:0:0:0:
299,296,255898,1,0,0:0:0:0:
348,299,255974,1,0,0:0:0:0:
394,283,256050,1,0,0:0:0:0:
431,250,256126,1,0,0:0:0:0:
452,206,256202,1,0,0:0:0:0:
343,26,256355,1,0,0:0:0:0:
204,258,256507,6,0,L|204:213,1,45
343,164,256659,2,0,L|304:186,1,45
192,90,256812,2,0,L|230:112,1,45
299,315,256964,6,0,L|299:247,1,45
344,53,257116,2,0,L|285:86,1,45
95,143,257268,2,0,L|153:176,1,45
414,226,257421,6,0,P|438:164|415:102,1,135
343,164,257725,5,0,0:0:0:0:
325,174,257801,1,0,0:0:0:0:
308,184,257877,1,0,0:0:0:0:
290,194,257953,1,0,0:0:0:0:
250,165,258030,5,0,0:0:0:0:
250,214,258106,1,0,0:0:0:0:
250,264,258182,1,0,0:0:0:0:
250,313,258258,1,0,0:0:0:0:
230,358,258334,6,0,L|283:337,3,45
365,312,258639,2,0,L|375:359,3,45
414,226,258944,6,0,L|421:182,1,45
446,24,259096,2,0,L|404:39,1,45
255,97,259248,2,0,L|289:125,1,45
481,337,259401,6,0,L|461:287,1,45
391,108,259553,2,0,L|357:149,1,45
237,297,259705,2,0,L|289:305,1,45
479,143,259857,5,0,0:0:0:0:
484,94,259933,1,0,0:0:0:0:
465,49,260009,1,0,0:0:0:0:
426,20,260085,1,0,0:0:0:0:
378,14,260162,5,0,0:0:0:0:
328,252,260314,1,0,0:0:0:0:
479,143,260466,1,0,0:0:0:0:
268,72,260619,2,0,L|312:147,1,45
407,311,260771,5,0,0:0:0:0:
426,20,260923,1,0,0:0:0:0:
206,188,261076,1,0,0:0:0:0:
508,141,261228,2,0,P|468:98|379:112,1,135.000005149842
125,109,261532,5,0,0:0:0:0:
433,171,261685,1,0,0:0:0:0:
81,177,261989,5,0,0:0:0:0:
394,52,262141,1,0,0:0:0:0:
127,287,262446,5,0,0:0:0:0:
343,5,262598,1,0,0:0:0:0:
221,374,262903,5,0,0:0:0:0:
273,7,263055,1,0,0:0:0:0:
434,170,263208,5,0,0:0:0:0:
377,215,263284,1,0,0:0:0:0:
316,227,263360,1,0,0:0:0:0:
264,215,263436,1,0,0:0:0:0:
218,162,263512,5,0,0:0:0:0:
229,232,263588,1,0,0:0:0:0:
208,291,263664,1,0,0:0:0:0:
172,330,263740,1,0,0:0:0:0:
88,259,263817,5,0,0:0:0:0:
100,183,263893,1,0,0:0:0:0:
142,109,263969,1,0,0:0:0:0:
215,51,264045,1,0,0:0:0:0:
315,25,264121,1,0,0:0:0:0:
256,192,264197,12,0,268461,0:0:0:0:
378,103,268538,6,0,L|414:182,2,67.5
