osu file format v14

[General]
AudioFilename: Great Distance ryo (supercell) feat.chelly.mp3
AudioLeadIn: 0
PreviewTime: 80588
Countdown: 0
SampleSet: Normal
StackLeniency: 0.7
Mode: 0
LetterboxInBreaks: 0
WidescreenStoryboard: 0

[Editor]
Bookmarks: 80903,110741,115157,156446,264111,268679
DistanceSpacing: 1.3
BeatDivisor: 4
GridSize: 4
TimelineZoom: 2.8

[Metadata]
Title:Great Distance
TitleUnicode:Great Distance
Artist:ryo (supercell) feat.chelly
ArtistUnicode:ryo (supercell) feat.chelly
Creator:KantanDez
Version:Gratifying Adventure
Source:ブレイブリーセカンド
Tags:bravely second Akitoshi
BeatmapID:888270
BeatmapSetID:409145

[Difficulty]
HPDrainRate:6.9
CircleSize:4.5
OverallDifficulty:8.5
ApproachRate:9.3
SliderMultiplier:1.8
SliderTickRate:1

[Events]
//Background and Video events
0,0,"t.jpg",0,0
//Break Periods
//Storyboard Layer 0 (Background)
//Storyboard Layer 1 (Fail)
//Storyboard Layer 2 (Pass)
//Storyboard Layer 3 (Foreground)
//Storyboard Sound Samples

[TimingPoints]
10538,304.568527918782,4,1,1,60,1,0
27897,-100,4,2,1,60,0,0
30029,-100,4,1,1,70,0,0
30334,-100,4,2,1,60,0,0
32466,-100,4,1,1,70,0,0
32770,-100,4,2,1,60,0,0
34902,-100,4,1,1,70,0,0
35207,-100,4,2,1,60,0,0
36121,-100,4,1,1,70,0,0
36425,-100,4,2,1,60,0,0
37339,-100,4,1,1,80,0,0
37415,-100,4,1,1,60,0,0
37796,-100,4,1,1,80,0,0
37872,-100,4,1,1,60,0,0
38253,-100,4,1,1,70,0,0
38329,-100,4,1,1,60,0,0
38557,-100,4,1,1,80,0,0
38633,-100,4,1,1,60,0,0
39014,-100,4,1,1,80,0,0
39090,-100,4,1,1,60,0,0
39471,-100,4,1,1,70,0,0
39547,-100,4,1,1,60,0,0
39776,-100,4,1,1,80,0,0
39852,-100,4,1,1,60,0,0
40232,-100,4,1,1,80,0,0
40309,-100,4,1,1,60,0,0
40689,-100,4,1,1,70,0,0
40765,-100,4,1,1,60,0,0
40994,-100,4,1,1,80,0,0
41070,-100,4,1,1,60,0,0
41451,-100,4,1,1,80,0,0
41527,-100,4,1,1,60,0,0
41907,-100,4,1,1,80,0,0
41983,-100,4,1,1,60,0,0
59268,-100,4,1,1,60,0,0
60487,-153.846153846153,4,1,1,50,0,0
61705,-100,4,1,1,65,0,0
71451,-100,4,1,1,75,0,0
80588,-200,4,2,1,30,0,0
81045,-90.9090909090909,4,1,1,80,0,1
89573,-166.666666666667,4,1,1,70,0,0
90791,-90.9090909090909,4,1,1,80,0,1
90867,-90.9090909090909,4,1,1,75,0,1
95665,-90.9090909090909,4,1,1,80,0,1
95741,-90.9090909090909,4,1,1,75,0,1
96883,-90.9090909090909,4,1,1,77,0,1
97035,-90.9090909090909,4,1,1,79,0,1
97188,-90.9090909090909,4,1,1,81,0,1
97340,-90.9090909090909,4,1,1,83,0,1
97492,-90.9090909090909,4,1,1,85,0,1
97645,-90.9090909090909,4,1,1,87,0,1
97797,-90.9090909090909,4,1,1,89,0,1
97949,-90.9090909090909,4,1,1,91,0,0
98101,-90.9090909090909,4,1,1,93,0,1
98177,-90.9090909090909,4,1,1,75,0,1
101909,-90.9090909090909,4,1,1,77,0,1
102061,-90.9090909090909,4,1,1,79,0,1
102213,-90.9090909090909,4,1,1,81,0,1
102365,-90.9090909090909,4,1,1,83,0,1
102517,-74.0740740740741,4,1,1,85,0,1
102669,-90.9090909090909,4,1,1,87,0,1
102821,-90.9090909090909,4,1,1,89,0,1
102973,-90.9090909090909,4,1,1,91,0,0
103126,-90.9090909090909,4,1,1,60,0,0
109827,-90.9090909090909,4,2,0,60,0,0
110436,-90.9090909090909,4,1,1,70,0,0
110741,-149.253731343284,4,1,1,65,0,0

[Colours]
Combo1 : 147,0,147
Combo2 : 254,180,27
Combo3 : 0,223,0
Combo4 : 0,223,223
Combo5 : 34,34,255

[HitObjects]
128,136,12213,5,0,0:0:0:0:
128,136,12289,1,0,0:0:0:0:
128,136,12365,2,0,P|100:84|100:48,2,90,0|0|8,0:0|0:0|0:0,0:0:0:0:
246,247,12822,5,4,0:0:0:0:
200,108,12975,1,0,0:0:0:0:
104,232,13127,1,0,0:0:0:0:
264,152,13279,2,0,P|320:140|376:180,1,90,8|0,0:0|0:0,0:0:0:0:
492,266,13584,1,0,0:0:0:0:
455,121,13736,1,0,0:0:0:0:
428,347,13888,1,0,0:0:0:0:
297,288,14040,6,0,L|113:258,1,180
226,355,14497,1,8,0:0:0:0:
136,176,14650,6,0,P|116:248|144:292,1,90
96,340,14954,1,0,0:0:0:0:
24,216,15106,1,8,0:0:0:0:
92,104,15259,2,0,B|144:72|204:108|212:144|212:144|260:140,1,180
228,52,15716,6,0,P|172:24|116:24,1,90,8|0,0:0|0:0,0:0:0:0:
56,40,16020,1,0,0:0:0:0:
136,176,16172,1,0,0:0:0:0:
24,164,16325,1,8,0:0:0:0:
236,224,16477,6,0,B|292:232|292:232|428:200,1,180
496,164,16934,1,8,0:0:0:0:
420,112,17086,1,0,0:0:0:0:
496,252,17238,1,0,0:0:0:0:
496,76,17391,1,0,0:0:0:0:
340,152,17543,1,8,0:0:0:0:
420,300,17695,1,0,0:0:0:0:
428,24,17848,5,0,0:0:0:0:
304,52,18000,1,0,0:0:0:0:
288,56,18076,1,0,0:0:0:0:
272,60,18152,1,8,0:0:0:0:
136,188,18304,5,0,0:0:0:0:
108,64,18456,1,0,0:0:0:0:
104,48,18532,1,0,0:0:0:0:
100,32,18608,1,8,0:0:0:0:
224,168,18761,5,0,0:0:0:0:
252,292,18913,1,0,0:0:0:0:
256,308,18989,1,0,0:0:0:0:
260,324,19066,6,0,P|320:336|376:316,1,90,8|2,0:0|0:0,0:0:0:0:
496,212,19370,2,0,P|436:224|380:204,1,90,2|2,0:0|0:0,0:0:0:0:
259,98,19675,2,0,P|302:110|347:105,1,90,2|2,0:0|0:0,0:0:0:0:
420,48,19980,1,2,0:0:0:0:
432,136,20132,1,2,0:0:0:0:
336,16,20284,5,0,0:0:0:0:
296,184,20436,1,0,0:0:0:0:
292,200,20513,1,0,0:0:0:0:
288,216,20589,1,8,0:0:0:0:
176,288,20741,5,0,0:0:0:0:
344,328,20893,1,0,0:0:0:0:
360,332,20970,1,0,0:0:0:0:
376,336,21046,1,8,0:0:0:0:
204,204,21198,5,0,0:0:0:0:
36,164,21350,1,0,0:0:0:0:
20,160,21427,1,0,0:0:0:0:
4,156,21503,1,8,0:0:0:0:
52,80,21655,5,10,0:0:0:0:
96,276,21807,1,10,0:0:0:0:
12,244,21959,1,2,0:0:0:0:
188,120,22112,1,10,0:0:0:0:
204,204,22264,1,10,0:0:0:0:
96,24,22416,1,2,0:0:0:0:
184,20,22568,1,10,0:0:0:0:
310,71,22873,5,0,0:0:0:0:
420,212,23025,1,0,0:0:0:0:
420,120,23330,5,0,0:0:0:0:
310,261,23482,1,0,0:0:0:0:
392,296,23787,5,0,0:0:0:0:
216,264,23940,1,0,0:0:0:0:
264,192,24244,5,0,0:0:0:0:
260,372,24396,1,0,0:0:0:0:
176,340,24548,1,0,0:0:0:0:
356,376,24700,1,0,0:0:0:0:
356,376,24776,1,0,0:0:0:0:
356,376,24852,1,0,0:0:0:0:
92,348,25005,6,0,B|92:288|140:264|140:264|112:156,1,180
100,96,25462,1,0,0:0:0:0:
196,140,25614,1,0,0:0:0:0:
28,172,25766,1,0,0:0:0:0:
232,64,25919,1,0,0:0:0:0:
284,140,26071,2,0,P|268:192|216:224,1,90
232,64,26376,6,0,P|292:48|336:64,1,90,8|0,0:0|0:0,0:0:0:0:
436,156,26680,1,0,0:0:0:0:
472,8,26832,1,8,0:0:0:0:
488,236,26985,2,0,P|444:252|376:232,1,90,0|8,0:0|0:0,0:0:0:0:
320,208,27289,1,8,0:0:0:0:
356,124,27442,5,8,0:0:0:0:
402,363,27594,1,0,0:0:0:0:
173,284,27746,1,0,0:0:0:0:
232,220,27898,6,0,P|260:272|248:328,1,90,2|0,0:0|0:0,0:0:0:0:
152,200,28203,1,0,0:0:0:0:
93,264,28355,2,0,P|65:212|77:156,1,90,0|2,0:0|0:0,0:0:0:0:
92,96,28660,1,0,0:0:0:0:
172,52,28812,6,0,L|280:96,1,90
336,128,29117,2,0,P|348:76|320:24,1,90,2|0,0:0|0:0,0:0:0:0:
244,160,29421,2,0,P|280:208|316:220,1,90
424,171,29726,1,2,0:0:0:0:
336,128,29878,1,0,0:0:0:0:
488,100,30030,1,0,0:0:0:0:
444,264,30183,1,0,0:0:0:0:
380,328,30335,6,0,L|280:344,1,90,2|0,0:0|0:0,0:0:0:0:
216,292,30639,2,0,P|264:256|320:260,1,90
212,376,30944,1,2,0:0:0:0:
136,332,31096,1,0,0:0:0:0:
51,359,31249,2,0,P|48:315|68:275,1,90
148,232,31553,2,0,L|195:155,1,90,2|0,0:0|0:0,0:0:0:0:
284,140,31858,2,0,P|272:104|220:68,1,90
144,88,32162,1,2,0:0:0:0:
296,20,32315,5,0,0:0:0:0:
464,40,32467,1,0,0:0:0:0:
432,216,32619,1,0,0:0:0:0:
388,144,32771,2,0,P|440:132|496:160,1,90,2|0,0:0|0:0,0:0:0:0:
352,216,33076,2,0,L|256:264,1,90
192,300,33381,2,0,P|180:256|204:196,1,90,2|0,0:0|0:0,0:0:0:0:
244,140,33685,2,0,P|256:96|232:36,1,90
168,96,33990,2,0,L|72:144,1,90,2|0,0:0|0:0,0:0:0:0:
24,200,34294,5,0,0:0:0:0:
32,292,34447,1,0,0:0:0:0:
112,332,34599,1,2,0:0:0:0:
192,300,34751,1,0,0:0:0:0:
346,155,34903,1,0,0:0:0:0:
394,361,35055,1,0,0:0:0:0:
304,380,35208,6,0,P|308:328|340:288,1,90,2|0,0:0|0:0,0:0:0:0:
459,294,35513,2,0,P|482:332|483:376,1,90
393,258,35817,2,0,P|428:224|484:224,1,90,2|0,0:0|0:0,0:0:0:0:
459,294,36122,1,0,0:0:0:0:
419,136,36274,1,0,0:0:0:0:
296,248,36426,1,2,0:0:0:0:
221,199,36579,6,0,P|205:159|217:103,1,90
343,320,36883,2,0,P|311:355|251:359,1,90,0|2,0:0|0:0,0:0:0:0:
192,296,37188,1,0,0:0:0:0:
112,336,37340,6,0,B|92:284|124:240|124:240|96:148,1,180,4|0,0:0|0:0,0:0:0:0:
64,84,37797,2,0,P|12:156|72:248,1,180,4|0,0:0|0:0,0:0:0:0:
196,224,38254,2,0,L|169:137,1,90,4|0,0:0|0:0,0:0:0:0:
168,300,38558,2,0,P|240:292|252:168,1,180,4|0,0:0|0:0,0:0:0:0:
288,112,39015,2,0,B|352:88|352:88|372:52|372:52|464:12,1,180,4|0,0:0|0:0,0:0:0:0:
496,92,39472,2,0,L|408:128,1,90,4|0,0:0|0:0,0:0:0:0:
336,176,39777,6,0,P|400:216|500:148,1,180,4|0,0:0|0:0,0:0:0:0:
288,112,40233,2,0,B|245:149|260:199|260:199|175:232,1,180,4|0,0:0|0:0,0:0:0:0:
212,314,40690,2,0,L|305:277,1,90,4|0,0:0|0:0,0:0:0:0:
182,228,40995,2,0,P|125:292|148:376,1,180,4|0,0:0|0:0,0:0:0:0:
360,343,41452,2,0,P|384:260|327:196,1,180,4|0,0:0|0:0,0:0:0:0:
212,314,41909,5,0,0:0:0:0:
212,44,42061,1,0,0:0:0:0:
445,179,42213,1,0,0:0:0:0:
445,179,43431,5,0,0:0:0:0:
445,179,44650,6,0,L|344:212,1,90,4|0,0:0|0:0,0:0:0:0:
276,240,44954,1,0,0:0:0:0:
292,156,45106,1,0,0:0:0:0:
348,296,45259,1,0,0:0:0:0:
376,124,45411,1,0,0:0:0:0:
212,188,45563,1,0,0:0:0:0:
420,296,45716,1,0,0:0:0:0:
440,308,45792,1,0,0:0:0:0:
460,320,45868,5,0,0:0:0:0:
288,360,46020,1,0,0:0:0:0:
292,156,46172,1,0,0:0:0:0:
472,232,46325,1,0,0:0:0:0:
168,256,46477,1,0,0:0:0:0:
359,206,46629,1,0,0:0:0:0:
172,364,46781,2,0,P|104:344|68:296,1,90,2|0,0:0|0:0,0:0:0:0:
48,252,47086,5,2,0:0:0:0:
100,172,47238,1,0,0:0:0:0:
160,104,47391,2,0,P|124:84|68:88,1,90,8|0,0:0|0:0,0:0:0:0:
220,160,47695,2,0,P|240:124|236:68,1,90
164,220,48000,2,0,P|200:240|256:236,1,90,10|0,0:0|0:0,0:0:0:0:
332,208,48304,2,0,L|420:120,1,90
456,76,48609,1,8,0:0:0:0:
368,68,48761,1,0,0:0:0:0:
496,156,48914,6,0,L|428:224,1,90
361,289,49218,2,0,P|337:253|333:201,1,90,8|0,0:0|0:0,0:0:0:0:
428,336,49523,2,0,P|388:368|340:368,1,90,2|0,0:0|0:0,0:0:0:0:
264,352,49827,2,0,L|156:336,1,90,8|0,0:0|0:0,0:0:0:0:
111,274,50132,2,0,L|219:258,1,90
263,197,50436,2,0,L|155:181,1,90,10|0,0:0|0:0,0:0:0:0:
110,119,50741,2,0,L|218:103,1,90
280,64,51046,5,8,0:0:0:0:
208,12,51198,1,0,0:0:0:0:
300,144,51350,2,0,P|344:116|360:60,1,90
384,0,51655,2,0,P|428:28|444:84,1,90,8|0,0:0|0:0,0:0:0:0:
448,152,51959,2,0,L|432:260,1,90,2|0,0:0|0:0,0:0:0:0:
352,328,52264,2,0,L|365:238,1,90,8|0,0:0|0:0,0:0:0:0:
308,136,52568,2,0,L|292:244,1,90
212,312,52873,2,0,L|225:222,1,90,10|0,0:0|0:0,0:0:0:0:
146,176,53178,5,0,0:0:0:0:
219,132,53330,1,0,0:0:0:0:
128,264,53482,2,0,L|112:372,1,90,8|0,0:0|0:0,0:0:0:0:
44,296,53787,2,0,L|57:206,1,90
126,116,54091,1,8,0:0:0:0:
27,123,54244,1,0,0:0:0:0:
176,42,54396,2,0,P|219:22|274:16,1,90,2|0,0:0|0:0,0:0:0:0:
412,8,54700,1,8,0:0:0:0:
384,156,54853,1,0,0:0:0:0:
336,88,55005,6,0,P|304:128|308:184,1,90
468,165,55310,2,0,P|463:120|433:87,1,90,10|0,0:0|0:0,0:0:0:0:
467,237,55614,5,0,0:0:0:0:
314,295,55766,1,0,0:0:0:0:
314,295,55842,1,0,0:0:0:0:
314,295,55918,1,0,0:0:0:0:
471,245,56070,1,0,0:0:0:0:
471,245,56147,1,0,0:0:0:0:
471,245,56223,5,0,0:0:0:0:
338,369,56376,1,0,0:0:0:0:
175,233,56528,1,0,0:0:0:0:
314,295,56680,1,0,0:0:0:0:
264,148,56832,6,0,B|244:104|188:96|188:96|84:100,1,180,4|0,0:0|0:0,0:0:0:0:
28,152,57289,1,0,0:0:0:0:
260,224,57442,2,0,P|320:200|340:132,1,90
344,92,57746,1,8,0:0:0:0:
268,44,57898,1,0,0:0:0:0:
196,184,58051,6,0,L|140:300,1,90
120,348,58355,1,8,0:0:0:0:
68,272,58507,1,0,0:0:0:0:
208,340,58660,2,0,P|240:352|304:336,1,90
364,288,58964,1,8,0:0:0:0:
380,376,59117,1,0,0:0:0:0:
416,176,59268,5,8,0:0:0:0:
276,252,59421,1,0,0:0:0:0:
490,304,59573,1,0,0:0:0:0:
352,212,59725,1,8,0:0:0:0:
433,68,59878,1,0,0:0:0:0:
512,213,60030,1,0,0:0:0:0:
331,127,60182,2,0,P|331:171|359:219,1,90,8|0,0:0|0:0,0:0:0:0:
256,28,60487,5,2,0:0:0:0:
227,22,60563,1,0,0:0:0:0:
198,23,60639,1,0,0:0:0:0:
169,30,60715,1,0,0:0:0:0:
143,43,60791,1,0,0:0:0:0:
120,61,60867,1,0,0:0:0:0:
102,84,60943,5,2,0:0:0:0:
89,110,61019,1,0,0:0:0:0:
82,138,61096,1,0,0:0:0:0:
82,167,61172,1,0,0:0:0:0:
88,196,61248,1,0,0:0:0:0:
100,223,61324,1,0,0:0:0:0:
106,251,61400,5,2,0:0:0:0:
107,280,61476,1,0,0:0:0:0:
102,309,61552,1,0,0:0:0:0:
91,336,61628,1,0,0:0:0:0:
68,360,61705,6,0,L|160:359,1,90
236,260,62162,1,0,0:0:0:0:
236,260,62315,1,0,0:0:0:0:
332,340,62619,1,0,0:0:0:0:
332,340,62771,1,0,0:0:0:0:
400,280,62924,6,0,P|436:248|440:176,1,90,2|2,0:0|0:0,0:0:0:0:
336,136,63228,2,0,P|300:168|296:240,1,90,2|2,0:0|0:0,0:0:0:0:
368,208,63533,1,2,0:0:0:0:
412,60,63685,1,2,0:0:0:0:
264,96,63837,2,0,P|212:108|148:88,1,90,2|2,0:0|0:0,0:0:0:0:
92,68,64142,5,0,0:0:0:0:
92,68,64294,1,0,0:0:0:0:
40,164,64599,1,0,0:0:0:0:
40,164,64751,1,0,0:0:0:0:
112,244,65056,1,0,0:0:0:0:
112,244,65208,1,0,0:0:0:0:
188,200,65360,6,0,P|228:184|276:192,1,90,2|2,0:0|0:0,0:0:0:0:
340,216,65664,1,2,0:0:0:0:
396,260,65817,1,2,0:0:0:0:
464,280,65969,2,0,P|496:256|508:184,1,90,2|2,0:0|0:0,0:0:0:0:
412,332,66274,2,0,L|284:348,1,90,2|2,0:0|0:0,0:0:0:0:
252,344,66578,5,0,0:0:0:0:
252,344,66730,1,0,0:0:0:0:
172,304,67035,1,0,0:0:0:0:
172,304,67187,1,0,0:0:0:0:
128,224,67492,1,0,0:0:0:0:
128,224,67645,1,0,0:0:0:0:
148,136,67796,6,0,P|224:80|312:108,1,180,2|2,0:0|0:0,0:0:0:0:
372,156,68253,1,2,0:0:0:0:
440,128,68406,2,0,P|472:88|480:44,1,90,2|2,0:0|0:0,0:0:0:0:
312,196,68710,2,0,P|280:236|272:280,1,90,2|2,0:0|0:0,0:0:0:0:
272,364,69015,5,0,0:0:0:0:
272,364,69167,1,0,0:0:0:0:
184,348,69472,1,0,0:0:0:0:
184,348,69624,1,0,0:0:0:0:
116,288,69928,1,0,0:0:0:0:
116,288,70080,1,0,0:0:0:0:
88,204,70233,6,0,P|84:136|112:84,1,90
136,36,70538,1,0,0:0:0:0:
192,116,70690,1,0,0:0:0:0:
204,124,70766,1,0,0:0:0:0:
216,132,70842,1,0,0:0:0:0:
40,56,70994,1,0,0:0:0:0:
220,24,71147,1,0,0:0:0:0:
160,204,71299,1,0,0:0:0:0:
328,136,71451,6,0,P|424:136|462:217,1,180,12|8,0:0|0:0,0:0:0:0:
456,318,71908,1,0,0:0:0:0:
376,208,72060,1,0,0:0:0:0:
504,88,72213,1,0,0:0:0:0:
388,292,72365,2,0,P|356:320|300:333,1,90,8|0,0:0|0:0,0:0:0:0:
216,304,72669,5,0,0:0:0:0:
304,228,72822,1,0,0:0:0:0:
240,376,72974,2,0,P|172:368|148:336,1,90,8|0,0:0|0:0,0:0:0:0:
72,248,73279,1,0,0:0:0:0:
168,52,73431,1,0,0:0:0:0:
52,112,73583,1,8,0:0:0:0:
176,192,73735,1,0,0:0:0:0:
172,200,73812,1,0,0:0:0:0:
168,208,73888,6,0,P|224:256|328:220,1,180,4|8,0:0|0:0,0:0:0:0:
412,183,74345,1,0,0:0:0:0:
396,88,74497,2,0,L|432:-16,1,90
281,82,74801,2,0,L|252:168,1,90,8|0,0:0|0:0,0:0:0:0:
328,300,75106,2,0,P|392:316|496:224,1,180,0|8,0:0|0:0,0:0:0:0:
255,225,75563,2,0,P|191:209|87:301,1,180
108,373,76020,1,8,0:0:0:0:
307,310,76172,1,0,0:0:0:0:
164,224,76324,6,0,B|128:192|112:144|124:100|124:100|184:136,1,180,4|8,0:0|0:0,0:0:0:0:
272,244,76781,1,0,0:0:0:0:
344,76,76933,2,0,P|392:64|432:80,1,90
512,208,77238,2,0,P|469:221|427:209,1,90,8|0,0:0|0:0,0:0:0:0:
319,173,77543,2,0,B|256:153|256:153|251:217|268:260|307:285,1,180,0|8,0:0|0:0,0:0:0:0:
342,313,77999,5,0,0:0:0:0:
184,246,78152,1,0,0:0:0:0:
70,355,78304,1,0,0:0:0:0:
260,349,78456,1,8,0:0:0:0:
64,237,78609,1,0,0:0:0:0:
78,72,78761,5,8,0:0:0:0:
180,152,78913,1,0,0:0:0:0:
227,70,79218,5,8,0:0:0:0:
41,164,79371,1,0,0:0:0:0:
0,98,79675,5,8,0:0:0:0:
300,116,79828,1,2,0:0:0:0:
376,116,80588,6,0,P|424:120|480:64,1,112.5
452,36,81045,6,0,P|472:162|412:236,1,198.000006042481,12|0,0:0|0:0,0:0:0:0:
335,296,81502,2,0,L|210:271,1,99.0000030212403,8|0,0:0|0:0,0:0:0:0:
108,213,81807,1,0,0:0:0:0:
198,138,81959,1,0,0:0:0:0:
155,338,82111,1,8,0:0:0:0:
113,128,82263,6,0,P|152:65|280:110,1,198.000006042481
354,170,82720,2,0,P|405:164|450:141,1,99.0000030212403,8|0,0:0|0:0,0:0:0:0:
455,30,83025,1,0,0:0:0:0:
329,183,83177,1,0,0:0:0:0:
481,276,83329,1,8,0:0:0:0:
296,101,83482,6,0,B|225:85|225:85|186:92|186:92|86:67,1,198.000006042481,4|0,0:0|0:0,0:0:0:0:
155,252,83939,2,0,L|251:275,1,99.0000030212403,8|0,0:0|0:0,0:0:0:0:
407,349,84243,1,0,0:0:0:0:
351,174,84395,1,0,0:0:0:0:
305,378,84548,1,8,0:0:0:0:
421,150,84700,6,0,P|439:99|436:20,1,99.0000030212403
260,41,85005,2,0,P|242:92|245:171,1,99.0000030212403,0|8,0:0|0:0,0:0:0:0:
494,169,85309,2,0,P|498:115|474:39,1,99.0000030212403
182,44,85614,2,0,P|177:97|201:173,1,99.0000030212403,0|8,0:0|0:0,0:0:0:0:
329,20,85918,6,0,L|121:51,1,198.000006042481,4|0,0:0|0:0,0:0:0:0:
53,177,86375,2,0,P|40:228|57:280,1,99.0000030212403,8|0,0:0|0:0,0:0:0:0:
208,324,86680,1,0,0:0:0:0:
45,363,86832,1,0,0:0:0:0:
153,215,86984,1,8,0:0:0:0:
274,351,87136,6,0,P|334:353|423:251,1,198.000006042481
264,151,87593,2,0,L|308:239,1,99.0000030212403,8|0,0:0|0:0,0:0:0:0:
500,340,87898,1,0,0:0:0:0:
413,149,88050,1,0,0:0:0:0:
375,362,88202,1,8,0:0:0:0:
493,111,88355,6,0,P|454:66|336:107,1,198.000006042481,4|0,0:0|0:0,0:0:0:0:
245,213,88812,2,0,P|191:220|126:202,1,99.0000030212403,8|0,0:0|0:0,0:0:0:0:
52,129,89116,1,0,0:0:0:0:
147,333,89268,1,0,0:0:0:0:
200,128,89421,1,8,0:0:0:0:
264,328,89573,6,0,P|216:344|156:328,3,107.999996704102
140,320,90563,1,0,0:0:0:0:
118,303,90639,1,0,0:0:0:0:
100,283,90715,1,0,0:0:0:0:
86,260,90791,6,0,B|60:208|60:208|56:148|96:108|152:104,1,198.000006042481,4|0,0:0|0:0,0:0:0:0:
248,88,91248,2,0,P|288:76|328:32,1,99.0000030212403,8|0,0:0|0:0,0:0:0:0:
180,36,91553,1,0,0:0:0:0:
344,160,91705,1,0,0:0:0:0:
256,8,91857,1,8,0:0:0:0:
258,200,92010,6,0,P|292:240|340:256,1,99.0000030212403,2|0,0:0|0:0,0:0:0:0:
441,183,92314,1,0,0:0:0:0:
248,120,92466,2,0,L|184:204,1,99.0000030212403,8|0,0:0|0:0,0:0:0:0:
56,252,92771,1,0,0:0:0:0:
103,37,92923,1,0,0:0:0:0:
172,197,93076,1,8,0:0:0:0:
344,68,93228,6,0,B|392:52|392:52|448:88|441:195,1,198.000006042481,4|0,0:0|0:0,0:0:0:0:
348,281,93685,2,0,P|296:297|248:285,1,99.0000030212403,8|0,0:0|0:0,0:0:0:0:
66,166,93989,2,0,P|118:150|166:162,1,99.0000030212403
296,211,94294,1,8,0:0:0:0:
48,255,94446,6,0,P|-22:184|12:93,1,198.000006042481,2|0,0:0|0:0,0:0:0:0:
100,16,94903,1,8,0:0:0:0:
160,159,95055,1,0,0:0:0:0:
36,256,95208,1,0,0:0:0:0:
168,64,95360,1,0,0:0:0:0:
296,211,95512,1,8,0:0:0:0:
372,64,95664,6,0,B|424:32|424:32|460:68|476:112|452:196,1,198.000006042481,4|0,0:0|0:0,0:0:0:0:
348,281,96121,2,0,P|296:297|248:285,1,99.0000030212403,8|0,0:0|0:0,0:0:0:0:
163,211,96426,1,0,0:0:0:0:
254,131,96578,2,0,P|302:122|348:137,1,99.0000030212403,0|8,0:0|0:0,0:0:0:0:
460,157,96883,6,0,P|403:200|361:213,1,99.0000030212403
187,211,97187,1,8,0:0:0:0:
156,24,97340,1,8,0:0:0:0:
261,226,97492,1,8,0:0:0:0:
121,344,97644,1,8,0:0:0:0:
237,154,97796,1,8,0:0:0:0:
427,206,97949,1,8,0:0:0:0:
392,40,98101,6,0,P|452:116|410:223,1,198.000006042481,6|0,0:0|0:0,0:0:0:0:
312,288,98558,2,0,L|192:332,1,99.0000030212403
255,171,98862,2,0,L|375:127,1,99.0000030212403
392,40,99167,1,0,0:0:0:0:
192,80,99319,6,0,P|144:160|192:260,1,198.000006042481,2|0,0:0|0:0,0:0:0:0:
276,80,99776,2,0,P|253:21|210:-2,1,99.0000030212403
72,56,100081,1,0,0:0:0:0:
255,171,100233,1,0,0:0:0:0:
404,40,100385,1,0,0:0:0:0:
192,80,100538,6,0,B|128:128|128:128|116:164|116:164|40:224,1,198.000006042481,2|0,0:0|0:0,0:0:0:0:
44,344,100994,2,0,P|84:364|156:344,1,99.0000030212403
292,288,101299,2,0,P|252:268|180:288,1,99.0000030212403
320,368,101603,2,0,P|364:332|361:239,1,148.50000453186
344,216,101908,5,0,0:0:0:0:
336,181,101984,1,0,0:0:0:0:
337,145,102060,1,0,0:0:0:0:
346,111,102136,1,0,0:0:0:0:
364,80,102212,1,0,0:0:0:0:
389,54,102288,1,0,0:0:0:0:
419,35,102364,1,0,0:0:0:0:
453,24,102440,1,0,0:0:0:0:
492,24,102517,6,0,B|420:72|344:40|344:40|384:72|384:72|288:48|204:92,1,364.500001390457,10|0,0:0|0:0,0:0:0:0:
112,184,103126,6,0,P|80:228|92:296,1,99.0000030212403,8|0,0:0|0:0,0:0:0:0:
178,334,103431,1,0,0:0:0:0:
188,188,103583,2,0,P|176:144|112:108,1,99.0000030212403,8|0,0:0|0:0,0:0:0:0:
20,176,103888,1,0,0:0:0:0:
300,148,104040,2,0,B|324:124|324:124|344:148|344:148|382:103|439:108|480:156,1,198.000006042481,8|0,0:0|0:0,0:0:0:0:
512,288,104497,6,0,P|524:335|512:383,1,99.0000030212403,2|2,0:0|0:0,0:0:0:0:
407,291,104801,2,0,P|395:244|407:196,1,99.0000030212403,2|2,0:0|0:0,0:0:0:0:
421,363,105106,1,2,0:0:0:0:
280,332,105258,1,10,0:0:0:0:
243,211,105411,1,2,0:0:0:0:
153,95,105563,6,0,P|94:78|-28:164,1,198.000006042481,8|0,0:0|0:0,0:0:0:0:
229,110,106020,2,0,P|288:127|410:41,1,198.000006042481,8|0,0:0|0:0,0:0:0:0:
295,6,106477,2,0,L|348:218,1,198.000006042481,8|0,0:0|0:0,0:0:0:0:
255,306,106933,5,2,0:0:0:0:
125,384,107086,1,2,0:0:0:0:
324,286,107238,1,2,0:0:0:0:
229,110,107390,1,2,0:0:0:0:
308,357,107543,1,2,0:0:0:0:
478,340,107695,1,2,0:0:0:0:
126,249,107847,2,0,B|71:220|71:220|48:166|65:118|79:112,1,148.50000453186,0|8,0:0|0:0,0:0:0:0:
176,65,108152,53,4,0:0:0:0:
381,134,108304,1,4,0:0:0:0:
421,51,108609,5,0,0:0:0:0:
143,133,108761,1,0,0:0:0:0:
99,70,109065,5,4,0:0:0:0:
456,171,109218,1,0,0:0:0:0:
496,101,109522,5,0,0:0:0:0:
63,135,109675,1,0,0:0:0:0:
277,261,109827,6,0,L|258:233,9,33.0000010070801,2|2|2|2|2|2|2|2|2|8,0:0|0:0|0:0|0:0|0:0|0:0|0:0|0:0|0:0|0:0,0:0:0:0:
184,344,110436,53,8,0:0:0:0:
140,332,110512,1,8,0:0:0:0:
108,300,110588,1,8,0:0:0:0:
88,260,110664,1,8,0:0:0:0:
76,213,110741,22,0,B|32:192|0:128|0:128|64:160|136:172|136:172|96:128|64:64|64:64|96:96|192:128|192:128|128:64|128:0|128:0|160:64|224:64|224:64|224:96|256:16|256:16|288:96|288:64|288:64|352:64|384:0|384:0|384:64|320:128|320:128|416:96|448:64|448:64|416:128|376:172|376:172|448:160|512:128|512:128|480:192|441:208,1,1748.69991728257,4|0,0:0|0:0,0:0:0:0:
