osu file format v14

[General]
AudioFilename: audio.mp3
AudioLeadIn: 0
PreviewTime: 80588
Countdown: 0
SampleSet: Normal
StackLeniency: 0.7
Mode: 2
LetterboxInBreaks: 0
WidescreenStoryboard: 1

[Editor]
Bookmarks: 12365,14040,16781,17847,19218,19522,19979,20284,21654,25005,26832,28659,30030,37340,40994,41451,44649,47086,51959,55766,57898,61705,76324,78761,81045,83329,88355,92010,97187,101908,103126,105563,111654
DistanceSpacing: 1
BeatDivisor: 4
GridSize: 32
TimelineZoom: 1.5

[Metadata]
Title:Great Distance
TitleUnicode:Great Distance
Artist:ryo (supercell) feat.chelly
ArtistUnicode:ryo (supercell) feat.chelly
Creator:IDu5t
Version:Overdose
Source:ブレイブリーセカンド
Tags:chelly bravely second end layer opening theme square enix 吉田明彦 akihiko yoshida egoist nintendo
BeatmapID:1647247
BeatmapSetID:784601

[Difficulty]
HPDrainRate:6
CircleSize:4
OverallDifficulty:9.2
ApproachRate:9.2
SliderMultiplier:1.8
SliderTickRate:2

[Events]
//Background and Video events
0,0,"bg.jpg",0,0
//Break Periods
//Storyboard Layer 0 (Background)
//Storyboard Layer 1 (Fail)
//Storyboard Layer 2 (Pass)
//Storyboard Layer 3 (Foreground)
//Storyboard Sound Samples

[TimingPoints]
10538,304.568527918782,4,1,1,50,1,0
12365,-100,4,1,1,30,0,0
12365,-100,4,1,1,30,0,0
12669,-100,4,1,1,60,0,0
17847,-100,4,1,1,50,0,0
19218,-100,4,1,1,50,0,0
20284,-100,4,1,1,50,0,0
21654,-100,4,1,1,50,0,0
22416,-100,4,1,1,50,0,0
22720,-100,4,1,1,50,0,0
24548,-100,4,1,1,30,0,0
24852,-100,4,1,1,50,0,0
27593,-100,4,1,1,40,0,0
37340,-100,4,1,1,60,0,0
42213,-100,4,1,1,30,0,0
44649,-100,4,1,1,40,0,0
47086,-100,4,1,1,50,0,0
55766,-100,4,1,1,50,0,0
56832,-100,4,1,1,60,0,0
59268,-100,4,1,1,60,0,0
61705,-100,4,1,1,40,0,0
70233,-100,4,1,1,50,0,0
71451,-100,4,1,1,60,0,0
78761,-100,4,1,1,60,0,0
81045,-100,4,1,1,60,0,1
89421,-100,4,1,1,60,0,1
89725,-100,4,1,1,30,0,1
89878,-100,4,1,1,60,0,1
90030,-100,4,1,1,30,0,1
90182,-100,4,1,1,60,0,1
90334,-100,4,1,1,30,0,1
90487,-100,4,1,1,60,0,1
90639,-100,4,1,1,30,0,1
90791,-100,4,1,1,60,0,1
97187,-100,4,1,1,60,0,1
98101,-100,4,1,1,60,0,1
101908,-100,4,1,1,50,0,1
103126,-100,4,1,1,50,0,1
104497,-100,4,1,1,50,0,1
105563,-100,4,1,1,50,0,1
106933,-100,4,1,1,50,0,1
108152,-100,4,1,1,50,0,1
109979,-100,4,1,1,30,0,1
110284,-100,4,1,1,30,0,1
110436,-100,4,1,1,50,0,1
110741,-100,4,1,1,50,0,0
112720,-100,4,1,1,50,0,0
113025,-100,4,1,1,50,0,0
114852,-100,4,1,1,5,0,0
115157,-100,4,1,1,40,0,0

[Colours]
Combo1 : 187,119,119
Combo2 : 255,0,0
Combo3 : 255,128,64

[HitObjects]
431,266,12365,6,2,L|451:245,6,30
188,272,12822,6,0,P|134:196|188:159,1,180,6|0,0:0|0:0,0:0:0:0:
352,158,13279,2,0,L|259:159,1,90,10|0,0:0|0:0,0:0:0:0:
99,77,13583,1,0,0:0:0:0:
210,80,13735,2,0,L|316:80,1,90,2|8,0:0|0:0,0:0:0:0:
81,311,14040,6,0,P|40:216|99:202,1,180,4|0,0:0|0:0,0:0:0:0:
247,204,14497,2,0,L|139:203,1,90,10|0,0:0|0:0,0:0:0:0:
319,113,14801,1,0,0:0:0:0:
207,113,14954,2,0,L|93:113,1,90,2|8,0:0|0:0,0:0:0:0:
360,297,15258,6,0,L|211:179,1,180,14|0,0:0|0:0,0:0:0:0:
56,174,15715,2,0,L|140:131,1,90,10|0,0:0|0:0,0:0:0:0:
299,70,16020,1,0,0:0:0:0:
182,70,16172,1,0,0:0:0:0:
65,67,16324,1,0,0:0:0:0:
293,286,16477,2,0,L|385:257,1,90
121,175,16781,5,8,0:0:0:0:
22,99,16933,1,8,0:0:0:0:
274,171,17086,1,8,0:0:0:0:
175,95,17238,1,8,0:0:0:0:
427,173,17390,1,8,0:0:0:0:
327,97,17543,1,8,0:0:0:0:
102,97,17695,1,8,0:0:0:0:
359,315,17847,6,0,P|414:229|353:173,1,180,12|0,0:0|0:0,0:0:0:0:
146,245,18304,2,0,L|15:110,1,180,8|0,0:0|0:0,0:0:0:0:
252,140,18761,2,0,L|442:136,1,180,8|0,0:0|0:0,0:0:0:0:
197,227,19218,6,0,L|141:227,1,45
107,227,19370,2,0,L|157:227,1,45,2|0,0:0|0:0,0:0:0:0:
383,226,19522,2,0,L|336:201,1,45
111,301,19675,5,8,0:0:0:0:
75,272,19751,1,0,0:0:0:0:
75,227,19827,1,0,0:0:0:0:
111,201,19903,1,0,0:0:0:0:
339,190,19979,1,8,0:0:0:0:
375,160,20055,1,0,0:0:0:0:
375,115,20131,1,0,0:0:0:0:
339,89,20207,1,0,0:0:0:0:
140,327,20284,6,0,P|83:268|157:218,1,180,12|0,0:0|0:0,0:0:0:0:
381,210,20741,2,0,P|439:163|350:100,1,180
168,159,21197,2,0,B|102:159|102:159|217:100,1,180,8|0,0:0|0:0,0:0:0:0:
432,341,21654,5,0,0:0:0:0:
468,311,21730,1,0,0:0:0:0:
468,266,21806,1,2,0:0:0:0:
432,240,21882,1,0,0:0:0:0:
192,164,21959,2,0,L|142:142,1,45
382,86,22111,2,0,L|438:86,1,45,8|0,0:0|0:0,0:0:0:0:
471,86,22263,2,0,L|418:87,1,45
264,287,22416,1,8,0:0:0:0:
398,279,22568,6,0,L|335:177,1,90
97,200,22873,1,8,0:0:0:0:
399,280,23025,6,0,L|445:197,1,90,12|0,0:0|0:0,0:0:0:0:
171,203,23330,1,8,0:0:0:0:
399,280,23482,6,0,L|324:231,1,90,12|0,0:0|0:0,0:0:0:0:
34,206,23787,1,8,0:0:0:0:
400,279,23939,6,0,B|493:205|492:206,1,90,12|0,0:0|0:0,0:0:0:0:
165,201,24243,1,8,0:0:0:0:
75,201,24395,1,8,0:0:0:0:
332,157,24548,6,2,L|353:179,6,30
84,205,25005,2,0,P|100:114|176:86,1,180
282,178,25461,2,0,L|179:178,1,90,8|0,0:0|0:0,0:0:0:0:
356,114,25766,2,0,L|356:20,1,90
230,51,26070,2,0,L|106:51,1,90,8|0,0:0|0:0,0:0:0:0:
396,283,26375,6,0,L|490:283,1,90,8|0,0:0|0:0,0:0:0:0:
387,181,26680,1,0,0:0:0:0:
129,284,26832,2,0,L|223:284,1,90,8|0,0:0|0:0,0:0:0:0:
120,182,27137,1,0,0:0:0:0:
387,181,27289,1,8,0:0:0:0:
169,244,27593,5,8,0:0:0:0:
305,204,27746,1,8,0:0:0:0:
161,144,27898,2,0,L|274:143,1,90,2|0,0:0|0:0,0:0:0:0:
358,86,28202,2,0,L|174:90,1,180,2|0,0:0|0:0,0:0:0:0:
297,308,28659,6,0,L|404:307,1,90,2|0,0:0|0:0,0:0:0:0:
293,221,28964,1,0,0:0:0:0:
402,222,29116,2,0,L|492:222,1,90
373,156,29421,2,0,L|374:47,1,90
256,60,29725,2,0,L|351:60,1,90,0|4,0:0|0:0,0:0:0:0:
129,255,30030,5,8,0:0:0:0:
255,221,30182,1,8,0:0:0:0:
156,103,30334,2,0,L|260:129,2,90
7,163,30791,2,0,L|111:184,1,90
238,203,31096,2,0,L|262:293,1,90
117,234,31400,5,0,0:0:0:0:
71,156,31553,1,2,0:0:0:0:
112,76,31705,1,0,0:0:0:0:
275,64,31857,1,2,0:0:0:0:
384,141,32010,1,0,0:0:0:0:
276,212,32162,1,2,0:0:0:0:
178,287,32314,1,0,0:0:0:0:
397,312,32466,5,8,0:0:0:0:
270,240,32619,1,8,0:0:0:0:
388,208,32771,2,0,L|386:112,1,90,2|0,0:0|0:0,0:0:0:0:
267,148,33076,2,0,L|267:53,1,90,2|0,0:0|0:0,0:0:0:0:
384,41,33380,1,2,0:0:0:0:
222,311,33532,2,0,P|149:234|156:161,1,180
385,318,34142,6,0,P|424:224|362:170,1,180,2|0,0:0|0:0,0:0:0:0:
217,122,34598,2,0,L|317:123,1,90,2|2,0:0|0:0,0:0:0:0:
70,258,34903,5,8,0:0:0:0:
196,192,35055,1,8,0:0:0:0:
51,147,35208,2,0,L|142:99,1,90
292,68,35512,2,0,L|77:69,1,180,2|0,0:0|0:0,0:0:0:0:
403,290,36121,5,8,0:0:0:0:
277,216,36274,1,8,0:0:0:0:
394,173,36426,2,0,L|294:174,1,90,0|2,0:0|0:0,0:0:0:0:
196,98,36730,2,0,L|285:99,1,90
403,128,37035,2,0,L|374:40,1,90
148,269,37340,5,8,0:0:0:0:
40,165,37492,1,0,0:0:0:0:
148,55,37644,1,0,0:0:0:0:
364,275,37796,1,8,0:0:0:0:
472,171,37948,1,0,0:0:0:0:
364,62,38100,1,0,0:0:0:0:
147,120,38253,1,8,0:0:0:0:
147,120,38406,1,0,0:0:0:0:
362,294,38558,5,8,0:0:0:0:
254,190,38710,1,0,0:0:0:0:
362,80,38862,1,0,0:0:0:0:
146,294,39015,1,8,0:0:0:0:
254,190,39167,1,0,0:0:0:0:
146,80,39319,1,0,0:0:0:0:
362,80,39472,1,8,0:0:0:0:
362,80,39624,1,0,0:0:0:0:
120,196,39776,5,12,0:0:0:0:
255,197,39928,1,0,0:0:0:0:
391,193,40081,1,0,0:0:0:0:
147,301,40233,1,8,0:0:0:0:
255,197,40385,1,0,0:0:0:0:
147,87,40537,1,0,0:0:0:0:
367,93,40690,1,8,0:0:0:0:
367,93,40842,1,0,0:0:0:0:
142,309,40994,5,8,0:0:0:0:
250,205,41146,1,0,0:0:0:0:
142,95,41298,1,0,0:0:0:0:
358,309,41451,1,8,0:0:0:0:
250,205,41603,1,0,0:0:0:0:
358,95,41755,1,0,0:0:0:0:
140,152,41908,2,0,L|135:241,1,90,8|0,0:0|0:0,0:0:0:0:
263,306,42213,6,0,L|116:192,1,180
247,211,42669,2,0,P|206:108|233:47,1,180
323,72,43126,1,0,0:0:0:0:
496,88,43279,6,0,P|435:219|303:218,1,270
203,272,43888,2,0,L|290:294,1,90
173,187,44192,1,0,0:0:0:0:
53,193,44345,2,0,L|94:98,1,90
305,236,44649,6,0,L|360:234,1,45
350,189,44801,2,0,L|300:190,1,45
86,202,44954,2,0,L|36:202,1,45
86,202,45106,2,0,L|141:202,1,45
349,116,45258,6,0,L|388:95,1,45
164,76,45411,2,0,L|184:124,1,45
401,298,45563,2,0,L|460:298,1,45
446,253,45715,2,0,L|398:253,1,45
182,150,45867,2,0,L|202:199,1,45
424,107,46020,2,0,L|366:126,1,45
159,281,46172,6,0,L|93:283,1,45
114,237,46324,2,0,L|173:237,1,45
383,229,46477,2,0,L|440:229,1,45
383,229,46629,2,0,P|318:229|319:229,1,45
129,95,46781,2,0,L|171:75,1,45
395,57,46933,2,0,L|340:82,1,45
122,288,47086,6,0,L|18:288,2,90,12|0|8,0:0|0:0|0:0,0:0:0:0:
223,289,47543,1,0,0:0:0:0:
61,200,47695,2,0,L|160:197,1,90
243,196,47999,1,0,0:0:0:0:
405,102,48152,2,0,L|316:101,1,90
206,98,48456,1,0,0:0:0:0:
425,289,48609,6,0,L|323:290,1,90
114,180,48913,2,0,L|216:180,1,90,2|0,0:0|0:0,0:0:0:0:
425,89,49218,2,0,L|326:89,1,90,8|2,0:0|0:0,0:0:0:0:
92,267,49522,5,8,0:0:0:0:
65,161,49675,1,8,0:0:0:0:
352,276,49979,1,8,0:0:0:0:
379,170,50132,1,8,0:0:0:0:
91,232,50436,5,8,0:0:0:0:
64,118,50588,1,8,0:0:0:0:
317,300,50893,1,8,0:0:0:0:
355,199,51045,1,8,0:0:0:0:
85,191,51350,2,0,L|288:140,1,180,6|0,0:0|0:0,0:0:0:0:
143,221,51959,6,0,L|48:222,2,90,0|0|8,0:0|0:0|0:0,0:0:0:0:
271,226,52416,1,2,0:0:0:0:
51,140,52568,2,0,L|238:103,1,180,2|0,0:0|0:0,0:0:0:0:
8,323,53025,6,0,L|42:222,1,90
199,222,53329,2,0,L|305:219,2,90
418,217,53786,1,0,0:0:0:0:
167,298,54091,5,8,0:0:0:0:
78,298,54243,1,0,0:0:0:0:
240,201,54395,2,0,L|346:202,1,90
166,94,54700,2,0,L|255:92,1,90,10|0,0:0|0:0,0:0:0:0:
474,287,55005,6,0,P|474:187|392:166,1,180
285,179,55461,2,0,L|351:110,1,90
125,334,55766,5,0,0:0:0:0:
89,306,55842,1,0,0:0:0:0:
61,269,55918,1,0,0:0:0:0:
89,233,55995,1,0,0:0:0:0:
125,208,56070,1,0,0:0:0:0:
286,218,56223,5,8,0:0:0:0:
217,159,56375,1,8,0:0:0:0:
435,220,56527,1,8,0:0:0:0:
496,152,56680,1,8,0:0:0:0:
245,268,56832,6,0,P|166:212|178:127,1,180
334,115,57289,2,0,L|220:115,1,90,2|0,0:0|0:0,0:0:0:0:
82,46,57593,2,0,L|191:45,1,90,2|0,0:0|0:0,0:0:0:0:
419,317,57898,6,0,P|464:228|400:186,1,180,10|0,0:0|0:0,0:0:0:0:
311,192,58355,1,0,0:0:0:0:
95,153,58507,2,0,P|87:98|199:74,1,180
60,291,58964,2,0,L|16:211,1,90,8|0,0:0|0:0,0:0:0:0:
299,231,59268,6,0,L|355:230,1,45
299,231,59421,2,0,L|234:230,1,45
28,153,59573,2,0,L|82:144,1,45
297,74,59725,2,0,L|304:127,1,45
78,281,59878,2,0,L|70:210,1,45
307,321,60030,5,0,0:0:0:0:
343,295,60106,1,0,0:0:0:0:
343,250,60182,1,0,0:0:0:0:
307,222,60258,1,0,0:0:0:0:
78,149,60334,2,0,L|14:125,1,45
280,151,60487,6,0,L|335:152,1,45
371,152,60639,2,0,B|426:152,1,45
212,302,60791,2,0,L|193:242,1,45
429,215,60944,2,0,L|451:275,1,45
202,192,61096,6,0,L|146:190,1,45
202,192,61248,2,0,L|258:191,1,45
456,142,61400,2,0,L|426:94,1,45
230,239,61553,2,0,L|199:190,1,45
179,169,61705,5,0,0:0:0:0:
114,170,61857,1,8,0:0:0:0:
367,216,62162,1,8,0:0:0:0:
421,216,62314,1,8,0:0:0:0:
240,331,62619,6,0,L|237:217,1,90,2|0,0:0|0:0,0:0:0:0:
399,207,62923,2,0,B|302:205,1,90,2|0,0:0|0:0,0:0:0:0:
146,193,63228,1,0,0:0:0:0:
283,135,63380,1,2,0:0:0:0:
146,114,63532,1,0,0:0:0:0:
284,54,63685,1,0,0:0:0:0:
164,41,63837,2,0,L|206:139,1,90,2|0,0:0|0:0,0:0:0:0:
450,234,64142,5,8,0:0:0:0:
395,235,64294,1,8,0:0:0:0:
143,229,64598,1,8,0:0:0:0:
197,231,64751,1,8,0:0:0:0:
396,344,65055,6,0,L|317:256,1,90,2|0,0:0|0:0,0:0:0:0:
173,218,65360,2,0,L|289:219,1,90,2|0,0:0|0:0,0:0:0:0:
425,205,65664,1,0,0:0:0:0:
296,144,65816,1,2,0:0:0:0:
425,126,65968,1,0,0:0:0:0:
295,63,66121,1,0,0:0:0:0:
426,45,66274,2,0,L|360:136,1,90,2|0,0:0|0:0,0:0:0:0:
127,235,66578,5,8,0:0:0:0:
127,235,66730,1,8,0:0:0:0:
272,231,66883,1,0,0:0:0:0:
55,176,67035,1,8,0:0:0:0:
55,176,67187,1,8,0:0:0:0:
268,303,67492,6,0,L|176:287,1,90,2|0,0:0|0:0,0:0:0:0:
342,188,67796,2,0,L|446:189,2,90,2|0|0,0:0|0:0|0:0,0:0:0:0:
180,186,68253,2,0,L|76:187,2,90,2|0|0,0:0|0:0|0:0,0:0:0:0:
288,186,68710,2,0,L|384:184,1,90
142,267,69015,5,8,0:0:0:0:
142,267,69167,1,8,0:0:0:0:
286,267,69319,1,0,0:0:0:0:
68,195,69472,1,8,0:0:0:0:
68,195,69624,1,8,0:0:0:0:
359,198,69928,1,8,0:0:0:0:
156,184,70233,6,0,P|58:184|57:184,2,90,8|4|0,0:0|0:0|0:0,0:0:0:0:
308,188,70690,2,0,L|403:104,1,90,2|8,0:0|0:0,0:0:0:0:
232,86,70994,2,0,L|333:86,1,90,4|0,0:0|0:0,0:0:0:0:
413,85,71299,1,8,0:0:0:0:
167,287,71451,6,0,L|119:210,1,90,12|0,0:0|0:0,0:0:0:0:
282,196,71756,2,0,L|329:272,1,90,12|0,0:0|0:0,0:0:0:0:
160,116,72060,2,0,L|274:115,1,90
131,203,72365,2,0,L|230:203,1,90,8|0,0:0|0:0,0:0:0:0:
437,312,72669,6,0,L|340:288,1,90
239,274,72974,1,0,0:0:0:0:
401,217,73126,2,0,L|508:243,1,90
362,130,73431,2,0,L|455:150,2,90
136,319,73888,1,12,0:0:0:0:
329,303,74192,6,0,L|423:250,1,90,8|0,0:0|0:0,0:0:0:0:
243,197,74497,2,0,L|154:197,2,90
407,201,74954,1,0,0:0:0:0:
190,327,75106,6,0,L|89:328,1,90
263,235,75411,2,0,L|157:236,1,90,8|0,0:0|0:0,0:0:0:0:
11,145,75715,2,0,L|102:144,1,90
265,65,76020,2,0,L|167:63,1,90,10|0,0:0|0:0,0:0:0:0:
408,254,76324,1,12,0:0:0:0:
191,282,76629,6,0,L|196:178,1,90,8|0,0:0|0:0,0:0:0:0:
357,155,76933,2,0,L|446:157,2,90,0|0|8,0:0|0:0|0:0,0:0:0:0:
266,160,77390,1,0,0:0:0:0:
429,330,77543,6,0,L|324:329,1,90
247,324,77847,1,0,0:0:0:0:
410,196,77999,2,0,L|499:193,2,90
171,264,78456,2,0,L|133:172,1,90,8|0,0:0|0:0,0:0:0:0:
390,258,78761,6,0,L|300:258,2,90,10|2|0,0:0|0:0|0:0,0:0:0:0:
173,164,79218,2,0,L|263:164,2,90,10|2|0,0:0|0:0|0:0,0:0:0:0:
390,300,79675,1,8,0:0:0:0:
64,153,79827,6,0,L|229:81,1,180,12|0,0:0|0:0,0:0:0:0:
365,289,80588,2,0,P|451:210|413:158,1,180,2|0,0:0|0:0,0:0:0:0:
158,282,81045,6,0,P|57:179|69:154,1,180,2|0,0:0|0:0,0:0:0:0:
211,175,81502,2,0,L|316:175,1,90,8|0,0:0|0:0,0:0:0:0:
137,77,81807,2,0,L|32:75,1,90
217,198,82111,6,0,L|217:89,1,90,8|0,0:0|0:0,0:0:0:0:
437,328,82416,2,0,L|437:217,1,90
275,156,82720,2,0,L|379:155,1,90,8|0,0:0|0:0,0:0:0:0:
134,274,83025,1,0,0:0:0:0:
251,193,83176,1,0,0:0:0:0:
133,122,83329,1,8,0:0:0:0:
359,266,83482,6,0,P|425:213|368:125,1,180,6|6,0:0|0:0,0:0:0:0:
284,160,83939,2,0,L|170:160,1,90
87,80,84243,2,0,L|193:80,1,90
405,263,84548,6,0,L|499:263,2,90,8|2|0,0:0|0:0|0:0,0:0:0:0:
242,262,85005,2,0,L|135:261,1,90
314,189,85309,2,0,L|431:189,1,90
241,96,85614,2,0,L|351:96,1,90
109,288,85918,6,0,P|61:212|120:155,1,180,6|0,0:0|0:0,0:0:0:0:
278,161,86375,2,0,L|174:159,1,90,8|0,0:0|0:0,0:0:0:0:
78,63,86680,2,0,L|183:63,1,90
293,60,86984,1,8,0:0:0:0:
56,317,87136,2,0,L|117:134,1,180
278,198,87593,2,0,L|377:198,1,90,8|0,0:0|0:0,0:0:0:0:
195,112,87898,2,0,L|305:112,2,90,0|2|8,0:0|0:0|0:0,0:0:0:0:
415,288,88355,6,0,P|423:177|344:149,1,180,14|0,0:0|0:0,0:0:0:0:
211,224,88812,2,0,L|316:223,1,90,10|0,0:0|0:0,0:0:0:0:
400,160,89116,2,0,L|304:159,1,90,0|8,0:0|0:0,0:0:0:0:
165,157,89421,1,0,0:0:0:0:
425,297,89573,6,0,L|460:161,1,135,10|0,0:0|0:0,0:0:0:0:
253,165,89878,2,0,L|219:295,1,135,10|0,0:0|0:0,0:0:0:0:
427,215,90182,2,0,L|395:79,1,135,10|0,0:0|0:0,0:0:0:0:
184,77,90487,2,0,L|214:208,1,135,10|0,0:0|0:0,0:0:0:0:
418,288,90791,6,0,L|518:287,2,90,4|0|4,0:0|0:0|0:0,0:0:0:0:
255,195,91248,2,0,L|366:192,2,90,8|0|0,0:0|0:0|0:0,0:0:0:0:
164,192,91705,1,0,0:0:0:0:
335,104,91857,1,8,0:0:0:0:
95,321,92010,6,0,P|35:225|83:186,1,180,2|0,0:0|0:0,0:0:0:0:
229,257,92466,2,0,L|229:149,1,90,8|0,0:0|0:0,0:0:0:0:
68,179,92771,2,0,L|70:72,1,90
168,82,93076,1,0,0:0:0:0:
410,163,93228,6,0,L|507:162,2,90,12|0|0,0:0|0:0|0:0,0:0:0:0:
247,78,93685,2,0,L|357:77,1,90,8|0,0:0|0:0,0:0:0:0:
87,248,93989,2,0,L|67:133,1,90,2|0,0:0|0:0,0:0:0:0:
235,117,94294,2,0,B|131:116|132:116,1,90,8|0,0:0|0:0,0:0:0:0:
398,280,94598,6,0,L|398:175,1,90,2|0,0:0|0:0,0:0:0:0:
235,184,94903,2,0,L|235:73,1,90,8|0,0:0|0:0,0:0:0:0:
398,97,95208,2,0,L|491:97,2,90,2|0|8,0:0|0:0|0:0,0:0:0:0:
139,212,95664,6,0,L|43:212,2,90,2|0|0,0:0|0:0|0:0,0:0:0:0:
258,211,96121,2,0,L|260:113,1,90,8|0,0:0|0:0,0:0:0:0:
368,121,96426,2,0,L|273:67,1,90
147,251,96730,1,10,0:0:0:0:
376,259,96883,6,0,L|469:210,1,90,12|0,0:0|0:0,0:0:0:0:
159,201,97187,1,8,0:0:0:0:
159,83,97340,1,8,0:0:0:0:
473,205,97492,1,8,0:0:0:0:
473,87,97645,1,8,0:0:0:0:
80,201,97796,1,8,0:0:0:0:
80,83,97949,1,8,0:0:0:0:
306,267,98101,6,0,P|390:225|383:142,1,180
220,341,98558,2,0,L|324:340,1,90,8|0,0:0|0:0,0:0:0:0:
472,264,98862,2,0,L|361:264,1,90
219,170,99167,2,0,L|316:171,1,90,8|0,0:0|0:0,0:0:0:0:
91,319,99472,6,0,L|93:214,1,90
254,215,99776,2,0,L|254:115,1,90,8|0,0:0|0:0,0:0:0:0:
93,144,100081,2,0,L|94:51,1,90
256,288,100385,6,0,L|166:288,1,90,8|0,0:0|0:0,0:0:0:0:
387,247,100690,2,0,L|477:248,1,90
360,148,100994,2,0,L|456:146,1,90,8|0,0:0|0:0,0:0:0:0:
231,295,101299,6,0,L|232:203,1,90
14,133,101603,2,0,L|119:131,1,90,8|0,0:0|0:0,0:0:0:0:
353,331,101908,5,2,0:0:0:0:
389,304,101984,1,0,0:0:0:0:
389,259,102060,1,0,0:0:0:0:
353,231,102136,1,0,0:0:0:0:
125,246,102213,2,0,L|175:228,1,45,8|0,0:0|0:0,0:0:0:0:
402,142,102365,2,0,L|347:120,1,45
124,166,102517,5,2,0:0:0:0:
88,139,102593,1,0,0:0:0:0:
88,94,102669,1,0,0:0:0:0:
124,66,102745,1,0,0:0:0:0:
363,56,102822,2,0,L|306:34,1,45,8|0,0:0|0:0,0:0:0:0:
89,41,102974,2,0,L|133:56,1,45
381,266,103126,6,0,P|453:242|464:147,1,180
211,243,103583,2,0,L|28:145,1,180,8|0,0:0|0:0,0:0:0:0:
297,197,104040,2,0,P|369:163|367:69,1,180,8|0,0:0|0:0,0:0:0:0:
121,314,104497,6,0,L|167:284,1,45
357,267,104649,2,0,L|315:236,1,45,8|0,0:0|0:0,0:0:0:0:
117,198,104801,1,0,0:0:0:0:
80,170,104878,1,0,0:0:0:0:
80,125,104954,1,2,0:0:0:0:
116,99,105030,1,0,0:0:0:0:
323,97,105106,2,0,L|377:69,1,45
143,76,105258,2,0,L|164:115,1,45,8|0,0:0|0:0,0:0:0:0:
373,210,105411,2,0,L|345:161,1,45
147,313,105563,6,0,P|66:248|123:187,1,180,12|0,0:0|0:0,0:0:0:0:
346,229,106020,2,0,P|394:165|299:105,1,180,8|0,0:0|0:0,0:0:0:0:
104,264,106477,2,0,L|284:176,1,180,8|0,0:0|0:0,0:0:0:0:
44,162,106933,6,0,L|102:157,1,45
296,282,107086,1,2,0:0:0:0:
332,256,107162,1,0,0:0:0:0:
332,211,107238,1,0,0:0:0:0:
296,183,107314,1,0,0:0:0:0:
99,78,107390,2,0,L|140:52,1,45,8|0,0:0|0:0,0:0:0:0:
336,73,107543,2,0,L|376:49,1,45
215,286,107695,1,8,0:0:0:0:
106,280,107847,6,0,L|169:178,1,90
407,205,108152,1,8,0:0:0:0:
105,281,108304,6,0,L|59:198,1,90,12|0,0:0|0:0,0:0:0:0:
333,205,108609,1,8,0:0:0:0:
105,281,108761,6,0,L|180:232,1,90,12|0,0:0|0:0,0:0:0:0:
470,206,109066,1,8,0:0:0:0:
104,280,109218,6,0,B|11:206|12:207,1,90,12|0,0:0|0:0,0:0:0:0:
341,214,109523,1,8,0:0:0:0:
104,280,109675,6,0,L|103:172,1,90,12|0,0:0|0:0,0:0:0:0:
376,304,109979,5,2,0:0:0:0:
400,287,110030,1,2,0:0:0:0:
418,263,110081,1,2,0:0:0:0:
430,236,110131,1,2,0:0:0:0:
418,208,110182,1,2,0:0:0:0:
400,183,110233,1,2,0:0:0:0:
376,163,110284,1,2,0:0:0:0:
89,121,110436,6,0,L|36:122,1,45,8|8,0:0|0:0,0:0:0:0:
301,77,110588,2,0,L|351:77,1,45,8|8,0:0|0:0,0:0:0:0:
65,290,110741,1,0,0:0:0:0:
256,192,111045,12,0,114852,0:0:0:0:
406,207,115157,6,0,L|346:210,1,45,8|8,0:0|0:0,0:0:0:0:
149,153,115309,2,0,L|207:153,1,45
410,101,115461,1,0,0:0:0:0:
