osu file format v14

[General]
AudioFilename: audio.mp3
AudioLeadIn: 0
PreviewTime: 80284
Countdown: 0
SampleSet: Soft
StackLeniency: 0.7
Mode: 0
LetterboxInBreaks: 0
EpilepsyWarning: 1
WidescreenStoryboard: 1

[Editor]
DistanceSpacing: 1.1
BeatDivisor: 4
GridSize: 4
TimelineZoom: 1

[Metadata]
Title:Great Distance
TitleUnicode:Great Distance
Artist:ryo (supercell) feat.chelly
ArtistUnicode:ryo (supercell) feat.chelly
Creator:Down
Version:Insane
Source:ブレイブリーセカンド
Tags:chelly bravely second end layer opening theme square enix 吉田明彦 akihiko yoshida egoist nintendo Dailycare
BeatmapID:970554
BeatmapSetID:452409

[Difficulty]
HPDrainRate:6
CircleSize:4
OverallDifficulty:7
ApproachRate:9
SliderMultiplier:1.6
SliderTickRate:1

[Events]
//Background and Video events
0,0,"bg.jpg",0,0
//Break Periods
//Storyboard Layer 0 (Background)
//Storyboard Layer 1 (Fail)
//Storyboard Layer 2 (Pass)
//Storyboard Layer 3 (Foreground)
Sprite,Foreground,Centre,"Lyrics\37.png",320,340 S,0,17847,,0.5 C,0,17847,,255,164,196 P,0,17847,,A F,0,17847,17947,0,0.8 MX,0,17847,20284,251 MY,0,17847,20284,242 F,0,20184,20284,0.8,0
//Storyboard Sound Samples

[TimingPoints]
10538,304.568527918782,4,2,1,35,1,0
12365,-125,4,2,1,35,0,0
12822,-100,4,2,1,55,0,0
23329,-100,4,2,99,90,0,0
23786,-100,4,2,1,55,0,0
24243,-100,4,2,99,90,0,0
24548,-100,4,2,1,55,0,0
27593,-125,4,2,1,55,0,0
37340,-111.111111111111,4,2,1,55,0,0
42213,-111.111111111111,4,2,1,30,0,0
44649,-111.111111111111,4,2,1,55,0,0
51807,-111.111111111111,4,2,99,90,0,0
51883,-111.111111111111,4,2,1,55,0,0
55614,-111.111111111111,4,2,1,25,0,0
55766,-111.111111111111,4,2,1,30,0,0
55918,-111.111111111111,4,2,1,35,0,0
56070,-111.111111111111,4,2,1,40,0,0
56832,-111.111111111111,4,2,1,55,0,0
60487,-111.111111111111,4,2,1,25,0,0
60639,-111.111111111111,4,2,1,30,0,0
60791,-111.111111111111,4,2,1,35,0,0
60944,-111.111111111111,4,2,1,40,0,0
61096,-111.111111111111,4,2,1,55,0,0
79827,-111.111111111111,4,2,99,100,0,0
80588,-166.666666666666,4,2,1,55,0,0
81045,-90.9090909090909,4,2,1,65,0,1
89573,-90.9090909090909,4,2,99,90,0,1
89801,-90.9090909090909,4,2,99,5,0,1
89878,-105.263157894737,4,2,99,90,0,1
90106,-105.263157894737,4,2,99,5,0,1
90182,-125,4,2,99,90,0,1
90411,-125,4,2,99,5,0,1
90487,-153.846153846153,4,2,1,65,0,1
90715,-153.846153846153,4,2,1,5,0,1
90791,-90.9090909090909,4,2,1,65,0,1
103126,-100,4,2,1,55,0,0
108609,-100,4,2,99,90,0,0
109065,-100,4,2,1,55,0,0
109522,-100,4,2,99,90,0,0
109827,-100,4,2,1,55,0,0

[Colours]
Combo1 : 250,167,180
Combo2 : 150,241,159
Combo3 : 244,234,157

[HitObjects]
157,233,12365,6,0,P|88:225|47:170,1,128
128,156,12822,6,0,P|199:120|285:140,1,160,12|8,0:0|0:0,0:0:0:0:
369,225,13279,2,0,L|289:213,1,80,2|0,0:0|0:0,0:0:0:0:
214,227,13583,1,8,0:0:0:0:
356,137,13735,1,8,0:0:0:0:
307,297,13888,1,2,0:0:0:0:
142,276,14040,6,0,B|116:238|116:238|126:201|126:201|98:169|118:122,1,160,8|8,0:0|0:0,0:0:0:0:
235,83,14497,2,0,L|177:178,1,80,2|0,0:0|0:0,0:0:0:0:
214,227,14801,1,8,0:0:0:0:
45,213,14954,1,8,0:0:0:0:
148,301,15106,1,2,0:0:0:0:
271,170,15258,6,0,P|344:120|422:163,1,160,12|8,0:0|0:0,0:0:0:0:
370,278,15715,2,0,L|349:201,1,80,2|0,0:0|0:0,0:0:0:0:
263,251,16020,1,0,0:0:0:0:
263,251,16172,2,0,P|220:232|192:197,1,80,8|2,0:0|0:0,0:0:0:0:
271,170,16477,6,0,L|234:77,1,80,0|0,0:0|0:0,0:0:0:0:
162,84,16781,1,2,0:0:0:0:
133,158,16933,1,0,0:0:0:0:
241,95,17086,1,8,0:0:0:0:
86,92,17238,1,2,0:0:0:0:
271,80,17390,1,8,0:0:0:0:
55,161,17543,2,0,L|41:247,1,80,2|0,0:0|0:0,0:0:0:0:
131,322,17847,6,0,P|198:305|254:313,1,120,12|0,0:0|0:0,0:0:0:0:
247,311,18152,1,2,0:0:0:0:
327,270,18304,2,0,P|345:222|396:287,1,160,8|0,0:0|0:0,0:0:0:0:
245,233,18761,1,8,0:0:0:0:
131,120,19065,5,2,0:0:0:0:
131,120,19218,2,0,L|120:200,1,80,0|0,0:0|0:0,0:0:0:0:
202,74,19522,1,10,0:0:0:0:
202,74,19675,2,0,L|309:111,1,80,0|0,0:0|0:0,0:0:0:0:
267,179,19979,2,0,L|186:235,1,80,8|0,0:0|0:0,0:0:0:0:
182,346,20284,6,0,P|250:343|319:312,1,120,12|0,0:0|0:0,0:0:0:0:
298,324,20588,1,0,0:0:0:0:
376,341,20741,2,0,B|361:283|408:237|408:237|352:252,1,160,8|0,0:0|0:0,0:0:0:0:
466,313,21197,1,8,0:0:0:0:
413,157,21502,5,8,0:0:0:0:
413,157,21654,2,0,L|340:88,1,80,2|2,0:0|0:0,0:0:0:0:
221,162,21959,1,8,0:0:0:0:
221,162,22111,2,0,L|294:93,1,80,2|2,0:0|0:0,0:0:0:0:
319,172,22416,1,8,0:0:0:0:
143,130,22568,1,2,0:0:0:0:
211,239,22720,5,8,0:0:0:0:
205,81,22873,1,6,0:0:0:0:
91,190,23025,1,6,0:0:0:0:
218,266,23329,5,12,0:0:0:0:
71,208,23482,1,12,0:0:0:0:
226,293,23786,5,6,0:0:0:0:
50,228,23939,1,6,0:0:0:0:
143,132,24243,5,12,0:0:0:0:
137,328,24395,1,12,0:0:0:0:
259,200,24548,5,2,0:0:0:0:
224,128,24700,2,0,L|205:63,2,40,8|8|4,0:3|0:3|0:3,0:0:0:0:
304,132,25005,6,0,P|334:168|270:281,1,160,12|8,0:0|0:0,0:0:0:0:
259,200,25461,1,2,0:0:0:0:
418,196,25614,1,8,0:0:0:0:
338,339,25766,2,0,P|302:346|251:323,1,80,8|8,0:0|0:0,0:0:0:0:
259,200,26070,1,2,0:0:0:0:
420,278,26223,1,8,0:0:0:0:
417,114,26375,5,2,0:0:0:0:
279,181,26527,2,0,L|208:136,1,80,12|0,0:0|0:0,0:0:0:0:
417,71,26832,5,6,0:0:0:0:
296,138,26984,2,0,L|225:93,1,80,0|8,0:0|0:3,0:0:0:0:
420,31,27289,5,4,0:3:0:0:
314,103,27441,1,0,0:0:0:0:
429,210,27593,5,10,0:0:0:0:
429,210,27746,1,2,0:0:0:0:
346,182,27898,2,0,L|276:180,1,64,8|0,0:0|0:0,0:0:0:0:
192,290,28202,2,0,P|247:258|328:269,1,128,8|8,0:0|0:0,0:0:0:0:
346,182,28659,1,0,0:0:0:0:
220,123,28812,6,0,L|148:86,1,64,8|0,0:0|0:0,0:0:0:0:
298,103,29116,2,0,L|366:59,1,64,8|0,0:0|0:0,0:0:0:0:
240,50,29421,1,8,0:0:0:0:
282,180,29573,2,0,L|285:260,2,64,0|8|0,0:0|0:0|0:0,0:0:0:0:
113,180,30030,5,10,0:0:0:0:
113,180,30182,1,2,0:0:0:0:
211,233,30334,2,0,L|123:251,1,64,8|0,0:0|0:0,0:0:0:0:
226,123,30639,2,0,P|262:104|303:101,1,64,8|0,0:0|0:0,0:0:0:0:
387,216,30944,2,0,P|351:235|310:238,1,64,8|0,0:0|0:0,0:0:0:0:
449,149,31248,6,0,L|447:72,1,64,8|0,0:0|0:0,0:0:0:0:
443,281,31553,2,0,L|448:362,1,64,8|0,0:0|0:0,0:0:0:0:
328,238,31857,1,8,0:0:0:0:
293,330,32010,1,0,0:0:0:0:
254,210,32162,2,0,P|270:180|306:160,1,64,8|0,0:0|0:0,0:0:0:0:
136,274,32466,5,10,0:0:0:0:
136,274,32619,1,2,0:0:0:0:
46,199,32771,2,0,L|126:167,1,64,8|0,0:0|0:0,0:0:0:0:
105,175,33076,1,8,0:0:0:0:
210,345,33380,2,0,L|117:360,1,64,8|0,0:0|0:0,0:0:0:0:
206,228,33685,6,0,L|228:156,1,64,8|0,0:0|0:0,0:0:0:0:
117,156,33989,2,0,L|95:84,1,64,8|0,0:0|0:0,0:0:0:0:
220,252,34294,2,0,L|242:180,1,64,8|0,0:0|0:0,0:0:0:0:
104,177,34598,2,0,L|82:105,1,64,8|0,0:0|0:0,0:0:0:0:
224,75,34903,5,10,0:0:0:0:
224,75,35055,1,2,0:0:0:0:
334,120,35208,2,0,L|366:65,1,64,8|0,0:0|0:0,0:0:0:0:
238,190,35512,1,8,0:0:0:0:
260,211,35817,1,8,0:0:0:0:
287,240,36121,5,8,0:0:0:0:
287,240,36274,1,2,0:0:0:0:
174,303,36426,2,0,P|135:297|86:309,1,64,8|0,0:0|0:0,0:0:0:0:
241,361,36730,1,8,0:0:0:0:
218,185,37035,2,0,P|256:161|327:164,1,96,8|0,0:0|0:0,0:0:0:0:
305,157,37340,5,2,0:0:0:0:
287,240,37492,1,8,0:0:0:0:
392,161,37644,1,8,0:0:0:0:
250,107,37796,5,6,0:0:0:0:
373,234,37949,1,0,0:0:0:0:
218,185,38101,1,8,0:0:0:0:
337,82,38253,2,0,P|372:67|430:74,1,71.9999978027344,2|8,0:0|0:0,0:0:0:0:
250,107,38558,5,2,0:0:0:0:
153,64,38710,1,8,0:0:0:0:
131,206,38862,1,0,0:0:0:0:
76,114,39015,5,2,0:0:0:0:
222,110,39167,1,8,0:0:0:0:
119,224,39319,1,8,0:0:0:0:
153,64,39472,2,0,P|181:38|221:26,1,71.9999978027344,2|8,0:0|0:0,0:0:0:0:
304,164,39776,6,0,L|385:132,1,71.9999978027344,12|0,0:0|0:0,0:0:0:0:
243,233,40081,1,8,0:0:0:0:
243,233,40233,2,0,L|162:201,1,71.9999978027344,2|0,0:0|0:0,0:0:0:0:
326,284,40538,1,8,0:0:0:0:
326,284,40690,2,0,L|407:252,1,71.9999978027344,2|8,0:0|0:0,0:0:0:0:
147,332,40994,6,0,L|113:246,1,71.9999978027344,2|8,0:0|0:0,0:0:0:0:
243,233,41299,1,8,0:0:0:0:
243,233,41451,2,0,L|162:201,1,71.9999978027344,2|8,0:0|0:0,0:0:0:0:
240,103,41756,1,8,0:0:0:0:
240,103,41908,2,0,L|157:130,1,71.9999978027344,2|8,0:0|0:0,0:0:0:0:
97,175,42213,5,0,0:0:0:0:
97,175,43431,5,0,0:0:0:0:
97,175,44649,6,0,L|110:258,1,71.9999978027344,12|0,0:0|0:0,0:0:0:0:
186,259,44954,2,0,L|173:178,1,71.9999978027344,8|0,0:0|0:0,0:0:0:0:
60,175,45258,2,0,L|73:258,1,71.9999978027344,0|0,0:0|0:0,0:0:0:0:
155,116,45563,2,0,P|199:99|249:101,1,71.9999978027344,8|0,0:0|0:0,0:0:0:0:
313,141,45867,6,0,P|336:174|332:236,1,71.9999978027344,8|0,0:0|0:0,0:0:0:0:
404,261,46172,2,0,P|371:284|309:280,1,71.9999978027344,8|0,0:0|0:0,0:0:0:0:
281,348,46477,2,0,P|258:315|262:253,1,71.9999978027344,8|0,0:0|0:0,0:0:0:0:
190,228,46782,2,0,P|223:205|285:209,1,71.9999978027344,8|0,0:0|0:0,0:0:0:0:
90,201,47086,6,0,L|88:291,2,71.9999978027344,12|0|2,0:0|0:0|0:0,0:0:0:0:
158,147,47543,1,0,0:0:0:0:
66,84,47695,2,0,P|126:56|215:68,1,143.999995605469,8|2,0:0|0:0,0:0:0:0:
262,208,48152,6,0,L|290:115,1,71.9999978027344,0|8,0:0|0:0,0:0:0:0:
158,147,48456,1,8,0:0:0:0:
280,63,48609,2,0,P|325:71|359:114,1,71.9999978027344,2|0,0:0|0:0,0:0:0:0:
327,231,48913,2,0,P|282:223|245:182,1,71.9999978027344,8|8,0:0|0:0,0:0:0:0:
409,152,49218,2,0,L|441:236,1,71.9999978027344,2|0,0:0|0:0,0:0:0:0:
377,328,49522,5,8,0:0:0:0:
377,328,49675,2,0,P|297:321|212:335,1,143.999995605469,8|0,0:0|0:0,0:0:0:0:
121,266,50131,2,0,L|185:199,1,71.9999978027344,8|0,0:0|0:0,0:0:0:0:
261,207,50436,1,2,0:0:0:0:
116,151,50588,6,0,L|36:148,1,71.9999978027344,0|8,0:0|0:0,0:0:0:0:
199,132,50893,1,8,0:0:0:0:
199,132,51045,2,0,P|246:103|308:103,1,107.999996704102,2|0,0:0|0:0,0:0:0:0:
297,100,51350,2,0,L|340:167,1,71.9999978027344,8|0,0:0|0:0,0:0:0:0:
274,247,51654,2,0,L|183:220,1,71.9999978027344,2|4,0:0|0:0,0:0:0:0:
398,230,51959,6,0,P|420:194|425:136,2,71.9999978027344,8|8|2,0:0|0:0|0:0,0:0:0:0:
274,247,52416,1,0,0:0:0:0:
409,319,52568,2,0,B|373:326|337:298|337:298|321:321|273:330,1,143.999995605469,8|2,0:0|0:0,0:0:0:0:
124,289,53025,6,0,L|208:267,1,71.9999978027344,0|8,0:0|0:0,0:0:0:0:
220,179,53329,1,8,0:0:0:0:
220,179,53482,2,0,L|135:201,1,71.9999978027344,2|0,0:0|0:0,0:0:0:0:
38,269,53786,2,0,L|56:120,1,143.999995605469,8|2,0:0|0:0,0:0:0:0:
150,197,54243,1,0,0:0:0:0:
125,78,54395,6,0,P|100:55|48:44,1,71.9999978027344,8|8,0:0|0:0,0:0:0:0:
208,99,54700,2,0,P|233:76|285:65,1,71.9999978027344,2|0,0:0|0:0,0:0:0:0:
328,246,55005,2,0,L|268:130,1,107.999996704102,8|0,0:0|0:0,0:0:0:0:
278,150,55309,2,0,P|249:183|206:196,1,71.9999978027344,2|0,0:0|0:0,0:0:0:0:
115,176,55614,5,10,0:0:0:0:
238,272,55766,2,0,L|277:313,2,35.9999989013672,2|2|10,0:0|0:0|0:0,0:0:0:0:
57,248,56070,1,2,0:0:0:0:
57,248,56147,1,2,0:0:0:0:
57,248,56223,1,8,0:0:0:0:
213,201,56375,1,8,0:0:0:0:
39,164,56527,1,2,0:0:0:0:
132,298,56680,1,8,0:0:0:0:
162,135,56832,6,0,P|212:120|292:172,1,143.999995605469,12|2,0:0|0:0,0:0:0:0:
213,201,57289,1,0,0:0:0:0:
363,139,57441,2,0,L|447:130,1,71.9999978027344,0|8,0:0|0:0,0:0:0:0:
342,218,57746,2,0,L|307:295,1,71.9999978027344,2|0,0:0|0:0,0:0:0:0:
170,273,58050,5,8,0:0:0:0:
170,273,58202,1,8,0:0:0:0:
162,135,58355,2,0,P|134:118|70:114,1,71.9999978027344,2|0,0:0|0:0,0:0:0:0:
97,204,58659,1,0,0:0:0:0:
252,141,58812,1,8,0:0:0:0:
254,286,58964,2,0,P|233:329|204:350,1,71.9999978027344,2|0,0:0|0:0,0:0:0:0:
72,327,59268,6,0,L|74:178,1,143.999995605469,12|8,0:0|0:0,0:0:0:0:
122,102,59725,1,0,0:0:0:0:
244,197,59878,2,0,L|175:180,1,71.9999978027344,8|0,0:0|0:0,0:0:0:0:
122,102,60182,1,8,0:0:0:0:
151,262,60334,1,0,0:0:0:0:
236,113,60487,6,0,P|272:85|361:75,1,107.999996704102,2|2,0:0|0:0,0:0:0:0:
331,71,60791,2,0,L|380:141,1,71.9999978027344,10|2,0:0|0:0,0:0:0:0:
354,223,61096,1,8,0:0:0:0:
472,168,61248,1,0,0:0:0:0:
472,168,61324,1,0,0:0:0:0:
472,168,61400,1,8,0:0:0:0:
413,305,61553,1,0,0:0:0:0:
280,198,61705,6,0,P|221:177|184:182,1,71.9999978027344,12|0,0:0|0:0,0:0:0:0:
221,268,62010,1,8,0:0:0:0:
154,121,62162,2,0,P|213:100|250:105,1,71.9999978027344,0|8,0:0|0:0,0:0:0:0:
221,268,62466,1,0,0:0:0:0:
300,117,62619,2,0,L|360:65,1,71.9999978027344,8|0,0:0|0:0,0:0:0:0:
334,210,62923,5,8,0:0:0:0:
346,230,63228,1,8,0:0:0:0:
358,251,63532,1,8,0:0:0:0:
370,272,63837,1,8,0:0:0:0:
209,279,64142,6,0,P|169:261|118:258,1,71.9999978027344,8|0,0:0|0:0,0:0:0:0:
53,303,64446,1,8,0:0:0:0:
135,179,64598,2,0,P|175:161|226:158,1,71.9999978027344,0|8,0:0|0:0,0:0:0:0:
209,307,64903,1,0,0:0:0:0:
58,207,65055,2,0,P|52:171|77:123,1,71.9999978027344,8|0,0:0|0:0,0:0:0:0:
202,156,65360,5,8,0:0:0:0:
213,135,65665,1,8,0:0:0:0:
225,113,65969,1,8,0:0:0:0:
237,93,66274,1,8,0:0:0:0:
346,218,66578,6,0,L|296:297,1,71.9999978027344,12|0,0:0|0:0,0:0:0:0:
407,298,66883,1,2,0:0:0:0:
412,148,67035,2,0,L|462:227,1,71.9999978027344,12|0,0:0|0:0,0:0:0:0:
407,298,67340,1,8,0:0:0:0:
334,119,67492,2,0,P|297:114|246:126,1,71.9999978027344,8|0,0:0|0:0,0:0:0:0:
151,237,67796,6,0,L|105:141,1,71.9999978027344,0|8,0:0|0:0,0:0:0:0:
198,83,68101,1,2,0:0:0:0:
182,313,68406,5,8,0:0:0:0:
182,313,68558,1,8,0:0:0:0:
295,211,68710,2,0,P|334:194|383:200,1,71.9999978027344,2|0,0:0|0:0,0:0:0:0:
348,274,69015,5,12,0:0:0:0:
441,168,69167,1,0,0:0:0:0:
424,317,69319,1,2,0:0:0:0:
272,283,69472,1,12,0:0:0:0:
423,242,69624,2,0,P|463:251|490:288,1,71.9999978027344,0|8,0:0|0:0,0:0:0:0:
310,164,69928,2,0,L|264:73,1,71.9999978027344,12|0,0:0|0:0,0:0:0:0:
193,235,70233,6,0,L|109:247,1,71.9999978027344,2|8,0:0|0:0,0:0:0:0:
272,283,70538,1,0,0:0:0:0:
147,170,70690,1,8,0:0:0:0:
147,170,70766,1,0,0:0:0:0:
147,170,70842,1,2,0:0:0:0:
120,327,70994,2,0,L|91:236,1,71.9999978027344,8|0,0:0|0:0,0:0:0:0:
56,115,71299,1,2,0:0:0:0:
228,176,71451,6,0,L|225:274,1,71.9999978027344,12|0,0:0|0:0,0:0:0:0:
394,329,71756,2,0,L|345:250,1,71.9999978027344,2|0,0:0|0:0,0:0:0:0:
178,302,72060,2,0,P|212:274|266:271,1,71.9999978027344
244,350,72365,1,2,0:0:0:0:
148,217,72517,1,0,0:0:0:0:
327,183,72669,5,8,0:0:0:0:
327,183,72822,1,0,0:0:0:0:
327,351,72974,1,2,0:0:0:0:
238,205,73126,2,0,P|236:164|259:123,1,71.9999978027344,0|8,0:0|0:0,0:0:0:0:
402,136,73431,2,0,P|414:169|411:204,1,71.9999978027344,8|2,0:0|0:0,0:0:0:0:
270,282,73735,1,0,0:0:0:0:
169,130,73888,6,0,P|196:76|299:79,1,143.999995605469,12|2,0:0|0:0,0:0:0:0:
247,136,74345,1,0,0:0:0:0:
270,282,74497,2,0,P|234:280|177:250,1,71.9999978027344,8|0,0:0|0:0,0:0:0:0:
134,203,74801,1,2,0:0:0:0:
247,136,74954,1,0,0:0:0:0:
105,84,75106,6,0,L|27:45,2,71.9999978027344,8|8|2,0:0|0:0|0:0,0:0:0:0:
229,55,75563,2,0,P|280:58|313:89,1,71.9999978027344,0|8,0:0|0:0,0:0:0:0:
230,206,75867,2,0,L|249:124,1,71.9999978027344,8|2,0:0|0:0,0:0:0:0:
378,73,76172,1,8,0:0:0:0:
476,174,76324,6,0,P|411:200|379:249,1,107.999996704102,12|0,0:0|0:0,0:0:0:0:
387,228,76629,1,2,0:0:0:0:
230,206,76781,1,0,0:0:0:0:
318,315,76933,1,8,0:0:0:0:
318,315,77086,1,8,0:0:0:0:
298,156,77238,2,0,P|259:129|215:124,1,71.9999978027344,2|0,0:0|0:0,0:0:0:0:
126,208,77543,6,0,L|165:297,1,71.9999978027344,8|8,0:0|0:0,0:0:0:0:
230,206,77847,1,2,0:0:0:0:
40,218,77999,2,0,L|79:321,1,107.999996704102
78,319,78304,1,8,0:0:0:0:
208,340,78456,1,2,0:0:0:0:
60,350,78609,1,8,0:0:0:0:
208,227,78761,5,2,0:0:0:0:
88,156,78913,1,8,0:0:0:0:
230,206,79218,5,8,0:0:0:0:
99,121,79370,1,8,0:0:0:0:
250,182,79675,5,2,0:0:0:0:
104,89,79827,1,12,0:0:0:0:
217,62,80588,6,0,B|246:103|246:103|247:127|247:127|287:181,1,119.999996337891,0|0,0:0|0:0,0:0:0:0:
274,163,81045,6,0,P|357:140|447:161,1,176.000005371094,12|8,0:0|0:0,0:0:0:0:
316,235,81502,1,2,0:0:0:0:
353,102,81654,2,0,L|346:55,2,44.0000013427735,0|0|8,0:0|0:0|0:0,0:0:0:0:
400,271,81959,1,8,0:0:0:0:
274,163,82111,1,2,0:0:0:0:
200,312,82263,6,0,B|142:351|86:320|86:320|25:341,1,176.000005371094,8|8,0:0|0:0,0:0:0:0:
136,240,82720,2,0,L|140:149,1,88.000002685547,2|0,0:0|0:0,0:0:0:0:
139,152,82949,1,0,0:0:0:0:
139,152,83025,1,8,0:0:0:0:
46,247,83177,1,8,0:0:0:0:
223,193,83329,1,2,0:0:0:0:
60,116,83482,6,0,B|17:78|17:78|59:30|145:54,1,176.000005371094,12|8,0:0|0:0,0:0:0:0:
213,110,83939,1,2,0:0:0:0:
153,242,84091,1,0,0:0:0:0:
153,242,84167,1,0,0:0:0:0:
153,242,84243,1,8,0:0:0:0:
213,110,84395,1,8,0:0:0:0:
76,140,84548,1,2,0:0:0:0:
236,194,84700,6,0,P|304:180|362:133,1,132.00000402832,8|0,0:0|0:0,0:0:0:0:
353,143,85005,2,0,L|395:234,1,88.000002685547,8|2,0:0|0:0,0:0:0:0:
348,303,85309,1,0,0:0:0:0:
200,263,85461,1,8,0:0:0:0:
200,263,85614,1,8,0:0:0:0:
357,217,85766,1,2,0:0:0:0:
197,341,85918,6,0,P|122:289|135:202,1,176.000005371094,12|8,0:0|0:0,0:0:0:0:
276,215,86375,1,2,0:0:0:0:
150,135,86527,2,0,L|141:83,2,44.0000013427735,0|0|8,0:0|0:0|0:0,0:0:0:0:
200,263,86832,1,8,0:0:0:0:
263,109,86984,1,2,0:0:0:0:
366,287,87136,6,0,B|406:276|412:223|412:223|452:209|452:209|466:150,1,176.000005371094,8|8,0:0|0:0,0:0:0:0:
406,40,87593,2,0,P|370:68|343:134,1,88.000002685547,2|0,0:0|0:0,0:0:0:0:
349,104,87822,1,0,0:0:0:0:
349,104,87898,1,8,0:0:0:0:
492,161,88050,1,8,0:0:0:0:
334,210,88202,1,2,0:0:0:0:
448,334,88355,6,0,B|374:318|374:318|355:330|355:330|269:313,1,176.000005371094,12|8,0:0|0:0,0:0:0:0:
217,231,88812,1,2,0:0:0:0:
386,235,88964,1,0,0:0:0:0:
386,235,89040,1,0,0:0:0:0:
386,235,89116,1,8,0:0:0:0:
278,314,89268,1,8,0:0:0:0:
274,136,89421,1,2,0:0:0:0:
118,87,89573,6,0,P|86:127|46:241,1,132.00000402832,12|0,0:0|0:0,0:0:0:0:
89,211,89878,6,0,P|115:145|156:100,1,113.999996955872,12|0,0:0|0:0,0:0:0:0:
164,137,90182,6,0,P|136:171|117:224,1,96,12|0,0:0|0:0,0:0:0:0:
151,227,90487,6,0,P|166:185|196:139,1,77.9999964294435,8|0,0:0|0:0,0:0:0:0:
205,178,90791,6,0,P|267:224|279:329,1,176.000005371094,12|8,0:0|0:0,0:0:0:0:
180,284,91248,1,2,0:0:0:0:
310,211,91400,2,0,L|357:191,2,44.0000013427735,0|0|8,0:0|0:0|0:0,0:0:0:0:
263,353,91705,1,8,0:0:0:0:
205,178,91857,1,2,0:0:0:0:
396,275,92010,6,0,L|471:144,1,132.00000402832,8|0,0:0|0:0,0:0:0:0:
461,160,92314,1,8,0:0:0:0:
407,81,92466,2,0,L|283:91,1,88.000002685547,2|0,0:0|0:0,0:0:0:0:
319,88,92695,1,0,0:0:0:0:
319,88,92771,1,8,0:0:0:0:
205,178,92923,1,8,0:0:0:0:
350,193,93076,1,2,0:0:0:0:
171,91,93228,6,0,P|115:153|156:257,1,176.000005371094,12|8,0:0|0:0,0:0:0:0:
291,195,93685,2,0,L|183:173,1,88.000002685547,2|0,0:0|0:0,0:0:0:0:
110,261,93989,1,8,0:0:0:0:
110,261,94142,1,8,0:0:0:0:
272,281,94294,2,0,L|377:249,1,88.000002685547,2|0,0:0|0:0,0:0:0:0:
291,106,94598,6,0,L|263:21,1,88.000002685547,8|8,0:0|0:0,0:0:0:0:
159,94,94903,2,0,P|125:128|112:191,1,88.000002685547,2|0,0:0|0:0,0:0:0:0:
176,305,95208,1,8,0:0:0:0:
176,305,95360,1,8,0:0:0:0:
204,177,95512,1,2,0:0:0:0:
13,263,95664,6,0,P|101:261|182:311,1,176.000005371094,12|8,0:0|0:0,0:0:0:0:
285,210,96121,2,0,L|172:163,1,88.000002685547,2|0,0:0|0:0,0:0:0:0:
112,164,96426,1,8,0:0:0:0:
277,121,96578,1,8,0:0:0:0:
172,256,96730,1,2,0:0:0:0:
213,70,96883,6,0,P|272:40|345:75,1,132.00000402832,12|0,0:0|0:0,0:0:0:0:
331,59,97187,1,2,0:0:0:0:
396,190,97340,1,2,0:0:0:0:
396,190,97492,1,2,0:0:0:0:
302,154,97644,1,2,0:0:0:0:
454,117,97796,1,2,0:0:0:0:
417,274,97949,1,2,0:0:0:0:
361,97,98101,6,0,P|276:77|220:143,1,176.000005371094,12|8,0:0|0:0,0:0:0:0:
126,232,98558,2,0,P|164:247|210:242,1,88.000002685547,2|0,0:0|0:0,0:0:0:0:
302,154,98862,1,8,0:0:0:0:
292,310,99015,1,8,0:0:0:0:
178,165,99167,1,2,0:0:0:0:
95,313,99319,6,0,B|53:283|53:283|18:131,1,176.000005371094,8|0,0:0|0:0,0:0:0:0:
132,98,99776,2,0,P|179:83|228:99,1,88.000002685547,2|0,0:0|0:0,0:0:0:0:
226,231,100081,2,0,P|179:246|130:230,1,88.000002685547,8|8,0:0|0:0,0:0:0:0:
132,98,100385,1,2,0:0:0:0:
301,154,100538,6,0,B|361:144|399:97|399:97|469:128,1,176.000005371094,8|8,0:0|0:0,0:0:0:0:
428,275,100994,2,0,L|318:248,1,88.000002685547,2|0,0:0|0:0,0:0:0:0:
215,174,101299,2,0,L|325:147,1,88.000002685547,8|8,0:0|0:0,0:0:0:0:
415,190,101603,1,2,0:0:0:0:
268,335,101756,6,0,B|232:254|232:254|178:263|138:210,1,176.000005371094,0|8,0:0|0:0,0:0:0:0:
215,174,102213,1,8,0:3:0:0:
86,275,102365,1,0,0:0:0:0:
190,151,102517,5,4,0:3:0:0:
110,301,102669,1,0,0:0:0:0:
166,133,102822,5,8,0:0:0:0:
128,324,102974,1,0,0:0:0:0:
86,111,103126,6,0,P|113:73|202:61,1,120,12|0,0:0|0:0,0:0:0:0:
181,54,103431,1,0,0:0:0:0:
166,133,103583,2,0,P|185:175|151:258,1,120,8|0,0:0|0:0,0:0:0:0:
166,243,103888,1,0,0:0:0:0:
103,191,104040,2,0,P|56:186|1:115,1,120,8|0,0:0|0:0,0:0:0:0:
6,136,104345,1,8,0:0:0:0:
166,133,104497,6,0,L|225:72,1,80
287,173,104801,1,2,0:0:0:0:
287,173,104954,2,0,L|307:90,1,80,0|0,0:0|0:0,0:0:0:0:
414,171,105258,2,0,L|390:89,1,80,2|0,0:0|0:0,0:0:0:0:
402,306,105563,6,0,P|338:311|279:347,1,120,12|0,0:0|0:0,0:0:0:0:
289,337,105867,1,0,0:0:0:0:
224,281,106020,2,0,P|251:223|249:153,1,120,8|0,0:0|0:0,0:0:0:0:
253,168,106324,1,0,0:0:0:0:
336,144,106477,2,0,P|372:196|433:230,1,120,8|0,0:0|0:0,0:0:0:0:
419,225,106781,1,8,0:0:0:0:
253,168,106933,6,0,L|146:177,1,80,2|2,0:0|0:0,0:0:0:0:
93,138,107238,1,8,0:0:0:0:
93,138,107390,2,0,P|119:105|176:84,1,80,2|2,0:0|0:0,0:0:0:0:
108,221,107695,2,0,P|66:214|19:176,1,80,8|2,0:0|0:0,0:0:0:0:
173,174,107999,5,8,0:0:0:0:
179,332,108152,1,6,0:0:0:0:
293,223,108304,1,6,0:0:0:0:
166,147,108608,5,12,0:0:0:0:
313,205,108761,1,12,0:0:0:0:
158,120,109065,5,6,0:0:0:0:
334,185,109218,1,6,0:0:0:0:
241,281,109522,5,12,0:0:0:0:
247,85,109674,1,12,0:0:0:0:
125,213,109827,5,2,0:0:0:0:
161,325,109979,1,4,0:3:0:0:
161,325,110055,1,0,0:0:0:0:
161,325,110131,1,8,0:0:0:0:
35,250,110284,1,8,0:0:0:0:
75,129,110436,6,0,L|114:88,3,40,2|2|2|2,0:0|0:0|0:0|0:0,0:0:0:0:
176,128,110741,1,12,0:0:0:0:
256,192,110817,12,0,115309,0:0:0:0:
