osu file format v14

[General]
AudioFilename: audio.mp3
AudioLeadIn: 0
PreviewTime: 80284
Countdown: 0
SampleSet: Soft
StackLeniency: 0.7
Mode: 0
LetterboxInBreaks: 0
EpilepsyWarning: 1
WidescreenStoryboard: 1

[Editor]
DistanceSpacing: 1.2
BeatDivisor: 4
GridSize: 4
TimelineZoom: 1

[Metadata]
Title:Great Distance
TitleUnicode:Great Distance
Artist:ryo (supercell) feat.chelly
ArtistUnicode:ryo (supercell) feat.chelly
Creator:Down
Version:Hard
Source:ブレイブリーセカンド
Tags:chelly bravely second end layer opening theme square enix 吉田明彦 akihiko yoshida egoist nintendo Dailycare
BeatmapID:970509
BeatmapSetID:452409

[Difficulty]
HPDrainRate:5
CircleSize:4
OverallDifficulty:6
ApproachRate:8
SliderMultiplier:1.3
SliderTickRate:2

[Events]
//Background and Video events
0,0,"bg.jpg",0,0
//Break Periods
//Storyboard Layer 0 (Background)
//Storyboard Layer 1 (Fail)
//Storyboard Layer 2 (Pass)
//Storyboard Layer 3 (Foreground)
Sprite,Foreground,Centre,"Lyrics\37.png",320,340 S,0,17847,,0.5 C,0,17847,,255,164,196 P,0,17847,,A F,0,17847,17947,0,0.8 MX,0,17847,20284,251 MY,0,17847,20284,242 F,0,20184,20284,0.8,0
//Storyboard Sound Samples

[TimingPoints]
10538,304.568527918782,4,2,1,55,1,0
23329,-100,4,2,99,90,0,0
23786,-100,4,2,1,55,0,0
24243,-100,4,2,99,90,0,0
24548,-100,4,2,1,55,0,0
42213,-100,4,2,1,30,0,0
44649,-100,4,2,1,55,0,0
55918,-100,4,2,1,30,0,0
56223,-100,4,2,1,55,0,0
81045,-100,4,2,1,65,0,1
89573,-100,4,2,99,90,0,1
90487,-100,4,2,1,65,0,1
103126,-100,4,2,1,55,0,0
108609,-100,4,2,99,90,0,0
109065,-100,4,2,1,55,0,0
109522,-100,4,2,99,90,0,0
109827,-100,4,2,1,55,0,0

[Colours]
Combo1 : 250,167,180
Combo2 : 150,241,159
Combo3 : 244,234,157

[HitObjects]
134,213,12822,6,0,P|196:182|285:180,1,130,12|8,0:0|0:0,0:0:0:0:
309,232,13279,2,0,P|329:205|332:163,1,65,2|0,0:0|0:0,0:0:0:0:
291,109,13583,2,0,P|325:96|362:101,2,65,8|8|2,0:0|0:0|0:0,0:0:0:0:
215,87,14040,6,0,L|77:81,1,130,8|8,0:0|0:0,0:0:0:0:
50,151,14497,2,0,L|60:236,1,65,2|0,0:0|0:0,0:0:0:0:
135,223,14801,2,0,L|127:158,2,65,8|8|2,0:0|0:0|0:0,0:0:0:0:
87,285,15258,6,0,P|118:300|209:243,1,130,12|8,0:0|0:0,0:0:0:0:
217,188,15715,2,0,P|248:203|278:252,1,65,2|0,0:0|0:0,0:0:0:0:
272,303,16020,1,8,0:0:0:0:
338,263,16172,2,0,P|359:239|388:225,1,65,8|2,0:0|0:0,0:0:0:0:
405,302,16477,6,0,P|453:269|454:180,1,130,0|2,0:0|0:0,0:0:0:0:
403,152,16933,1,0,0:0:0:0:
412,74,17086,2,0,L|489:71,2,65,8|2|8,0:0|0:0|0:0,0:0:0:0:
338,100,17543,2,0,L|263:101,1,65,2|0,0:0|0:0,0:0:0:0:
209,55,17847,6,0,L|167:207,1,130,12|2,0:0|0:0,0:0:0:0:
96,181,18304,2,0,L|130:55,1,130,8|0,0:0|0:0,0:0:0:0:
52,55,18761,2,0,L|26:144,1,65,8|0,0:0|0:0,0:0:0:0:
19,194,19065,5,2,0:0:0:0:
64,257,19218,2,0,L|155:266,2,65,0|0|10,0:0|0:0|0:0,0:0:0:0:
42,332,19675,2,0,L|133:341,1,65,0|0,0:0|0:0,0:0:0:0:
182,322,19979,2,0,L|273:331,1,65,8|0,0:0|0:0,0:0:0:0:
324,332,20284,6,0,P|293:268|213:261,1,130,12|0,0:0|0:0,0:0:0:0:
163,241,20741,2,0,P|205:183|285:190,1,130,8|0,0:0|0:0,0:0:0:0:
334,201,21197,1,8,0:0:0:0:
436,82,21502,5,8,0:0:0:0:
436,82,21654,2,0,L|454:154,2,65,2|2|8,0:0|0:0|0:0,0:0:0:0:
389,18,22111,2,0,L|343:64,1,65,2|2,0:0|0:0,0:0:0:0:
301,130,22416,2,0,L|364:148,1,65,8|2,0:0|0:0,0:0:0:0:
415,210,22720,1,8,0:0:0:0:
484,246,22873,5,6,0:0:0:0:
370,272,23025,1,6,0:0:0:0:
490,268,23329,5,12,0:0:0:0:
375,293,23482,1,12,0:0:0:0:
496,289,23786,5,6,0:0:0:0:
378,312,23939,1,6,0:0:0:0:
229,234,24243,5,12,0:0:0:0:
94,261,24395,1,12,0:0:0:0:
186,157,24548,1,2,0:0:0:0:
112,121,24700,2,0,L|103:79,3,32.5,8|8|4|0,0:3|0:3|0:3|0:0,0:0:0:0:
98,50,25005,6,0,L|243:43,1,130,12|8,0:0|0:0,0:0:0:0:
257,115,25461,2,0,P|294:120|339:107,1,65,2|8,0:0|0:0,0:0:0:0:
373,56,25766,1,8,0:0:0:0:
373,56,25918,1,8,0:0:0:0:
416,120,26070,2,0,L|443:195,1,65,2|8,0:0|0:0,0:0:0:0:
409,254,26375,6,0,P|446:259|475:250,2,65,2|12|0,0:0|0:0|0:0,0:0:0:0:
356,195,26832,2,0,P|319:190|290:199,2,65,6|0|8,0:0|0:0|0:3,0:0:0:0:
329,268,27289,2,0,L|329:345,1,65,4|0,0:3|0:0,0:0:0:0:
251,335,27593,6,0,L|251:270,1,65,10|2,0:0|0:0,0:0:0:0:
214,200,27898,2,0,L|82:158,1,130,8|8,0:0|0:0,0:0:0:0:
243,128,28507,1,8,0:0:0:0:
393,87,28812,6,0,L|246:48,2,130,8|8|8,0:0|0:0|0:0,0:0:0:0:
430,238,29725,1,8,0:0:0:0:
288,304,30030,6,0,L|370:267,1,65,10|2,0:0|0:0,0:0:0:0:
352,199,30334,2,0,P|290:180|206:190,1,130,8|8,0:0|0:0,0:0:0:0:
215,340,30944,1,8,0:0:0:0:
140,203,31248,6,0,P|154:139|205:72,2,130,8|8|8,0:0|0:0|0:0,0:0:0:0:
277,276,32162,1,8,0:0:0:0:
121,275,32466,6,0,L|55:273,1,65,10|2,0:0|0:0,0:0:0:0:
75,348,32771,2,0,L|224:350,1,130,8|8,0:0|0:0,0:0:0:0:
358,320,33380,1,8,0:0:0:0:
300,174,33685,6,0,P|238:189|181:240,2,130,8|8|8,0:0|0:0|0:0,0:0:0:0:
424,267,34598,1,8,0:0:0:0:
416,110,34903,6,0,L|416:36,2,65,10|2|8,0:0|0:0|0:0,0:0:0:0:
275,42,35512,1,8,0:0:0:0:
275,42,35817,1,8,0:0:0:0:
165,153,36121,6,0,L|166:234,2,65,8|2|8,0:0|0:0|0:0,0:0:0:0:
225,297,36730,2,0,P|158:318|95:288,1,130,8|8,0:0|0:0,0:0:0:0:
83,141,37340,6,0,P|100:105|128:82,1,65,14|8,0:0|0:0,0:0:0:0:
187,51,37644,1,8,0:0:0:0:
187,51,37796,2,0,L|231:115,1,65,6|0,0:0|0:0,0:0:0:0:
272,165,38101,1,8,0:0:0:0:
272,165,38253,2,0,L|316:101,1,65,2|8,0:0|0:0,0:0:0:0:
370,63,38558,6,0,P|411:56|451:72,1,65,6|8,0:0|0:0,0:0:0:0:
404,134,38862,1,0,0:0:0:0:
404,134,39015,2,0,L|403:226,1,65,6|8,0:0|0:0,0:0:0:0:
480,206,39319,1,8,0:0:0:0:
480,206,39472,2,0,L|479:298,1,65,2|8,0:0|0:0,0:0:0:0:
413,311,39776,6,0,P|351:302|277:322,1,130,12|8,0:0|0:0,0:0:0:0:
213,346,40233,2,0,L|157:269,1,65,6|0,0:0|0:0,0:0:0:0:
100,267,40538,1,8,0:0:0:0:
100,267,40690,2,0,P|120:235|160:217,1,65,2|8,0:0|0:0,0:0:0:0:
220,228,40994,6,0,P|283:231|355:209,1,130,6|8,0:0|0:0,0:0:0:0:
388,146,41451,2,0,L|345:84,1,65,6|8,0:0|0:0,0:0:0:0:
284,50,41756,1,8,0:0:0:0:
284,50,41908,2,0,L|246:103,1,65,2|8,0:0|0:0,0:0:0:0:
188,156,42213,5,0,0:0:0:0:
188,156,43431,5,0,0:0:0:0:
188,156,44649,6,0,L|188:251,1,65,12|0,0:0|0:0,0:0:0:0:
189,299,44954,1,8,0:0:0:0:
189,299,45106,1,0,0:0:0:0:
266,303,45258,2,0,L|266:238,1,65,0|0,0:0|0:0,0:0:0:0:
267,160,45563,1,8,0:0:0:0:
267,160,45715,1,0,0:0:0:0:
334,120,45867,6,0,L|410:98,1,65,8|0,0:0|0:0,0:0:0:0:
407,179,46172,2,0,L|344:197,1,65,8|0,0:0|0:0,0:0:0:0:
375,269,46477,2,0,L|451:247,2,65,8|0|8,0:0|0:0|0:0,0:0:0:0:
336,336,46933,1,0,0:0:0:0:
266,303,47086,6,0,L|179:304,1,65,12|0,0:0|0:0,0:0:0:0:
136,346,47390,2,0,L|49:347,1,65,2|0,0:0|0:0,0:0:0:0:
40,273,47695,2,0,P|97:244|161:236,1,130,8|2,0:0|0:0,0:0:0:0:
240,225,48152,6,0,P|212:175|128:165,1,130,0|8,0:0|0:0,0:0:0:0:
69,175,48609,2,0,P|68:145|86:105,1,65,2|0,0:0|0:0,0:0:0:0:
151,80,48913,2,0,L|151:15,2,65,8|8|2,0:0|0:0|0:0,0:0:0:0:
228,90,49370,1,0,0:0:0:0:
300,60,49522,6,0,L|379:43,1,65,8|8,0:0|0:0,0:0:0:0:
399,115,49827,2,0,L|320:132,1,65,2|0,0:0|0:0,0:0:0:0:
334,206,50131,2,0,L|484:173,1,130,8|2,0:0|0:0,0:0:0:0:
494,249,50588,6,0,L|367:276,1,130,0|8,0:0|0:0,0:0:0:0:
289,269,51045,2,0,P|261:238|259:195,1,65,2|0,0:0|0:0,0:0:0:0:
261,137,51350,1,8,0:0:0:0:
189,167,51502,2,0,L|109:179,2,65,0|2|0,0:0|0:0|0:0,0:0:0:0:
194,88,51959,6,0,L|137:53,1,65,8|8,0:0|0:0,0:0:0:0:
75,99,52263,2,0,L|19:133,1,65,2|0,0:0|0:0,0:0:0:0:
53,203,52568,2,0,P|75:235|165:238,1,130,8|2,0:0|0:0,0:0:0:0:
227,202,53025,6,0,L|159:325,1,130,0|8,0:0|0:0,0:0:0:0:
236,344,53482,2,0,L|275:271,1,65,2|0,0:0|0:0,0:0:0:0:
333,326,53786,2,0,L|363:268,1,65,8|0,0:0|0:0,0:0:0:0:
378,195,54091,1,2,0:0:0:0:
304,217,54243,1,0,0:0:0:0:
354,120,54395,6,0,P|391:119|436:141,2,65,8|8|2,0:0|0:0|0:0,0:0:0:0:
279,144,54852,1,0,0:0:0:0:
212,185,55005,2,0,P|201:132|245:73,1,130,8|2,0:0|0:0,0:0:0:0:
314,41,55461,6,0,L|454:42,1,130,0|2,0:0|0:0,0:0:0:0:
465,117,55918,2,0,L|432:158,3,32.5,10|0|2|2,0:0|0:0|0:0|0:0,0:0:0:0:
422,174,56223,2,0,L|349:148,1,65,8|8,0:0|0:0,0:0:0:0:
315,215,56527,2,0,L|388:241,1,65,2|8,0:0|0:0,0:0:0:0:
447,268,56832,6,0,P|417:301|316:284,1,130,12|2,0:0|0:0,0:0:0:0:
262,273,57289,2,0,P|225:272|188:288,1,65,0|0,0:0|0:0,0:0:0:0:
143,335,57593,1,8,0:0:0:0:
124,258,57746,2,0,L|106:176,1,65,2|0,0:0|0:0,0:0:0:0:
41,157,58050,6,0,P|91:120|171:148,1,130,8|2,0:0|0:0,0:0:0:0:
209,187,58507,2,0,P|246:188|283:172,1,65,0|0,0:0|0:0,0:0:0:0:
229,112,58812,1,8,0:0:0:0:
306,110,58964,2,0,P|333:131|350:186,1,65,2|0,0:0|0:0,0:0:0:0:
342,235,59268,6,0,P|385:225|417:129,1,130,12|8,0:0|0:0,0:0:0:0:
422,75,59725,1,0,0:0:0:0:
348,48,59878,2,0,L|266:17,2,65,0|0|8,0:0|0:0|0:0,0:0:0:0:
422,75,60334,1,0,0:0:0:0:
422,153,60487,6,0,L|441:290,1,130,2|10,0:0|0:0,0:0:0:0:
380,332,60944,2,0,P|306:320|240:330,1,130,2|0,0:0|0:0,0:0:0:0:
179,355,61400,2,0,L|122:297,1,65,8|0,0:0|0:0,0:0:0:0:
86,246,61705,5,12,0:0:0:0:
86,246,61857,1,0,0:0:0:0:
149,103,62162,1,0,0:0:0:0:
149,103,62314,1,8,0:0:0:0:
0,125,62619,1,8,0:0:0:0:
0,125,62771,1,0,0:0:0:0:
68,162,62923,5,8,0:0:0:0:
164,39,63228,1,8,0:0:0:0:
287,135,63532,1,8,0:0:0:0:
191,258,63837,1,8,0:0:0:0:
352,265,64142,5,8,0:0:0:0:
352,265,64294,1,0,0:0:0:0:
411,121,64598,1,0,0:0:0:0:
411,121,64751,1,8,0:0:0:0:
452,271,65055,1,8,0:0:0:0:
452,271,65208,1,0,0:0:0:0:
401,199,65360,5,8,0:0:0:0:
261,269,65664,1,8,0:0:0:0:
399,340,65969,1,8,0:0:0:0:
315,207,66274,1,8,0:0:0:0:
219,96,66578,5,12,0:0:0:0:
219,96,66730,2,0,L|181:181,1,65,0|2,0:0|0:0,0:0:0:0:
116,173,67035,1,12,0:0:0:0:
116,173,67187,2,0,P|129:201|179:234,1,65,0|8,0:0|0:0,0:0:0:0:
229,242,67492,2,0,P|216:270|166:303,1,65,8|0,0:0|0:0,0:0:0:0:
113,288,67796,6,0,L|36:235,1,65,0|8,0:0|0:0,0:0:0:0:
33,177,68101,1,2,0:0:0:0:
151,75,68406,1,8,0:0:0:0:
151,75,68558,2,0,L|242:74,1,65,8|2,0:0|0:0,0:0:0:0:
368,38,69015,5,12,0:0:0:0:
368,38,69167,2,0,L|390:121,1,65,0|2,0:0|0:0,0:0:0:0:
316,139,69472,1,12,0:0:0:0:
316,139,69624,2,0,L|294:56,1,65,0|8,0:0|0:0,0:0:0:0:
215,74,69928,1,12,0:0:0:0:
72,138,70233,6,0,B|56:174|56:174|85:283,1,130,2|0,0:0|0:0,0:0:0:0:
138,313,70690,1,8,0:0:0:0:
158,237,70842,2,0,L|144:191,2,32.5,2|0|8,0:0|0:0|0:0,0:0:0:0:
217,288,71147,2,0,L|285:305,1,65,0|2,0:0|0:0,0:0:0:0:
352,331,71451,6,0,P|395:284|411:218,1,130,12|2,0:0|0:0,0:0:0:0:
387,146,71908,1,0,0:0:0:0:
347,78,72060,2,0,P|320:104|309:145,1,65,0|0,0:0|0:0,0:0:0:0:
231,127,72365,2,0,P|240:163|270:193,1,65,2|0,0:0|0:0,0:0:0:0:
331,207,72669,6,0,L|333:280,2,65,8|0|2,0:0|0:0|0:0,0:0:0:0:
256,184,73126,2,0,P|187:200|137:237,1,130,0|8,0:0|0:0,0:0:0:0:
88,293,73583,2,0,L|30:223,1,65,2|0,0:0|0:0,0:0:0:0:
23,168,73888,6,0,P|63:166|91:180,1,65,12|0,0:0|0:0,0:0:0:0:
161,162,74192,2,0,P|142:126|116:109,1,65,2|0,0:0|0:0,0:0:0:0:
49,84,74497,2,0,P|93:41|176:56,1,130,8|2,0:0|0:0,0:0:0:0:
217,94,74954,1,0,0:0:0:0:
287,60,75106,6,0,L|428:45,1,130,8|2,0:0|0:0,0:0:0:0:
460,110,75563,1,0,0:0:0:0:
417,176,75715,2,0,P|394:153|383:123,2,65,8|8|2,0:0|0:0|0:0,0:0:0:0:
485,215,76172,1,8,0:0:0:0:
416,251,76324,6,0,L|340:283,1,65,12|0,0:0|0:0,0:0:0:0:
312,211,76629,2,0,L|252:236,1,65,2|0,0:0|0:0,0:0:0:0:
208,300,76933,1,8,0:0:0:0:
208,300,77086,2,0,L|120:301,1,65,8|2,0:0|0:0,0:0:0:0:
65,300,77390,1,0,0:0:0:0:
22,234,77543,6,0,L|83:198,1,65,8|8,0:0|0:0,0:0:0:0:
147,165,77847,1,2,0:0:0:0:
86,115,77999,2,0,P|117:92|152:85,1,65,0|0,0:0|0:0,0:0:0:0:
214,116,78303,1,8,0:0:0:0:
222,193,78456,2,0,L|269:248,1,65,2|8,0:0|0:0,0:0:0:0:
333,278,78761,5,2,0:0:0:0:
333,278,78913,1,8,0:0:0:0:
158,240,79218,5,8,0:0:0:0:
158,240,79370,1,8,0:0:0:0:
291,114,79675,5,2,0:0:0:0:
291,114,79827,1,12,0:0:0:0:
367,130,81045,6,0,P|308:95|228:77,1,130,12|8,0:0|0:0,0:0:0:0:
182,37,81502,2,0,P|173:66|180:112,1,65,2|0,0:0|0:0,0:0:0:0:
108,139,81807,2,0,P|128:161|171:178,2,65,8|8|2,0:0|0:0|0:0,0:0:0:0:
72,69,82263,6,0,P|40:102|53:196,1,130,8|8,0:0|0:0,0:0:0:0:
102,231,82720,2,0,L|71:317,1,65,2|0,0:0|0:0,0:0:0:0:
141,341,83025,1,8,0:0:0:0:
141,341,83177,1,8,0:0:0:0:
209,304,83329,1,2,0:0:0:0:
275,345,83482,6,0,P|343:333|413:349,1,130,8|8,0:0|0:0,0:0:0:0:
465,299,83939,2,0,L|452:220,1,65,2|0,0:0|0:0,0:0:0:0:
480,161,84243,2,0,P|448:157|394:180,1,65,8|8,0:0|0:0,0:0:0:0:
373,230,84548,1,2,0:0:0:0:
340,159,84700,6,0,B|337:100|337:100|339:22,1,130,8|8,0:0|0:0,0:0:0:0:
260,27,85157,1,2,0:0:0:0:
260,27,85309,2,0,B|210:58|210:58|141:96,1,130,0|8,0:0|0:0,0:0:0:0:
178,165,85766,1,2,0:0:0:0:
178,165,85918,6,0,B|229:192|229:192|297:232,1,130,12|8,0:0|0:0,0:0:0:0:
361,264,86375,2,0,P|342:289|291:305,1,65,2|0,0:0|0:0,0:0:0:0:
236,284,86680,2,0,L|166:242,2,65,8|8|2,0:0|0:0|0:0,0:0:0:0:
257,358,87136,6,0,P|188:349|103:353,1,130,8|8,0:0|0:0,0:0:0:0:
104,275,87593,2,0,P|103:243|126:194,1,65,2|0,0:0|0:0,0:0:0:0:
58,155,87898,2,0,P|85:138|139:133,1,65,8|8,0:0|0:0,0:0:0:0:
184,171,88202,1,2,0:0:0:0:
233,232,88355,6,0,P|260:179|221:102,1,130,12|8,0:0|0:0,0:0:0:0:
175,68,88812,1,2,0:0:0:0:
248,41,88964,1,0,0:0:0:0:
312,85,89116,2,0,L|392:66,1,65,8|8,0:0|0:0,0:0:0:0:
404,142,89421,1,2,0:0:0:0:
386,217,89573,6,0,L|416:282,1,65,12|0,0:0|0:0,0:0:0:0:
331,159,89878,2,0,L|259:152,1,65,12|0,0:0|0:0,0:0:0:0:
404,142,90182,2,0,L|445:83,1,65,12|0,0:0|0:0,0:0:0:0:
314,230,90487,2,0,L|272:288,1,65,8|0,0:0|0:0,0:0:0:0:
305,355,90791,6,0,P|235:348|199:293,1,130,12|8,0:0|0:0,0:0:0:0:
174,229,91248,2,0,L|100:286,1,65,2|0,0:0|0:0,0:0:0:0:
57,312,91553,1,8,0:0:0:0:
57,312,91705,1,8,0:0:0:0:
52,234,91857,1,2,0:0:0:0:
13,165,92010,6,0,P|64:131|143:119,1,130,8|8,0:0|0:0,0:0:0:0:
203,145,92466,2,0,L|249:80,1,65,2|0,0:0|0:0,0:0:0:0:
318,82,92771,2,0,L|355:135,2,65,8|8|2,0:0|0:0|0:0,0:0:0:0:
384,41,93228,6,0,L|462:155,1,130,12|8,0:0|0:0,0:0:0:0:
401,202,93685,2,0,L|344:251,1,65,2|0,0:0|0:0,0:0:0:0:
367,320,93989,1,8,0:0:0:0:
292,294,94142,1,8,0:0:0:0:
281,216,94294,2,0,P|251:226|220:272,1,65,2|0,0:0|0:0,0:0:0:0:
215,326,94598,6,0,P|185:316|154:270,1,65,8|0,0:0|0:0,0:0:0:0:
150,214,94903,2,0,P|120:224|89:270,1,65,2|0,0:0|0:0,0:0:0:0:
44,305,95208,2,0,P|59:239|33:182,1,130,8|2,0:0|0:0,0:0:0:0:
103,147,95664,6,0,P|161:134|227:185,1,130,12|8,0:0|0:0,0:0:0:0:
281,215,96121,2,0,L|358:166,1,65,2|0,0:0|0:0,0:0:0:0:
345,102,96426,2,0,L|399:136,1,65,8|8,0:0|0:0,0:0:0:0:
402,214,96730,1,2,0:0:0:0:
479,224,96883,6,0,P|436:284|365:284,1,130,12|2,0:0|0:0,0:0:0:0:
288,350,97340,1,2,0:0:0:0:
288,350,97492,1,2,0:0:0:0:
241,255,97644,1,2,0:0:0:0:
241,255,97796,2,0,L|157:260,1,65,2|2,0:0|0:0,0:0:0:0:
132,324,98101,6,0,B|99:301|99:301|74:194,1,130,12|8,0:0|0:0,0:0:0:0:
95,137,98558,2,0,L|163:169,1,65,2|0,0:0|0:0,0:0:0:0:
209,109,98862,2,0,L|69:44,1,130,8|2,0:0|0:0,0:0:0:0:
25,96,99319,6,0,L|3:235,1,130,8|0,0:0|0:0,0:0:0:0:
47,289,99776,2,0,L|114:246,1,65,2|0,0:0|0:0,0:0:0:0:
171,218,100081,2,0,L|238:175,2,65,8|8|2,0:0|0:0|0:0,0:0:0:0:
165,296,100538,6,0,P|221:324|316:332,1,130,8|8,0:0|0:0,0:0:0:0:
364,345,100994,2,0,P|362:306|329:272,1,65,2|0,0:0|0:0,0:0:0:0:
276,252,101299,2,0,P|309:216|402:229,1,130,8|2,0:0|0:0,0:0:0:0:
428,282,101756,1,0,0:0:0:0:
446,161,101908,5,0,0:0:0:0:
446,161,102060,1,8,0:0:0:0:
394,101,102213,2,0,L|342:33,1,65,8|0,0:3|0:0,0:0:0:0:
272,124,102517,2,0,L|271:38,1,65,4|0,0:3|0:0,0:0:0:0:
151,109,102822,2,0,L|190:57,1,65,8|0,0:0|0:0,0:0:0:0:
129,183,103126,6,0,L|48:288,1,130,12|0,0:0|0:0,0:0:0:0:
121,316,103583,2,0,L|252:333,1,130,8|0,0:0|0:0,0:0:0:0:
257,255,104040,2,0,L|219:175,1,65,8|0,0:0|0:0,0:0:0:0:
184,127,104345,5,8,0:0:0:0:
261,123,104497,2,0,P|249:85|218:56,2,65,0|0|2,0:0|0:0|0:0,0:0:0:0:
309,184,104954,2,0,L|391:148,1,65,0|0,0:0|0:0,0:0:0:0:
331,89,105258,2,0,L|413:53,1,65,2|0,0:0|0:0,0:0:0:0:
468,64,105563,6,0,L|442:204,1,130,12|0,0:0|0:0,0:0:0:0:
421,266,106020,2,0,P|353:255|277:278,1,130,8|0,0:0|0:0,0:0:0:0:
231,316,106477,2,0,P|214:283|218:247,1,65,8|0,0:0|0:0,0:0:0:0:
266,197,106781,5,8,0:0:0:0:
189,185,106933,2,0,L|116:166,2,65,2|2|8,0:0|0:0|0:0,0:0:0:0:
233,120,107390,2,0,L|212:47,1,65,2|2,0:0|0:0,0:0:0:0:
308,133,107695,2,0,L|360:79,1,65,8|2,0:0|0:0,0:0:0:0:
420,125,107999,1,8,0:0:0:0:
386,196,108152,5,6,0:0:0:0:
496,155,108304,1,6,0:0:0:0:
391,221,108609,5,12,0:0:0:0:
501,181,108761,1,12,0:0:0:0:
395,246,109065,5,6,0:0:0:0:
506,208,109218,1,6,0:0:0:0:
384,345,109522,5,12,0:0:0:0:
268,318,109675,1,12,0:0:0:0:
395,246,109827,1,2,0:0:0:0:
334,197,109979,2,0,L|304:149,4,32.5,4|0|8|0|8,0:3|0:0|0:0|0:0|0:0,0:0:0:0:
260,224,110436,6,0,L|225:247,3,32.5,2|2|2|2,0:0|0:0|0:0|0:0,0:0:0:0:
256,192,110741,12,0,115309,0:0:0:0:
