osu file format v14

[General]
AudioFilename: audio.mp3
AudioLeadIn: 0
PreviewTime: 60260
Countdown: 0
SampleSet: Soft
StackLeniency: 0.5
Mode: 0
LetterboxInBreaks: 0
WidescreenStoryboard: 1

[Editor]
DistanceSpacing: 1
BeatDivisor: 4
GridSize: 32
TimelineZoom: 2.1

[Metadata]
Title:takt
TitleUnicode:タクト
Artist:ryo (supercell) feat. mafumafu, gaku
ArtistUnicode:ryo (supercell) feat. まふまふ, gaku
Creator:dahkjdas
Version:Normal
Source:takt op.Destiny
Tags:anime タクトオーパス op opening jpop j-pop pop jrock j-rock rock male vocal Japanese Liyuu
BeatmapID:3988374
BeatmapSetID:1930058

[Difficulty]
HPDrainRate:3.2
CircleSize:3.2
OverallDifficulty:4
ApproachRate:5
SliderMultiplier:0.999999999999999
SliderTickRate:1

[Events]
//Background and Video events
0,0,"BG.jpg",0,0
//Break Periods
2,89382,100907
2,191609,197370
//Storyboard Layer 0 (Background)
//Storyboard Layer 1 (Fail)
//Storyboard Layer 2 (Pass)
//Storyboard Layer 3 (Foreground)
//Storyboard Layer 4 (Overlay)
//Storyboard Sound Samples

[TimingPoints]
677,331.491712707182,3,2,1,30,1,0
2997,331.491712707182,3,2,1,30,1,0
7306,331.491712707182,3,2,1,30,1,0
11615,331.491712707182,3,2,1,30,1,0
17581,-100,3,2,1,30,0,0
28521,-100,3,2,1,60,0,0
30841,331.491712707182,3,2,1,60,1,0
30841,-100,3,2,1,60,0,0
35150,331.491712707182,3,2,1,60,1,0
35150,-100,3,2,1,60,0,0
39459,331.491712707182,3,2,1,60,1,0
39459,-100,3,2,1,60,0,0
41447,-100,3,2,1,30,0,0
43436,-100,3,2,1,70,0,0
45425,-100,3,2,1,30,0,0
60340,-100,3,2,1,60,0,0
61337,-100,3,2,1,80,0,1
77249,-100,3,2,1,80,0,0
81226,-100,3,2,1,80,0,1
85204,-100,3,2,1,30,0,0
91501,331.491712707182,3,2,1,30,1,0
91503,-100,3,2,1,30,0,0
95810,331.491712707182,3,2,1,30,1,0
95810,-100,3,2,1,30,0,0
100119,331.491712707182,3,2,1,30,1,0
100119,-100,3,2,1,30,0,0
106085,-100,3,2,1,60,0,0
108406,331.491712707182,3,2,1,60,1,0
108406,-100,3,2,1,60,0,0
112715,331.491712707182,3,2,1,60,1,0
112715,-100,3,2,1,60,0,0
117024,331.491712707182,3,2,1,60,1,0
117024,-100,3,2,1,60,0,0
121001,-100,3,2,1,70,0,0
122990,-100,3,2,1,30,0,0
137907,-100,3,2,1,60,0,0
138902,-100,3,2,1,80,0,1
154814,-100,3,2,1,80,0,0
158791,-100,3,2,1,80,0,1
162769,-100,3,2,1,30,0,0
165090,-100,3,2,1,40,0,0
165753,-100,3,2,1,50,0,0
166747,-100,3,2,1,60,0,0
182659,-100,3,2,1,40,0,0
184648,-100,3,2,1,50,0,0
186637,-100,3,2,1,60,0,0
188626,-100,3,2,1,50,0,0
204537,-100,3,2,1,60,0,0
206526,-100,3,2,1,80,0,0
207521,-100,3,2,1,60,0,0
209510,-100,3,2,1,80,0,1
224427,-100,3,2,1,80,0,0
228405,-100,3,2,1,80,0,1
232383,-100,3,2,1,30,0,0

[Colours]
Combo1 : 210,0,32
Combo2 : 85,222,255
Combo3 : 205,151,74
Combo4 : 140,166,118

[HitObjects]
32,230,17581,6,0,P|75:219|132:231,1,99.9999999999999,8|8,0:0|0:0,0:0:0:0:
212,263,18244,1,8,0:0:0:0:
295,297,18576,2,0,B|343:312|396:323|396:323|449:302|495:275,1,200,8|0,0:0|0:0,0:0:0:0:
424,212,19570,6,0,P|410:168|424:104,1,99.9999999999999,8|8,0:0|0:0,0:0:0:0:
355,51,20233,1,8,0:0:0:0:
322,135,20565,2,0,B|273:150|221:161|221:161|168:140|134:120,1,200,8|0,0:0|0:0,0:0:0:0:
101,36,21559,5,8,0:0:0:0:
48,109,21891,2,0,B|35:178|35:178|53:240|53:240|41:307,1,200,8|8,0:0|0:0,0:0:0:0:
304,356,23548,6,0,P|255:178|208:357,1,499.999999999999,8|0,0:0|0:0,0:0:0:0:
256,192,25537,12,0,27526,0:0:0:0:
433,308,28521,6,0,P|393:316|333:273,1,99.9999999999999,2|2,3:2|3:2,0:0:0:0:
322,243,29018,1,2,0:0:0:0:
215,136,29515,2,0,P|209:194|204:257,1,99.9999999999999,2|2,3:2|3:2,0:0:0:0:
203,285,30012,1,2,0:0:0:0:
72,360,30510,2,0,P|69:317|66:287,1,50,2|2,3:2|0:0,0:0:0:0:
88,264,30841,6,0,P|55:237|54:169,1,99.9999999999999,2|0,3:2|3:2,0:0:0:0:
79,143,31338,1,0,0:0:0:0:
79,143,31503,1,0,3:2:0:0:
170,102,31835,2,0,L|176:152,2,50,0|0|0,3:2|0:0|3:2,0:0:0:0:
260,144,32498,2,0,L|249:208,1,50,0|0,3:2|0:0,0:0:0:0:
281,233,32829,6,0,P|322:208|389:216,1,99.9999999999999,2|2,3:2|3:2,0:0:0:0:
417,232,33327,1,2,0:0:0:0:
507,112,33824,2,0,P|482:87|402:90,1,99.9999999999999,2|2,3:2|3:2,0:0:0:0:
377,106,34321,1,2,0:0:0:0:
263,8,34818,2,0,P|269:47|272:70,1,50,2|2,3:2|0:0,0:0:0:0:
233,91,35150,6,0,B|186:84|186:84|179:79|179:79|135:74,2,99.9999999999999,10|10|10,3:2|3:2|3:2,0:0:0:0:
298,166,36144,2,0,B|345:159|345:159|352:154|352:154|396:149,2,99.9999999999999,10|10|10,3:2|3:2|3:2,0:0:0:0:
238,246,37138,6,0,P|234:283|226:357,1,99.9999999999999,6|2,3:2|3:2,0:0:0:0:
263,380,37636,1,2,0:0:0:0:
131,308,38133,2,0,P|85:297|27:338,1,99.9999999999999,2|2,3:2|3:2,0:0:0:0:
9,359,38630,1,2,0:0:0:0:
53,215,39127,2,0,P|49:185|42:159,1,50,2|2,3:2|0:0,0:0:0:0:
16,123,39459,6,0,P|52:130|115:101,1,99.9999999999999,2|0,3:2|3:2,0:0:0:0:
135,64,39956,1,0,0:0:0:0:
135,64,40121,1,0,3:2:0:0:
223,111,40453,2,0,L|282:117,2,50,0|0|0,3:2|0:0|3:2,0:0:0:0:
279,28,41116,2,0,L|342:50,1,50,2|2,3:2|0:0,0:0:0:0:
373,27,41447,6,0,P|400:58|377:219,1,200,2|2,0:0|0:0,0:0:0:0:
460,277,42442,2,0,P|422:241|352:333,1,200,2|2,0:0|0:0,0:0:0:0:
259,372,43436,6,0,B|208:365|208:365|203:359|203:359|149:351,2,99.9999999999999,2|2|0,3:2|3:2|3:2,0:0:0:0:
349,328,44431,2,0,L|356:261,1,50,0|0,1:2|1:2,0:0:0:0:
377,233,44762,2,0,L|315:205,1,50,0|0,1:2|1:2,0:0:0:0:
298,174,45094,2,0,L|252:224,1,50,2|2,1:2|1:2,0:0:0:0:
221,236,45425,6,0,P|152:242|181:107,1,250,2|0,0:0|0:0,0:0:0:0:
198,75,46420,2,0,B|247:142|316:118|316:118|365:150|338:225,1,250
330,264,47414,6,0,P|371:242|435:251,2,99.9999999999999,10|0|0,0:0|0:0|0:0,0:0:0:0:
261,322,48409,2,0,P|215:315|149:304,1,99.9999999999999
115,229,49072,6,0,L|168:220,2,50,2|2|2,0:0|0:0|0:0,0:0:0:0:
261,167,50066,2,0,L|310:175,2,50,2|2|2,0:0|0:0|0:0,0:0:0:0:
125,10,51392,6,0,P|151:36|150:117,1,99.9999999999999
128,129,51889,1,0,0:0:0:0:
128,129,52055,2,0,L|140:181,1,50,2|2,0:0|0:0,0:0:0:0:
126,221,52387,6,0,P|173:214|238:206,1,99.9999999999999,2|0,0:0|0:0,0:0:0:0:
309,167,53050,1,2,0:0:0:0:
309,167,53215,1,2,0:0:0:0:
309,167,53381,2,0,P|350:171|414:178,1,99.9999999999999,2|0,0:0|0:0,0:0:0:0:
453,182,53878,1,2,0:0:0:0:
471,274,54210,1,2,0:0:0:0:
471,274,54376,6,0,B|261:239|380:302|173:263,1,300,2|2,0:0|0:0,0:0:0:0:
334,119,56365,2,0,P|443:56|452:181,1,300,8|2,0:0|0:0,0:0:0:0:
256,192,57442,12,0,59348,0:0:0:0:
87,290,60342,6,0,P|71:252|187:243,1,200,2|2,0:0|0:0,0:0:0:0:
281,215,61337,6,0,P|270:280|262:335,1,99.9999999999999,6|0,3:2|3:2,0:0:0:0:
254,365,61834,1,0,0:0:0:0:
254,365,62000,1,0,3:2:0:0:
154,369,62331,2,0,P|115:309|138:224,1,150,2|2,3:2|0:0,0:0:0:0:
102,193,62994,2,0,P|94:156|89:135,1,50,2|2,3:2|0:0,0:0:0:0:
127,107,63326,2,0,P|174:116|231:125,2,99.9999999999999,2|0|0,3:2|3:2|3:2,0:0:0:0:
60,32,64320,6,0,P|35:119|58:181,1,150,2|2,3:2|0:0,0:0:0:0:
87,209,64983,2,0,P|79:255|75:280,1,50,2|2,3:2|0:0,0:0:0:0:
107,299,65315,2,0,P|157:294|217:285,2,99.9999999999999,2|0|0,3:2|3:2|3:2,0:0:0:0:
157,212,66309,6,0,P|192:168|290:184,1,150,2|2,3:2|0:0,0:0:0:0:
327,160,66972,2,0,L|337:230,1,50,2|2,3:2|0:0,0:0:0:0:
374,239,67304,2,0,P|366:290|357:354,2,99.9999999999999,2|0|0,3:2|3:2|3:2,0:0:0:0:
454,187,68298,6,0,P|395:205|321:149,1,150,2|2,3:2|0:0,0:0:0:0:
311,111,68961,1,2,3:2:0:0:
311,111,69127,1,2,0:0:0:0:
311,111,69293,2,0,B|268:118|268:118|260:124|260:124|213:130,2,99.9999999999999,6|2|0,3:2|3:2|3:2,0:0:0:0:
238,41,70287,6,0,P|186:38|130:125,1,150,2|2,3:2|0:0,0:0:0:0:
122,164,70950,1,2,3:2:0:0:
122,164,71116,1,2,0:0:0:0:
122,164,71282,2,0,B|91:170|69:171|69:171|49:162|22:147,2,99.9999999999999,2|2|0,3:2|3:2|3:2,0:0:0:0:
213,210,72276,6,0,L|365:197,1,150,2|2,3:2|0:0,0:0:0:0:
400,164,72939,2,0,L|455:171,1,50,2|2,3:2|0:0,0:0:0:0:
498,181,73271,2,0,P|492:125|486:74,1,99.9999999999999,2|2,3:2|3:2,0:0:0:0:
483,31,73768,1,0,0:0:0:0:
483,31,73934,1,0,3:2:0:0:
385,8,74265,6,0,P|353:8|330:110,1,150,2|2,3:2|0:0,0:0:0:0:
356,140,74928,2,0,L|294:147,1,50,2|2,3:2|0:0,0:0:0:0:
267,177,75260,2,0,P|227:171|160:159,1,99.9999999999999,2|2,3:2|3:2,0:0:0:0:
123,183,75757,1,0,0:0:0:0:
123,183,75923,1,0,3:2:0:0:
63,102,76254,6,0,P|84:57|185:54,1,150,2|2,3:2|0:0,0:0:0:0:
224,38,76917,2,0,L|216:100,1,50,2|0,3:2|0:0,0:0:0:0:
253,122,77249,6,0,P|296:116|410:103,1,150,6|2,3:2|0:0,0:0:0:0:
451,99,77912,1,2,0:0:0:0:
428,196,78243,2,0,P|385:202|271:215,1,150,6|2,1:2|0:0,0:0:0:0:
229,221,78906,2,0,P|191:216|165:213,1,50,2|2,0:0|0:0,0:0:0:0:
131,197,79238,1,2,3:2:0:0:
19,363,79900,6,0,P|63:354|74:352,1,50,2|2,0:0|3:2,0:0:0:0:
104,318,80232,2,0,P|133:347|247:346,1,150,6|2,1:2|0:0,0:0:0:0:
286,358,80895,2,0,L|277:294,1,50,2|2,0:0|0:0,0:0:0:0:
289,259,81226,6,0,P|291:222|300:154,2,99.9999999999999,2|2|2,3:2|3:2|3:2,0:0:0:0:
388,269,82221,2,0,P|392:305|395:374,2,99.9999999999999,2|2|2,3:2|3:2|3:2,0:0:0:0:
471,213,83215,5,2,1:2:0:0:
384,161,83547,1,2,1:2:0:0:
430,72,83878,1,2,1:2:0:0:
352,8,84210,6,0,L|298:19,1,50,2|2,1:2|0:0,0:0:0:0:
268,54,84541,2,0,L|214:65,1,50,2|2,1:2|0:0,0:0:0:0:
174,40,84873,2,0,L|120:51,1,50,2|2,1:2|0:0,0:0:0:0:
88,84,85204,6,0,P|95:136|108:298,1,200,2|2,3:2|0:0,0:0:0:0:
91,327,86033,1,2,0:0:0:0:
91,327,86199,2,0,P|127:306|261:377,1,200,2|2,0:0|0:0,0:0:0:0:
339,330,87193,1,2,0:0:0:0:
256,192,87276,12,2,89182,0:0:0:0:
256,192,102107,12,2,104096,0:0:0:0:
263,94,105091,6,0,B|249:166|249:166|262:216|262:216|247:296,1,200,8|8,0:0|0:0,0:0:0:0:
172,224,106085,6,0,P|118:231|50:241,1,99.9999999999999,2|2,3:2|3:2,0:0:0:0:
23,245,106583,1,2,0:0:0:0:
129,139,107080,2,0,P|170:114|231:139,1,99.9999999999999,2|2,3:2|3:2,0:0:0:0:
248,166,107577,1,2,0:0:0:0:
375,86,108074,2,0,L|362:154,1,50,2|2,3:2|0:0,0:0:0:0:
348,182,108406,6,0,P|399:174|459:166,1,99.9999999999999,2|0,3:2|3:2,0:0:0:0:
500,161,108903,1,0,0:0:0:0:
500,161,109068,1,0,3:2:0:0:
485,260,109400,2,0,L|476:327,2,50,0|0|0,3:2|0:0|3:2,0:0:0:0:
395,304,110063,2,0,L|402:362,1,50,0|0,3:2|0:0,0:0:0:0:
352,366,110394,6,0,P|308:363|240:356,1,99.9999999999999,2|2,3:2|3:2,0:0:0:0:
202,353,110892,1,2,0:0:0:0:
53,374,111389,2,0,P|22:346|13:271,1,99.9999999999999,2|2,3:2|3:2,0:0:0:0:
21,242,111886,1,2,0:0:0:0:
169,258,112383,2,0,P|159:213|154:187,1,50,2|2,3:2|0:0,0:0:0:0:
129,167,112715,6,0,P|138:113|144:58,2,99.9999999999999,10|10|10,3:2|3:2|3:2,0:0:0:0:
56,236,113709,2,0,P|61:290|69:345,2,99.9999999999999,10|10|10,3:2|3:2|3:2,0:0:0:0:
154,255,114703,6,0,P|205:248|272:239,1,99.9999999999999,6|2,3:2|3:2,0:0:0:0:
287,204,115201,1,2,0:0:0:0:
426,259,115698,2,0,P|397:220|400:162,1,99.9999999999999,2|2,3:2|3:2,0:0:0:0:
427,130,116195,1,2,0:0:0:0:
506,2,116692,2,0,P|473:12|443:18,1,50,2|2,3:2|0:0,0:0:0:0:
414,41,117024,6,0,P|369:35|299:23,1,99.9999999999999,2|0,3:2|3:2,0:0:0:0:
266,13,117521,1,0,0:0:0:0:
266,13,117686,1,0,3:2:0:0:
191,79,118018,2,0,L|200:132,2,50,0|0|0,3:2|0:0|3:2,0:0:0:0:
283,117,118681,2,0,L|275:182,1,50,2|2,3:2|0:0,0:0:0:0:
295,213,119012,6,0,P|243:220|181:230,1,99.9999999999999,2|0,3:2|3:2,0:0:0:0:
96,213,119675,2,0,L|104:278,1,50,2|2,3:2|0:0,0:0:0:0:
84,309,120006,2,0,P|136:316|198:326,1,99.9999999999999,2|0,3:2|3:2,0:0:0:0:
271,370,120670,2,0,P|313:365|329:363,1,50,2|2,3:2|0:0,0:0:0:0:
356,328,121001,6,0,P|349:279|337:209,2,99.9999999999999,2|2|0,3:2|3:2|3:2,0:0:0:0:
450,360,121996,2,0,P|474:343|497:316,1,50,0|0,1:2|1:2,0:0:0:0:
486,278,122327,2,0,P|462:261|439:234,1,50,0|0,1:2|1:2,0:0:0:0:
436,197,122659,2,0,P|460:180|483:153,1,50,2|2,1:2|1:2,0:0:0:0:
484,116,122990,6,0,P|466:73|286:84,1,250,2|0,0:0|0:0,0:0:0:0:
251,53,123985,2,0,B|278:102|264:168|264:168|247:182|247:182|225:234|251:292,1,250
214,317,124979,6,0,P|174:312|126:268,2,99.9999999999999,2|0|0,0:0|0:0|0:0,0:0:0:0:
282,258,125974,2,0,P|301:295|295:363,1,99.9999999999999
386,376,126637,2,0,L|443:368,2,50,2|2|2,0:0|0:0|0:0,0:0:0:0:
214,317,127631,2,0,L|165:310,2,50,2|2|2,0:0|0:0|0:0,0:0:0:0:
435,247,128957,6,0,P|393:261|328:226,1,99.9999999999999
314,208,129454,1,0,0:0:0:0:
314,208,129620,2,0,L|321:151,1,50,2|2,0:0|0:0,0:0:0:0:
294,121,129952,2,0,P|240:131|179:141,1,99.9999999999999,2|0,0:0|0:0,0:0:0:0:
108,104,130615,5,2,0:0:0:0:
108,104,130780,1,2,0:0:0:0:
108,104,130946,2,0,P|78:138|88:201,1,99.9999999999999,2|0,0:0|0:0,0:0:0:0:
106,227,131443,1,2,0:0:0:0:
96,320,131775,1,2,0:0:0:0:
96,320,131941,6,0,B|142:298|183:320|183:320|224:344|272:328|298:283|281:232|228:225|202:242,1,300,2|2,0:0|0:0,0:0:0:0:
54,56,133930,2,0,P|37:181|159:145,1,300,8|2,0:0|0:0,0:0:0:0:
256,192,135007,12,0,136913,0:0:0:0:
355,275,137907,6,0,P|305:270|150:256,1,200,2|2,0:0|0:0,0:0:0:0:
99,339,138902,6,0,P|59:335|23:276,1,99.9999999999999,6|0,3:2|3:2,0:0:0:0:
27,244,139399,1,0,0:0:0:0:
27,244,139565,1,0,0:0:0:0:
70,153,139896,2,0,P|53:102|110:35,1,150,2|2,3:2|0:0,0:0:0:0:
160,34,140559,2,0,P|182:41|225:54,1,50,2|2,3:2|0:0,0:0:0:0:
245,81,140890,2,0,P|290:86|347:57,2,99.9999999999999,2|0|0,3:2|3:2|3:2,0:0:0:0:
179,158,141885,6,0,P|227:179|219:275,1,150,2|2,3:2|0:0,0:0:0:0:
192,302,142548,2,0,P|201:338|204:366,1,50,2|2,3:2|0:0,0:0:0:0:
247,373,142880,2,0,P|288:368|354:362,2,99.9999999999999,2|0|0,3:2|3:2|3:2,0:0:0:0:
291,283,143874,6,0,P|327:240|421:261,1,150,2|2,3:2|0:0,0:0:0:0:
459,235,144537,2,0,P|473:199|482:174,1,50,2|2,3:2|0:0,0:0:0:0:
451,144,144869,2,0,P|443:93|437:25,2,99.9999999999999,2|0|0,3:2|3:2|3:2,0:0:0:0:
356,176,145863,6,0,P|350:222|337:335,1,150,2|2,3:2|0:0,0:0:0:0:
382,368,146527,1,2,3:2:0:0:
382,368,146692,1,2,0:0:0:0:
382,368,146858,2,0,B|430:358|430:358|485:371,2,99.9999999999999,6|2|0,3:2|3:2|3:2,0:0:0:0:
284,344,147852,6,0,P|242:351|133:370,1,150,2|2,3:2|0:0,0:0:0:0:
90,349,148515,1,2,3:2:0:0:
140,262,148847,2,0,L|135:197,1,50,2|2,3:2|0:0,0:0:0:0:
107,171,149178,1,2,3:2:0:0:
179,101,149510,1,0,3:2:0:0:
267,147,149841,6,0,P|329:140|419:132,1,150,2|2,3:2|0:0,0:0:0:0:
464,120,150504,2,0,P|477:161|483:188,1,50,2|2,3:2|0:0,0:0:0:0:
502,212,150836,2,0,P|491:253|481:318,1,99.9999999999999,2|2,3:2|3:2,0:0:0:0:
482,359,151333,1,0,0:0:0:0:
482,359,151499,1,0,3:2:0:0:
382,371,151830,6,0,P|352:338|372:224,1,150,2|2,3:2|0:0,0:0:0:0:
341,191,152493,2,0,P|307:192|273:184,1,50,2|2,3:2|0:0,0:0:0:0:
244,171,152825,2,0,P|214:191|138:187,1,99.9999999999999,2|2,3:2|3:2,0:0:0:0:
111,172,153322,1,0,0:0:0:0:
111,172,153488,1,0,3:2:0:0:
178,98,153819,6,0,P|244:75|325:112,1,150,2|2,3:2|0:0,0:0:0:0:
364,113,154482,2,0,P|367:153|372:184,1,50,2|0,3:2|0:0,0:0:0:0:
393,206,154814,6,0,P|383:274|372:360,1,150,6|2,3:2|0:0,0:0:0:0:
327,377,155477,1,2,0:0:0:0:
273,293,155808,2,0,P|280:226|294:139,1,150,6|2,1:2|0:0,0:0:0:0:
329,110,156471,2,0,P|322:67|319:46,1,50,2|2,0:0|0:0,0:0:0:0:
297,15,156803,1,2,3:2:0:0:
111,89,157465,6,0,P|139:97|169:104,1,50,2|2,0:0|3:2,0:0:0:0:
209,102,157797,2,0,P|245:132|240:238,1,150,6|2,1:2|0:0,0:0:0:0:
271,272,158460,2,0,P|262:308|255:340,1,50,2|2,0:0|0:0,0:0:0:0:
214,343,158791,6,0,P|170:338|101:327,2,99.9999999999999,2|2|2,3:2|3:2|3:2,0:0:0:0:
300,291,159786,2,0,P|344:286|413:275,2,99.9999999999999,2|2|2,3:2|3:2|3:2,0:0:0:0:
208,250,160780,5,2,1:2:0:0:
115,287,161112,1,2,1:2:0:0:
45,215,161443,1,2,1:2:0:0:
83,122,161775,6,0,L|136:140,1,50,2|2,1:2|0:0,0:0:0:0:
175,117,162106,2,0,P|169:78|165:53,1,50,2|2,1:2|0:0,0:0:0:0:
213,47,162438,2,0,L|266:65,1,50,2|2,1:2|0:0,0:0:0:0:
306,43,162769,6,0,P|343:82|481:70,1,200,2|2,3:2|0:0,0:0:0:0:
512,109,163598,1,2,0:0:0:0:
512,109,163764,2,0,P|504:151|477:315,1,200,2|2,0:0|0:0,0:0:0:0:
410,365,164758,1,2,0:0:0:0:
256,192,165090,12,6,166747,0:0:0:0:
229,120,167576,5,2,0:0:0:0:
229,120,167742,2,0,P|223:72|214:11,2,99.9999999999999,2|2|2,0:0|0:0|0:0,0:0:0:0:
167,199,168736,2,0,P|113:222|13:128,1,200,2|0,1:2|0:0,0:0:0:0:
95,83,169731,6,0,P|142:78|253:60,1,150,2|2,0:0|0:0,0:0:0:0:
292,49,170394,1,2,0:0:0:0:
361,127,170725,2,0,B|352:179|349:218|349:218|372:272|372:272|370:312|359:374,1,250,6|2,0:0|0:0,0:0:0:0:
314,347,171720,2,0,P|291:330|205:335,2,99.9999999999999,2|2|2,0:0|0:0|0:0,0:0:0:0:
391,283,172714,2,0,P|439:295|448:172,1,200,2|0,1:2|0:0,0:0:0:0:
506,89,173709,6,0,P|455:77|374:151,1,150,2|2,0:0|0:0,0:0:0:0:
345,166,174372,2,0,P|308:161|283:156,1,50,2|2,0:0|0:0,0:0:0:0:
254,187,174703,2,0,P|211:193|144:203,2,99.9999999999999,6|0|0,0:0|0:0|0:0,0:0:0:0:
230,89,175698,6,0,P|187:95|77:111,1,150,2|2,0:0|0:0,0:0:0:0:
33,95,176361,2,0,P|25:131|20:162,1,50,2|2,0:0|0:0,0:0:0:0:
3,190,176692,2,0,P|15:233|31:298,2,99.9999999999999,2|0|0,1:2|0:0|0:0,0:0:0:0:
101,207,177686,6,0,P|156:213|258:224,1,150,2|2,0:0|0:0,0:0:0:0:
297,240,178349,2,0,P|307:209|320:177,1,50,2|2,0:0|0:0,0:0:0:0:
348,157,178681,5,6,0:0:0:0:
392,246,179012,1,2,0:0:0:0:
200,302,179675,5,2,0:0:0:0:
156,214,180006,1,2,0:0:0:0:
43,48,180670,6,0,P|58:78|213:75,1,200,2|2,1:2|0:0,0:0:0:0:
244,56,181499,1,2,0:0:0:0:
244,56,181664,2,0,P|253:105|277:268,1,200,2|2,0:0|0:0,0:0:0:0:
282,303,182492,1,2,0:0:0:0:
282,303,182659,5,2,0:0:0:0:
230,81,183653,1,2,0:0:0:0:
195,288,184648,5,2,0:0:0:0:
316,95,185642,1,2,0:0:0:0:
36,226,186637,6,0,P|87:198|188:229,1,150,6|2,0:0|0:0,0:0:0:0:
207,252,187300,1,2,0:0:0:0:
302,223,187631,2,0,P|351:253|453:227,1,150,6|0,0:0|0:0,0:0:0:0:
474,206,188294,1,2,0:0:0:0:
503,110,188626,1,6,1:2:0:0:
256,192,188709,12,0,190946,0:0:0:0:
468,226,198570,6,0,P|433:194|368:208,1,99.9999999999999,12|8,3:2|3:2,0:0:0:0:
340,224,199068,1,0,3:2:0:0:
340,224,199233,1,0,3:2:0:0:
252,273,199565,2,0,P|221:268|154:259,2,99.9999999999999,8|0|8,0:0|3:2|3:2,0:0:0:0:
233,174,200559,6,0,P|214:130|234:66,1,99.9999999999999,12|8,0:0|3:2,0:0:0:0:
251,38,201057,1,0,0:0:0:0:
251,38,201222,1,0,3:2:0:0:
340,82,201554,2,0,P|382:78|454:70,2,99.9999999999999,0|0|8,3:2|3:2|0:0,0:0:0:0:
259,141,202548,6,0,P|202:134|143:129,1,99.9999999999999,12|0,3:2|3:2,0:0:0:0:
119,99,203046,1,0,0:0:0:0:
119,99,203211,1,0,3:2:0:0:
40,161,203543,2,0,P|61:194|53:269,1,99.9999999999999,8|8,0:0|0:0,0:0:0:0:
49,352,204206,2,0,L|105:344,1,50,8|8,0:0|0:0,0:0:0:0:
146,360,204537,6,0,B|231:160|458:254|458:254|390:362,1,499.999999999999,12|8,1:2|0:0,0:0:0:0:
292,365,206526,5,8,1:2:0:0:
208,309,206858,1,8,1:2:0:0:
181,212,207189,1,8,1:2:0:0:
234,127,207521,1,10,3:2:0:0:
340,321,208515,6,0,P|276:355|156:317,1,200,2|2,0:0|0:0,0:0:0:0:
76,363,209510,6,0,P|44:331|57:221,1,150,6|2,3:2|0:0,0:0:0:0:
81,195,210173,2,0,P|67:161|55:133,1,50,2|2,3:2|0:0,0:0:0:0:
96,113,210504,2,0,P|141:121|215:133,2,99.9999999999999,2|0|0,3:2|3:2|3:2,0:0:0:0:
168,43,211499,6,0,P|226:40|286:114,1,150,2|2,3:2|0:0,0:0:0:0:
318,140,212162,2,0,P|313:173|306:213,1,50,2|2,3:2|0:0,0:0:0:0:
341,228,212493,2,0,P|292:225|233:262,2,99.9999999999999,2|0|0,3:2|3:2|3:2,0:0:0:0:
433,266,213488,6,0,P|475:238|464:137,1,150,2|2,3:2|0:0,0:0:0:0:
454,100,214151,2,0,P|460:71|467:40,1,50,2|2,3:2|0:0,0:0:0:0:
434,10,214482,2,0,P|390:18|325:29,1,99.9999999999999,2|0,3:2|3:2,0:0:0:0:
267,100,215145,1,0,3:2:0:0:
339,169,215477,6,0,P|356:199|322:323,1,150,2|2,3:2|0:0,0:0:0:0:
298,338,216140,1,2,3:2:0:0:
298,338,216305,1,2,0:0:0:0:
298,338,216471,2,0,P|236:332|178:326,2,99.9999999999999,6|2|0,3:2|3:2|3:2,0:0:0:0:
394,365,217465,6,0,B|412:272|439:322|457:231,1,150,2|2,3:2|0:0,0:0:0:0:
453,182,218128,1,2,3:2:0:0:
453,182,218294,1,2,0:0:0:0:
453,182,218460,2,0,P|484:152|479:89,2,99.9999999999999,2|2|0,3:2|3:2|3:2,0:0:0:0:
363,226,219454,6,0,B|307:220|307:220|274:230|274:230|207:222,1,150,2|2,3:2|0:0,0:0:0:0:
170,245,220117,2,0,L|164:185,1,50,2|2,3:2|0:0,0:0:0:0:
140,151,220449,2,0,P|151:110|156:32,1,99.9999999999999,2|2,3:2|3:2,0:0:0:0:
160,2,220946,1,0,0:0:0:0:
160,2,221112,1,0,3:2:0:0:
250,44,221443,6,0,P|297:80|393:70,1,150,2|2,3:2|0:0,0:0:0:0:
433,84,222106,2,0,P|438:121|446:152,1,50,2|2,3:2|0:0,0:0:0:0:
476,168,222438,2,0,P|468:207|464:232,1,50,2|2,3:2|0:0,0:0:0:0:
486,262,222769,1,2,3:2:0:0:
387,246,223101,1,0,3:2:0:0:
332,329,223432,6,0,P|289:325|163:310,1,150,2|2,3:2|0:0,0:0:0:0:
136,330,224095,2,0,P|104:328|68:319,1,50,2|0,3:2|0:0,0:0:0:0:
46,355,224427,6,0,P|16:311|34:208,1,150,6|2,3:2|0:0,0:0:0:0:
56,178,225090,1,2,0:0:0:0:
121,102,225421,2,0,P|158:144|266:132,1,150,6|2,1:2|0:0,0:0:0:0:
295,157,226084,2,0,P|303:120|309:91,1,50,2|2,0:0|0:0,0:0:0:0:
296,58,226416,1,2,3:2:0:0:
473,149,227079,6,0,P|465:191|461:220,1,50,2|2,0:0|3:2,0:0:0:0:
499,233,227410,2,0,P|460:221|378:293,1,150,6|2,1:2|0:0,0:0:0:0:
352,323,228073,2,0,P|317:320|283:313,1,50,2|2,0:0|0:0,0:0:0:0:
261,288,228405,6,0,P|273:243|297:172,2,99.9999999999999,2|2|2,3:2|3:2|3:2,0:0:0:0:
162,269,229399,2,0,P|146:316|133:364,2,99.9999999999999,2|2|2,3:2|3:2|3:2,0:0:0:0:
123,176,230394,5,2,1:2:0:0:
167,86,230725,1,2,1:2:0:0:
265,70,231057,1,2,1:2:0:0:
340,135,231388,6,0,P|388:148|403:154,1,50,2|2,1:2|0:0,0:0:0:0:
438,147,231720,2,0,P|440:196|439:212,1,50,2|2,1:2|0:0,0:0:0:0:
461,242,232051,2,0,P|414:259|398:263,1,50,2|2,1:2|0:0,0:0:0:0:
377,285,232383,6,0,P|319:293|176:317,1,200,2|2,3:2|0:0,0:0:0:0:
140,332,233211,1,2,0:0:0:0:
140,332,233377,2,0,P|102:337|60:210,1,200,2|2,0:0|0:0,0:0:0:0:
119,148,234372,1,2,0:0:0:0:
256,192,234454,12,0,236361,0:0:0:0:
