osu file format v14

[General]
AudioFilename: audio.mp3
AudioLeadIn: 0
PreviewTime: 60260
Countdown: 0
SampleSet: Soft
StackLeniency: 0.5
Mode: 0
LetterboxInBreaks: 0
WidescreenStoryboard: 1

[Editor]
DistanceSpacing: 1.7
BeatDivisor: 4
GridSize: 32
TimelineZoom: 2.1

[Metadata]
Title:takt
TitleUnicode:タクト
Artist:ryo (supercell) feat. mafumafu, gaku
ArtistUnicode:ryo (supercell) feat. まふまふ, gaku
Creator:dahkjdas
Version:Destiny
Source:takt op.Destiny
Tags:anime タクトオーパス op opening jpop j-pop pop jrock j-rock rock male vocal Japanese Liyuu
BeatmapID:3986856
BeatmapSetID:1930058

[Difficulty]
HPDrainRate:6.5
CircleSize:4
OverallDifficulty:9
ApproachRate:9.3
SliderMultiplier:1.8
SliderTickRate:1

[Events]
//Background and Video events
0,0,"BG.jpg",0,0
//Break Periods
2,17781,24983
2,191609,198016
//Storyboard Layer 0 (Background)
//Storyboard Layer 1 (Fail)
//Storyboard Layer 2 (Pass)
//Storyboard Layer 3 (Foreground)
//Storyboard Layer 4 (Overlay)
//Storyboard Sound Samples

[TimingPoints]
677,331.491712707182,3,2,1,30,1,0
677,-200,3,2,1,30,0,0
2997,331.491712707182,3,2,1,30,1,0
2997,-200,3,2,1,30,0,0
7306,331.491712707182,3,2,1,30,1,0
7306,-200,3,2,1,30,0,0
11615,331.491712707182,3,2,1,30,1,0
11615,-200,3,2,1,30,0,0
28521,-133.333333333333,3,2,1,60,0,0
30841,331.491712707182,3,2,1,30,1,0
30841,-133.333333333333,3,2,1,60,0,0
35150,331.491712707182,3,2,1,30,1,0
35150,-133.333333333333,3,2,1,60,0,0
39459,331.491712707182,3,2,1,30,1,0
39459,-133.333333333333,3,2,1,60,0,0
41447,-200,3,2,1,30,0,0
43436,-100,3,2,1,70,0,0
45425,-200,3,2,1,30,0,0
60340,-166.666666666667,3,2,1,60,0,0
61337,-83.3333333333333,3,2,1,80,0,1
77249,-111.111111111111,3,2,1,80,0,0
79238,-133.333333333333,3,2,1,80,0,0
81226,-83.3333333333333,3,2,1,80,0,1
85204,-200,3,2,1,30,0,0
91501,331.491712707182,3,2,1,30,1,0
91501,-200,3,2,1,30,0,0
95810,331.491712707182,3,2,1,30,1,0
95810,-200,3,2,1,30,0,0
100119,331.491712707182,3,2,1,30,1,0
100119,-200,3,2,1,30,0,0
106085,-133.333333333333,3,2,1,60,0,0
108406,331.491712707182,3,2,1,30,1,0
108406,-133.333333333333,3,2,1,60,0,0
112715,331.491712707182,3,2,1,30,1,0
112715,-133.333333333333,3,2,1,60,0,0
117024,331.491712707182,3,2,1,30,1,0
117024,-133.333333333333,3,2,1,60,0,0
121001,-100,3,2,1,70,0,0
122990,-200,3,2,1,30,0,0
137907,-166.666666666667,3,2,1,60,0,0
138902,-83.3333333333333,3,2,1,80,0,1
154814,-111.111111111111,3,2,1,80,0,0
156803,-133.333333333333,3,2,1,80,0,0
158791,-83.3333333333333,3,2,1,80,0,1
162769,-200,3,2,1,30,0,0
165090,-166.666666666667,3,2,1,40,0,0
165753,-133.333333333333,3,2,1,50,0,0
166747,-133.333333333333,3,2,1,60,0,0
182659,-200,3,2,1,40,0,0
184648,-166.666666666667,3,2,1,50,0,0
186637,-133.333333333333,3,2,1,60,0,0
188626,-250,3,2,1,50,0,0
198570,-166.666666666667,3,2,1,60,0,0
202548,-133.333333333333,3,2,1,60,0,0
204537,-100,3,2,1,70,0,0
206526,-83.3333333333333,3,2,1,80,0,0
207521,-166.666666666667,3,2,1,60,0,0
209510,-83.3333333333333,3,2,1,80,0,1
224427,-111.111111111111,3,2,1,80,0,0
226416,-133.333333333333,3,2,1,80,0,0
228405,-83.3333333333333,3,2,1,80,0,1
232383,-200,3,2,1,30,0,0

[Colours]
Combo1 : 210,0,32
Combo2 : 85,222,255
Combo3 : 205,151,74
Combo4 : 140,166,118

[HitObjects]
144,183,677,6,0,P|171:170|196:166,2,45,2|2|2,0:0|0:0|0:0,0:0:0:0:
163,95,1174,2,0,P|197:92|250:128,1,90,2|0,0:0|0:0,0:0:0:0:
360,265,1671,2,0,P|333:252|308:248,2,45,2|2|2,0:0|0:0|0:0,0:0:0:0:
341,177,2168,2,0,P|307:174|254:210,1,90,2|0,0:0|0:0,0:0:0:0:
194,245,2665,2,0,P|202:276|206:308,1,45,2|2,0:0|0:0,0:0:0:0:
256,354,2997,1,2,0:0:0:0:
6,374,3659,5,8,0:0:0:0:
84,360,3825,1,8,0:0:0:0:
33,300,3991,1,8,0:0:0:0:
208,235,4985,6,0,P|182:230|151:221,2,45,2|2|2,0:0|0:0|0:0,0:0:0:0:
115,284,5483,2,0,P|91:247|96:193,1,90,2|0,0:0|0:0,0:0:0:0:
183,151,5980,2,0,P|209:156|240:165,2,45,2|2|2,0:0|0:0|0:0,0:0:0:0:
276,102,6478,2,0,P|300:139|295:193,1,90,2|0,0:0|0:0,0:0:0:0:
312,262,6974,2,0,P|353:256|373:253,1,45,2|2,0:0|0:0,0:0:0:0:
424,173,7306,6,0,P|383:179|363:182,3,45,2|0|0|0,0:0|0:0|0:0|0:0,0:0:0:0:
497,136,7968,1,8,0:0:0:0:
497,136,8134,1,8,0:0:0:0:
494,211,8300,2,0,P|492:231|490:260,1,45,8|0,0:0|0:0,0:0:0:0:
412,296,8631,2,0,P|413:273|415:251,1,45
488,339,8963,1,0,0:0:0:0:
488,339,9129,1,0,0:0:0:0:
405,377,9294,6,0,P|375:372|347:365,2,45,2|2|2,0:0|0:0|0:0,0:0:0:0:
280,369,9792,2,0,B|291:309|298:340|310:283,1,90,2|0,0:0|0:0,0:0:0:0:
233,272,10289,2,0,P|228:236|219:208,2,45,2|2|2,0:0|0:0|0:0,0:0:0:0:
306,208,10786,2,0,B|295:148|288:179|276:123,1,90,2|0,0:0|0:0,0:0:0:0:
354,113,11283,2,0,P|357:80|360:56,1,45,2|2,0:0|0:0,0:0:0:0:
303,11,11615,1,2,0:0:0:0:
119,21,12277,5,8,0:0:0:0:
184,63,12443,1,8,0:0:0:0:
115,96,12608,1,8,0:0:0:0:
142,302,13272,6,0,P|118:290|100:263,1,45,2|2,0:0|0:0,0:0:0:0:
181,142,13603,2,0,P|175:197|170:248,1,90,2|0,0:0|0:0,0:0:0:0:
261,273,14266,2,0,P|235:282|216:301,1,45,2|2,0:0|0:0,0:0:0:0:
367,359,14598,2,0,P|316:352|258:344,1,90,2|0,0:0|0:0,0:0:0:0:
256,192,15261,2,0,P|307:199|365:207,2,90,2|2|2,0:0|0:0|0:0,0:0:0:0:
256,192,16007,12,8,17581,0:0:0:0:
256,192,25537,12,0,27526,0:0:0:0:
187,264,28521,6,0,P|207:290|259:307,1,67.5000025749208,2|2,3:2|0:0,0:0:0:0:
258,229,28852,1,2,3:2:0:0:
190,182,29018,2,0,P|124:191|43:202,1,135.000005149842,2|0,0:0|0:0,0:0:0:0:
262,150,29515,6,0,P|267:108|272:67,1,67.5000025749208,2|2,3:2|0:0,0:0:0:0:
223,17,29847,1,2,3:2:0:0:
347,98,30012,2,0,L|331:233,1,135.000005149842,2|0,0:0|0:0,0:0:0:0:
253,253,30510,1,2,3:2:0:0:
253,253,30675,1,2,0:0:0:0:
368,303,30841,6,0,P|340:327|307:332,1,67.5000025749208,2|0,3:2|0:0,0:0:0:0:
242,378,31172,2,0,P|210:358|195:328,1,67.5000025749208,0|0,3:2|0:0,0:0:0:0:
131,283,31503,2,0,P|139:247|163:223,1,67.5000025749208,0|0,3:2|0:0,0:0:0:0:
251,158,31834,6,0,P|220:144|187:147,1,67.5000025749208,0|0,3:2|0:0,0:0:0:0:
160,226,32166,2,0,P|137:250|130:283,1,67.5000025749208,0|0,3:2|0:0,0:0:0:0:
196,333,32497,2,0,P|212:361|241:378,1,67.5000025749208,0|0,3:2|0:0,0:0:0:0:
347,273,32829,6,0,P|330:244|301:227,1,67.5000025749208,2|2,3:2|0:0,0:0:0:0:
270,305,33161,1,2,3:2:0:0:
335,354,33327,2,0,P|391:347|478:338,1,135.000005149842,2|0,0:0|0:0,0:0:0:0:
499,254,33824,6,0,L|426:260,1,67.5000025749208,2|2,3:2|0:0,0:0:0:0:
347,273,34155,1,2,3:2:0:0:
442,178,34321,2,0,P|448:127|460:29,1,135.000005149842,2|0,0:0|0:0,0:0:0:0:
292,149,34818,1,2,3:2:0:0:
292,149,34984,1,2,0:0:0:0:
244,72,35150,6,0,P|228:63|200:54,3,33.7500012874604,10|8|8|8,3:2|0:0|0:0|0:0,0:0:0:0:
251,224,35481,2,0,P|251:242|257:271,3,33.7500012874604,10|8|8|8,3:2|0:0|0:0|0:0,0:0:0:0:
376,145,35813,2,0,P|391:135|413:115,3,33.7500012874604,10|8|8|8,3:2|0:0|0:0|0:0,0:0:0:0:
210,147,36144,6,0,P|194:156|172:176,3,33.7500012874604,10|8|8|8,3:2|0:0|0:0|0:0,0:0:0:0:
342,219,36475,2,0,P|357:227|385:236,3,33.7500012874604,10|8|8|8,3:2|0:0|0:0|0:0,0:0:0:0:
331,72,36807,2,0,P|330:53|324:24,3,33.7500012874604,10|8|8|8,3:2|0:0|0:0|0:0,0:0:0:0:
251,224,37138,6,0,P|236:271|236:309,1,67.5000025749208,6|2,3:2|0:0,0:0:0:0:
305,328,37470,1,2,3:2:0:0:
230,366,37636,2,0,P|179:365|110:309,1,135.000005149842,2|0,0:0|0:0,0:0:0:0:
20,268,38133,6,0,P|56:259|87:235,1,67.5000025749208,2|2,3:2|0:0,0:0:0:0:
32,112,38464,1,2,3:2:0:0:
98,162,38630,2,0,P|149:163|218:219,1,135.000005149842,2|0,0:0|0:0,0:0:0:0:
334,275,39127,2,0,P|296:280|253:287,1,67.5000025749208,2|2,3:2|0:0,0:0:0:0:
189,289,39459,6,0,P|179:335|172:370,2,67.5000025749208,2|0|0,3:2|0:0|3:2,0:0:0:0:
293,206,39956,2,0,P|303:160|310:125,1,67.5000025749208,0|0,0:0|3:2,0:0:0:0:
221,152,40287,1,0,0:0:0:0:
378,108,40453,6,0,P|356:75|320:64,1,67.5000025749208,0|0,3:2|0:0,0:0:0:0:
174,108,40784,2,0,P|196:141|232:152,1,67.5000025749208,0|0,3:2|0:0,0:0:0:0:
118,181,41116,1,2,3:2:0:0:
245,77,41282,1,2,0:0:0:0:
118,181,41447,6,0,P|112:252|106:329,1,135,2|0,0:0|0:0,0:0:0:0:
107,315,42028,1,2,0:0:0:0:
108,315,42110,1,2,0:0:0:0:
33,282,42276,1,2,0:0:0:0:
48,367,42442,2,0,B|119:383|107:339|182:360,1,135,2|0,0:0|0:0,0:0:0:0:
257,375,43105,1,2,0:0:0:0:
257,375,43271,1,2,0:0:0:0:
314,138,43436,5,2,3:2:0:0:
197,245,43602,1,0,3:2:0:0:
331,215,43767,5,2,3:2:0:0:
180,168,43933,1,0,3:2:0:0:
273,269,44099,5,0,3:2:0:0:
238,114,44265,1,0,3:2:0:0:
212,321,44431,5,0,1:2:0:0:
294,57,44597,1,0,1:2:0:0:
345,294,44762,5,0,1:2:0:0:
158,91,44928,1,0,1:2:0:0:
389,165,45094,5,2,1:2:0:0:
120,226,45260,1,2,1:2:0:0:
307,139,45425,6,0,P|298:189|288:246,1,90,2|0,0:0|0:0,0:0:0:0:
207,242,45923,2,0,P|214:197|222:153,1,90,2|2,0:0|0:0,0:0:0:0:
235,55,46420,2,0,P|196:78|138:63,1,90,2|2,0:0|0:0,0:0:0:0:
85,15,46917,2,0,P|76:65|66:122,1,90,2|2,0:0|0:0,0:0:0:0:
53,182,47414,1,10,0:0:0:0:
53,182,47746,6,0,L|107:175,1,45
175,166,48077,1,0,0:0:0:0:
175,166,48409,1,0,0:0:0:0:
176,248,48575,2,0,L|267:233,1,90
98,257,49072,5,2,0:0:0:0:
98,257,49238,1,2,0:0:0:0:
32,311,49403,2,0,P|16:280|19:218,1,90,2|0,0:0|0:0,0:0:0:0:
98,257,50066,1,2,0:0:0:0:
98,257,50232,1,2,0:0:0:0:
164,203,50398,2,0,P|180:234|176:295,1,90,2|0,0:0|0:0,0:0:0:0:
295,372,51392,5,0,0:0:0:0:
295,372,51724,2,0,P|330:365|357:359,1,45
415,363,52055,1,2,0:0:0:0:
326,286,52221,1,2,0:0:0:0:
405,285,52387,2,0,P|410:248|420:182,1,90,2|0,0:0|0:0,0:0:0:0:
288,60,53050,5,2,0:0:0:0:
359,101,53215,1,2,0:0:0:0:
240,129,53381,2,0,P|205:124|137:113,1,90,2|0,0:0|0:0,0:0:0:0:
98,188,53878,2,0,P|142:195|186:201,1,90,2|2,0:0|0:0,0:0:0:0:
97,59,54376,5,2,0:0:0:0:
97,59,54541,2,0,P|81:76|73:107,1,45,2|0,0:0|0:0,0:0:0:0:
19,173,54873,2,0,P|19:215|62:260,1,90,2|2,0:0|0:0,0:0:0:0:
155,327,55370,1,2,0:0:0:0:
155,327,56365,6,0,L|152:285,7,22.5,8|8|8|8|8|8|8|8,0:0|0:0|0:0|0:0|0:0|0:0|0:0|0:0,0:0:0:0:
152,228,57028,6,0,P|181:236|207:241,1,45,2|2,0:0|0:0,0:0:0:0:
270,366,57359,2,0,P|241:358|215:353,1,45,2|2,0:0|0:0,0:0:0:0:
92,373,57691,1,2,0:0:0:0:
256,192,57773,12,0,59348,0:0:0:0:
329,174,60342,6,0,B|299:176|273:181|273:181|242:203|242:203|218:209|173:211,1,161.999995056153,2|2,0:0|0:0,0:0:0:0:
209,131,61005,1,2,0:0:0:0:
306,254,61171,1,2,0:0:0:0:
51,337,61337,6,0,P|92:295|196:315,1,161.999995056153,6|0,3:2|0:0,0:0:0:0:
196,322,61668,2,0,P|208:262|221:200,1,107.999996704102,0|0,3:2|0:0,0:0:0:0:
100,102,62000,2,0,P|88:162|75:224,1,107.999996704102,0|0,3:2|0:0,0:0:0:0:
131,372,62331,5,2,3:2:0:0:
8,130,62497,1,2,0:0:0:0:
8,130,62580,1,2,0:0:0:0:
8,130,62663,1,2,3:2:0:0:
217,216,62829,1,2,0:0:0:0:
8,261,62994,1,2,3:2:0:0:
153,86,63160,1,2,0:0:0:0:
318,191,63326,6,0,P|376:194|424:158,1,107.999996704102,2|0,3:2|0:0,0:0:0:0:
194,301,63657,2,0,P|136:304|88:268,1,107.999996704102,0|0,3:2|0:0,0:0:0:0:
362,361,63989,2,0,P|420:364|468:328,1,107.999996704102,0|0,3:2|0:0,0:0:0:0:
235,196,64320,5,2,3:2:0:0:
270,378,64486,1,2,0:0:0:0:
270,378,64569,1,2,0:0:0:0:
270,378,64652,2,0,P|276:318|281:264,1,107.999996704102,2|2,3:2|0:0,0:0:0:0:
308,109,64983,2,0,L|242:120,1,53.9999983520508,2|0,3:2|0:0,0:0:0:0:
98,175,65149,2,0,L|164:186,1,53.9999983520508,2|0,0:0|0:0,0:0:0:0:
235,196,65315,5,2,3:2:0:0:
148,104,65481,1,2,0:0:0:0:
148,104,65563,1,2,0:0:0:0:
148,104,65646,2,0,P|130:52|138:-2,1,107.999996704102,2|0,3:2|0:0,0:0:0:0:
319,191,65978,2,0,P|325:245|306:296,1,107.999996704102,0|0,3:2|0:0,0:0:0:0:
89,365,66309,5,2,3:2:0:0:
151,183,66475,1,2,0:0:0:0:
151,183,66558,1,2,0:0:0:0:
151,183,66641,2,0,L|140:293,1,107.999996704102,2|2,3:2|0:0,0:0:0:0:
222,377,66972,2,0,L|141:362,1,53.9999983520508,2|0,3:2|0:0,0:0:0:0:
9,300,67138,2,0,L|62:290,1,53.9999983520508,2|0,0:0|0:0,0:0:0:0:
238,213,67304,6,0,P|272:254|344:248,1,107.999996704102,2|0,3:2|0:0,0:0:0:0:
392,340,67635,2,0,P|441:320|458:250,1,107.999996704102,0|0,3:2|0:0,0:0:0:0:
389,56,67967,5,8,3:2:0:0:
341,53,68049,1,8,0:0:0:0:
303,82,68132,1,8,0:0:0:0:
292,128,68215,1,8,0:0:0:0:
311,172,68298,2,0,P|336:185|358:209,4,53.9999983520508,10|8|8|8|8,3:2|0:0|0:0|0:0|3:2,0:0:0:0:
413,289,68796,6,0,L|347:280,1,53.9999983520508,2|0,0:0|0:0,0:0:0:0:
232,255,68961,2,0,L|298:246,1,53.9999983520508,2|0,3:2|0:0,0:0:0:0:
434,213,69127,2,0,L|441:135,1,53.9999983520508,2|0,0:0|0:0,0:0:0:0:
182,182,69293,6,0,P|145:248|198:337,1,161.999995056153,6|0,3:2|0:0,0:0:0:0:
165,336,69624,2,0,P|105:326|39:315,1,107.999996704102,2|0,3:2|0:0,0:0:0:0:
58,318,69873,1,2,0:0:0:0:
58,318,69956,1,2,3:2:0:0:
232,255,70121,1,0,0:0:0:0:
45,232,70287,6,0,P|6:133|53:31,1,215.999993408203,2|0,3:2|3:2,0:0:0:0:
281,161,70784,2,0,L|226:170,1,53.9999983520508,2|0,0:0|0:0,0:0:0:0:
99,133,70950,2,0,L|152:124,1,53.9999983520508,2|0,3:2|0:0,0:0:0:0:
234,41,71116,2,0,L|227:94,1,53.9999983520508,2|0,0:0|0:0,0:0:0:0:
233,302,71282,6,0,P|160:295|169:190,1,161.999995056153,2|0,3:2|0:0,0:0:0:0:
152,206,71613,1,2,3:2:0:0:
360,99,71779,1,2,0:0:0:0:
360,99,71862,1,2,0:0:0:0:
360,99,71945,2,0,P|365:152|373:234,1,107.999996704102,2|0,3:2|0:0,0:0:0:0:
457,249,72193,1,2,0:0:0:0:
441,247,72276,6,0,L|281:222,1,161.999995056153,2|0,3:2|0:0,0:0:0:0:
265,220,72608,1,0,3:2:0:0:
339,326,72773,2,0,P|371:324|400:309,1,53.9999983520508,2|0,0:0|0:0,0:0:0:0:
173,326,72939,2,0,P|141:324|112:309,1,53.9999983520508,2|0,3:2|0:0,0:0:0:0:
258,88,73105,2,0,L|257:152,1,53.9999983520508,2|0,0:0|0:0,0:0:0:0:
261,307,73271,5,2,3:2:0:0:
147,165,73436,1,2,0:0:0:0:
147,165,73519,1,2,0:0:0:0:
147,165,73602,2,0,P|135:110|153:47,1,107.999996704102,2|0,3:2|0:0,0:0:0:0:
363,62,73934,2,0,P|375:117|357:180,1,107.999996704102,0|0,3:2|0:0,0:0:0:0:
181,254,74265,6,0,P|115:243|43:231,1,107.999996704102,2|0,3:2|0:0,0:0:0:0:
74,236,74514,1,2,0:0:0:0:
74,236,74597,1,2,3:2:0:0:
245,306,74762,2,0,P|260:274|253:223,1,53.9999983520508,2|0,0:0|0:0,0:0:0:0:
232,160,74928,2,0,P|256:173|283:177,1,53.9999983520508,2|0,3:2|0:0,0:0:0:0:
379,147,75093,2,0,P|364:179|371:230,1,53.9999983520508,2|0,0:0|0:0,0:0:0:0:
449,308,75260,6,0,P|381:286|317:274,1,107.999996704102,2|2,3:2|0:0,0:0:0:0:
345,278,75508,1,2,0:0:0:0:
345,278,75591,1,2,3:2:0:0:
144,332,75757,1,0,0:0:0:0:
340,376,75923,1,0,3:2:0:0:
188,245,76088,1,0,0:0:0:0:
243,356,76254,6,0,P|265:290|285:237,1,107.999996704102,2|0,3:2|0:0,0:0:0:0:
278,253,76503,1,2,0:0:0:0:
278,253,76586,1,2,3:2:0:0:
222,105,76751,1,2,0:0:0:0:
390,197,76917,2,0,P|335:184|263:162,1,107.999996704102,2|0,3:2|0:0,0:0:0:0:
15,292,77249,6,0,P|30:241|194:257,1,242.999992584229,6|2,3:2|0:0,0:0:0:0:
107,288,77912,1,2,0:0:0:0:
299,249,78077,1,0,3:2:0:0:
198,365,78243,6,0,P|210:288|240:117,1,242.999992584229,6|2,1:2|0:0,0:0:0:0:
111,122,78906,2,0,P|136:127|164:134,1,40.4999987640381,2|0,0:0|0:0,0:0:0:0:
351,93,79072,2,0,P|326:88|298:81,1,40.4999987640381,2|0,0:0|0:0,0:0:0:0:
216,41,79238,1,2,3:2:0:0:
468,191,79900,5,2,0:0:0:0:
416,261,80066,1,2,3:2:0:0:
416,261,80232,2,0,B|380:274|349:279|349:279|318:264|275:236,1,135.000005149842,6|0,1:2|0:0,0:0:0:0:
356,159,80729,1,10,0:0:0:0:
356,159,80812,1,8,0:0:0:0:
356,159,80895,2,0,L|362:199,1,33.7500012874604,10|8,0:0|0:0,0:0:0:0:
247,348,81061,2,0,L|241:308,1,33.7500012874604,10|8,0:0|0:0,0:0:0:0:
29,114,81226,5,2,3:2:0:0:
42,122,81309,1,2,0:0:0:0:
56,130,81392,2,0,P|91:128|123:113,1,53.9999983520508,2|0,0:0|0:0,0:0:0:0:
134,211,81558,1,2,3:2:0:0:
148,205,81641,1,2,0:0:0:0:
162,198,81724,2,0,P|180:168|187:133,1,53.9999983520508,2|0,0:0|0:0,0:0:0:0:
264,166,81889,1,2,3:2:0:0:
267,151,81972,1,2,0:0:0:0:
269,135,82055,2,0,P|256:102|232:76,1,53.9999983520508,2|0,0:0|0:0,0:0:0:0:
440,269,82221,5,2,3:2:0:0:
427,277,82304,1,2,0:0:0:0:
413,285,82387,2,0,P|378:283|346:268,1,53.9999983520508,2|0,0:0|0:0,0:0:0:0:
335,366,82553,1,2,3:2:0:0:
321,360,82636,1,2,0:0:0:0:
307,353,82719,2,0,P|288:323|281:288,1,53.9999983520508,2|0,0:0|0:0,0:0:0:0:
205,321,82884,1,2,3:2:0:0:
202,306,82967,1,2,0:0:0:0:
200,290,83050,2,0,P|212:257|236:231,1,53.9999983520508,2|0,0:0|0:0,0:0:0:0:
358,16,83215,5,2,1:2:0:0:
381,34,83297,1,2,0:0:0:0:
394,58,83380,1,2,0:0:0:0:
400,87,83463,1,2,0:0:0:0:
394,115,83546,1,2,1:2:0:0:
380,141,83629,1,2,0:0:0:0:
356,159,83712,1,2,0:0:0:0:
329,167,83795,1,2,0:0:0:0:
300,165,83877,1,2,1:2:0:0:
274,153,83960,1,2,0:0:0:0:
254,133,84043,1,2,0:0:0:0:
240,106,84126,1,2,0:0:0:0:
238,78,84210,5,2,1:2:0:0:
194,115,84292,1,2,0:0:0:0:
169,167,84375,1,2,0:0:0:0:
162,224,84458,1,2,0:0:0:0:
176,280,84541,1,2,1:2:0:0:
210,327,84624,1,2,0:0:0:0:
259,360,84707,1,2,0:0:0:0:
316,371,84790,1,2,0:0:0:0:
373,363,84872,1,2,1:2:0:0:
423,333,84955,1,2,0:0:0:0:
458,288,85038,1,2,0:0:0:0:
478,232,85121,1,2,0:0:0:0:
475,175,85204,1,2,3:2:0:0:
161,266,85867,5,2,0:0:0:0:
229,232,86033,1,2,0:0:0:0:
163,191,86199,1,2,0:0:0:0:
336,91,86862,5,2,0:0:0:0:
305,166,87028,1,2,0:0:0:0:
256,101,87193,1,2,0:0:0:0:
384,157,87359,1,2,0:0:0:0:
364,18,87525,1,2,0:0:0:0:
256,192,87608,12,0,89017,0:0:0:0:
331,248,89182,6,0,P|341:220|350:190,2,45,2|2|2,0:0|0:0|0:0,0:0:0:0:
412,250,89679,2,0,P|454:238|512:222,1,90,2|0,0:0|0:0,0:0:0:0:
434,126,90177,2,0,P|424:153|415:184,2,45,2|2|2,0:0|0:0|0:0,0:0:0:0:
353,124,90674,2,0,P|311:136|253:152,1,90,2|0,0:0|0:0,0:0:0:0:
204,199,91171,2,0,P|172:190|143:180,1,45,2|2,0:0|0:0,0:0:0:0:
196,114,91501,1,2,0:0:0:0:
196,114,92163,6,0,L|202:66,2,45,8|8|8,0:0|0:0|0:0,0:0:0:0:
93,118,93158,5,0,0:0:0:0:
95,132,93268,2,0,L|100:162,1,30
50,228,93489,6,0,P|84:236|104:238,2,45,2|2|2,0:0|0:0|0:0,0:0:0:0:
74,312,93987,2,0,P|114:312|163:276,1,90,2|0,0:0|0:0,0:0:0:0:
167,208,94484,2,0,P|201:199|221:197,2,45,2|2|2,0:0|0:0|0:0,0:0:0:0:
191,124,94982,2,0,P|231:124|280:160,1,90,2|0,0:0|0:0,0:0:0:0:
327,241,95478,2,0,P|300:234|273:226,1,45,2|2,0:0|0:0,0:0:0:0:
218,276,95810,6,0,L|166:282,5,45,2|0|0|0|0|0,0:0|0:0|0:0|0:0|0:0|0:0,0:0:0:0:
289,316,96804,2,0,L|341:322,4,45
220,354,97633,1,0,0:0:0:0:
220,354,97716,1,0,0:0:0:0:
220,354,97798,6,0,L|166:359,2,45,2|2|2,0:0|0:0|0:0,0:0:0:0:
91,372,98296,2,0,P|96:343|115:277,1,90,2|0,0:0|0:0,0:0:0:0:
194,272,98793,2,0,L|248:277,2,45,2|2|2,0:0|0:0|0:0,0:0:0:0:
323,290,99291,2,0,P|318:261|299:195,1,90,2|0,0:0|0:0,0:0:0:0:
219,187,99787,2,0,L|165:192,1,45,2|2,0:0|0:0,0:0:0:0:
274,123,100119,1,2,0:0:0:0:
274,123,100781,5,8,0:0:0:0:
199,107,100947,1,8,0:0:0:0:
250,51,101113,1,8,0:0:0:0:
343,216,101776,6,0,P|377:206|406:200,1,45,2|2,0:0|0:0,0:0:0:0:
428,268,102107,2,0,P|384:280|326:296,1,90,2|0,0:0|0:0,0:0:0:0:
169,216,102770,2,0,P|135:206|106:200,1,45,2|2,0:0|0:0,0:0:0:0:
84,268,103101,2,0,P|127:280|185:296,1,90,2|0,0:0|0:0,0:0:0:0:
240,134,103765,1,2,0:0:0:0:
240,134,103931,1,2,0:0:0:0:
249,212,104096,2,0,L|262:318,1,90,2|2,0:0|0:0,0:0:0:0:
259,301,105091,6,0,L|266:247,5,45,8|8|8|8|8|8,0:0|0:0|0:0|0:0|0:0|0:0,0:0:0:0:
313,194,106085,6,0,P|277:173|263:141,1,67.5000025749208,2|2,3:2|0:0,0:0:0:0:
336,119,106417,1,2,3:2:0:0:
200,203,106583,2,0,P|162:199|55:187,1,135.000005149842,2|0,0:0|0:0,0:0:0:0:
39,62,107080,6,0,P|67:81|85:129,1,67.5000025749208,2|2,3:2|0:0,0:0:0:0:
7,133,107411,1,2,3:2:0:0:
126,26,107577,2,0,P|164:30|271:42,1,135.000005149842,2|0,0:0|0:0,0:0:0:0:
313,98,108074,2,0,P|337:56|327:22,1,67.5000025749208,2|2,3:2|0:0,0:0:0:0:
247,151,108406,6,0,P|214:115|179:114,1,67.5000025749208,2|0,3:2|0:0,0:0:0:0:
283,225,108737,2,0,P|238:244|227:278,1,67.5000025749208,0|0,3:2|0:0,0:0:0:0:
367,220,109069,2,0,P|372:268|400:289,1,67.5000025749208,0|0,3:2|0:0,0:0:0:0:
452,142,109400,6,0,P|419:150|388:139,1,67.5000025749208,0|0,3:2|0:0,0:0:0:0:
383,280,109731,2,0,P|365:253|367:220,1,67.5000025749208,0|0,3:2|0:0,0:0:0:0:
230,259,110062,2,0,P|250:233|283:225,1,67.5000025749208,0|0,3:2|0:0,0:0:0:0:
309,147,110394,6,0,P|298:108|295:67,1,67.5000025749208,2|2,3:2|0:0,0:0:0:0:
351,19,110726,1,2,3:2:0:0:
511,122,110892,2,0,P|444:114|379:96,1,135.000005149842,2|0,0:0|0:0,0:0:0:0:
432,265,111389,6,0,P|465:270|498:277,1,67.5000025749208,2|2,3:2|0:0,0:0:0:0:
413,187,111720,1,2,3:2:0:0:
358,248,111886,2,0,P|342:298|325:386,1,135.000005149842,2|0,0:0|0:0,0:0:0:0:
206,257,112383,1,2,3:2:0:0:
206,257,112549,1,2,0:0:0:0:
118,294,112715,6,0,P|100:285|81:271,3,33.7500012874604,10|8|8|8,3:2|0:0|0:0|0:0,0:0:0:0:
205,165,113046,2,0,P|221:153|243:144,3,33.7500012874604,10|8|8|8,3:2|0:0|0:0|0:0,0:0:0:0:
274,303,113377,2,0,P|275:323|272:346,3,33.7500012874604,10|8|8|8,3:2|0:0|0:0|0:0,0:0:0:0:
126,209,113709,6,0,P|124:188|127:165,3,33.7500012874604,10|8|8|8,3:2|0:0|0:0|0:0,0:0:0:0:
281,219,114040,2,0,P|299:227|318:242,3,33.7500012874604,10|8|8|8,3:2|0:0|0:0|0:0,0:0:0:0:
196,348,114371,2,0,P|179:359|157:368,3,33.7500012874604,10|8|8|8,3:2|0:0|0:0|0:0,0:0:0:0:
75,308,114703,6,0,P|122:295|167:297,1,67.5000025749208,6|2,3:2|0:0,0:0:0:0:
214,271,115035,1,2,3:2:0:0:
154,215,115201,2,0,P|163:163|180:74,1,135.000005149842,2|0,0:0|0:0,0:0:0:0:
100,93,115698,6,0,P|63:106|26:105,1,67.5000025749208,2|2,3:2|0:0,0:0:0:0:
125,15,116029,1,2,3:2:0:0:
203,6,116195,2,0,P|250:5|339:50,1,135.000005149842,2|0,0:0|0:0,0:0:0:0:
401,6,116692,6,0,P|408:57|411:95,1,67.5000025749208,2|2,3:2|0:0,0:0:0:0:
497,183,117024,1,2,3:2:0:0:
388,220,117189,1,0,0:0:0:0:
423,150,117355,1,0,3:2:0:0:
464,259,117521,1,0,0:0:0:0:
464,259,117686,2,0,L|449:333,1,67.5000025749208,0|0,3:2|0:0,0:0:0:0:
299,347,118018,5,0,3:2:0:0:
351,283,118184,1,0,0:0:0:0:
299,347,118349,2,0,L|225:339,1,67.5000025749208,0|0,3:2|0:0,0:0:0:0:
275,266,118680,1,2,3:2:0:0:
379,365,118846,1,2,0:0:0:0:
402,223,119012,6,0,P|383:187|387:139,1,67.5000025749208,2|0,3:2|0:0,0:0:0:0:
409,72,119344,2,0,P|368:78|324:60,1,67.5000025749208,0|0,3:2|0:0,0:0:0:0:
302,146,119675,1,2,3:2:0:0:
302,146,119841,1,2,0:0:0:0:
265,11,120007,6,0,P|259:51|227:87,1,67.5000025749208,2|0,3:2|0:0,0:0:0:0:
170,129,120339,2,0,P|206:146|231:188,1,67.5000025749208,0|0,3:2|0:0,0:0:0:0:
303,226,120670,1,2,3:2:0:0:
303,226,120836,1,2,0:0:0:0:
150,207,121001,5,2,3:2:0:0:
302,146,121167,1,0,3:2:0:0:
276,301,121333,5,2,3:2:0:0:
428,240,121499,1,0,3:2:0:0:
303,226,121664,5,0,3:2:0:0:
438,323,121830,1,0,3:2:0:0:
241,74,121996,5,0,1:2:0:0:
192,358,122162,1,0,1:2:0:0:
105,117,122327,5,0,1:2:0:0:
322,307,122493,1,0,1:2:0:0:
70,264,122659,5,2,1:2:0:0:
350,171,122825,1,2,1:2:0:0:
159,280,122990,6,0,P|120:272|60:263,1,90,2|0,0:0|0:0,0:0:0:0:
103,189,123488,2,0,P|147:197|195:204,1,90,2|2,0:0|0:0,0:0:0:0:
273,202,123985,2,0,P|265:148|256:93,1,90,2|2,0:0|0:0,0:0:0:0:
343,126,124482,2,0,P|350:170|356:214,1,90,2|2,0:0|0:0,0:0:0:0:
354,297,124979,1,2,0:0:0:0:
354,297,125311,6,0,L|294:285,1,45
428,255,125642,1,0,0:0:0:0:
428,255,125974,1,0,0:0:0:0:
425,340,126140,2,0,P|457:329|514:340,1,90
449,168,126637,5,2,0:0:0:0:
449,168,126803,1,2,0:0:0:0:
358,192,126968,2,0,P|365:148|374:97,1,90,2|0,0:0|0:0,0:0:0:0:
179,168,127631,1,2,0:0:0:0:
179,168,127797,1,2,0:0:0:0:
270,192,127962,2,0,P|263:148|254:97,2,90,2|0|0,0:0|0:0|0:0,0:0:0:0:
312,267,128957,5,0,0:0:0:0:
312,267,129289,2,0,P|279:275|254:278,1,45
189,266,129620,1,2,0:0:0:0:
242,351,129786,1,2,0:0:0:0:
160,344,129952,2,0,P|117:352|53:368,1,90,2|0,0:0|0:0,0:0:0:0:
69,114,130615,5,2,0:0:0:0:
69,114,130780,1,2,0:0:0:0:
144,152,130946,2,0,P|179:163|251:172,1,90,2|0,0:0|0:0,0:0:0:0:
72,196,131443,2,0,P|57:230|40:297,1,90,2|2,0:0|0:0,0:0:0:0:
320,292,131941,6,0,P|286:311|231:306,1,90,2|2,0:0|0:0,0:0:0:0:
172,362,132438,2,0,P|143:335|131:281,1,90,2|2,0:0|0:0,0:0:0:0:
60,245,132935,2,0,P|76:209|123:181,2,90,2|0|0,0:0|0:0|0:0,0:0:0:0:
200,229,133930,6,0,L|205:190,7,22.5,8|8|8|8|8|8|8|8,0:0|0:0|0:0|0:0|0:0|0:0|0:0|0:0,0:0:0:0:
180,132,134593,6,0,L|175:85,1,45,2|2,0:0|0:0,0:0:0:0:
279,205,134924,2,0,L|274:249,1,45,2|2,0:0|0:0,0:0:0:0:
216,305,135256,1,2,0:0:0:0:
256,192,135338,12,0,136913,0:0:0:0:
257,191,137907,6,0,B|280:227|305:253|305:253|340:252|389:234,1,161.999995056153,2|2,0:0|0:0,0:0:0:0:
206,263,138570,1,2,0:0:0:0:
338,169,138736,1,2,0:0:0:0:
100,79,138902,6,0,P|186:88|287:98,1,161.999995056153,6|0,3:2|0:0,0:0:0:0:
274,107,139233,2,0,P|262:44|251:-3,1,107.999996704102,0|0,3:2|0:0,0:0:0:0:
93,163,139565,2,0,P|105:226|116:273,1,107.999996704102,0|0,3:2|0:0,0:0:0:0:
218,363,139896,5,2,3:2:0:0:
16,263,140062,1,2,0:0:0:0:
16,263,140145,1,2,0:0:0:0:
16,263,140228,1,2,3:2:0:0:
194,167,140394,1,2,0:0:0:0:
87,364,140559,1,2,3:2:0:0:
415,309,140725,1,2,0:0:0:0:
409,318,140808,1,2,0:0:0:0:
404,327,140891,6,0,P|343:320|277:314,1,107.999996704102,2|0,3:2|0:0,0:0:0:0:
111,260,141222,2,0,P|172:253|238:247,1,107.999996704102,0|0,3:2|0:0,0:0:0:0:
411,184,141554,2,0,P|350:177|284:171,1,107.999996704102,0|0,3:2|0:0,0:0:0:0:
111,73,141885,5,2,3:2:0:0:
194,167,142051,1,2,0:0:0:0:
194,167,142134,1,2,0:0:0:0:
194,167,142217,2,0,P|203:101|210:53,1,107.999996704102,2|2,3:2|0:0,0:0:0:0:
96,157,142548,2,0,L|39:169,1,53.9999983520508,2|0,3:2|0:0,0:0:0:0:
192,248,142714,2,0,L|249:236,1,53.9999983520508,2|0,0:0|0:0,0:0:0:0:
282,127,142880,5,2,3:2:0:0:
88,249,143046,1,2,0:0:0:0:
88,249,143128,1,2,0:0:0:0:
88,249,143211,2,0,P|68:305|80:366,1,107.999996704102,2|0,3:2|0:0,0:0:0:0:
314,300,143543,2,0,P|334:244|322:183,1,107.999996704102,0|0,3:2|0:0,0:0:0:0:
156,355,143874,6,0,P|221:363|284:372,1,107.999996704102,2|0,3:2|0:0,0:0:0:0:
263,368,144123,1,2,0:0:0:0:
263,368,144206,1,2,3:2:0:0:
155,237,144372,1,2,0:0:0:0:
367,290,144537,2,0,L|303:301,1,53.9999983520508,2|0,3:2|0:0,0:0:0:0:
232,284,144703,2,0,L|245:214,1,53.9999983520508,2|0,0:0|0:0,0:0:0:0:
251,151,144869,5,2,3:2:0:0:
359,381,145035,1,2,0:0:0:0:
359,381,145117,1,2,0:0:0:0:
359,381,145200,2,0,P|429:366|487:354,1,107.999996704102,2|0,3:2|0:0,0:0:0:0:
466,166,145532,5,8,3:2:0:0:
422,186,145614,1,8,0:0:0:0:
374,180,145697,1,8,0:0:0:0:
337,150,145780,1,8,0:0:0:0:
322,101,145863,2,0,P|318:68|310:30,4,53.9999983520508,10|8|8|8|8,3:2|0:0|0:0|0:0|3:2,0:0:0:0:
259,176,146361,6,0,L|191:164,1,53.9999983520508,2|0,0:0|0:0,0:0:0:0:
228,81,146526,2,0,L|174:71,1,53.9999983520508,2|0,3:2|0:0,0:0:0:0:
115,142,146692,2,0,L|128:225,1,53.9999983520508,2|0,0:0|0:0,0:0:0:0:
263,303,146858,6,0,P|298:251|401:262,1,161.999995056153,6|0,3:2|0:0,0:0:0:0:
410,248,147189,2,0,P|402:309|396:355,1,107.999996704102,2|0,3:2|0:0,0:0:0:0:
395,355,147438,1,2,0:0:0:0:
395,355,147521,1,2,3:2:0:0:
354,154,147686,1,0,0:0:0:0:
193,346,147852,6,0,B|140:361|87:367|87:367|49:332|14:283,1,215.999993408203,2|0,3:2|3:2,0:0:0:0:
174,267,148349,2,0,L|121:277,1,53.9999983520508,2|0,0:0|0:0,0:0:0:0:
60,215,148515,2,0,L|68:161,1,53.9999983520508,2|0,3:2|0:0,0:0:0:0:
261,228,148681,2,0,L|252:281,1,53.9999983520508,2|0,0:0|0:0,0:0:0:0:
145,192,148847,6,0,L|153:138,1,53.9999983520508,2|0,3:2|0:0,0:0:0:0:
343,247,149013,2,0,L|334:300,1,53.9999983520508,2|0,0:0|0:0,0:0:0:0:
230,361,149178,1,2,3:2:0:0:
288,135,149344,1,2,0:0:0:0:
288,135,149427,1,2,0:0:0:0:
288,135,149510,1,2,3:2:0:0:
419,288,149675,1,0,0:0:0:0:
245,225,149841,6,0,P|317:216|368:209,1,107.999996704102,2|0,3:2|0:0,0:0:0:0:
202,142,150173,1,0,3:2:0:0:
295,81,150338,1,2,0:0:0:0:
295,81,150421,1,2,0:0:0:0:
295,81,150504,2,0,L|285:153,1,53.9999983520508,2|0,3:2|0:0,0:0:0:0:
147,279,150670,2,0,L|157:207,1,53.9999983520508,2|0,0:0|0:0,0:0:0:0:
109,144,150836,5,2,3:2:0:0:
345,246,151001,1,2,0:0:0:0:
345,246,151084,1,2,0:0:0:0:
345,246,151167,2,0,P|290:249|227:204,1,107.999996704102,2|0,3:2|0:0,0:0:0:0:
79,64,151499,2,0,P|134:61|197:106,1,107.999996704102,0|0,3:2|0:0,0:0:0:0:
414,150,151830,6,0,P|340:160|283:168,1,107.999996704102,2|0,3:2|0:0,0:0:0:0:
70,242,152162,1,0,3:2:0:0:
249,327,152327,1,2,0:0:0:0:
249,327,152410,1,2,0:0:0:0:
249,327,152493,2,0,L|242:258,1,53.9999983520508,2|0,3:2|0:0,0:0:0:0:
156,211,152659,2,0,L|161:264,1,53.9999983520508,2|0,0:0|0:0,0:0:0:0:
160,352,152825,5,2,3:2:0:0:
240,178,152990,1,2,0:0:0:0:
433,310,153156,2,0,P|368:301|319:294,1,107.999996704102,2|0,3:2|0:0,0:0:0:0:
316,61,153488,1,0,3:2:0:0:
482,237,153653,1,0,0:0:0:0:
293,202,153819,6,0,P|346:209|399:216,1,107.999996704102,2|0,3:2|0:0,0:0:0:0:
399,216,154068,1,2,0:0:0:0:
399,216,154151,1,2,3:2:0:0:
251,124,154316,1,2,0:0:0:0:
218,325,154482,2,0,P|163:359|99:349,1,107.999996704102,2|0,3:2|0:0,0:0:0:0:
90,172,154814,6,0,B|131:150|167:123|167:123|154:199|146:290,1,242.999992584229,6|2,3:2|0:0,0:0:0:0:
65,249,155477,1,2,0:0:0:0:
243,170,155642,1,0,3:2:0:0:
296,350,155808,6,0,P|236:377|246:251,1,242.999992584229,6|2,1:2|0:0,0:0:0:0:
307,267,156471,2,0,L|346:258,1,40.4999987640381,2|0,0:0|0:0,0:0:0:0:
421,309,156637,2,0,L|431:240,1,40.4999987640381,2|0,0:0|0:0,0:0:0:0:
282,189,156803,1,2,3:2:0:0:
440,109,157465,5,2,0:0:0:0:
406,185,157631,1,2,3:2:0:0:
406,185,157797,2,0,P|361:139|369:67,1,135.000005149842,6|0,1:2|0:0,0:0:0:0:
439,26,158294,1,10,0:0:0:0:
439,26,158377,1,8,0:0:0:0:
439,26,158460,2,0,L|481:35,1,33.7500012874604,10|8,0:0|0:0,0:0:0:0:
277,111,158626,2,0,L|224:99,1,33.7500012874604,10|8,0:0|0:0,0:0:0:0:
504,204,158791,5,2,3:2:0:0:
492,215,158874,1,2,0:0:0:0:
480,226,158957,2,0,P|460:256|451:292,1,53.9999983520508,2|0,0:0|0:0,0:0:0:0:
344,181,159123,1,2,3:2:0:0:
345,196,159206,1,2,0:0:0:0:
347,212,159289,2,0,P|359:245|383:274,1,53.9999983520508,2|0,0:0|0:0,0:0:0:0:
246,313,159454,1,2,3:2:0:0:
259,320,159537,1,2,0:0:0:0:
273,327,159620,2,0,P|307:336|344:334,1,53.9999983520508,2|0,0:0|0:0,0:0:0:0:
128,371,159786,5,2,3:2:0:0:
130,355,159869,1,2,0:0:0:0:
133,339,159952,2,0,P|144:308|165:280,1,53.9999983520508,2|0,0:0|0:0,0:0:0:0:
13,241,160117,1,2,3:2:0:0:
27,233,160200,1,2,0:0:0:0:
41,226,160283,2,0,P|72:216|107:217,1,53.9999983520508,2|0,0:0|0:0,0:0:0:0:
87,90,160449,1,2,3:2:0:0:
101,96,160532,1,2,0:0:0:0:
115,103,160615,2,0,P|141:123|161:151,1,53.9999983520508,2|0,0:0|0:0,0:0:0:0:
243,321,160780,5,2,1:2:0:0:
247,291,160862,1,2,0:0:0:0:
260,265,160945,1,2,0:0:0:0:
275,240,161028,1,2,0:0:0:0:
295,220,161111,1,2,1:2:0:0:
319,204,161194,1,2,0:0:0:0:
346,194,161277,1,2,0:0:0:0:
376,186,161360,1,2,0:0:0:0:
404,186,161442,1,2,1:2:0:0:
433,195,161525,1,2,0:0:0:0:
458,206,161608,1,2,0:0:0:0:
483,223,161691,1,2,0:0:0:0:
503,244,161775,5,2,1:2:0:0:
462,286,161857,1,2,0:0:0:0:
414,319,161940,1,2,0:0:0:0:
359,339,162023,1,2,0:0:0:0:
302,348,162106,1,2,1:2:0:0:
244,342,162189,1,2,0:0:0:0:
189,326,162272,1,2,0:0:0:0:
138,294,162355,1,2,0:0:0:0:
97,255,162437,1,2,1:2:0:0:
65,207,162520,1,2,0:0:0:0:
45,152,162603,1,2,0:0:0:0:
37,95,162686,1,2,0:0:0:0:
43,36,162769,1,2,3:2:0:0:
306,104,163432,5,2,0:0:0:0:
230,118,163598,1,2,0:0:0:0:
154,133,163764,1,2,0:0:0:0:
279,181,164427,5,2,0:0:0:0:
171,58,164593,1,2,0:0:0:0:
203,196,164758,1,2,0:0:0:0:
252,41,164924,1,2,0:0:0:0:
230,118,165090,2,0,L|218:296,1,161.999995056153,2|0,0:0|0:0,0:0:0:0:
276,343,165753,6,0,B|243:359|214:367|214:367|188:354|151:327,1,135.000005149842,2|0,0:0|0:0,0:0:0:0:
75,311,166250,1,2,0:0:0:0:
75,311,166416,2,0,P|83:354|89:393,1,67.5000025749208,2|2,0:0|0:0,0:0:0:0:
131,253,166747,6,0,P|138:170|144:103,2,135.000005149842,6|0|0,0:0|0:0|0:0,0:0:0:0:
17,96,167576,1,2,0:0:0:0:
17,96,167742,6,0,P|39:126|45:171,1,67.5000025749208,2|2,0:0|0:0,0:0:0:0:
3,225,168073,1,2,0:0:0:0:
3,225,168239,1,2,0:0:0:0:
127,171,168405,1,2,0:0:0:0:
127,171,168570,1,2,0:0:0:0:
205,296,168736,6,0,P|170:326|82:317,2,135.000005149842,2|0|0,1:2|0:0|0:0,0:0:0:0:
407,367,169731,6,0,P|358:359|270:343,1,135.000005149842,2|0,0:0|0:0,0:0:0:0:
278,195,170228,1,2,0:0:0:0:
278,195,170394,2,0,P|281:228|284:262,1,67.5000025749208,2|2,0:0|0:0,0:0:0:0:
499,299,170725,6,0,P|450:291|362:275,2,135.000005149842,6|0|0,0:0|0:0|0:0,0:0:0:0:
398,203,171554,1,2,0:0:0:0:
478,209,171720,6,0,P|487:161|478:119,1,67.5000025749208,2|2,0:0|0:0,0:0:0:0:
357,48,172051,2,0,P|348:96|356:138,1,67.5000025749208,2|2,0:0|0:0,0:0:0:0:
284,262,172383,1,2,0:0:0:0:
398,203,172548,1,2,0:0:0:0:
398,203,172714,6,0,P|334:192|239:171,2,135.000005149842,2|0|0,1:2|0:0|0:0,0:0:0:0:
176,196,173709,6,0,P|234:181|235:55,1,202.500007724762,2|2,0:0|0:0,0:0:0:0:
122,104,174372,2,0,P|172:113|210:120,1,67.5000025749208,2|2,0:0|0:0,0:0:0:0:
334,11,174703,6,0,P|340:77|346:150,1,135.000005149842,6|0,0:0|0:0,0:0:0:0:
420,179,175200,1,0,0:0:0:0:
352,224,175366,2,0,P|318:233|257:229,1,67.5000025749208
181,382,175698,6,0,B|232:354|230:299|230:299|190:264|204:203,1,202.500007724762,2|2,0:0|0:0,0:0:0:0:
75,296,176361,2,0,P|120:306|157:315,1,67.5000025749208,2|2,0:0|0:0,0:0:0:0:
295,368,176692,6,0,P|331:337|430:349,1,135.000005149842,2|0,1:2|0:0,0:0:0:0:
408,254,177189,1,0,0:0:0:0:
482,289,177355,2,0,P|493:242|505:197,1,67.5000025749208
347,190,177686,6,0,P|311:221|212:209,1,135.000005149842,2|0,0:0|0:0,0:0:0:0:
153,248,178184,1,2,0:0:0:0:
153,248,178267,1,2,0:0:0:0:
153,248,178349,2,0,P|148:290|145:323,1,67.5000025749208,2|2,0:0|0:0,0:0:0:0:
275,145,178681,6,0,P|282:86|292:5,2,135.000005149842,6|2|0,0:0|0:0|0:0,0:0:0:0:
71,271,179675,2,0,P|64:212|54:131,2,135.000005149842,2|2|0,0:0|0:0|0:0,0:0:0:0:
188,148,180670,6,0,P|210:199|352:183,1,202.500007724762,2|0,1:2|0:0,0:0:0:0:
339,199,181333,1,2,0:0:0:0:
275,143,181499,1,2,0:0:0:0:
359,115,181664,6,0,P|451:91|510:167,1,202.500007724762,2|0,0:0|0:0,0:0:0:0:
433,238,182327,2,0,P|422:192|430:157,1,67.5000025749208,2|2,0:0|0:0,0:0:0:0:
509,30,182659,5,2,0:0:0:0:
509,30,183156,2,0,L|459:36,2,45,2|2|2,0:0|0:0|0:0,0:0:0:0:
353,78,183653,5,2,0:0:0:0:
353,78,184151,2,0,L|403:84,2,45,2|2|2,0:0|0:0|0:0,0:0:0:0:
472,119,184648,6,0,P|463:173|447:287,1,161.999995056153,2|0,0:0|0:0,0:0:0:0:
424,357,185311,1,2,0:0:0:0:
505,340,185477,1,0,0:0:0:0:
368,291,185642,6,0,P|261:305|155:322,1,215.999993408203,2|2,0:0|0:0,0:0:0:0:
34,177,186471,1,2,0:0:0:0:
34,177,186554,1,0,0:0:0:0:
34,177,186637,6,0,B|68:218|102:244|102:244|148:242|218:225,1,202.500007724762,6|2,0:0|0:0,0:0:0:0:
297,146,187299,1,2,0:0:0:0:
215,146,187465,1,2,0:0:0:0:
305,227,187631,6,0,B|363:242|409:244|409:244|443:218|478:177,1,202.500007724762,6|0,0:0|0:0,0:0:0:0:
477,177,188294,2,0,P|473:214|468:248,1,67.5000025749208,2|2,0:0|0:0,0:0:0:0:
491,74,188626,1,6,1:2:0:0:
256,192,188709,12,0,190946,0:0:0:0:
155,115,198570,6,0,P|161:161|169:234,1,107.999996704102,12|8,3:2|3:2,0:0:0:0:
301,209,199068,1,0,3:2:0:0:
181,301,199233,1,0,3:2:0:0:
181,301,199565,6,0,P|220:296|254:294,1,53.9999983520508,8|0,0:0|3:2,0:0:0:0:
301,209,199896,2,0,P|262:214|228:216,1,53.9999983520508,0|8,3:2|0:0,0:0:0:0:
167,222,200228,1,8,3:2:0:0:
167,222,200394,1,8,0:0:0:0:
321,290,200559,6,0,P|370:297|448:309,1,107.999996704102,12|8,0:0|3:2,0:0:0:0:
445,308,201001,1,0,3:2:0:0:
462,311,201112,1,0,3:2:0:0:
479,314,201222,1,0,3:2:0:0:
403,141,201554,6,0,P|399:103|396:65,1,53.9999983520508,0|0,3:2|0:0,0:0:0:0:
484,128,201885,2,0,P|481:166|477:204,1,53.9999983520508,0|0,3:2|0:0,0:0:0:0:
409,223,202217,1,8,0:0:0:0:
484,128,202383,1,8,0:0:0:0:
334,186,202548,6,0,P|286:181|192:170,1,135.000005149842,12|0,3:2|3:2,0:0:0:0:
122,161,203046,1,0,0:0:0:0:
169,96,203211,2,0,P|164:57|150:16,1,67.5000025749208,0|0,3:2|0:0,0:0:0:0:
45,152,203544,5,8,0:0:0:0:
151,232,203709,1,8,0:0:0:0:
169,96,203874,5,8,0:0:0:0:
76,220,204040,1,8,0:0:0:0:
199,170,204206,5,8,0:0:0:0:
91,90,204371,1,8,0:0:0:0:
63,311,204537,6,0,P|95:313|130:292,2,60,12|8|8,3:2|0:0|0:0,0:0:0:0:
190,356,204869,2,0,P|211:331|214:290,2,60,8|8|8,0:0|0:0|0:0,0:0:0:0:
301,279,205200,2,0,P|293:247|262:220,2,60,8|8|8,0:0|0:0|0:0,0:0:0:0:
206,93,205532,5,8,0:0:0:0:
204,110,205642,2,0,L|199:169,1,60,8|8,0:0|0:0,0:0:0:0:
116,185,205863,1,8,0:0:0:0:
118,168,205973,2,0,L|123:109,1,60,8|8,0:0|0:0,0:0:0:0:
40,116,206195,1,8,0:0:0:0:
38,133,206305,2,0,L|33:192,1,60,8|8,0:0|0:0,0:0:0:0:
140,367,206526,5,8,1:2:0:0:
190,368,206637,1,8,0:0:0:0:
223,330,206747,1,8,0:0:0:0:
216,240,206858,5,8,1:2:0:0:
177,209,206968,1,8,0:0:0:0:
128,219,207079,1,8,0:0:0:0:
78,300,207189,5,8,1:2:0:0:
156,291,207300,1,8,0:0:0:0:
234,282,207410,1,8,0:0:0:0:
340,268,207521,6,0,B|321:284|313:309|313:309|306:250|296:181,1,161.999995056153,10|2,3:2|0:0,0:0:0:0:
298,197,208184,1,2,0:0:0:0:
389,330,208349,1,2,0:0:0:0:
458,71,208515,6,0,P|452:119|448:162,1,80.9999975280763,2|2,0:0|0:0,0:0:0:0:
499,210,208847,5,2,0:0:0:0:
463,227,208929,1,2,0:0:0:0:
423,224,209012,1,2,0:0:0:0:
389,202,209095,1,2,0:0:0:0:
372,166,209178,5,2,0:0:0:0:
330,131,209261,1,2,0:0:0:0:
275,132,209344,1,2,0:0:0:0:
235,167,209427,1,2,0:0:0:0:
231,220,209510,6,0,B|187:209|147:205|147:205|107:225|107:225|71:219|14:207,1,215.999993408203,6|0,3:2|3:2,0:0:0:0:
125,62,210007,1,2,0:0:0:0:
127,78,210090,1,2,0:0:0:0:
129,94,210173,1,2,3:2:0:0:
166,291,210338,1,2,0:0:0:0:
307,103,210504,6,0,P|256:86|193:114,1,107.999996704102,2|0,3:2|0:0,0:0:0:0:
65,290,210836,2,0,P|116:307|179:279,1,107.999996704102,0|0,3:2|0:0,0:0:0:0:
450,299,211167,2,0,P|399:282|336:310,1,107.999996704102,0|0,3:2|0:0,0:0:0:0:
212,367,211499,5,2,3:2:0:0:
238,184,211664,1,2,0:0:0:0:
238,184,211747,1,2,0:0:0:0:
238,184,211830,2,0,P|246:248|255:316,1,107.999996704102,2|2,3:2|0:0,0:0:0:0:
353,356,212162,2,0,L|285:368,1,53.9999983520508,2|0,3:2|0:0,0:0:0:0:
112,300,212327,2,0,L|165:290,1,53.9999983520508,2|0,0:0|0:0,0:0:0:0:
324,162,212493,5,2,3:2:0:0:
147,207,212659,1,2,0:0:0:0:
147,207,212742,1,2,0:0:0:0:
147,207,212825,1,2,3:2:0:0:
399,238,212990,1,0,0:0:0:0:
224,142,213156,2,0,P|215:78|211:21,1,107.999996704102,0|0,3:2|0:0,0:0:0:0:
415,131,213488,6,0,P|407:191|396:251,1,107.999996704102,2|0,3:2|0:0,0:0:0:0:
399,238,213736,1,2,0:0:0:0:
399,238,213819,1,2,3:2:0:0:
214,290,213985,1,2,0:0:0:0:
447,322,214151,2,0,P|420:325|390:330,1,53.9999983520508,2|0,3:2|0:0,0:0:0:0:
301,344,214316,2,0,P|308:302|313:280,1,53.9999983520508,2|0,0:0|0:0,0:0:0:0:
266,70,214482,5,2,3:2:0:0:
58,224,214648,1,2,0:0:0:0:
58,224,214731,1,2,0:0:0:0:
58,224,214814,2,0,P|127:213|188:204,1,107.999996704102,2|0,3:2|0:0,0:0:0:0:
350,80,215145,5,8,3:2:0:0:
331,124,215227,1,8,0:0:0:0:
291,151,215310,1,8,0:0:0:0:
243,153,215393,1,8,0:0:0:0:
200,125,215477,2,0,P|196:94|185:56,4,53.9999983520508,10|8|8|8|8,3:2|0:0|0:0|0:0|3:2,0:0:0:0:
183,208,215974,6,0,P|149:193|114:163,1,53.9999983520508,2|0,0:0|0:0,0:0:0:0:
276,17,216140,2,0,L|267:90,1,53.9999983520508,2|0,3:2|0:0,0:0:0:0:
62,116,216305,2,0,L|152:101,1,53.9999983520508,2|0,0:0|0:0,0:0:0:0:
291,151,216471,6,0,L|272:320,1,161.999995056153,6|0,3:2|0:0,0:0:0:0:
261,326,216803,2,0,L|384:317,1,107.999996704102,2|0,3:2|0:0,0:0:0:0:
368,318,217051,1,2,0:0:0:0:
368,318,217134,1,2,3:2:0:0:
194,253,217300,1,0,0:0:0:0:
351,88,217465,6,0,P|422:92|424:225,1,215.999993408203,2|0,3:2|3:2,0:0:0:0:
303,225,217963,2,0,P|333:232|369:247,1,53.9999983520508,2|0,0:0|0:0,0:0:0:0:
507,280,218128,2,0,P|477:287|441:302,1,53.9999983520508,2|0,3:2|0:0,0:0:0:0:
375,321,218294,2,0,P|381:345|385:382,1,53.9999983520508,2|0,0:0|0:0,0:0:0:0:
437,214,218460,6,0,P|445:144|451:95,1,107.999996704102,2|0,3:2|0:0,0:0:0:0:
267,137,218791,1,2,3:2:0:0:
459,30,218957,1,2,0:0:0:0:
459,30,219040,1,2,0:0:0:0:
459,30,219123,1,2,3:2:0:0:
354,240,219289,1,0,0:0:0:0:
185,107,219454,6,0,P|230:57|340:90,1,161.999995056153,2|0,3:2|0:0,0:0:0:0:
329,79,219786,1,0,3:2:0:0:
271,277,219952,2,0,P|240:272|191:260,1,53.9999983520508,2|0,0:0|0:0,0:0:0:0:
128,243,220117,2,0,P|134:270|139:296,1,53.9999983520508,2|0,3:2|0:0,0:0:0:0:
278,189,220283,2,0,P|272:165|263:115,1,53.9999983520508,2|0,0:0|0:0,0:0:0:0:
115,164,220449,5,2,3:2:0:0:
270,367,220615,1,2,0:0:0:0:
270,367,220698,1,2,0:0:0:0:
270,367,220780,2,0,P|331:358|390:348,1,107.999996704102,2|0,3:2|0:0,0:0:0:0:
465,145,221112,2,0,P|404:154|345:164,1,107.999996704102,0|0,3:2|0:0,0:0:0:0:
338,271,221443,6,0,P|403:265|467:338,1,161.999995056153,2|0,3:2|0:0,0:0:0:0:
466,348,221775,1,0,3:2:0:0:
256,280,221941,2,0,L|245:206,1,53.9999983520508,2|0,0:0|0:0,0:0:0:0:
358,161,222106,2,0,L|369:87,1,53.9999983520508,2|0,3:2|0:0,0:0:0:0:
224,66,222272,2,0,L|213:-8,1,53.9999983520508,2|0,0:0|0:0,0:0:0:0:
379,29,222438,5,2,3:2:0:0:
242,152,222604,1,2,0:0:0:0:
242,152,222686,1,2,0:0:0:0:
242,152,222769,2,0,P|183:163|125:168,1,107.999996704102,2|0,3:2|0:0,0:0:0:0:
343,242,223101,1,0,3:2:0:0:
162,365,223267,1,0,0:0:0:0:
382,330,223432,5,2,3:2:0:0:
200,245,223598,1,0,0:0:0:0:
354,131,223764,1,0,3:2:0:0:
192,56,223930,1,2,0:0:0:0:
188,40,224012,1,2,0:0:0:0:
184,24,224095,1,2,3:2:0:0:
122,286,224261,1,0,0:0:0:0:
409,213,224427,6,0,B|327:207|238:232|238:232|300:171,1,242.999992584229,6|2,3:2|0:0,0:0:0:0:
354,131,225090,1,2,0:0:0:0:
300,303,225256,1,0,3:2:0:0:
284,79,225421,6,0,P|237:33|219:151,1,242.999992584229,6|2,1:2|0:0,0:0:0:0:
249,217,226084,2,0,P|228:221|197:232,1,40.4999987640381,2|0,0:0|0:0,0:0:0:0:
115,280,226250,2,0,P|136:284|167:295,1,40.4999987640381,2|0,0:0|0:0,0:0:0:0:
219,348,226416,1,2,3:2:0:0:
416,194,227079,5,2,0:0:0:0:
357,258,227245,1,2,3:2:0:0:
357,258,227410,2,0,L|207:239,1,135.000005149842,6|0,1:2|0:0,0:0:0:0:
329,139,227907,1,10,0:0:0:0:
329,139,227990,1,8,0:0:0:0:
329,139,228073,2,0,P|334:167|337:187,1,33.7500012874604,10|8,0:0|0:0,0:0:0:0:
439,278,228239,2,0,P|426:303|417:321,1,33.7500012874604,10|8,0:0|0:0,0:0:0:0:
272,363,228405,5,2,3:2:0:0:
256,367,228488,1,2,0:0:0:0:
240,371,228570,2,0,P|215:362|176:331,1,53.9999983520508,2|0,0:0|0:0,0:0:0:0:
84,373,228736,1,2,3:2:0:0:
75,359,228819,1,2,0:0:0:0:
66,345,228901,2,0,P|66:318|84:271,1,53.9999983520508,2|0,0:0|0:0,0:0:0:0:
40,179,229068,1,2,3:2:0:0:
50,166,229151,1,2,0:0:0:0:
61,153,229233,2,0,P|86:145|136:147,1,53.9999983520508,2|0,0:0|0:0,0:0:0:0:
244,258,229399,5,2,3:2:0:0:
260,262,229482,1,2,0:0:0:0:
276,266,229564,2,0,P|301:257|340:226,1,53.9999983520508,2|0,0:0|0:0,0:0:0:0:
432,268,229730,1,2,3:2:0:0:
441,254,229813,1,2,0:0:0:0:
450,240,229895,2,0,P|449:213|431:166,1,53.9999983520508,2|0,0:0|0:0,0:0:0:0:
476,74,230062,1,2,3:2:0:0:
466,61,230145,1,2,0:0:0:0:
455,48,230227,2,0,P|429:40|379:42,1,53.9999983520508,2|0,0:0|0:0,0:0:0:0:
142,110,230394,5,2,1:2:0:0:
116,121,230476,1,2,0:0:0:0:
98,142,230559,1,2,0:0:0:0:
88,167,230642,1,2,0:0:0:0:
88,197,230725,1,2,1:2:0:0:
98,222,230808,1,2,0:0:0:0:
116,241,230891,1,2,0:0:0:0:
141,253,230974,1,2,0:0:0:0:
168,255,231056,1,2,1:2:0:0:
195,247,231139,1,2,0:0:0:0:
216,231,231222,1,2,0:0:0:0:
229,207,231305,1,2,0:0:0:0:
233,178,231389,5,2,1:2:0:0:
240,124,231471,1,2,0:0:0:0:
270,77,231554,1,2,0:0:0:0:
313,44,231637,1,2,0:0:0:0:
366,31,231720,1,2,1:2:0:0:
420,38,231803,1,2,0:0:0:0:
467,67,231886,1,2,0:0:0:0:
499,110,231969,1,2,0:0:0:0:
511,163,232051,1,2,1:2:0:0:
503,219,232134,1,2,0:0:0:0:
475,266,232217,1,2,0:0:0:0:
430,297,232300,1,2,0:0:0:0:
377,309,232383,1,2,3:2:0:0:
300,132,233046,5,2,0:0:0:0:
238,175,233211,1,2,0:0:0:0:
309,208,233377,1,2,0:0:0:0:
23,324,234040,5,2,0:0:0:0:
163,269,234206,1,2,0:0:0:0:
104,375,234372,2,0,P|104:352|108:330,1,45,2|2,0:0|0:0,0:0:0:0:
76,255,234703,1,2,0:0:0:0:
256,192,234786,12,0,236361,0:0:0:0:
