osu file format v14

[General]
AudioFilename: audio.mp3
AudioLeadIn: 0
PreviewTime: 35385
Countdown: 0
SampleSet: None
StackLeniency: 0.7
Mode: 0
LetterboxInBreaks: 0
WidescreenStoryboard: 1

[Editor]
DistanceSpacing: 0.7
BeatDivisor: 4
GridSize: 4
TimelineZoom: 2

[Metadata]
Title:Sekiranun Graffiti
TitleUnicode:積乱雲グラフィティ
Artist:ryo (supercell) feat. Hatsune Miku
ArtistUnicode:ryo (supercell) feat. 初音ミク
Creator:Aureola
Version:Insane
Source:
Tags:vocaloid supercell
BeatmapID:1288703
BeatmapSetID:595144

[Difficulty]
HPDrainRate:6.5
CircleSize:4.1
OverallDifficulty:6
ApproachRate:8.7
SliderMultiplier:1.9
SliderTickRate:2

[Events]
//Background and Video events
Video,0,"video.flv"
0,0,"bg.jpg",0,0
//Break Periods
2,146889,163436
//Storyboard Layer 0 (Background)
//Storyboard Layer 1 (Fail)
//Storyboard Layer 2 (Pass)
//Storyboard Layer 3 (Foreground)
//Storyboard Sound Samples

[TimingPoints]
603,434.782608695652,4,1,0,100,1,0
7559,-133.333333333333,4,2,1,60,0,0
19733,-100,4,2,1,60,0,0
21472,-133.333333333333,4,2,1,60,0,0
24516,-100,4,2,1,60,0,0
25168,-100,4,2,1,60,0,0
35385,-100,4,2,1,60,0,1
52994,-100,4,3,1,50,0,1
53211,-100,4,2,1,60,0,1
53429,-100,4,3,1,50,0,1
53646,-100,4,2,1,60,0,1
53863,-100,4,3,1,50,0,1
54081,-100,4,2,1,60,0,1
54298,-100,4,3,1,50,0,1
54516,-100,4,2,1,60,0,1
54733,-100,4,3,1,50,0,1
54950,-100,4,2,1,60,0,1
55168,-100,4,3,1,50,0,1
55385,-100,4,2,1,60,0,1
61255,-100,4,2,1,90,0,1
61689,-100,4,2,1,75,0,1
62124,-100,4,2,1,65,0,1
62776,-100,4,2,1,55,0,1
63211,-100,4,2,1,60,0,0
71907,-80,4,2,1,60,0,0
73646,-100,4,2,1,60,0,0
77124,-100,4,2,1,60,0,0
103211,-100,4,3,1,50,0,0
103646,-100,4,3,1,55,0,0
104081,-100,4,3,1,60,0,0
104516,-100,4,3,1,65,0,0
104950,-100,4,2,1,60,0,0
107994,-100,4,3,1,50,0,0
108646,-100,4,2,1,60,0,0
115385,-100,4,2,1,80,0,0
116037,-100,4,2,1,70,0,0
116689,-100,4,2,1,60,0,0
118863,-100,4,2,1,70,0,1
144733,-100,4,2,1,90,0,1
145385,-100,4,2,1,80,0,1
145820,-100,4,2,1,70,0,1
146255,-100,4,2,1,65,0,1
146689,-100,4,2,1,60,0,0
164081,-100,4,2,1,85,0,0
164516,-100,4,2,1,75,0,0
164950,-100,4,2,1,65,0,0
165385,-100,4,2,1,55,0,0
165602,-100,4,2,1,50,0,0
165820,-100,4,2,1,100,0,0
166255,-100,4,2,1,90,0,0
166689,-100,4,2,1,80,0,0
167124,-100,4,2,1,70,0,0
167559,-80,4,2,1,70,0,1
169950,-80,4,1,1,60,0,1
170602,-80,4,2,1,70,0,1
174516,-133.333333333333,4,2,1,70,0,1
175385,-80,4,2,1,70,0,1
187559,-100,4,2,1,70,0,0
191689,-100,4,2,1,90,0,0
194950,-100,4,2,1,70,0,0
198646,-100,4,2,1,90,0,0
199081,-100,4,2,1,80,0,0
199516,-100,4,2,1,70,0,0
199733,-100,4,2,1,60,0,0
199950,-100,4,2,1,40,0,0
200385,-100,4,2,1,35,0,0
200820,-100,4,2,1,30,0,0
201472,-100,4,2,1,45,0,0
202342,-100,4,3,1,50,0,0
204081,-100,4,3,1,55,0,0
205820,-100,4,3,1,40,0,0
207559,-133.333333333333,4,3,1,45,0,0
209298,-133.333333333333,4,3,1,30,0,0
211037,-200,4,3,1,35,0,0
211907,-200,4,3,1,25,0,0

[Colours]
Combo1 : 233,132,20
Combo2 : 12,230,241
Combo3 : 121,170,138

[HitObjects]
304,76,7559,5,0,0:0:0:0:
304,76,7776,2,0,L|312:160,1,71.2500027179719
300,216,8211,2,0,P|272:272|200:256,1,142.500005435944
160,200,8863,1,0,0:0:0:0:
168,128,9081,2,0,P|248:92|276:100,1,106.875004076958
316,112,9516,6,0,L|284:184,1,71.2500027179719
172,260,9950,1,0,0:0:0:0:
208,120,10168,1,0,0:0:0:0:
336,180,10385,1,0,0:0:0:0:
304,320,10602,2,0,P|269:338|216:348,2,71.2500027179719
380,244,11255,5,0,0:0:0:0:
432,152,11472,1,0,0:0:0:0:
376,60,11689,2,0,P|336:48|292:52,1,71.2500027179719
200,64,12124,1,0,0:0:0:0:
120,132,12342,1,0,0:0:0:0:
120,132,12559,2,0,L|196:172,1,71.2500027179719
276,220,12994,6,0,P|320:268|328:296,1,71.2500027179719
392,268,13429,2,0,P|411:205|431:184,1,71.2500027179719
376,144,13863,2,0,P|312:158|284:151,1,71.2500027179719
236,148,14298,1,0,0:0:0:0:
160,96,14516,6,0,P|144:136|104:156,7,71.2500027179719
288,104,16255,2,0,P|304:64|344:44,7,71.2500027179719
208,232,17994,2,0,P|248:248|268:288,7,71.2500027179719
132,204,19733,6,0,P|68:88|236:88,1,332.5
240,88,20602,2,0,P|264:144|224:184,2,95
176,64,21255,1,0,0:0:0:0:
108,132,21472,6,0,P|96:176|120:204,1,71.2500027179719
200,248,21907,1,0,0:0:0:0:
312,108,22124,1,0,0:0:0:0:
328,288,22342,1,0,0:0:0:0:
168,144,22559,1,0,0:0:0:0:
400,168,22776,1,0,0:0:0:0:
216,252,22994,6,0,P|188:272|140:272,2,71.2500027179719
200,48,23646,1,0,0:0:0:0:
108,188,23863,1,0,0:0:0:0:
284,164,24081,2,0,P|348:144|396:100,1,106.875004076958
308,56,24516,2,0,P|252:56|212:80,1,95
108,140,25168,5,0,0:0:0:0:
120,232,25385,2,0,P|172:244|240:232,1,95
220,160,25820,2,0,P|276:156|324:176,1,95
336,244,26255,1,0,0:0:0:0:
260,304,26472,2,0,P|196:280|160:244,1,95
80,208,26907,2,0,P|116:136|232:88,1,190
288,100,27559,1,0,0:0:0:0:
400,212,27994,5,0,0:0:0:0:
292,272,28211,1,0,0:0:0:0:
176,228,28429,5,0,0:0:0:0:
124,128,28646,1,0,0:0:0:0:
236,156,28863,1,0,0:0:0:0:
328,88,29081,1,0,0:0:0:0:
320,200,29298,5,0,0:0:0:0:
216,244,29516,1,0,0:0:0:0:
308,312,29733,1,0,0:0:0:0:
380,224,29950,1,0,0:0:0:0:
312,132,30168,5,0,0:0:0:0:
232,212,30385,1,0,0:0:0:0:
148,136,30602,1,0,0:0:0:0:
112,244,30820,1,0,0:0:0:0:
224,264,31037,5,0,0:0:0:0:
304,184,31255,1,0,0:0:0:0:
220,108,31472,1,0,0:0:0:0:
324,60,31689,1,0,0:0:0:0:
140,112,31907,5,0,0:0:0:0:
316,184,32124,1,0,0:0:0:0:
132,232,32342,1,0,0:0:0:0:
256,100,32559,1,0,0:0:0:0:
136,144,32776,5,0,0:0:0:0:
376,144,32994,1,0,0:0:0:0:
196,228,33211,5,0,0:0:0:0:
316,228,33429,1,0,0:0:0:0:
256,116,33646,5,0,0:0:0:0:
224,320,34081,1,0,0:0:0:0:
388,168,34516,5,0,0:0:0:0:
388,168,34624,1,0,0:0:0:0:
388,168,34733,1,0,0:0:0:0:
288,84,34950,5,0,0:0:0:0:
288,84,35059,1,0,0:0:0:0:
288,84,35168,1,0,0:0:0:0:
288,84,35276,1,0,0:0:0:0:
288,84,35385,2,0,P|232:128|108:88,1,190
224,300,36255,2,0,P|280:256|404:296,1,190
428,204,36907,1,0,0:0:0:0:
320,56,37342,5,0,0:0:0:0:
320,56,37559,2,0,L|236:124,1,95
192,160,37885,2,0,L|144:200,1,47.5
68,264,38211,2,0,L|168:276,1,95
240,284,38646,1,0,0:0:0:0:
396,192,39081,5,0,0:0:0:0:
396,192,39298,2,0,P|360:128|256:88,1,190
72,116,40168,1,0,0:0:0:0:
72,116,40385,2,0,L|176:156,3,95
240,144,41255,1,0,0:0:0:0:
312,120,41472,1,0,0:0:0:0:
384,140,41689,2,0,P|408:152|464:204,2,95
264,80,42342,5,0,0:0:0:0:
156,136,42559,1,0,0:0:0:0:
280,96,42776,1,0,0:0:0:0:
136,128,42994,1,0,0:0:0:0:
304,128,43211,1,0,0:0:0:0:
412,80,43646,5,0,0:0:0:0:
304,200,44081,5,0,0:0:0:0:
132,304,44298,1,0,0:0:0:0:
256,180,44516,1,0,0:0:0:0:
188,324,44733,1,0,0:0:0:0:
208,192,44950,1,0,0:0:0:0:
100,112,45385,5,0,0:0:0:0:
368,188,45602,5,0,0:0:0:0:
236,144,45820,1,0,0:0:0:0:
384,244,46037,5,0,0:0:0:0:
252,200,46255,1,0,0:0:0:0:
400,296,46472,5,0,0:0:0:0:
268,252,46690,1,0,0:0:0:0:
416,344,46907,5,0,0:0:0:0:
284,300,47125,1,0,0:0:0:0:
188,280,47342,2,0,P|136:267|104:144,1,190
156,84,47994,1,0,0:0:0:0:
252,84,48211,1,0,0:0:0:0:
340,88,48429,5,0,0:0:0:0:
340,88,48537,1,0,0:0:0:0:
340,88,48646,1,0,0:0:0:0:
192,136,48863,5,0,0:0:0:0:
172,180,48972,1,0,0:0:0:0:
180,228,49081,1,0,0:0:0:0:
208,264,49189,1,0,0:0:0:0:
252,284,49298,2,0,P|332:268|420:188,1,190
260,100,50168,2,0,P|180:116|92:196,1,190
300,292,50820,5,0,0:0:0:0:
324,124,51037,1,0,0:0:0:0:
160,188,51255,1,0,0:0:0:0:
334,209,51472,5,0,0:0:0:0:
270,51,51689,1,0,0:0:0:0:
160,188,51907,1,0,0:0:0:0:
334,209,52124,5,0,0:0:0:0:
199,104,52341,1,0,0:0:0:0:
172,277,52559,1,0,0:0:0:0:
336,120,52994,5,0,0:0:0:0:
352,296,53211,1,0,0:0:0:0:
228,220,53429,1,0,0:0:0:0:
436,180,53646,1,0,0:0:0:0:
268,296,53863,2,0,P|192:328|144:328,2,95
336,80,54733,5,0,0:0:0:0:
336,80,54950,2,0,P|280:68|232:84,1,95
160,120,55385,1,0,0:0:0:0:
96,228,55820,5,0,0:0:0:0:
96,228,56037,2,0,B|184:272|196:316|196:316|248:288,2,190
96,228,57124,1,0,0:0:0:0:
112,140,57342,1,0,0:0:0:0:
184,84,57559,1,0,0:0:0:0:
280,84,57776,2,0,P|320:88|400:108,2,95
204,128,58429,2,0,P|184:184|196:236,1,95
336,272,59081,5,0,0:0:0:0:
400,144,59298,1,0,0:0:0:0:
268,92,59516,1,0,0:0:0:0:
256,192,59733,12,0,61037,0:0:0:0:
304,280,61255,6,0,P|204:280|244:76,1,380
332,116,62342,2,0,L|376:148,2,47.5
296,180,62776,2,0,L|340:212,2,47.5
160,100,63211,6,0,P|116:80|76:100,1,95
136,228,63646,2,0,P|180:248|220:228,1,95
256,95,64081,2,0,P|298:75|340:96,1,95
399,224,64516,2,0,P|357:244|316:224,1,95
224,116,64950,6,0,P|204:74|224:32,1,95
352,100,65385,2,0,P|371:141|351:183,1,95
244,276,65820,2,0,P|202:295|160:275,1,95
228,148,66255,2,0,P|269:128|311:148,1,95
284,288,66689,6,0,P|212:312|76:312,1,190
160,220,67559,2,0,P|136:148|136:12,1,190
228,96,68429,2,0,P|300:72|436:72,1,190
352,164,69081,1,0,0:0:0:0:
352,164,69298,2,0,P|376:236|376:372,1,190
256,276,69950,1,0,0:0:0:0:
200,144,70168,6,0,P|200:94|78:86,1,190
312,144,71037,2,0,P|311:94|433:86,1,190
200,144,71907,6,0,P|168:96|-4:84,1,237.5
312,144,72776,2,0,P|344:96|516:84,1,237.5
232,148,73646,5,0,0:0:0:0:
228,244,73863,1,0,0:0:0:0:
156,180,74081,1,0,0:0:0:0:
248,196,74298,1,0,0:0:0:0:
188,100,74516,5,0,0:0:0:0:
192,212,74733,1,0,0:0:0:0:
272,132,74950,1,0,0:0:0:0:
160,156,75168,1,0,0:0:0:0:
276,72,75385,5,0,0:0:0:0:
204,196,75602,1,0,0:0:0:0:
160,60,75820,1,0,0:0:0:0:
272,152,76037,1,0,0:0:0:0:
116,108,76255,5,0,0:0:0:0:
276,84,76472,1,0,0:0:0:0:
220,236,76689,1,0,0:0:0:0:
192,76,76907,1,0,0:0:0:0:
276,216,77124,6,0,P|324:256|376:276,1,95
460,204,77559,2,0,P|412:164|359:143,1,95
288,144,77994,1,0,0:0:0:0:
196,172,78211,1,0,0:0:0:0:
128,240,78429,1,0,0:0:0:0:
188,316,78646,1,0,0:0:0:0:
188,316,78863,2,0,P|244:276|372:312,1,190
444,256,79516,5,0,0:0:0:0:
424,164,79733,2,0,P|388:92|284:84,1,190
200,120,80385,1,0,0:0:0:0:
144,196,80602,1,0,0:0:0:0:
312,264,80820,5,0,0:0:0:0:
368,188,81037,1,0,0:0:0:0:
332,100,81255,1,0,0:0:0:0:
244,60,81472,2,0,P|184:68|140:112,1,95
84,148,81907,5,0,0:0:0:0:
36,232,82124,1,0,0:0:0:0:
76,320,82342,1,0,0:0:0:0:
164,356,82559,2,0,P|224:348|268:304,1,95
320,192,82994,5,0,0:0:0:0:
320,192,83211,2,0,L|412:232,1,95
408,136,83646,2,0,L|320:98,1,95
160,232,84081,6,0,L|72:269,1,95
216,284,84516,2,0,L|303:246,1,95
388,132,84950,2,0,L|299:97,1,95
391,209,85385,6,0,L|479:243,1,95
328,128,85820,2,0,L|313:34,1,95
280,220,86255,2,0,L|205:279,2,95
356,160,86907,5,0,0:0:0:0:
356,160,87124,2,0,P|404:128|464:124,1,95
380,252,87559,1,0,0:0:0:0:
248,304,87776,1,0,0:0:0:0:
128,228,87994,6,0,P|116:176|136:136,1,95
220,64,88429,2,0,P|272:52|312:72,1,95
384,156,88863,2,0,P|396:208|376:248,1,95
292,320,89298,2,0,P|240:332|200:312,1,95
348,96,89733,6,0,P|385:135|387:180,1,95
292,320,90168,2,0,P|239:332|200:312,1,95
127,159,90602,2,0,P|142:108|180:83,1,95
316,72,91037,6,0,P|352:132|384:152,1,95
420,228,91472,1,0,0:0:0:0:
356,300,91689,1,0,0:0:0:0:
316,216,91907,2,0,L|208:200,1,95
172,120,92342,1,0,0:0:0:0:
104,184,92559,1,0,0:0:0:0:
140,272,92776,6,0,P|180:304|228:316,1,95
288,248,93211,1,0,0:0:0:0:
328,160,93429,1,0,0:0:0:0:
292,72,93646,2,0,P|248:56|188:52,1,95
108,80,94081,1,0,0:0:0:0:
188,132,94298,1,0,0:0:0:0:
244,212,94516,6,0,P|288:240|344:236,1,95
380,160,94950,1,0,0:0:0:0:
336,76,95168,1,0,0:0:0:0:
240,68,95385,2,0,L|140:100,1,95
60,132,95820,1,0,0:0:0:0:
60,132,96037,1,0,0:0:0:0:
96,220,96255,6,0,P|148:248|200:252,1,95
296,100,96689,2,0,P|348:72|400:68,1,95
348,256,97124,2,0,P|376:308|380:360,2,95
256,148,97776,1,0,0:0:0:0:
164,84,97994,6,0,P|144:52|80:36,1,95
132,164,98429,2,0,P|84:140|32:132,1,95
144,248,98863,2,0,P|96:260|72:296,1,95
216,264,99298,2,0,P|192:304|192:352,1,95
320,351,99733,6,0,P|320:304|296:264,1,95
440,296,100168,2,0,P|413:258|368:248,1,95
468,132,100602,2,0,P|421:142|380:164,1,95
420,34,101037,2,0,P|375:46|348:84,1,95
188,188,101472,5,0,0:0:0:0:
188,188,101689,1,0,0:0:0:0:
376,228,101907,5,0,0:0:0:0:
376,228,102124,1,0,0:0:0:0:
264,72,102342,5,0,0:0:0:0:
264,72,102559,1,0,0:0:0:0:
120,196,102776,5,0,0:0:0:0:
120,196,102994,1,0,0:0:0:0:
204,148,103211,5,0,0:0:0:0:
224,136,103320,1,0,0:0:0:0:
248,128,103429,1,0,0:0:0:0:
272,124,103537,1,0,0:0:0:0:
296,128,103646,1,0,0:0:0:0:
316,136,103755,1,0,0:0:0:0:
336,148,103863,1,0,0:0:0:0:
352,164,103972,1,0,0:0:0:0:
368,184,104081,5,0,0:0:0:0:
376,204,104189,1,0,0:0:0:0:
376,228,104298,1,0,0:0:0:0:
372,252,104407,1,0,0:0:0:0:
360,272,104516,1,0,0:0:0:0:
340,288,104624,1,0,0:0:0:0:
316,296,104733,1,0,0:0:0:0:
292,304,104842,1,0,0:0:0:0:
268,304,104950,6,0,P|176:284|92:224,1,190
244,80,105820,2,0,P|336:100|420:160,2,190
148,84,106907,2,0,P|104:120|100:168,1,95
192,168,107342,1,0,0:0:0:0:
284,156,107559,2,0,P|308:120|356:120,2,95
280,180,108102,1,0,0:0:0:0:
288,204,108211,1,0,0:0:0:0:
304,220,108320,1,0,0:0:0:0:
324,228,108429,1,0,0:0:0:0:
404,264,108646,5,0,0:0:0:0:
404,264,108863,2,0,L|508:296,2,95
252,180,109516,1,0,0:0:0:0:
176,124,109733,1,0,0:0:0:0:
256,80,109950,2,0,P|324:96|396:196,1,190
316,248,110602,2,0,P|300:164|200:208,2,190
192,276,111689,1,0,0:0:0:0:
124,208,111907,6,0,P|145:162|184:132,1,95
364,72,112342,1,0,0:0:0:0:
316,224,112559,1,0,0:0:0:0:
240,84,112776,1,0,0:0:0:0:
128,272,113211,5,0,0:0:0:0:
256,172,113429,1,0,0:0:0:0:
384,272,113646,1,0,0:0:0:0:
256,132,113863,1,0,0:0:0:0:
128,272,114081,1,0,0:0:0:0:
348,164,114516,6,0,L|448:128,1,95
164,164,114950,2,0,L|64:128,1,95
304,72,115385,5,0,0:0:0:0:
304,72,115602,1,0,0:0:0:0:
200,220,115820,5,0,0:0:0:0:
200,220,116037,1,0,0:0:0:0:
392,264,116255,5,0,0:0:0:0:
392,264,116472,1,0,0:0:0:0:
320,96,116689,5,0,0:0:0:0:
320,96,116906,1,0,0:0:0:0:
128,140,117124,5,0,0:0:0:0:
104,292,117559,5,0,0:0:0:0:
220,260,117994,5,0,0:0:0:0:
232,240,118102,1,0,0:0:0:0:
244,220,118211,1,0,0:0:0:0:
300,124,118429,5,0,0:0:0:0:
336,96,118537,1,0,0:0:0:0:
384,84,118646,1,0,0:0:0:0:
428,100,118755,1,0,0:0:0:0:
456,136,118863,2,0,L|432:240,1,95
356,280,119298,5,0,0:0:0:0:
264,308,119516,1,0,0:0:0:0:
172,288,119733,2,0,P|88:224|120:136,1,190
180,92,120385,1,0,0:0:0:0:
372,92,120820,5,0,0:0:0:0:
416,176,121037,1,0,0:0:0:0:
348,244,121255,1,0,0:0:0:0:
256,232,121472,2,0,P|212:208|160:220,2,95
336,284,122124,2,0,L|424:336,1,95
436,240,122559,5,0,0:0:0:0:
408,148,122776,2,0,P|372:112|332:92,1,95
248,80,123211,2,0,P|208:85|156:112,1,95
96,160,123646,2,0,P|72:200|92:256,1,95
280,312,124298,5,0,0:0:0:0:
424,264,124516,1,0,0:0:0:0:
276,228,124733,1,0,0:0:0:0:
420,184,124950,1,0,0:0:0:0:
128,92,125385,5,0,0:0:0:0:
324,148,125820,5,0,0:0:0:0:
256,272,126037,1,0,0:0:0:0:
188,148,126255,1,0,0:0:0:0:
256,324,126472,1,0,0:0:0:0:
324,148,126689,1,0,0:0:0:0:
76,284,127124,5,0,0:0:0:0:
168,135,127342,1,0,0:0:0:0:
180,310,127559,1,0,0:0:0:0:
68,176,127776,1,0,0:0:0:0:
238,218,127994,1,0,0:0:0:0:
72,280,128211,1,0,0:0:0:0:
168,135,128429,1,0,0:0:0:0:
256,296,128863,5,0,0:0:0:0:
256,88,129081,1,0,0:0:0:0:
182,265,129298,1,0,0:0:0:0:
329,118,129516,1,0,0:0:0:0:
151,192,129733,1,0,0:0:0:0:
360,192,129950,1,0,0:0:0:0:
182,118,130168,1,0,0:0:0:0:
329,265,130385,1,0,0:0:0:0:
288,172,130602,1,0,0:0:0:0:
352,92,130820,5,0,0:0:0:0:
256,268,131037,1,0,0:0:0:0:
140,100,131255,1,0,0:0:0:0:
388,184,131472,1,0,0:0:0:0:
136,268,131689,1,0,0:0:0:0:
356,284,131907,5,0,0:0:0:0:
356,284,132016,1,0,0:0:0:0:
356,284,132124,1,0,0:0:0:0:
404,200,132342,6,0,L|424:136,1,47.5
348,148,132559,2,0,L|368:84,1,47.5
292,100,132776,2,0,P|240:72|172:68,1,95
116,100,133211,1,0,0:0:0:0:
68,180,133429,1,0,0:0:0:0:
108,264,133646,1,0,0:0:0:0:
196,296,133863,2,0,P|248:308|312:304,1,95
380,276,134298,6,0,P|428:232|432:144,1,142.5
428,112,134733,2,0,L|356:192,1,95
276,224,135168,1,0,0:0:0:0:
208,168,135385,2,0,P|152:140|96:72,1,142.5
96,144,135820,2,0,P|137:189|172:204,1,95
332,236,136472,6,0,L|424:268,1,95
436,172,136907,1,0,0:0:0:0:
440,76,137124,2,0,L|376:100,1,47.5
352,108,137342,2,0,L|248:140,1,95
176,184,137776,5,0,0:0:0:0:
300,272,137994,1,0,0:0:0:0:
332,124,138211,1,0,0:0:0:0:
188,76,138429,1,0,0:0:0:0:
228,224,138646,1,0,0:0:0:0:
80,184,138863,2,0,P|116:240|164:256,1,95
280,260,139298,5,0,0:0:0:0:
364,216,139516,1,0,0:0:0:0:
312,136,139733,1,0,0:0:0:0:
228,176,139950,1,0,0:0:0:0:
280,260,140168,1,0,0:0:0:0:
360,104,140602,5,0,0:0:0:0:
272,72,140820,1,0,0:0:0:0:
180,92,141037,2,0,P|128:116|88:144,1,95
96,260,141472,1,0,0:0:0:0:
208,212,141689,1,0,0:0:0:0:
252,96,141907,1,0,0:0:0:0:
132,72,142124,1,0,0:0:0:0:
120,232,142342,1,0,0:0:0:0:
300,192,142559,2,0,P|344:176|388:140,2,95
196,80,143211,5,0,0:0:0:0:
144,252,143429,1,0,0:0:0:0:
316,304,143646,1,0,0:0:0:0:
368,132,143863,1,0,0:0:0:0:
152,124,144081,5,0,0:0:0:0:
188,296,144298,1,0,0:0:0:0:
360,260,144516,1,0,0:0:0:0:
256,192,144733,12,0,146689,0:0:0:0:
256,192,164081,12,0,165602,0:0:0:0:
256,192,165820,12,0,167124,0:0:0:0:
372,96,167559,5,4,0:0:0:0:
372,96,167776,2,0,P|349:177|224:284,1,237.5
156,192,168429,1,0,0:0:0:0:
268,156,168646,1,0,0:0:0:0:
240,280,168863,1,0,0:0:0:0:
156,192,169081,2,0,P|144:112|188:72,1,118.75
276,40,169516,1,0,0:0:0:0:
380,100,169733,1,0,0:0:0:0:
336,208,169950,6,0,L|268:236,1,59.375,2|0,0:0|0:0,0:0:0:0:
276,300,170168,2,0,L|208:328,1,59.375,2|0,0:0|0:0,0:0:0:0:
212,252,170385,2,0,L|132:284,1,59.375,2|0,0:0|0:0,0:0:0:0:
60,256,170602,2,0,P|80:192|116:148,1,118.75
172,96,171037,5,4,0:0:0:0:
284,60,171255,1,0,0:0:0:0:
396,96,171472,1,0,0:0:0:0:
284,140,171689,1,0,0:0:0:0:
172,176,171907,2,0,B|104:200|104:200|136:296|252:248,1,237.5
344,204,172559,6,0,P|392:164|396:88,2,118.75
232,248,173211,1,0,0:0:0:0:
128,188,173429,1,0,0:0:0:0:
188,88,173646,2,0,P|256:72|360:108,1,178.125
392,152,174081,2,0,L|392:272,1,118.75
188,211,174516,6,0,L|188:140,1,71.2500027179719,4|0,0:0|0:0,0:0:0:0:
324,140,174950,2,0,L|324:211,1,71.2500027179719
113,204,175385,6,0,P|104:145|116:88,1,118.75,4|0,0:0|0:0,0:0:0:0:
398,179,175820,2,0,P|407:238|396:296,1,118.75
192,224,176255,5,4,0:0:0:0:
356,160,176472,1,0,0:0:0:0:
192,92,176689,1,0,0:0:0:0:
128,260,176907,1,0,0:0:0:0:
304,264,177124,1,4,0:0:0:0:
424,132,177342,1,0,0:0:0:0:
248,116,177559,1,0,0:0:0:0:
112,264,177776,5,0,0:0:0:0:
308,208,177994,1,4,0:0:0:0:
140,96,178211,1,0,0:0:0:0:
340,72,178429,1,0,0:0:0:0:
224,236,178646,1,0,0:0:0:0:
416,176,178863,1,4,0:0:0:0:
224,116,179081,1,0,0:0:0:0:
36,184,179298,1,0,0:0:0:0:
228,244,179516,6,0,L|296:260,2,59.375,0|0|4,0:0|0:0|0:0,0:0:0:0:
68,204,179950,1,0,0:0:0:0:
204,104,180168,1,4,0:0:0:0:
204,104,180385,1,0,0:0:0:0:
312,232,180602,5,4,0:0:0:0:
312,232,180711,1,0,0:0:0:0:
312,232,180820,1,0,0:0:0:0:
196,204,181037,5,4,0:0:0:0:
152,184,181146,1,0,0:0:0:0:
124,144,181255,1,0,0:0:0:0:
132,96,181363,1,0,0:0:0:0:
160,56,181472,2,0,L|280:96,1,118.75,4|0,0:0|0:0,0:0:0:0:
348,148,181907,5,0,0:0:0:0:
260,180,182124,1,0,0:0:0:0:
228,272,182342,2,0,L|180:224,1,59.375
152,196,182559,1,0,0:0:0:0:
336,68,182994,5,0,0:0:0:0:
416,212,183211,1,0,0:0:0:0:
288,104,183429,1,0,0:0:0:0:
316,268,183646,1,0,0:0:0:0:
412,132,183863,1,0,0:0:0:0:
248,172,184081,1,0,0:0:0:0:
408,224,184298,1,0,0:0:0:0:
248,272,184516,2,0,P|128:256|56:152,1,237.5
124,80,185168,5,0,0:0:0:0:
228,52,185385,1,4,0:0:0:0:
332,76,185602,1,0,0:0:0:0:
420,140,185820,1,0,0:0:0:0:
432,248,186037,5,0,0:0:0:0:
360,328,186255,1,4,0:0:0:0:
256,344,186472,1,0,0:0:0:0:
156,308,186689,1,0,0:0:0:0:
84,228,186907,5,0,0:0:0:0:
108,124,187124,1,4,0:0:0:0:
208,88,187342,1,0,0:0:0:0:
284,124,187559,2,0,P|304:180|260:216,2,95,4|0|0,0:0|0:0|0:0,0:0:0:0:
208,88,188211,6,0,B|172:152|84:156|84:156|156:192|124:248|152:288|224:340|224:340|276:296|268:248,1,475,4|0,0:0|0:0,0:0:0:0:
392,164,189733,5,4,0:0:0:0:
304,80,189950,1,0,0:0:0:0:
192,132,190168,1,4,0:0:0:0:
292,200,190385,1,0,0:0:0:0:
432,140,190602,5,4,0:0:0:0:
316,44,190820,1,0,0:0:0:0:
176,104,191037,1,4,0:0:0:0:
304,184,191255,1,0,0:0:0:0:
136,220,191472,5,4,0:0:0:0:
176,104,191689,2,0,P|248:68|284:64,1,95,0|4,0:0|0:0,0:0:0:0:
336,280,192124,2,0,P|264:316|228:320,1,95,0|4,0:0|0:0,0:0:0:0:
344,112,192559,2,0,P|380:184|384:220,1,95,0|4,0:0|0:0,0:0:0:0:
168,272,192994,6,0,P|132:200|128:164,2,95,0|4|0,0:0|0:0|0:0,0:0:0:0:
260,296,193646,1,4,0:0:0:0:
348,260,193863,1,0,0:0:0:0:
408,188,194081,2,0,P|416:136|388:96,1,95,4|0,0:0|0:0,0:0:0:0:
312,52,194516,1,4,0:0:0:0:
128,92,194950,5,4,0:0:0:0:
68,164,195168,2,0,P|104:248|304:272,1,285,4|0,0:0|0:0,0:0:0:0:
380,124,196255,1,4,0:0:0:0:
196,76,196689,1,4,0:0:0:0:
196,76,196907,2,0,P|232:240|432:288,1,380,4|0,0:0|0:0,0:0:0:0:
384,204,197994,2,0,L|344:144,2,47.5,4|0|0,0:0|0:0|0:0,0:0:0:0:
288,208,198429,1,4,0:0:0:0:
256,192,198646,12,4,201472,0:0:0:0:
352,112,202342,5,0,0:0:0:0:
172,280,202776,1,0,0:0:0:0:
264,52,203211,1,0,0:0:0:0:
444,224,203646,1,0,0:0:0:0:
200,268,204081,6,0,P|168:184|224:88,1,190
424,48,204950,2,0,P|456:132|400:228,1,190
232,276,205820,5,0,0:0:0:0:
332,112,206255,1,0,0:0:0:0:
148,156,206689,1,0,0:0:0:0:
240,324,207124,1,0,0:0:0:0:
344,228,207559,2,0,P|376:176|380:96,1,142.500005435944
244,52,208429,2,0,P|184:88|136:152,1,142.500005435944
236,164,209298,5,0,0:0:0:0:
324,212,209733,1,0,0:0:0:0:
256,284,210168,1,0,0:0:0:0:
160,260,210602,1,0,0:0:0:0:
176,184,211037,6,0,P|212:136|256:108,1,95
316,108,211907,2,0,L|352:152,1,47.5
392,200,212233,2,0,L|412:224,1,23.75
