osu file format v14

[General]
AudioFilename: audio.mp3
AudioLeadIn: 0
PreviewTime: 195075
Countdown: 0
SampleSet: Soft
StackLeniency: 0.6
Mode: 0
LetterboxInBreaks: 0
WidescreenStoryboard: 1

[Editor]
DistanceSpacing: 0.9
BeatDivisor: 4
GridSize: 32
TimelineZoom: 1.2

[Metadata]
Title:ODDS & ENDS
TitleUnicode:ODDS&ENDS
Artist:ryo (supercell) feat. Hatsune Miku
ArtistUnicode:ryo (supercell) feat. 初音ミク
Creator:Toyosaki Aki
Version:Reminiscence
Source:初音ミク -Project DIVA- F
Tags:and vocaloid project diva seki kazuaki perfume sky of beginning sony nico douga japanese pop j-pop jpop rock j-rock jrock hohi
BeatmapID:3832347
BeatmapSetID:1861863

[Difficulty]
HPDrainRate:6
CircleSize:3.8
OverallDifficulty:9
ApproachRate:9.3
SliderMultiplier:1.8
SliderTickRate:1

[Events]
//Background and Video events
0,0,"bg.jpg",0,0
//Break Periods
2,250380,259194
//Storyboard Layer 0 (Background)
//Storyboard Layer 1 (Fail)
//Storyboard Layer 2 (Pass)
//Storyboard Layer 3 (Foreground)
//Storyboard Layer 4 (Overlay)
//Storyboard Sound Samples

[TimingPoints]
373,312.5,4,2,1,40,1,0
10373,-181.818181818181,4,2,1,40,0,0
15998,-285.714285714284,4,2,1,40,0,0
17873,-181.818181818181,4,2,1,40,0,0
18498,-285.714285714284,4,2,1,40,0,0
20373,-181.818181818181,4,2,1,40,0,0
25998,-285.714285714284,4,2,1,40,0,0
35216,-142.857142857143,4,2,1,40,0,0
35373,313.725490196078,4,2,2,40,1,0
35373,-142.857142857143,4,2,2,40,0,0
37882,312.093628088427,4,2,2,40,1,0
37882,-142.857142857143,4,2,2,40,0,0
39754,319.148936170213,4,2,2,40,1,0
39754,-142.857142857143,4,2,2,40,0,0
40392,311.688311688312,4,2,2,40,1,0
40392,-142.857142857143,4,2,2,40,0,0
41638,307.692307692308,4,2,2,40,1,0
41638,-142.857142857143,4,2,2,40,0,0
42253,314.13612565445,4,2,2,40,1,0
42253,-142.857142857143,4,2,2,40,0,0
42881,313.31592689295,4,2,2,40,1,0
42881,-142.857142857143,4,2,2,40,0,0
44134,308.483290488432,4,2,2,40,1,0
44134,-142.857142857143,4,2,2,40,0,0
45367,317.460317460317,4,2,2,40,1,0
45367,-133.333333333333,4,2,2,45,0,0
46636,312.5,4,2,2,45,1,0
46636,-133.333333333333,4,2,2,45,0,0
65073,329.67032967033,4,2,2,45,1,0
65402,309.278350515464,4,2,1,50,1,0
65402,-133.333333333333,4,2,1,50,0,0
65943,-133.333333333333,4,2,1,5,0,0
66020,-125,4,2,1,50,0,0
66639,314.13612565445,4,2,1,50,1,0
66639,-125,4,2,1,50,0,0
67895,312.5,4,2,1,50,1,0
67895,-125,4,2,1,50,0,0
70941,-125,4,2,1,5,0,0
71020,-125,4,2,1,50,0,0
74145,307.692307692308,4,2,1,50,1,0
74145,-125,4,2,1,50,0,0
75375,320.855614973262,4,2,1,50,1,0
75375,-133.333333333333,4,2,1,50,0,0
76016,311.688311688312,4,2,1,50,1,0
76016,-133.333333333333,4,2,1,50,0,0
76639,306.90537084399,4,2,1,50,1,0
76639,-133.333333333333,4,2,1,50,0,0
77866,319.148936170213,4,2,1,50,1,0
77866,-133.333333333333,4,2,1,50,0,0
78344,314.13612565445,4,2,1,50,1,0
78344,-133.333333333333,4,2,1,50,0,0
78661,314.13612565445,4,2,2,40,1,0
78661,-133.333333333333,4,2,2,40,0,0
79132,312.5,4,2,1,50,1,0
79132,-133.333333333333,4,2,1,50,0,0
85069,326.086956521739,4,2,1,50,1,0
85395,312.5,4,2,1,50,1,0
85395,-125,4,2,1,50,0,0
95707,-133.333333333333,4,2,1,50,0,0
105082,297.029702970297,4,2,1,50,1,0
105230,-117.647058823529,4,2,1,55,0,0
105379,297.029702970297,4,2,1,55,1,0
105379,-117.647058823529,4,2,1,55,0,0
105676,314.13612565445,4,2,1,55,1,0
105676,-117.647058823529,4,2,1,55,0,0
106618,314.13612565445,4,2,1,55,1,0
106618,-117.647058823529,4,2,1,55,0,0
107717,326.086956521739,4,2,1,55,1,0
107717,-117.647058823529,4,2,1,55,0,0
107874,-117.647058823529,4,2,1,55,0,0
108043,312.5,4,2,1,40,1,0
108043,-117.647058823529,4,2,1,55,0,0
108526,304.568527918782,4,2,1,55,1,0
108526,-117.647058823529,4,2,1,55,0,0
109135,312.5,4,2,1,55,1,0
109135,-117.647058823529,4,2,1,55,0,0
112885,315.789473684211,4,2,1,60,1,0
112885,-117.647058823529,4,2,1,60,0,0
114148,309.278350515464,4,2,1,60,1,0
114148,-117.647058823529,4,2,1,55,0,0
115230,-100,4,2,1,65,0,0
115385,312.5,4,2,1,65,1,0
117885,314.13612565445,4,2,1,65,1,0
120398,312.5,4,2,1,70,1,1
120398,-100,4,2,1,70,0,1
125398,311.688311688312,4,2,1,70,1,1
127891,312.5,4,2,1,70,1,1
146641,310.077519379845,4,2,1,70,1,1
147881,312.093628088427,4,2,1,65,1,1
149909,-100,4,2,1,65,0,0
150377,312.5,4,2,1,50,1,0
150377,-133.333333333333,4,2,1,50,0,0
159127,314.13612565445,4,2,1,50,1,0
159127,-133.333333333333,4,2,1,50,0,0
159912,-133.333333333333,4,2,2,50,0,0
160383,-125,4,2,1,50,0,0
161483,309.278350515464,4,2,1,50,1,0
161483,-125,4,2,1,50,0,0
161794,309.278350515464,4,2,1,50,1,0
161948,-125,4,2,1,50,0,0
162877,312.5,4,2,1,50,1,0
162877,-125,4,2,1,50,0,0
165377,313.31592689295,4,2,1,50,1,0
165377,-125,4,2,1,50,0,0
167883,312.5,4,2,1,50,1,0
167883,-125,4,2,1,50,0,0
170070,319.148936170213,4,2,1,50,1,0
170388,-133.333333333333,4,2,1,50,0,0
170389,312.5,4,2,1,50,1,0
170701,-133.333333333333,4,2,1,50,0,0
171639,320.855614973262,4,2,1,50,1,0
171639,-133.333333333333,4,2,1,50,0,0
172280,309.278350515464,4,2,1,50,1,0
172280,-133.333333333333,4,2,1,50,0,0
172898,312.5,4,2,1,50,1,0
172898,-133.333333333333,4,2,1,50,0,0
174148,294.117647058824,4,2,1,50,1,0
174148,-133.333333333333,4,2,1,50,0,0
174442,319.148936170213,4,2,1,50,1,0
174442,-133.333333333333,4,2,1,50,0,0
175399,311.284046692607,4,2,1,50,1,0
175399,-133.333333333333,4,2,1,50,0,0
177889,312.5,4,2,1,50,1,0
177889,-133.333333333333,4,2,1,50,0,0
180232,-117.647058823529,4,2,1,55,0,0
182732,314.547837483617,4,2,1,55,1,0
182732,-117.647058823529,4,2,1,55,0,0
183046,314.547837483617,4,2,1,55,1,0
183046,-117.647058823529,4,2,1,55,0,0
184147,312.5,4,2,1,55,1,0
184147,-117.647058823529,4,2,1,55,0,0
186647,310.880829015544,4,2,1,55,1,0
186647,-117.647058823529,4,2,1,55,0,0
187890,314.13612565445,4,2,1,55,1,0
187890,-117.647058823529,4,2,1,55,0,0
189774,300,4,2,1,55,1,0
189774,-117.647058823529,4,2,1,55,0,0
190224,-100,4,2,1,65,0,0
190374,322.58064516129,4,2,1,65,1,0
190374,-100,4,2,1,65,0,0
191019,311.688311688312,4,2,1,65,1,0
191642,309.278350515464,4,2,1,65,1,0
192415,-100,4,2,1,65,0,0
192879,313.725490196078,4,2,1,65,1,0
192879,-100,4,2,1,65,0,0
195382,312.5,4,2,1,70,1,1
195382,-100,4,2,1,70,0,1
224757,-117.647058823529,4,2,1,60,0,0
235382,-133.333333333333,4,2,1,60,0,0
240382,-105.263157894737,4,2,1,60,0,0
242888,309.278350515464,4,2,1,60,1,0
242888,-105.263157894737,4,2,1,60,0,0
244743,319.148936170213,4,2,1,60,1,0
245381,297.029702970297,4,2,1,60,1,0
245678,310.880829015544,4,2,1,60,1,0
246610,312.5,4,2,1,60,1,0
250047,333.333333333333,4,2,1,60,1,0
250380,312.5,4,2,1,60,1,0
257880,309.278350515464,4,2,1,60,1,0
259117,315.789473684211,4,2,1,60,1,0
259748,-133.333333333333,4,2,1,50,0,0
260380,314.13612565445,4,2,1,50,1,0
260380,-117.64705882353,4,2,1,50,0,0
261636,310.077519379845,4,2,1,50,1,0
261636,-117.647058823529,4,2,1,50,0,0
262876,312.5,4,2,1,50,1,0
262876,-117.647058823529,4,2,1,50,0,0
264126,314.13612565445,4,2,1,50,1,0
264126,-117.647058823529,4,2,1,50,0,0
265382,312.5,4,2,1,50,1,0
265382,-117.647058823529,4,2,1,50,0,0
275355,312.5,4,2,1,40,1,0
275355,-166.666666666667,4,2,1,45,0,0
276632,312.5,4,2,1,40,1,0
276632,-166.666666666667,4,2,1,45,0,0
283428,-166.666666666667,4,2,1,5,0,0
283507,-166.666666666667,4,2,1,45,0,0
284053,-166.666666666667,4,2,1,5,0,0
284132,-166.666666666667,4,2,1,45,0,0
292257,300,4,2,1,45,1,0
292857,315.374507227332,4,2,1,45,1,0
295379,312.5,4,2,1,70,1,1
295379,-100,4,2,1,70,0,1
300379,314.13612565445,4,2,1,70,1,1
304148,307.29833546735,4,2,1,70,1,1
305377,314.96062992126,4,2,1,70,1,1
306636,311.688311688312,4,2,1,70,1,1
309129,314.13612565445,4,2,1,70,1,1
311642,311.688311688312,4,2,1,70,1,1
315382,312.5,4,2,1,70,1,1
325382,-142.857142857143,4,2,1,70,0,1
327725,-142.857142857143,4,2,1,55,0,0
328194,-142.857142857143,4,2,1,5,0,0

[Colours]
Combo1 : 227,171,0
Combo2 : 0,137,189
Combo3 : 208,83,0
Combo4 : 0,162,109

[HitObjects]
51,355,10373,6,0,B|249:325,3,198.000006042481,2|2|2|2,0:0|0:0|0:0|0:0,0:0:0:0:
507,333,12873,6,0,P|459:253|368:270,3,198.000006042481,2|2|2|2,0:0|0:0|0:0|0:0,0:0:0:0:
299,132,15373,6,0,L|321:33,1,99.0000030212403,2|2,0:0|0:0,0:0:0:0:
335,40,15998,2,0,L|320:101,1,62.9999980773926,2|2,0:0|0:0,0:0:0:0:
143,257,17873,6,0,L|121:158,1,99.0000030212403,2|2,0:0|0:0,0:0:0:0:
139,155,18498,2,0,L|152:216,1,62.9999980773926,2|2,0:0|0:0,0:0:0:0:
160,249,20373,6,0,B|191:192|168:126|104:110|66:144,3,198.000006042481,2|2|2|2,0:0|0:0|0:0|0:0,0:0:0:0:
235,37,22873,6,0,B|298:50|298:50|315:45|315:45|428:68,3,198.000006042481,2|2|2|2,0:0|0:0|0:0|0:0,0:0:0:0:
441,298,25373,6,0,P|393:292|357:260,1,99.0000030212403,2|2,0:0|0:0,0:0:0:0:
403,203,25998,2,0,P|433:209|458:229,1,62.9999980773926,2|2,0:0|0:0,0:0:0:0:
256,192,27873,12,0,34123,0:0:0:0:
54,248,35216,5,8,0:0:0:0:
54,248,35294,1,8,0:0:0:0:
54,248,35373,2,0,L|68:309,1,62.9999980773926,2|0,3:2|0:0,0:0:0:0:
163,140,35686,2,0,L|148:201,1,62.9999980773926,2|0,0:0|0:0,0:0:0:0:
39,162,36000,2,0,B|163:140,1,125.999996154785,2|2,0:0|0:0,0:0:0:0:
273,58,36471,1,0,0:0:0:0:
273,58,36627,6,0,L|211:46,1,62.9999980773926,2|0,0:0|0:0,0:0:0:0:
339,151,36941,2,0,L|326:212,1,62.9999980773926,2|0,0:0|0:0,0:0:0:0:
425,9,37255,2,0,P|466:52|446:108,1,125.999996154785,2|2,0:0|0:0,0:0:0:0:
339,151,37725,1,0,0:0:0:0:
339,151,37882,6,0,L|326:212,1,62.9999980773926,2|0,0:0|0:0,0:0:0:0:
353,371,38194,2,0,P|384:363|414:354,1,62.9999980773926,2|0,0:0|0:0,0:0:0:0:
247,293,38506,2,0,L|122:273,1,125.999996154785,2|2,0:0|0:0,0:0:0:0:
16,161,38974,1,0,0:0:0:0:
16,161,39130,6,0,L|27:223,1,62.9999980773926,2|0,0:0|0:0,0:0:0:0:
158,100,39442,2,0,L|146:161,1,62.9999980773926,2|0,0:0|0:0,0:0:0:0:
10,158,39754,2,0,L|21:220,1,62.9999980773926,2|0,0:0|0:0,0:0:0:0:
152,96,40073,2,0,L|140:157,1,62.9999980773926,2|0,0:0|3:0,0:0:0:0:
110,17,40392,6,0,P|170:6|221:39,1,125.999996154785,2|2,3:2|0:0,0:0:0:0:
259,173,40859,1,0,0:0:0:0:
259,173,41015,2,0,P|289:166|320:160,1,62.9999980773926,2|0,0:0|0:0,0:0:0:0:
473,108,41327,2,0,P|442:101|411:95,1,62.9999980773926,2|0,0:0|0:0,0:0:0:0:
304,35,41638,6,0,L|320:159,1,125.999996154785,2|2,0:0|0:0,0:0:0:0:
340,303,42099,1,0,0:0:0:0:
340,303,42253,2,0,L|277:292,1,62.9999980773926,2|0,0:0|0:0,0:0:0:0:
164,225,42567,2,0,L|172:287,1,62.9999980773926,2|0,0:0|0:0,0:0:0:0:
53,368,42881,6,0,B|25:332|25:332|52:256,1,125.999996154785,2|2,0:0|0:0,0:0:0:0:
131,145,43350,1,0,0:0:0:0:
131,145,43507,2,0,L|122:82,1,62.9999980773926,2|0,0:0|0:0,0:0:0:0:
230,47,43820,2,0,L|238:109,1,62.9999980773926,2|0,0:0|0:0,0:0:0:0:
297,269,44134,6,0,L|362:257,1,62.9999980773926,2|0,0:0|0:0,0:0:0:0:
450,169,44442,2,0,L|511:180,1,62.9999980773926,2|0,0:0|0:0,0:0:0:0:
494,308,44750,2,0,L|432:296,1,62.9999980773926,2|0,0:0|0:0,0:0:0:0:
340,180,45059,2,0,L|278:191,1,62.9999980773926,2|0,0:0|0:0,0:0:0:0:
176,342,45367,6,0,B|122:332|122:332|109:316|109:316|50:306,1,135.000005149842,6|0,3:2|0:0,0:0:0:0:
165,259,45843,1,2,0:0:0:0:
89,144,46001,1,2,0:0:0:0:
89,144,46160,2,0,L|97:210,1,67.5000025749208,2|0,0:0|0:0,0:0:0:0:
179,360,46478,6,0,P|211:352|244:345,1,67.5000025749208,2|0,0:0|0:0,0:0:0:0:
411,301,46792,2,0,P|377:298|347:282,1,67.5000025749208,2|0,0:0|0:0,0:0:0:0:
224,214,47104,2,0,P|257:197|288:195,1,67.5000025749208,2|0,0:0|0:0,0:0:0:0:
413,54,47417,2,0,B|392:187,1,135.000005149842,2|2,0:0|0:0,0:0:0:0:
358,349,47886,6,0,B|347:282,1,67.5000025749208,2|0,0:0|0:0,0:0:0:0:
188,150,48198,1,2,0:0:0:0:
188,150,48354,2,0,P|143:196|161:258,1,135.000005149842,2|2,0:0|0:0,0:0:0:0:
320,211,48823,2,0,L|252:196,1,67.5000025749208,2|2,0:0|0:0,0:0:0:0:
106,117,49136,6,0,B|168:102|168:102|182:106|182:106|237:93,1,135.000005149842,2|0,0:0|0:0,0:0:0:0:
323,19,49604,1,2,0:0:0:0:
442,113,49761,1,2,0:0:0:0:
442,113,49917,2,0,P|431:179|421:246,1,135.000005149842,2|2,0:0|3:2,0:0:0:0:
427,353,50386,6,0,P|459:345|492:337,1,67.5000025749208,2|0,3:2|0:0,0:0:0:0:
346,278,50698,1,2,0:0:0:0:
269,376,50854,2,0,P|203:360|137:347,1,135.000005149842,2|2,0:0|0:0,0:0:0:0:
30,276,51323,2,0,L|39:342,1,67.5000025749208,2|2,0:0|0:0,0:0:0:0:
145,140,51636,6,0,B|187:168|187:168|162:249,1,135.000005149842,2|2,0:3|0:2,0:0:0:0:
138,346,52104,1,2,0:0:0:0:
30,276,52261,6,0,L|169:248,1,135.000005149842,2|2,0:3|0:2,0:0:0:0:
270,288,52729,1,2,0:0:0:0:
346,117,52886,6,0,P|391:162|371:223,1,135.000005149842,2|2,0:3|0:2,0:0:0:0:
270,288,53354,2,0,L|262:220,1,67.5000025749208,2|0,0:0|0:0,0:0:0:0:
172,133,53667,2,0,L|236:113,1,67.5000025749208,2|0,0:0|0:0,0:0:0:0:
98,58,53979,6,0,P|56:109|74:172,1,135.000005149842,2|2,0:0|0:0,0:0:0:0:
163,227,54448,1,0,0:0:0:0:
147,382,54604,2,0,L|154:311,1,67.5000025749208,2|0,0:0|0:0,0:0:0:0:
262,220,54917,1,10,0:2:0:0:
262,220,54995,1,8,0:2:0:0:
262,220,55073,1,8,0:2:0:0:
172,133,55229,1,8,0:0:0:0:
350,179,55386,6,0,L|336:313,1,135.000005149842,4|0,3:2|0:0,0:0:0:0:
299,108,55854,1,2,0:0:0:0:
429,207,56011,1,2,0:0:0:0:
429,207,56167,2,0,L|496:194,1,67.5000025749208,2|0,0:0|0:0,0:0:0:0:
485,63,56479,6,0,L|418:76,1,67.5000025749208,2|0,0:0|0:0,0:0:0:0:
299,108,56792,2,0,L|306:40,1,67.5000025749208,2|0,0:0|0:0,0:0:0:0:
183,5,57104,2,0,L|175:72,1,67.5000025749208,2|0,0:0|0:0,0:0:0:0:
78,188,57417,2,0,B|210:162,1,135.000005149842,2|2,0:0|0:0,0:0:0:0:
18,119,57886,6,0,P|-18:174|0:236,1,135.000005149842,2|2,0:3|0:0,0:0:0:0:
78,188,58354,1,2,0:0:0:0:
231,294,58511,6,0,B|99:268,1,135.000005149842,2|2,0:3|0:0,0:0:0:0:
119,358,58979,1,2,0:0:0:0:
243,210,59136,6,0,B|289:223|289:223|312:257|312:257|357:267,1,135.000005149842,2|0,0:3|0:0,0:0:0:0:
448,285,59604,1,2,0:0:0:0:
463,143,59761,1,2,0:0:0:0:
463,143,59917,2,0,P|410:180|350:156,1,135.000005149842,2|0,0:0|0:0,0:0:0:0:
278,70,60386,6,0,L|344:56,1,67.5000025749208,2|0,0:3|0:0,0:0:0:0:
168,18,60698,1,2,0:0:0:0:
168,18,60854,2,0,L|187:151,1,135.000005149842,2|2,0:0|0:0,0:0:0:0:
163,247,61323,2,0,L|96:230,1,67.5000025749208,2|2,0:0|0:0,0:0:0:0:
23,379,61636,6,0,P|75:338|137:358,1,135.000005149842,2|2,0:3|0:0,0:0:0:0:
316,338,62104,2,0,P|253:357|202:317,1,135.000005149842,2|0,0:0|0:0,0:0:0:0:
279,210,62573,2,0,L|269:276,1,67.5000025749208,2|2,0:0|0:0,0:0:0:0:
396,355,62886,6,0,L|416:221,1,135.000005149842,2|2,0:3|0:0,0:0:0:0:
345,85,63354,2,0,B|291:91|291:91|270:111|270:111|218:115,1,135.000005149842,2|2,0:0|0:0,0:0:0:0:
84,256,63823,2,0,L|151:249,1,67.5000025749208,0|2,0:0|0:0,0:0:0:0:
164,52,64136,6,0,P|131:109|156:170,1,135.000005149842,2|0,0:3|0:0,0:0:0:0:
242,306,64604,2,0,L|251:239,1,67.5000025749208,2|2,0:0|0:3,0:0:0:0:
342,177,64917,1,10,0:0:0:0:
342,177,64995,1,8,0:0:0:0:
342,177,65073,1,8,0:0:0:0:
446,213,65237,1,14,0:0:0:0:
278,58,65402,5,10,0:0:0:0:
275,74,65479,1,8,0:0:0:0:
273,91,65556,1,8,0:0:0:0:
271,108,65633,1,8,0:0:0:0:
269,124,65711,2,0,L|169:107,1,101.250003862381,8|0,0:0|0:0,0:0:0:0:
99,51,66020,6,0,P|138:107|117:178,1,144,6|8,0:2|0:0,0:0:0:0:
37,212,66484,1,0,0:0:0:0:
122,369,66639,5,2,0:0:0:0:
189,275,66796,1,0,0:0:0:0:
15,311,66953,2,0,L|85:295,1,72,8|0,0:0|0:0,0:0:0:0:
299,218,67267,2,0,B|241:208|241:208|222:194|222:194|162:183,1,144,2|8,0:0|0:0,0:0:0:0:
288,127,67738,1,0,0:0:0:0:
404,292,67895,5,2,3:2:0:0:
299,218,68051,1,2,3:2:0:0:
430,117,68207,2,0,L|419:188,1,72,8|0,0:0|0:0,0:0:0:0:
318,361,68520,2,0,L|299:218,1,144,2|8,0:0|0:0,0:0:0:0:
281,83,68988,1,0,0:0:0:0:
83,185,69145,6,0,P|117:176|153:168,1,72,2|0,0:0|0:0,0:0:0:0:
281,83,69457,2,0,P|246:74|210:66,1,72,10|0,0:0|0:0,0:0:0:0:
46,108,69770,2,0,P|80:99|116:91,1,72,6|0,0:0|0:0,0:0:0:0:
309,172,70082,2,0,P|274:163|238:155,1,72,10|0,0:0|0:0,0:0:0:0:
83,327,70395,5,10,0:0:0:0:
85,315,70473,1,8,0:0:0:0:
88,303,70551,1,10,0:0:0:0:
91,291,70629,1,8,0:0:0:0:
94,280,70707,2,0,P|145:267|193:297,1,108,10|0,0:0|0:0,0:0:0:0:
231,366,71020,6,0,L|373:342,1,144,6|8,0:0|0:0,0:0:0:0:
469,325,71488,1,0,0:0:0:0:
325,183,71645,5,2,0:0:0:0:
479,242,71801,1,0,0:0:0:0:
372,342,71957,2,0,L|379:267,1,72,8|0,0:0|0:0,0:0:0:0:
312,39,72270,2,0,L|325:184,1,144,2|8,0:0|0:0,0:0:0:0:
395,46,72738,1,0,0:0:0:0:
240,139,72895,5,2,3:2:0:0:
409,198,73051,1,2,3:2:0:0:
395,46,73207,2,0,L|402:120,1,72,8|0,0:0|0:0,0:0:0:0:
277,251,73520,2,0,B|134:227,1,144,2|8,0:0|0:0,0:0:0:0:
84,150,73988,1,0,0:0:0:0:
7,314,74145,6,0,L|79:302,1,72,2|0,0:0|0:0,0:0:0:0:
220,230,74452,2,0,L|148:218,1,72,10|0,0:0|0:0,0:0:0:0:
43,142,74760,2,0,L|57:212,1,72,2|0,0:0|0:0,0:0:0:0:
154,379,75068,2,0,L|168:308,1,72,10|0,0:0|0:0,0:0:0:0:
288,168,75375,6,0,P|308:194|312:227,2,67.5000025749208,4|0|0,3:2|0:0|3:0,0:0:0:0:
198,139,75856,1,2,0:0:0:0:
309,61,76016,1,2,3:2:0:0:
309,61,76171,2,0,L|242:48,1,67.5000025749208,2|0,0:0|3:0,0:0:0:0:
71,11,76483,6,0,L|81:77,1,67.5000025749208,2|0,0:0|3:0,0:0:0:0:
198,139,76792,2,0,L|188:206,1,67.5000025749208,2|0,0:0|3:0,0:0:0:0:
95,340,77099,1,2,0:0:0:0:
245,300,77252,1,2,3:2:0:0:
187,127,77406,2,0,L|165:260,1,135.000005149842,2|2,0:0|0:0,0:0:0:0:
225,380,77866,6,0,L|291:367,1,67.5000025749208,2|0,3:2|0:0,0:0:0:0:
401,182,78185,1,2,3:2:0:0:
401,182,78344,2,0,B|355:209|355:209|375:287,1,135.000005149842,2|2,0:0|0:0,0:0:0:0:
463,375,78818,2,0,L|474:308,1,67.5000025749208,2|2,3:2|0:0,0:0:0:0:
421,96,79132,6,0,P|480:123|489:187,1,135.000005149842,2|0,3:2|3:0,0:0:0:0:
375,287,79600,2,0,L|359:221,1,67.5000025749208,2|0,0:0|3:2,0:0:0:0:
271,110,79913,2,0,B|221:119|221:119|199:142|199:142|147:150,1,135.000005149842,2|2,0:0|0:0,0:0:0:0:
15,79,80382,6,0,L|81:88,1,67.5000025749208,2|2,3:2|0:0,0:0:0:0:
271,110,80694,1,2,3:2:0:0:
271,110,80850,2,0,L|262:177,1,67.5000025749208,2|0,0:0|3:0,0:0:0:0:
168,313,81163,2,0,L|159:245,1,67.5000025749208,2|0,0:0|3:0,0:0:0:0:
147,149,81475,1,2,0:0:0:0:
269,275,81632,6,0,L|335:260,1,67.5000025749208,2|2,3:2|0:0,0:0:0:0:
394,149,81944,1,2,3:2:0:0:
394,149,82100,2,0,L|261:177,1,135.000005149842,2|0,0:0|0:0,0:0:0:0:
82,221,82569,1,2,3:2:0:0:
269,275,82725,1,2,0:0:0:0:
174,369,82882,6,0,L|165:302,1,67.5000025749208,2|0,3:2|0:0,0:0:0:0:
94,139,83194,1,2,3:2:0:0:
73,287,83350,2,0,L|82:220,1,67.5000025749208,2|0,0:0|3:0,0:0:0:0:
195,54,83663,2,0,L|204:121,1,67.5000025749208,2|0,0:0|3:0,0:0:0:0:
354,240,83975,6,0,L|420:226,1,67.5000025749208,2|0,0:0|3:0,0:0:0:0:
245,348,84288,2,0,L|178:334,1,67.5000025749208,2|0,0:0|3:0,0:0:0:0:
354,240,84600,2,0,L|420:226,1,67.5000025749208,2|0,0:0|3:0,0:0:0:0:
245,348,84913,1,10,0:0:0:0:
245,348,84991,1,8,0:0:0:0:
245,348,85069,1,8,0:0:0:0:
186,176,85232,1,0,0:0:0:0:
345,332,85395,5,4,3:2:0:0:
172,255,85551,1,0,3:0:0:0:
292,123,85707,2,0,L|277:194,1,72,8|2,0:0|3:2,0:0:0:0:
245,348,86020,1,2,0:0:0:0:
101,270,86176,2,0,L|171:255,1,72,2|8,3:2|0:0,0:0:0:0:
33,140,86488,6,0,L|9:282,1,144,2|2,0:2|3:2,0:0:0:0:
179,182,86957,1,8,0:0:0:0:
113,29,87113,2,0,L|121:100,1,72,2|0,3:2|0:0,0:0:0:0:
281,194,87426,1,2,3:2:0:0:
171,254,87582,2,0,L|179:183,1,72,8|2,0:0|0:2,0:0:0:0:
255,100,87895,5,2,3:2:0:0:
304,293,88051,1,0,3:0:0:0:
171,254,88207,1,10,0:0:0:0:
396,170,88363,2,0,L|388:241,1,72,2|0,3:2|0:0,0:0:0:0:
365,370,88676,2,0,P|400:362|435:355,1,72,2|8,3:2|0:0,0:0:0:0:
281,194,88988,1,2,3:2:0:0:
156,325,89145,6,0,P|102:281|111:213,1,144,2|8,3:2|0:0,0:0:0:0:
193,69,89613,1,2,3:2:0:0:
75,116,89770,1,2,0:2:0:0:
75,116,89926,2,0,B|131:125|131:125|153:146|153:146|209:154,1,144,2|2,3:2|0:2,0:0:0:0:
375,181,90395,6,0,L|365:109,1,72,6|0,3:2|0:0,0:0:0:0:
305,272,90707,1,10,0:0:0:0:
440,248,90863,2,0,L|510:234,1,72,2|0,3:2|0:0,0:0:0:0:
398,355,91176,1,2,3:2:0:0:
296,201,91332,2,0,L|305:272,1,72,10|2,0:2|0:2,0:0:0:0:
223,346,91645,5,2,3:2:0:0:
403,256,91801,1,2,3:2:0:0:
283,112,91957,1,10,0:2:0:0:
305,272,92113,2,0,L|296:201,1,72,2|0,3:2|0:0,0:0:0:0:
273,26,92426,1,2,3:2:0:0:
157,169,92582,2,0,L|86:155,1,72,8|2,0:0|0:2,0:0:0:0:
19,62,92895,6,0,L|160:34,1,144,2|8,3:2|0:0,0:0:0:0:
353,125,93363,2,0,L|282:111,1,72,0|0,3:0|0:0,0:0:0:0:
138,266,93676,1,0,3:0:0:0:
138,266,93832,2,0,L|208:251,1,72,8|0,0:0|0:0,0:0:0:0:
296,198,94145,5,2,3:2:0:0:
182,351,94301,1,0,3:0:0:0:
90,172,94457,1,8,0:0:0:0:
291,308,94613,1,8,0:0:0:0:
291,308,94691,1,8,0:0:0:0:
291,308,94770,5,2,3:2:0:0:
206,153,94926,1,0,3:0:0:0:
75,347,95082,1,12,0:0:0:0:
75,347,95395,5,8,0:2:0:0:
75,347,95473,1,8,0:0:0:0:
75,347,95551,1,10,0:0:0:0:
75,347,95629,1,8,0:0:0:0:
75,347,95707,2,0,L|83:279,1,67.5000025749208,10|0,3:2|0:0,0:0:0:0:
191,230,96020,2,0,L|183:162,1,67.5000025749208,2|0,3:2|0:0,0:0:0:0:
167,25,96332,1,2,3:2:0:0:
34,118,96488,1,10,0:2:0:0:
34,118,96645,6,0,L|99:102,1,67.5000025749208,6|0,3:2|0:0,0:0:0:0:
260,13,96957,1,2,3:2:0:0:
260,13,97113,2,0,L|268:81,1,67.5000025749208,2|0,0:2|3:0,0:0:0:0:
360,158,97426,2,0,L|352:226,1,67.5000025749208,2|0,0:2|3:0,0:0:0:0:
272,345,97738,1,10,0:0:0:0:
272,345,97816,1,8,0:0:0:0:
272,345,97895,6,0,L|337:330,1,67.5000025749208,0|2,3:0|0:2,0:0:0:0:
498,258,98207,2,0,L|432:243,1,67.5000025749208,2|2,3:2|0:2,0:0:0:0:
253,211,98520,2,0,L|271:344,1,135.000005149842,0|2,3:0|3:2,0:0:0:0:
360,158,98988,1,2,0:2:0:0:
213,77,99145,5,2,3:2:0:0:
213,77,99301,1,10,0:2:0:0:
253,211,99457,1,2,3:2:0:0:
253,211,99613,2,0,L|186:196,1,67.5000025749208,8|0,3:0|3:0,0:0:0:0:
93,90,99926,2,0,L|104:156,1,67.5000025749208,10|4,0:0|3:0,0:0:0:0:
131,330,100238,1,2,3:2:0:0:
6,262,100395,5,8,0:0:0:0:
6,262,100473,1,8,0:0:0:0:
6,262,100551,1,10,0:2:0:0:
6,262,100629,1,8,0:0:0:0:
6,262,100707,2,0,L|72:247,1,67.5000025749208,10|2,3:2|0:2,0:0:0:0:
208,309,101020,2,0,L|274:294,1,67.5000025749208,2|2,3:2|0:2,0:0:0:0:
435,259,101332,1,2,3:2:0:0:
278,198,101488,1,10,0:0:0:0:
379,127,101645,6,0,L|368:193,1,67.5000025749208,2|0,3:2|0:0,0:0:0:0:
284,360,101957,1,2,3:2:0:0:
284,360,102113,2,0,L|273:293,1,67.5000025749208,2|0,0:2|3:2,0:0:0:0:
146,160,102426,2,0,L|211:144,1,67.5000025749208,2|0,0:2|3:0,0:0:0:0:
75,78,102738,1,2,3:3:0:0:
141,270,102895,5,0,3:2:0:0:
141,270,103207,1,0,3:0:0:0:
141,270,103520,1,0,3:0:0:0:
141,270,103832,1,2,3:2:0:0:
278,198,103988,1,8,0:0:0:0:
278,198,104066,1,8,0:0:0:0:
278,198,104145,5,2,3:2:0:0:
145,159,104301,1,2,0:2:0:0:
221,322,104457,1,2,3:2:0:0:
74,284,104613,2,0,L|140:270,1,67.5000025749208,2|0,0:2|3:0,0:0:0:0:
344,211,104926,2,0,L|277:197,1,67.5000025749208,2|8,0:2|0:0,0:0:0:0:
129,7,105230,6,0,L|145:159,1,153.000002918243,6|2,3:2|0:2,0:0:0:0:
233,356,105676,2,0,L|241:279,1,76.5000014591217,2|2,3:2|0:2,0:0:0:0:
260,82,105990,1,2,3:2:0:0:
431,228,106147,1,2,0:2:0:0:
277,197,106304,2,0,L|364:215,1,76.5000014591217,2|2,3:2|0:2,0:0:0:0:
470,148,106618,5,2,3:2:0:0:
390,309,106775,2,0,L|312:292,1,76.5000014591217,2|2,0:2|3:2,0:0:0:0:
72,271,107089,2,0,L|150:254,1,76.5000014591217,2|0,0:2|3:0,0:0:0:0:
351,212,107403,1,2,0:2:0:0:
351,212,107560,1,10,3:2:0:0:
245,356,107717,6,0,L|231:203,1,153.000002918243,6|2,0:2|0:2,0:0:0:0:
141,54,108199,2,0,L|61:70,1,76.5000014591217,2|2,3:2|0:2,0:0:0:0:
286,26,108511,1,2,3:2:0:0:
149,166,108678,1,2,0:2:0:0:
292,135,108830,2,0,L|367:119,1,76.5000014591217,2|2,3:2|0:2,0:0:0:0:
38,156,109135,5,2,3:2:0:0:
210,216,109291,1,2,0:2:0:0:
54,272,109447,1,2,3:2:0:0:
141,54,109603,2,0,L|120:205,1,153.000002918243,2|0,0:2|0:0,0:0:0:0:
100,349,110072,1,2,3:2:0:0:
360,229,110385,1,14,0:0:0:0:
369,218,110697,5,0,3:0:0:0:
277,310,110853,1,0,0:0:0:0:
311,147,111010,5,0,3:0:0:0:
417,291,111166,1,0,0:0:0:0:
457,59,111322,5,0,3:2:0:0:
378,207,111478,1,8,0:3:0:0:
230,20,111635,6,0,L|241:56,3,38.2500007295609,0|0|0|0,3:0|3:0|3:2|3:0,0:0:0:0:
311,147,111947,2,0,L|299:183,3,38.2500007295609,0|0|0|0,3:0|3:0|3:2|3:0,0:0:0:0:
232,268,112260,1,8,0:0:0:0:
217,265,112338,1,0,3:0:0:0:
203,262,112416,1,0,3:0:0:0:
189,259,112494,1,0,3:0:0:0:
175,255,112572,2,0,L|189:300,3,38.2500007295609,8|0|2|0,0:0|3:0|3:2|3:0,0:0:0:0:
98,344,112885,5,10,3:2:0:0:
182,172,113042,1,8,0:2:0:0:
276,346,113200,1,2,3:2:0:0:
86,241,113358,2,0,L|10:254,1,76.5000014591217,10|0,0:2|3:0,0:0:0:0:
267,143,113674,1,10,0:2:0:0:
186,291,113832,1,0,3:0:0:0:
147,93,113990,5,10,0:2:0:0:
294,264,114148,1,0,3:2:0:0:
355,56,114302,5,10,0:0:0:0:
182,200,114457,1,0,3:2:0:0:
410,151,114611,6,0,L|486:133,1,76.5000014591217,10|0,0:0|3:0,0:0:0:0:
271,273,114921,1,10,0:0:0:0:
356,56,115075,1,0,3:0:0:0:
495,218,115230,1,14,0:0:0:0:
495,218,115541,5,0,3:0:0:0:
271,273,115697,1,8,0:0:0:0:
495,218,115853,1,0,3:0:0:0:
285,72,116010,5,8,0:0:0:0:
394,278,116166,1,0,3:0:0:0:
432,7,116322,5,8,0:0:0:0:
347,191,116478,1,0,3:0:0:0:
135,56,116635,5,8,0:0:0:0:
347,191,116791,1,0,3:0:0:0:
68,247,116947,5,8,0:0:0:0:
271,152,117103,2,0,L|227:140,1,45,0|0,3:0|3:0,0:0:0:0:
31,87,117260,5,8,0:0:0:0:
271,234,117416,1,0,3:0:0:0:
135,56,117572,5,8,0:0:0:0:
0,312,117728,1,4,3:2:0:0:
0,312,118042,5,0,3:0:0:0:
217,350,118199,1,8,0:0:0:0:
108,132,118356,1,0,3:0:0:0:
115,373,118513,5,8,0:0:0:0:
206,102,118670,1,0,3:0:0:0:
217,350,118827,5,8,0:0:0:0:
108,132,118984,1,0,3:0:0:0:
319,327,119141,6,0,L|362:317,3,45,8|8|0|0,3:2|3:2|3:0|3:0,0:0:0:0:
179,221,119455,2,0,L|135:211,3,45,8|4|0|0,3:0|3:0|3:0|3:0,0:0:0:0:
331,117,119769,5,8,0:0:0:0:
217,350,119926,1,8,0:0:0:0:
217,350,120241,5,2,0:0:0:0:
217,350,120398,2,0,L|240:166,1,180,6|8,3:2|0:0,0:0:0:0:
205,27,120866,1,0,3:0:0:0:
205,27,120944,1,0,3:0:0:0:
205,27,121023,2,0,P|167:52|123:51,1,90,0|0,3:0|3:0,0:0:0:0:
0,225,121335,1,10,0:2:0:0:
177,128,121491,1,2,0:2:0:0:
33,75,121648,6,0,B|52:143|52:143|82:168|82:168|95:236,1,180,0|8,3:0|0:0,0:0:0:0:
64,359,122116,1,0,3:0:0:0:
64,359,122194,1,0,3:0:0:0:
64,359,122273,2,0,P|109:364|150:347,1,90,0|0,3:0|3:0,0:0:0:0:
311,232,122585,2,0,L|224:207,1,90,8|8,0:0|0:3,0:0:0:0:
407,359,122898,6,0,P|471:301|453:217,1,180,2|8,3:2|0:0,0:0:0:0:
332,6,123366,1,0,3:0:0:0:
332,6,123444,1,0,3:0:0:0:
332,6,123523,2,0,L|314:94,1,90,0|0,3:0|3:0,0:0:0:0:
272,297,123835,1,10,0:2:0:0:
408,227,123991,1,2,0:2:0:0:
178,62,124148,6,0,L|206:239,1,180,0|8,3:0|0:0,0:0:0:0:
156,347,124616,1,2,0:2:0:0:
293,200,124773,1,2,3:2:0:0:
376,358,124929,2,0,P|332:346|289:334,1,90,2|8,3:2|0:0,0:0:0:0:
32,139,125241,1,2,3:2:0:0:
32,139,125319,1,0,3:0:0:0:
32,139,125398,6,0,P|79:182|141:163,1,135,6|0,3:2|0:0,0:0:0:0:
185,85,125709,2,0,B|144:64|144:64|103:81,1,90,8|2,0:0|0:2,0:0:0:0:
46,295,126021,1,2,3:2:0:0:
257,237,126177,1,2,3:2:0:0:
141,163,126333,1,10,0:2:0:0:
360,100,126488,1,2,3:2:0:0:
360,100,126566,1,0,3:0:0:0:
360,100,126644,6,0,B|345:188,1,90,2|0,3:2|3:0,0:0:0:0:
312,366,126956,1,10,0:2:0:0:
471,297,127112,2,0,L|385:269,1,90,2|0,0:2|3:0,0:0:0:0:
185,85,127423,1,0,3:0:0:0:
56,229,127579,2,0,L|143:208,1,90,8|8,0:0|0:3,0:0:0:0:
477,91,127891,6,0,B|422:85|395:118|395:118|366:152|313:146,1,180,6|10,3:2|0:2,0:0:0:0:
153,58,128359,2,0,P|192:38|235:47,1,90,2|0,0:2|3:0,0:0:0:0:
263,337,128672,2,0,L|246:248,1,90,2|8,3:2|0:0,0:0:0:0:
336,59,128984,1,2,3:2:0:0:
336,59,129062,1,0,3:0:0:0:
336,59,129141,5,2,3:2:0:0:
152,215,129297,1,0,3:0:0:0:
395,304,129453,1,10,0:0:0:0:
172,61,129609,1,0,3:0:0:0:
172,61,129687,1,8,0:0:0:0:
172,61,129766,5,2,3:2:0:0:
432,146,129922,1,0,3:0:0:0:
260,351,130078,2,0,L|243:262,1,90,14|0,0:2|0:0,0:0:0:0:
336,0,130391,6,0,B|270:15|270:15|242:45|242:45|173:61,1,180,6|8,3:2|0:0,0:0:0:0:
0,250,130859,1,0,3:0:0:0:
0,250,130937,1,0,3:0:0:0:
0,250,131016,2,0,P|42:260|82:239,1,90,0|0,3:0|3:0,0:0:0:0:
280,186,131328,1,10,0:2:0:0:
84,123,131484,1,2,0:2:0:0:
195,56,131641,6,0,L|175:234,1,180,0|8,3:0|0:0,0:0:0:0:
125,363,132109,1,0,3:0:0:0:
125,363,132187,1,0,3:0:0:0:
125,363,132266,2,0,L|211:340,1,90,0|0,3:0|3:0,0:0:0:0:
366,208,132578,2,0,L|279:185,1,90,8|8,0:0|0:3,0:0:0:0:
441,54,132891,6,0,P|500:116|486:202,1,180,2|8,3:2|0:0,0:0:0:0:
325,363,133359,1,0,3:0:0:0:
325,363,133437,1,0,3:0:0:0:
325,363,133516,2,0,L|306:275,1,90,0|0,3:0|3:0,0:0:0:0:
217,50,133828,2,0,P|173:45|136:69,1,90,10|2,0:0|0:2,0:0:0:0:
0,230,134141,5,0,3:0:0:0:
195,141,134297,1,0,3:0:0:0:
44,39,134453,2,0,L|60:127,1,90,8|0,0:0|0:0,0:0:0:0:
114,324,134766,5,0,3:0:0:0:
0,230,134922,1,0,3:0:0:0:
195,141,135078,2,0,L|178:229,1,90,8|10,0:0|0:0,0:0:0:0:
225,339,135312,1,8,0:0:0:0:
225,339,135391,6,0,P|267:349|315:325,1,90,6|0,3:2|0:0,0:0:0:0:
365,174,135703,1,10,0:0:0:0:
474,319,135859,2,0,L|454:231,1,90,2|0,0:2|3:0,0:0:0:0:
341,48,136172,1,2,3:2:0:0:
227,146,136328,2,0,P|183:133|140:122,1,90,10|0,0:2|0:0,0:0:0:0:
40,313,136641,6,0,P|101:251|187:263,1,180,2|10,3:2|0:0,0:0:0:0:
474,264,137109,2,0,P|436:288|392:286,1,90,2|0,0:0|3:0,0:0:0:0:
269,181,137422,1,0,3:0:0:0:
296,365,137578,2,0,L|283:275,1,90,8|8,0:0|0:3,0:0:0:0:
187,4,137891,5,6,3:2:0:0:
39,115,138047,1,0,0:0:0:0:
269,181,138203,1,10,0:0:0:0:
124,93,138359,2,0,L|139:181,1,90,2|0,0:0|3:0,0:0:0:0:
51,309,138672,1,2,3:2:0:0:
269,181,138828,2,0,L|253:269,1,90,8|2,0:0|3:2,0:0:0:0:
158,365,139141,5,14,0:0:0:0:
362,179,139297,1,0,3:0:0:0:
362,179,139375,1,0,3:0:0:0:
362,179,139453,1,2,3:2:0:0:
220,93,139609,5,8,0:0:0:0:
384,296,139766,1,2,3:2:0:0:
384,296,139844,1,0,3:0:0:0:
384,296,139922,1,0,3:0:0:0:
475,84,140078,5,10,0:2:0:0:
247,240,140234,1,2,3:2:0:0:
247,240,140312,1,0,3:0:0:0:
247,240,140391,6,0,L|158:226,1,90,6|2,3:2|0:0,0:0:0:0:
86,134,140703,1,14,0:0:0:0:
204,325,140859,1,2,0:0:0:0:
265,70,141016,1,2,3:2:0:0:
158,226,141172,1,2,3:2:0:0:
153,37,141328,1,10,0:2:0:0:
270,187,141484,1,2,0:2:0:0:
86,134,141641,5,2,3:2:0:0:
265,70,141797,1,2,3:2:0:0:
68,222,141953,1,10,0:2:0:0:
153,37,142109,2,0,L|169:125,1,90,2|0,0:0|3:0,0:0:0:0:
317,340,142422,1,2,3:2:0:0:
317,340,142578,2,0,L|333:252,1,90,14|0,0:0|0:0,0:0:0:0:
361,105,142891,5,6,3:2:0:0:
202,202,143047,1,2,0:2:0:0:
407,319,143203,1,10,0:2:0:0:
291,169,143359,1,2,0:2:0:0:
174,349,143516,1,2,3:2:0:0:
291,169,143672,1,2,3:2:0:0:
317,340,143828,1,10,0:2:0:0:
157,115,143984,1,2,0:2:0:0:
65,232,144141,5,2,3:2:0:0:
291,169,144297,1,2,3:2:0:0:
65,232,144453,1,10,0:2:0:0:
139,27,144609,2,0,L|157:115,1,90,2|0,3:2|3:0,0:0:0:0:
116,304,144922,1,2,3:2:0:0:
291,169,145078,2,0,L|273:257,1,90,14|0,0:0|3:0,0:0:0:0:
252,349,145391,5,14,0:0:0:0:
106,131,145547,1,0,3:0:0:0:
116,304,145703,5,10,0:0:0:0:
254,62,145859,1,0,3:0:0:0:
352,309,146016,5,10,0:0:0:0:
200,135,146172,1,0,3:0:0:0:
170,374,146328,5,10,0:0:0:0:
291,169,146484,1,0,3:0:0:0:
451,370,146641,5,14,0:0:0:0:
216,222,146796,1,0,3:0:0:0:
470,116,146951,5,10,0:0:0:0:
352,309,147106,1,0,3:0:0:0:
253,62,147261,5,10,0:0:0:0:
501,210,147416,1,0,3:0:0:0:
235,301,147571,5,10,0:0:0:0:
400,54,147726,1,0,3:0:0:0:
450,312,147881,5,12,0:0:0:0:
450,312,148037,2,0,B|385:290|385:290|361:257|361:257|294:234,1,180,0|0,3:2|3:0,0:0:0:0:
165,94,148505,5,8,0:0:0:0:
165,94,148661,2,0,P|244:117|282:43,1,180,0|0,3:0|3:0,0:0:0:0:
60,120,149129,5,8,0:0:0:0:
60,120,149285,2,0,P|79:207|94:296,1,180,0|0,3:0|3:0,0:0:0:0:
41,375,149753,5,10,0:0:0:0:
94,296,149909,1,2,3:2:0:0:
94,296,150377,6,0,P|156:315|209:277,1,135.000005149842,4|0,3:2|0:0,0:0:0:0:
162,173,150845,1,2,0:0:0:0:
307,146,151002,1,2,0:0:0:0:
307,146,151158,2,0,L|294:215,1,67.5000025749208,2|0,0:0|0:0,0:0:0:0:
311,349,151470,6,0,L|376:333,1,67.5000025749208,2|0,0:0|0:0,0:0:0:0:
457,244,151783,2,0,L|391:228,1,67.5000025749208,2|0,0:0|0:0,0:0:0:0:
209,182,152095,1,2,0:0:0:0:
209,182,152252,1,2,0:0:0:0:
138,269,152408,2,0,P|93:221|101:156,1,135.000005149842,2|2,0:0|0:0,0:0:0:0:
240,29,152877,6,0,L|228:95,1,67.5000025749208,2|0,0:0|0:0,0:0:0:0:
296,240,153189,1,2,0:0:0:0:
296,240,153345,2,0,L|428:214,1,135.000005149842,2|2,0:0|0:0,0:0:0:0:
512,109,153814,2,0,L|445:122,1,67.5000025749208,0|2,0:0|0:0,0:0:0:0:
398,327,154127,6,0,B|441:294|441:294|429:214,1,135.000005149842,2|0,0:0|0:0,0:0:0:0:
359,104,154595,1,2,0:0:0:0:
288,179,154752,1,2,0:0:0:0:
232,41,154908,2,0,B|290:56|290:56|302:54|302:54|364:70,1,135.000005149842,2|2,0:0|0:0,0:0:0:0:
429,214,155377,6,0,L|362:198,1,67.5000025749208,2|0,0:3|0:0,0:0:0:0:
188,164,155689,1,2,0:0:0:0:
188,164,155845,2,0,B|202:231,1,67.5000025749208,2|0,0:0|0:0,0:0:0:0:
127,330,156158,1,2,0:0:0:0:
283,248,156314,1,2,0:0:0:0:
188,164,156470,1,2,0:0:0:0:
271,338,156627,6,0,L|341:324,1,67.5000025749208,2|0,0:3|0:0,0:0:0:0:
452,211,156939,1,2,0:0:0:0:
452,211,157095,2,0,L|385:195,1,67.5000025749208,2|2,0:0|0:3,0:0:0:0:
271,90,157408,1,0,0:0:0:0:
201,230,157564,2,0,B|187:163,1,67.5000025749208,2|2,0:0|0:0,0:0:0:0:
330,33,157877,6,0,L|308:166,1,135.000005149842,2|2,0:3|0:0,0:0:0:0:
315,353,158345,2,0,L|381:367,1,67.5000025749208,2|0,0:0|0:0,0:0:0:0:
428,265,158658,2,0,L|361:250,1,67.5000025749208,2|0,0:0|0:0,0:0:0:0:
152,342,158970,6,0,L|141:275,1,67.5000025749208,2|2,0:0|0:3,0:0:0:0:
284,166,159284,2,0,L|273:232,1,67.5000025749208,2|0,0:0|0:0,0:0:0:0:
152,342,159598,2,0,L|141:275,1,67.5000025749208,2|0,0:0|0:0,0:0:0:0:
111,107,159912,1,8,0:0:0:0:
111,107,159990,1,8,0:0:0:0:
111,107,160069,1,8,0:0:0:0:
226,37,160226,1,8,0:0:0:0:
272,232,160383,5,4,3:2:0:0:
433,182,160540,1,0,0:0:0:0:
312,86,160697,2,0,L|325:156,1,72,0|2,3:0|0:0,0:0:0:0:
359,354,161011,1,2,3:2:0:0:
446,279,161168,2,0,L|375:264,1,72,2|0,0:2|3:0,0:0:0:0:
106,334,161483,6,0,B|166:354|166:354|235:313,1,144,2|2,0:2|0:2,0:0:0:0:
199,134,161948,1,0,3:0:0:0:
63,207,162103,2,0,L|154:229,1,72,2|0,0:2|3:0,0:0:0:0:
300,267,162412,1,2,0:2:0:0:
269,117,162567,2,0,L|200:134,1,72,0|2,3:0|0:2,0:0:0:0:
390,47,162877,6,0,L|370:189,1,144,0|2,3:0|3:2,0:0:0:0:
351,368,163345,1,2,0:2:0:0:
231,288,163502,2,0,L|299:267,1,72,0|2,3:0|0:2,0:0:0:0:
178,146,163814,2,0,L|161:216,1,72,0|2,3:0|0:2,0:0:0:0:
81,362,164127,6,0,P|26:321|40:254,1,144,2|0,3:2|3:0,0:0:0:0:
178,146,164595,1,2,0:2:0:0:
56,32,164752,1,2,3:2:0:0:
56,32,164908,2,0,L|81:173,1,144,2|2,0:2|0:2,0:0:0:0:
194,231,165377,6,0,L|174:302,1,72,2|0,3:2|0:0,0:0:0:0:
290,201,165690,1,2,3:2:0:0:
214,54,165846,2,0,L|230:124,1,72,2|0,0:2|3:0,0:0:0:0:
307,299,166160,1,2,0:2:0:0:
194,231,166316,1,2,3:2:0:0:
334,98,166473,1,2,0:2:0:0:
408,209,166630,5,2,3:2:0:0:
408,209,166786,2,0,L|337:194,1,72,2|2,0:2|3:2,0:0:0:0:
214,54,167100,2,0,L|231:123,1,72,2|0,0:2|3:0,0:0:0:0:
280,324,167413,1,2,0:2:0:0:
122,245,167570,2,0,L|193:230,1,72,0|2,3:2|0:2,0:0:0:0:
49,109,167883,6,0,L|11:248,1,144,2|0,3:2|3:0,0:0:0:0:
56,353,168351,1,0,0:0:0:0:
56,353,168508,2,0,L|127:338,1,72,0|0,3:0|0:0,0:0:0:0:
225,231,168820,2,0,L|296:246,1,72,0|0,3:0|0:0,0:0:0:0:
439,329,169133,5,2,3:2:0:0:
335,155,169289,1,0,0:0:0:0:
264,337,169445,1,0,3:0:0:0:
412,232,169601,1,0,0:0:0:0:
225,122,169758,1,2,3:2:0:0:
295,245,169914,1,8,0:0:0:0:
295,245,169992,1,8,0:0:0:0:
295,245,170070,1,8,0:0:0:0:
407,38,170389,5,8,0:0:0:0:
407,38,170467,1,8,0:0:0:0:
407,38,170545,1,10,0:2:0:0:
407,38,170623,1,8,0:0:0:0:
407,38,170701,2,0,L|392:107,1,67.5000025749208,10|0,3:2|0:2,0:0:0:0:
279,179,171014,2,0,L|296:251,1,67.5000025749208,2|0,3:2|0:2,0:0:0:0:
266,362,171326,1,2,3:2:0:0:
407,271,171482,1,12,0:0:0:0:
407,271,171639,6,0,L|472:285,1,67.5000025749208,2|2,3:2|0:2,0:0:0:0:
279,179,171959,1,2,3:2:0:0:
279,179,172120,2,0,L|210:193,1,67.5000025749208,2|0,0:2|3:0,0:0:0:0:
408,100,172434,2,0,L|478:114,1,67.5000025749208,2|0,0:2|3:0,0:0:0:0:
289,7,172743,1,10,0:0:0:0:
289,7,172821,1,8,0:0:0:0:
289,7,172898,6,0,L|304:77,1,67.5000025749208,0|2,3:2|0:0,0:0:0:0:
375,178,173210,2,0,L|359:249,1,67.5000025749208,2|2,3:2|0:0,0:0:0:0:
291,346,173523,1,2,3:2:0:0:
159,267,173679,1,2,0:2:0:0:
159,267,173835,2,0,L|229:252,1,67.5000025749208,2|0,3:2|0:0,0:0:0:0:
375,179,174148,5,2,3:2:0:0:
304,74,174295,2,0,L|289:144,1,67.5000025749208,8|2,0:0|3:2,0:0:0:0:
159,267,174601,2,0,L|144:200,1,67.5000025749208,8|0,0:0|3:0,0:0:0:0:
107,33,174920,1,4,3:0:0:0:
24,134,175080,2,0,L|90:119,1,67.5000025749208,0|2,3:0|0:2,0:0:0:0:
304,74,175399,5,8,0:0:0:0:
304,74,175476,1,8,0:0:0:0:
304,74,175554,1,10,0:2:0:0:
304,74,175632,1,8,0:0:0:0:
304,74,175710,2,0,L|289:140,1,67.5000025749208,2|2,3:2|0:0,0:0:0:0:
292,311,176021,6,0,L|357:293,1,67.5000025749208,2|0,3:2|0:0,0:0:0:0:
482,198,176332,2,0,L|416:180,1,67.5000025749208,2|12,3:2|0:0,0:0:0:0:
290,140,176644,5,2,3:2:0:0:
290,140,176799,2,0,L|305:74,1,67.5000025749208,2|2,0:2|3:2,0:0:0:0:
444,48,177111,2,0,L|417:180,1,135.000005149842,2|2,0:2|0:2,0:0:0:0:
381,352,177577,1,0,3:0:0:0:
273,251,177733,1,10,0:2:0:0:
273,251,177811,1,8,0:0:0:0:
273,251,177889,5,2,3:2:0:0:
201,309,178201,1,0,3:0:0:0:
117,268,178514,1,0,3:0:0:0:
46,327,178826,1,2,3:2:0:0:
46,327,178982,1,2,0:2:0:0:
65,183,179139,5,2,3:2:0:0:
65,183,179295,2,0,L|-8:199,1,67.5000025749208,2|2,0:2|3:2,0:0:0:0:
170,127,179607,2,0,L|182:194,1,67.5000025749208,2|0,0:2|3:0,0:0:0:0:
253,15,179920,1,2,0:2:0:0:
170,127,180076,1,8,0:0:0:0:
259,4,180232,6,0,B|321:14|321:14|345:34|345:34|403:43,1,153.000002918243,4|2,3:2|0:2,0:0:0:0:
488,221,180701,2,0,L|412:210,1,76.5000014591217,2|2,3:2|0:2,0:0:0:0:
221,191,181014,1,2,3:2:0:0:
329,115,181170,1,2,0:2:0:0:
407,297,181326,2,0,L|483:308,1,76.5000014591217,2|2,3:2|0:2,0:0:0:0:
453,126,181639,5,2,3:2:0:0:
308,287,181795,2,0,L|317:211,1,76.5000014591217,2|2,0:2|3:2,0:0:0:0:
161,67,182107,2,0,L|152:142,1,76.5000014591217,2|0,0:2|3:0,0:0:0:0:
38,279,182420,1,2,0:2:0:0:
210,241,182576,1,10,3:2:0:0:
135,47,182732,6,0,L|118:199,1,153.000002918243,6|2,0:2|0:2,0:0:0:0:
196,347,183203,2,0,P|233:348|266:330,1,76.5000014591217,2|2,3:2|0:2,0:0:0:0:
391,175,183517,1,2,3:2:0:0:
210,241,183675,1,2,0:2:0:0:
379,339,183832,2,0,L|363:264,1,76.5000014591217,2|2,3:2|0:2,0:0:0:0:
279,46,184147,5,2,3:2:0:0:
210,241,184303,1,2,0:2:0:0:
279,46,184459,1,2,3:2:0:0:
391,175,184615,2,0,L|302:156,1,76.5000014591217,2|0,0:2|3:0,0:0:0:0:
110,113,184928,1,0,0:2:0:0:
210,339,185084,1,2,3:2:0:0:
27,214,185397,6,0,L|177:188,2,153.000002918243,6|0|0,3:2|3:0|3:0,0:0:0:0:
110,113,186178,1,0,0:0:0:0:
206,274,186334,1,2,3:2:0:0:
272,142,186490,1,2,0:2:0:0:
397,240,186647,6,0,L|442:230,3,38.2500007295609,0|0|0|0,3:0|3:0|3:0|3:0,0:0:0:0:
310,151,186957,2,0,L|265:141,3,38.2500007295609,0|0|0|0,3:0|3:0|3:0|3:0,0:0:0:0:
412,109,187268,1,8,3:2:0:0:
412,109,187346,1,0,3:0:0:0:
412,109,187424,2,0,L|400:145,1,38.2500007295609,0|0,3:0|3:0,0:0:0:0:
300,240,187579,1,8,3:2:0:0:
300,240,187657,1,0,3:0:0:0:
300,240,187735,2,0,L|311:276,1,38.2500007295609,2|0,3:2|3:0,0:0:0:0:
410,343,187890,5,10,0:0:0:0:
310,151,188047,1,8,0:0:0:0:
197,314,188204,1,2,3:2:0:0:
87,178,188361,2,0,L|12:195,1,76.5000014591217,10|0,0:2|3:0,0:0:0:0:
196,67,188675,1,10,0:2:0:0:
300,240,188832,1,0,3:0:0:0:
270,9,188989,5,10,0:2:0:0:
182,226,189146,1,0,3:0:0:0:
106,85,189303,5,10,0:2:0:0:
228,297,189460,1,0,3:0:0:0:
284,98,189617,5,10,0:2:0:0:
105,261,189774,1,0,3:0:0:0:
138,13,189924,5,10,0:2:0:0:
328,163,190074,1,0,3:0:0:0:
149,330,190224,1,14,0:2:0:0:
149,330,190535,5,0,3:0:0:0:
394,277,190696,1,8,0:0:0:0:
284,98,190857,1,0,3:0:0:0:
302,327,191019,5,8,0:0:0:0:
373,60,191174,1,0,3:0:0:0:
403,293,191330,5,8,0:0:0:0:
275,83,191486,1,0,3:0:0:0:
211,289,191642,5,8,0:0:0:0:
439,184,191796,1,0,3:0:0:0:
189,49,191951,5,8,0:0:0:0:
302,327,192105,2,0,L|310:282,1,45,0|0,3:0|3:0,0:0:0:0:
373,60,192260,5,8,0:0:0:0:
172,200,192415,1,0,3:0:0:0:
434,331,192569,5,8,0:0:0:0:
272,84,192724,1,4,3:2:0:0:
272,84,193035,5,0,3:0:0:0:
442,193,193192,1,8,0:0:0:0:
211,289,193349,1,0,3:0:0:0:
92,63,193506,5,8,0:0:0:0:
293,183,193663,1,0,3:0:0:0:
30,211,193820,5,8,0:0:0:0:
272,84,193977,1,0,3:0:0:0:
111,318,194133,6,0,L|99:272,3,45,8|8|0|0,3:2|3:2|3:0|3:0,0:0:0:0:
181,201,194447,2,0,L|193:155,3,45,8|4|0|0,3:0|3:0|3:0|3:0,0:0:0:0:
102,85,194761,5,12,0:0:0:0:
203,348,194918,1,8,0:0:0:0:
203,348,195231,5,2,0:0:0:0:
203,348,195382,2,0,P|279:305|365:322,1,180,6|8,3:2|0:0,0:0:0:0:
483,170,195850,1,0,3:0:0:0:
483,170,195928,1,0,3:0:0:0:
483,170,196007,2,0,L|395:188,1,90,0|0,3:0|3:0,0:0:0:0:
195,94,196319,1,10,0:0:0:0:
411,24,196475,1,2,0:0:0:0:
307,220,196632,6,0,L|280:42,1,180,0|8,3:0|0:0,0:0:0:0:
61,176,197100,1,0,3:0:0:0:
61,176,197178,1,0,3:0:0:0:
61,176,197257,2,0,L|150:164,1,90,0|0,3:0|3:0,0:0:0:0:
349,306,197569,2,0,P|312:331|267:329,1,90,8|8,0:0|0:3,0:0:0:0:
195,94,197882,6,0,L|168:272,1,180,2|8,3:2|0:0,0:0:0:0:
55,349,198350,1,0,3:0:0:0:
55,349,198428,1,0,3:0:0:0:
55,349,198507,2,0,L|38:260,1,90,0|0,3:0|3:0,0:0:0:0:
3,63,198819,1,10,0:0:0:0:
144,168,198975,1,2,0:0:0:0:
330,10,199132,6,0,B|266:21|266:21|237:51|237:51|164:63,1,180,0|8,3:0|0:0,0:0:0:0:
24,181,199600,1,2,0:0:0:0:
168,79,199757,1,2,3:2:0:0:
278,223,199913,2,0,L|366:204,1,90,2|8,3:2|0:0,0:0:0:0:
512,62,200225,1,2,3:2:0:0:
512,62,200303,1,0,3:0:0:0:
512,62,200382,6,0,P|451:87|396:53,1,135,6|0,3:2|0:0,0:0:0:0:
307,6,200694,2,0,B|282:43|282:43|300:84,1,90,8|2,0:0|0:0,0:0:0:0:
444,331,201007,1,2,3:2:0:0:
491,194,201163,1,2,3:2:0:0:
305,310,201319,1,10,0:2:0:0:
205,120,201475,1,2,3:2:0:0:
205,120,201553,1,0,3:0:0:0:
205,120,201632,6,0,P|166:142|121:143,1,90,2|0,3:2|3:0,0:0:0:0:
81,30,201944,1,10,0:2:0:0:
257,212,202100,2,0,L|345:195,1,90,2|0,0:2|3:0,0:0:0:0:
350,96,202413,1,0,3:0:0:0:
176,285,202569,2,0,L|88:268,1,90,8|8,0:0|0:3,0:0:0:0:
81,30,202882,6,0,B|136:24|163:57|163:57|192:91|245:85,1,180,2|10,3:2|0:2,0:0:0:0:
482,43,203350,2,0,P|444:19|399:18,1,90,2|0,0:2|3:0,0:0:0:0:
267,250,203663,2,0,P|311:248|349:225,1,90,2|8,3:2|0:0,0:0:0:0:
400,17,203975,1,2,3:2:0:0:
400,17,204053,1,0,3:0:0:0:
400,17,204132,5,2,3:2:0:0:
216,168,204288,1,0,3:0:0:0:
405,307,204444,1,10,0:2:0:0:
222,53,204600,1,0,3:0:0:0:
222,53,204678,1,8,0:0:0:0:
222,53,204757,5,2,3:2:0:0:
458,165,204913,1,0,3:0:0:0:
258,339,205069,2,0,L|266:249,1,90,14|0,0:2|0:2,0:0:0:0:
79,23,205382,6,0,L|62:203,1,180,6|8,3:2|0:0,0:0:0:0:
17,346,205850,1,0,3:0:0:0:
17,346,205928,1,0,3:0:0:0:
17,346,206007,2,0,P|61:348|101:328,1,90,0|0,3:0|3:0,0:0:0:0:
309,207,206319,1,10,0:0:0:0:
158,134,206475,1,2,0:0:0:0:
233,358,206632,6,0,B|300:345|300:345|327:310|327:310|393:296,1,180,0|8,3:0|0:0,0:0:0:0:
502,108,207100,1,0,3:0:0:0:
502,108,207178,1,0,3:0:0:0:
502,108,207257,2,0,P|465:83|420:84,1,90,0|0,3:0|3:0,0:0:0:0:
274,217,207569,1,8,0:0:0:0:
440,173,207725,1,8,0:3:0:0:
208,55,207882,6,0,L|179:232,1,180,2|8,3:2|0:0,0:0:0:0:
54,324,208350,1,0,3:0:0:0:
54,324,208428,1,0,3:0:0:0:
54,324,208507,2,0,P|33:286|40:243,1,90,0|0,3:0|3:0,0:0:0:0:
191,68,208819,2,0,L|176:156,1,90,10|2,0:0|0:0,0:0:0:0:
238,346,209132,5,0,3:0:0:0:
328,178,209288,1,0,3:0:0:0:
424,321,209444,2,0,L|336:299,1,90,8|0,0:0|0:0,0:0:0:0:
163,153,209757,5,0,3:0:0:0:
219,339,209913,1,0,3:0:0:0:
28,249,210069,2,0,L|115:227,1,90,8|10,0:0|0:0,0:0:0:0:
214,244,210303,1,8,0:0:0:0:
214,244,210382,6,0,L|199:332,1,90,6|0,3:2|0:0,0:0:0:0:
237,110,210694,1,10,0:0:0:0:
341,250,210850,2,0,L|430:236,1,90,2|0,0:0|3:0,0:0:0:0:
372,43,211163,1,0,3:2:0:0:
228,142,211319,2,0,L|138:128,1,90,10|2,0:0|0:0,0:0:0:0:
3,289,211632,6,0,P|66:344|146:307,1,180,0|10,3:2|0:0,0:0:0:0:
228,142,212100,2,0,L|242:230,1,90,2|0,0:0|3:0,0:0:0:0:
263,364,212413,1,2,3:2:0:0:
409,78,212569,2,0,L|393:166,1,90,8|8,0:0|0:3,0:0:0:0:
371,295,212882,5,6,3:2:0:0:
228,142,213038,1,0,0:0:0:0:
409,78,213194,1,10,0:2:0:0:
265,251,213350,2,0,L|177:232,1,90,2|0,0:0|3:0,0:0:0:0:
96,125,213663,1,2,3:2:0:0:
29,339,213819,2,0,P|72:344|112:324,1,90,8|2,0:0|3:2,0:0:0:0:
228,142,214132,5,14,0:0:0:0:
400,308,214288,1,0,3:0:0:0:
400,308,214366,1,0,3:0:0:0:
400,308,214444,1,2,3:2:0:0:
156,193,214600,5,8,0:0:0:0:
444,229,214757,1,2,3:2:0:0:
444,229,214835,1,0,3:0:0:0:
444,229,214913,1,0,3:0:0:0:
345,59,215069,5,10,0:2:0:0:
212,354,215225,1,2,3:2:0:0:
212,354,215303,1,0,3:0:0:0:
212,354,215382,6,0,L|199:264,1,90,6|2,3:2|0:2,0:0:0:0:
174,51,215694,1,14,0:0:0:0:
76,277,215850,1,2,0:2:0:0:
53,65,216007,1,2,3:2:0:0:
245,150,216163,1,2,3:2:0:0:
4,176,216319,1,10,0:2:0:0:
199,264,216475,1,2,0:2:0:0:
53,65,216632,5,2,3:2:0:0:
245,150,216788,1,2,3:2:0:0:
76,277,216944,1,10,0:2:0:0:
233,61,217100,2,0,L|245:150,1,90,2|0,0:2|3:0,0:0:0:0:
400,300,217413,1,2,3:2:0:0:
400,300,217569,2,0,L|412:210,1,90,12|2,0:0|0:2,0:0:0:0:
430,91,217882,5,6,3:2:0:0:
282,252,218038,1,2,0:2:0:0:
249,29,218194,1,10,0:2:0:0:
412,211,218350,1,2,0:2:0:0:
186,244,218507,1,2,3:2:0:0:
323,78,218663,1,2,3:2:0:0:
296,340,218819,1,10,0:2:0:0:
128,160,218975,1,2,0:2:0:0:
59,332,219132,5,2,3:2:0:0:
282,252,219288,1,2,3:2:0:0:
59,332,219444,1,10,0:2:0:0:
128,160,219600,2,0,L|144:248,1,90,10|2,0:2|0:2,0:0:0:0:
245,46,219913,1,2,3:2:0:0:
347,172,220069,2,0,L|258:153,1,90,12|0,0:0|3:0,0:0:0:0:
57,112,220382,5,14,0:2:0:0:
107,302,220538,1,0,3:2:0:0:
235,58,220694,5,10,0:0:0:0:
211,251,220850,1,0,3:0:0:0:
47,108,221007,5,10,0:2:0:0:
101,317,221163,1,0,3:0:0:0:
245,46,221319,5,10,0:0:0:0:
219,260,221475,1,0,3:0:0:0:
135,57,221632,5,14,0:2:0:0:
365,160,221788,1,0,3:0:0:0:
137,245,221944,5,10,0:0:0:0:
255,34,222100,2,0,L|264:84,1,45,0|0,3:0|3:0,0:0:0:0:
376,276,222257,5,10,0:2:0:0:
134,150,222413,1,0,3:0:0:0:
390,36,222569,5,10,0:0:0:0:
251,285,222725,1,0,3:0:0:0:
86,74,222882,5,14,0:2:0:0:
86,74,223038,2,0,B|152:88|152:88|179:123|179:123|246:136,1,180,0|0,3:0|3:0,0:0:0:0:
507,150,223507,5,8,0:0:0:0:
507,150,223663,2,0,B|476:201|466:261|466:261|452:233|427:214,1,180,0|0,3:0|3:0,0:0:0:0:
167,247,224132,5,8,0:0:0:0:
167,247,224288,2,0,P|208:319|290:300,1,180,0|0,3:0|3:0,0:0:0:0:
330,200,224757,5,2,0:0:0:0:
330,200,224913,1,2,0:0:0:0:
330,200,225382,6,0,L|405:185,1,76.5000014591217,6|2,3:2|0:0,0:0:0:0:
211,153,225694,2,0,P|196:187|205:224,1,76.5000014591217,10|2,0:0|0:0,0:0:0:0:
251,345,226007,1,2,3:2:0:0:
251,345,226163,1,0,3:0:0:0:
403,273,226319,2,0,L|327:287,1,76.5000014591217,10|2,0:0|0:2,0:0:0:0:
83,292,226632,5,2,3:2:0:0:
251,345,226788,1,2,3:2:0:0:
83,292,226944,1,10,0:2:0:0:
160,350,227100,2,0,L|171:274,1,76.5000014591217,2|0,3:2|0:0,0:0:0:0:
189,134,227413,1,2,3:2:0:0:
104,21,227569,2,0,P|89:55|101:91,1,76.5000014591217,8|8,0:0|3:0,0:0:0:0:
189,134,227803,1,4,3:0:0:0:
189,134,227882,6,0,L|263:118,1,76.5000014591217,2|2,3:2|0:0,0:0:0:0:
419,54,228194,2,0,L|344:38,1,76.5000014591217,10|0,0:2|0:0,0:0:0:0:
244,22,228507,1,2,3:2:0:0:
244,22,228663,1,2,3:2:0:0:
342,168,228819,1,10,0:2:0:0:
202,211,228975,1,0,0:0:0:0:
306,343,229132,6,0,L|293:263,1,76.5000014591217,2|2,3:2|3:2,0:0:0:0:
263,117,229444,1,10,0:2:0:0:
134,290,229600,1,2,3:2:0:0:
134,290,229678,1,0,3:0:0:0:
134,290,229757,1,0,3:2:0:0:
42,147,229913,1,8,3:0:0:0:
202,211,230069,1,4,3:0:0:0:
74,358,230225,1,8,0:0:0:0:
74,358,230303,1,8,0:0:0:0:
74,358,230382,6,0,L|89:282,1,76.5000014591217,6|2,3:2|0:0,0:0:0:0:
176,42,230694,2,0,L|184:79,1,38.2500007295609,10|8,0:2|0:0,0:0:0:0:
242,205,230850,2,0,L|250:167,1,38.2500007295609,2|0,3:2|3:0,0:0:0:0:
338,107,231007,1,2,3:2:0:0:
351,277,231163,1,2,3:2:0:0:
443,206,231319,2,0,L|367:192,1,76.5000014591217,10|2,0:2|0:0,0:0:0:0:
170,272,231632,5,2,3:2:0:0:
351,277,231788,1,2,3:2:0:0:
249,167,231944,2,0,L|259:242,1,76.5000014591217,10|2,0:2|0:2,0:0:0:0:
166,361,232257,1,0,3:0:0:0:
142,181,232413,1,2,3:2:0:0:
166,361,232569,1,10,0:2:0:0:
4,277,232725,1,2,3:2:0:0:
4,277,232803,1,8,0:0:0:0:
3,276,232882,6,0,P|41:279|76:263,1,76.5000014591217,2|0,3:2|0:0,0:0:0:0:
174,150,233194,2,0,L|248:166,1,76.5000014591217,10|2,0:2|0:2,0:0:0:0:
441,247,233507,1,0,3:0:0:0:
441,247,233663,1,2,3:2:0:0:
235,285,233819,1,10,0:2:0:0:
382,153,233975,1,2,0:2:0:0:
347,340,234132,6,0,L|335:264,1,76.5000014591217,2|2,3:0|0:2,0:0:0:0:
236,90,234444,2,0,L|248:165,1,76.5000014591217,14|2,0:0|0:2,0:0:0:0:
71,292,234757,1,2,3:3:0:0:
162,210,234913,1,2,0:2:0:0:
58,94,235069,6,0,L|8:107,2,51.0000009727478,8|8|8,0:0|0:0|0:0,0:0:0:0:
129,15,235382,6,0,P|169:66|157:130,1,135.000005149842,6|0,3:2|0:0,0:0:0:0:
83,204,235850,1,2,3:2:0:0:
158,335,236007,2,0,L|290:309,1,135.000005149842,8|2,0:2|0:3,0:0:0:0:
401,349,236475,1,0,0:0:0:0:
504,223,236632,5,2,3:2:0:0:
504,223,236788,2,0,L|490:289,1,67.5000025749208,2|0,3:2|0:0,0:0:0:0:
401,349,237100,2,0,L|384:283,1,67.5000025749208,2|8,3:2|0:0,0:0:0:0:
318,51,237413,1,2,3:2:0:0:
261,153,237569,1,2,0:2:0:0:
364,210,237725,1,2,3:2:0:0:
419,108,237882,6,0,B|361:119|361:119|347:137|347:137|294:147,1,135.000005149842,2|2,3:2|0:3,0:0:0:0:
168,166,238350,1,2,3:2:0:0:
80,57,238507,2,0,B|38:94|38:94|63:168,1,135.000005149842,8|2,0:0|3:2,0:0:0:0:
116,245,238975,1,0,3:0:0:0:
44,353,239132,5,10,0:0:0:0:
44,353,239288,2,0,L|109:338,1,67.5000025749208,8|0,3:0|0:3,0:0:0:0:
276,264,239600,2,0,L|263:330,1,67.5000025749208,8|0,3:0|0:3,0:0:0:0:
213,189,239913,5,4,3:0:0:0:
350,353,240069,1,10,0:0:0:0:
350,353,240382,6,0,B|420:375|420:375|517:320,2,170.999995433807,6|10|0,3:2|0:0|3:0,0:0:0:0:
276,264,241163,1,0,3:0:0:0:
430,181,241319,2,0,L|413:264,1,85.4999977169037,10|0,0:0|0:0,0:0:0:0:
368,62,241632,5,2,0:3:0:0:
255,147,241788,2,0,L|171:127,1,85.4999977169037,2|8,3:2|0:0,0:0:0:0:
44,256,242100,2,0,P|86:260|123:240,1,85.4999977169037,2|0,3:2|0:0,0:0:0:0:
80,52,242413,1,0,3:2:0:0:
80,52,242569,2,0,P|53:84|51:126,1,85.4999977169037,10|0,0:0|0:0,0:0:0:0:
225,255,242882,5,10,0:0:0:0:
278,38,243042,1,0,0:0:0:0:
392,110,243197,1,0,3:0:0:0:
171,127,243351,5,8,0:0:0:0:
360,243,243506,1,2,0:0:0:0:
278,38,243661,1,0,3:0:0:0:
225,255,243815,5,12,0:0:0:0:
436,194,243970,1,0,0:0:0:0:
213,342,244125,5,2,3:2:0:0:
285,154,244279,1,8,0:0:0:0:
439,282,244434,1,12,0:0:0:0:
171,127,244589,5,0,3:0:0:0:
171,127,244666,1,0,3:0:0:0:
171,127,244743,1,10,0:0:0:0:
299,303,244902,1,8,0:0:0:0:
392,110,245062,5,8,3:0:0:0:
225,255,245221,1,4,3:0:0:0:
425,370,245381,1,6,3:2:0:0:
256,192,245455,12,0,247860,0:0:0:0:
321,258,259748,6,0,P|296:346|383:376,1,202.500007724762,6|0,3:2|0:0,0:0:0:0:
462,323,260380,6,0,L|446:248,1,76.5000014591217,4|0,3:2|0:0,0:0:0:0:
390,111,260694,2,0,L|464:94,1,76.5000014591217,2|0,3:2|0:0,0:0:0:0:
446,248,261008,2,0,B|391:237|391:237|366:205|366:205|310:195,1,153.000002918243,2|2,3:2|3:2,0:0:0:0:
181,172,261479,1,2,0:0:0:0:
208,334,261636,6,0,P|237:300|239:258,1,76.5000014591217,0|0,3:2|0:0,0:0:0:0:
196,97,261946,2,0,L|179:180,1,76.5000014591217,2|2,3:2|0:0,0:0:0:0:
74,232,262256,2,0,P|31:172|66:108,1,153.000002918243,0|2,3:2|3:2,0:0:0:0:
196,97,262721,1,2,0:0:0:0:
301,185,262876,6,0,P|338:187|371:168,1,76.5000014591217,2|0,3:2|0:0,0:0:0:0:
335,6,263188,1,2,3:2:0:0:
335,6,263344,2,0,P|314:37|313:75,1,76.5000014591217,2|0,0:0|3:0,0:0:0:0:
473,126,263657,1,0,0:0:0:0:
473,126,263813,2,0,P|455:92|423:72,1,76.5000014591217,2|2,3:2|0:0,0:0:0:0:
313,75,264126,6,0,L|336:226,1,153.000002918243,2|0,3:2|3:0,0:0:0:0:
270,317,264597,1,0,0:0:0:0:
155,238,264754,2,0,P|186:217|224:215,1,76.5000014591217,0|0,3:0|0:0,0:0:0:0:
339,339,265068,2,0,P|301:337|269:316,1,76.5000014591217,2|2,3:2|0:0,0:0:0:0:
155,238,265382,6,0,L|178:86,1,153.000002918243,2|2,3:2|3:2,0:0:0:0:
111,6,265850,1,2,0:0:0:0:
8,121,266007,2,0,L|83:107,1,76.5000014591217,0|0,3:0|0:0,0:0:0:0:
224,3,266319,2,0,L|299:16,1,76.5000014591217,2|2,3:2|0:2,0:0:0:0:
452,89,266632,6,0,P|398:138|331:110,1,153.000002918243,2|2,3:2|3:2,0:0:0:0:
299,16,267100,1,2,0:2:0:0:
177,86,267257,2,0,L|101:74,1,76.5000014591217,0|0,3:0|0:0,0:0:0:0:
208,216,267569,2,0,L|284:204,1,76.5000014591217,2|2,3:2|0:2,0:0:0:0:
88,178,267882,6,0,P|64:247|112:302,1,153.000002918243,2|2,3:2|3:2,0:0:0:0:
208,216,268350,1,2,0:2:0:0:
317,298,268507,2,0,L|306:373,1,76.5000014591217,0|0,3:0|0:0,0:0:0:0:
464,216,268819,2,0,L|388:199,1,76.5000014591217,2|2,3:2|0:2,0:0:0:0:
283,92,269132,6,0,L|445:62,2,153.000002918243,2|0|0,3:2|3:0|3:0,0:0:0:0:
115,121,269913,1,0,0:0:0:0:
221,18,270069,1,0,3:0:0:0:
221,18,270225,1,2,0:3:0:0:
301,184,270382,5,2,0:0:0:0:
103,308,271632,5,2,0:0:0:0:
103,308,272882,5,2,0:0:0:0:
103,308,274132,5,2,0:0:0:0:
103,308,275355,6,0,B|101:171|16:90|16:90|63:134|152:142,1,377.999988464356,2|0,0:0|0:0,0:0:0:0:
168,51,276632,6,0,P|246:116|207:209,1,215.999993408203,2|2,0:0|0:0,0:0:0:0:
207,209,277882,1,2,0:0:0:0:
261,331,278507,1,2,0:0:0:0:
207,209,279132,1,2,0:0:0:0:
207,209,280382,6,0,B|248:228|288:230|288:230|311:272|311:272|353:274|391:292,1,215.999993408203,2|2,0:0|0:0,0:0:0:0:
391,292,281632,6,0,B|455:292|475:238|475:238|437:136,1,215.999993408203,2|2,0:0|0:0,0:0:0:0:
437,136,282882,6,0,P|350:149|306:72,1,188.999994232178,2|0,0:0|0:0,0:0:0:0:
312,51,283507,6,0,B|426:41|426:41|432:73|443:121,1,188.999994232178,2|0,0:0|0:0,0:0:0:0:
437,136,284132,6,0,B|386:151|333:120|333:120|282:90|229:116,1,215.999993408203,2|2,0:0|0:0,0:0:0:0:
230,115,285382,5,2,3:2:0:0:
230,115,285538,2,0,B|206:275,1,161.999995056153,0|0,3:0|0:0,0:0:0:0:
206,275,286632,6,0,B|159:235|85:249|56:305|56:305|71:285|93:279,1,215.999993408203,2|0,0:0|0:0,0:0:0:0:
87,280,287882,6,0,B|76:191|76:191|90:156|90:156|76:68,1,215.999993408203,2|0,0:0|0:0,0:0:0:0:
76,68,289132,5,2,0:0:0:0:
210,0,289757,1,2,0:0:0:0:
361,51,290382,1,2,0:0:0:0:
216,121,291632,5,2,0:0:0:0:
256,192,292857,5,2,0:0:0:0:
256,192,292935,12,0,295064,0:0:0:0:
132,106,295222,5,0,0:0:0:0:
132,106,295379,2,0,P|210:140|281:91,1,180,6|8,3:2|0:0,0:0:0:0:
458,36,295847,1,0,3:0:0:0:
458,36,295925,1,0,3:0:0:0:
458,36,296004,2,0,B|490:69|490:69|469:127,1,90,0|0,3:0|3:0,0:0:0:0:
246,172,296316,1,10,0:2:0:0:
480,242,296472,1,2,0:2:0:0:
387,97,296629,6,0,L|359:274,1,180,0|8,3:0|0:0,0:0:0:0:
205,362,297097,1,0,3:0:0:0:
205,362,297175,1,0,3:0:0:0:
205,362,297254,2,0,B|197:326|197:326|200:310|200:310|190:274,1,90,0|0,3:0|3:0,0:0:0:0:
137,39,297566,1,8,0:0:0:0:
44,255,297722,1,4,0:3:0:0:
252,199,297879,6,0,L|74:166,1,180,6|8,3:2|0:0,0:0:0:0:
242,27,298347,1,0,3:0:0:0:
242,27,298425,1,0,3:0:0:0:
242,27,298504,2,0,P|268:63|271:107,1,90,0|0,3:0|3:0,0:0:0:0:
162,197,298816,1,10,0:2:0:0:
57,86,298972,1,2,0:2:0:0:
22,324,299129,6,0,B|91:311|91:311|117:285|117:285|189:274,1,180,0|8,3:0|0:0,0:0:0:0:
444,251,299597,1,2,0:2:0:0:
252,199,299754,1,2,3:2:0:0:
444,251,299910,2,0,L|426:339,1,90,2|8,3:2|0:0,0:0:0:0:
315,112,300222,1,2,3:2:0:0:
315,112,300300,1,0,3:0:0:0:
315,112,300379,6,0,P|374:139|425:99,1,135,6|0,3:2|0:0,0:0:0:0:
400,7,300693,2,0,L|311:21,1,90,8|2,0:0|0:2,0:0:0:0:
38,200,301007,1,2,3:2:0:0:
225,110,301164,1,2,3:2:0:0:
61,62,301321,1,8,0:0:0:0:
197,281,301478,1,2,3:2:0:0:
197,281,301557,1,0,3:0:0:0:
197,281,301635,6,0,L|182:192,1,90,2|0,3:2|3:0,0:0:0:0:
311,20,301949,1,10,0:2:0:0:
432,165,302106,2,0,L|342:144,1,90,2|0,0:2|3:0,0:0:0:0:
87,185,302420,1,0,3:0:0:0:
210,21,302577,2,0,L|225:110,1,90,8|8,0:0|0:3,0:0:0:0:
304,344,302892,6,0,P|390:320|478:298,1,180,2|10,3:2|0:2,0:0:0:0:
345,145,303363,2,0,L|333:241,1,90,2|0,0:2|3:0,0:0:0:0:
177,359,303677,2,0,L|165:263,1,90,2|10,3:2|0:2,0:0:0:0:
145,109,303991,1,2,3:2:0:0:
145,109,304070,1,0,3:0:0:0:
145,109,304148,5,2,3:2:0:0:
4,293,304301,1,0,3:0:0:0:
242,190,304455,1,10,0:2:0:0:
46,53,304608,1,0,3:0:0:0:
46,53,304685,1,8,0:0:0:0:
46,53,304762,5,2,3:2:0:0:
304,140,304916,1,0,3:0:0:0:
123,326,305069,2,0,L|137:191,1,135,14|0,0:2|0:0,0:0:0:0:
145,109,305377,5,6,3:2:0:0:
262,273,305534,1,0,0:0:0:0:
410,145,305691,1,8,0:0:0:0:
455,318,305849,1,0,3:0:0:0:
455,318,305928,1,0,3:0:0:0:
455,318,306006,2,0,L|366:299,1,90,0|0,3:0|3:0,0:0:0:0:
214,160,306321,1,10,0:0:0:0:
397,109,306479,1,2,0:0:0:0:
127,21,306636,6,0,L|95:198,1,180,0|8,3:0|0:0,0:0:0:0:
216,353,307103,1,0,3:0:0:0:
216,353,307181,1,0,3:0:0:0:
216,353,307259,2,0,L|233:264,1,90,0|0,3:0|3:0,0:0:0:0:
270,70,307571,1,8,0:0:0:0:
369,271,307726,1,8,0:3:0:0:
472,107,307882,6,0,B|405:117|405:117|378:149|378:149|308:162,1,180,2|8,3:2|0:0,0:0:0:0:
52,280,308350,1,0,3:0:0:0:
52,280,308428,1,0,3:0:0:0:
52,280,308506,2,0,P|85:307|129:300,1,90,0|0,3:0|3:0,0:0:0:0:
164,59,308817,2,0,L|150:147,1,90,10|2,0:2|0:2,0:0:0:0:
279,359,309129,5,0,3:0:0:0:
309,162,309286,1,0,3:0:0:0:
461,285,309443,2,0,L|372:267,1,90,8|0,0:0|0:0,0:0:0:0:
110,221,309757,1,0,3:0:0:0:
309,162,309914,1,0,3:0:0:0:
164,59,310071,2,0,L|177:149,1,90,8|10,0:0|0:2,0:0:0:0:
229,226,310307,1,8,0:0:0:0:
229,226,310385,6,0,L|218:315,1,90,6|0,3:2|0:0,0:0:0:0:
164,59,310699,1,10,0:2:0:0:
21,238,310856,2,0,L|109:221,1,90,2|0,0:2|3:0,0:0:0:0:
290,45,311170,1,0,3:2:0:0:
396,179,311327,2,0,P|352:184|312:165,1,90,10|2,0:2|0:2,0:0:0:0:
79,43,311642,6,0,L|108:221,1,180,0|10,3:0|0:2,0:0:0:0:
52,370,312109,2,0,L|140:355,1,90,2|0,0:2|3:0,0:0:0:0:
211,190,312421,1,0,3:0:0:0:
383,308,312577,2,0,L|294:293,1,90,8|8,0:0|0:3,0:0:0:0:
196,83,312888,5,6,3:2:0:0:
390,170,313044,1,0,0:0:0:0:
168,274,313200,1,10,0:2:0:0:
326,37,313356,2,0,L|314:126,1,90,2|0,0:2|3:0,0:0:0:0:
294,293,313667,1,2,3:2:0:0:
79,150,313823,2,0,L|185:132,1,90,8|2,0:0|3:2,0:0:0:0:
413,43,314135,5,14,0:2:0:0:
294,293,314291,1,0,3:0:0:0:
294,293,314369,1,0,3:0:0:0:
294,293,314447,1,2,3:2:0:0:
235,84,314603,5,8,0:0:0:0:
381,344,314758,1,2,3:2:0:0:
381,344,314836,1,0,3:0:0:0:
381,344,314914,1,0,3:0:0:0:
149,216,315070,5,10,0:2:0:0:
437,135,315226,1,2,3:2:0:0:
437,135,315304,1,0,3:0:0:0:
437,135,315382,6,0,L|424:224,1,90,6|2,3:2|0:2,0:0:0:0:
258,373,315694,1,14,0:2:0:0:
210,154,315850,1,2,0:2:0:0:
423,224,316007,1,2,3:2:0:0:
171,278,316163,1,2,3:2:0:0:
337,126,316319,1,10,0:2:0:0:
386,348,316475,1,2,0:2:0:0:
193,172,316632,5,2,3:2:0:0:
426,246,316788,1,2,3:2:0:0:
239,378,316944,1,10,0:2:0:0:
337,126,317100,2,0,L|324:215,1,90,2|0,0:2|3:0,0:0:0:0:
154,328,317413,1,2,3:2:0:0:
154,328,317569,2,0,L|141:238,1,90,12|2,0:0|0:2,0:0:0:0:
57,42,317882,5,6,3:2:0:0:
226,168,318038,1,2,0:2:0:0:
13,240,318194,1,10,0:2:0:0:
170,67,318350,1,2,0:2:0:0:
279,276,318507,1,2,3:2:0:0:
170,67,318663,1,2,3:2:0:0:
185,305,318819,1,10,0:2:0:0:
261,42,318975,1,2,0:2:0:0:
434,230,319132,5,2,3:2:0:0:
183,159,319288,1,2,3:2:0:0:
434,230,319444,1,10,0:2:0:0:
287,365,319600,2,0,L|280:273,1,90,2|8,3:2|0:0,0:0:0:0:
261,42,319913,1,2,3:2:0:0:
100,142,320069,2,0,P|137:164|181:159,1,90,12|0,0:2|3:0,0:0:0:0:
381,19,320382,5,14,0:2:0:0:
450,246,320538,1,0,3:0:0:0:
294,60,320694,5,10,0:2:0:0:
332,313,320850,1,0,3:0:0:0:
196,71,321007,5,10,0:2:0:0:
179,345,321163,1,0,3:0:0:0:
114,54,321319,5,10,0:2:0:0:
36,333,321475,1,0,3:0:0:0:
23,82,321632,5,14,0:2:0:0:
287,172,321788,1,0,3:0:0:0:
36,333,321944,5,10,0:2:0:0:
168,73,322100,1,0,3:0:0:0:
286,323,322257,5,10,0:2:0:0:
31,231,322413,1,0,3:0:0:0:
262,90,322569,5,10,0:2:0:0:
136,345,322725,1,0,3:0:0:0:
23,82,322882,5,14,0:2:0:0:
23,82,323038,2,0,B|91:98|91:98|116:134|116:134|180:147,1,180,0|0,3:0|3:0,0:0:0:0:
421,301,323507,5,8,0:0:0:0:
421,301,323663,2,0,B|464:245|434:179|434:179|406:183|387:200,1,180,0|0,3:0|3:0,0:0:0:0:
202,335,324132,5,8,0:0:0:0:
202,335,324288,2,0,B|150:311|71:308|71:308|105:277,1,180,0|0,3:0|3:0,0:0:0:0:
278,97,324757,5,8,0:0:0:0:
278,97,324913,2,0,L|298:275,1,180,0|0,3:0|3:0,0:0:0:0:
200,334,325382,5,14,0:0:0:0:
388,198,325538,1,2,3:2:0:0:
388,198,325850,1,0,3:0:0:0:
454,278,326007,2,0,B|505:246|505:246|470:108,1,188.999994232178,12|0,0:0|3:0,0:0:0:0:
277,69,326632,5,14,0:0:0:0:
398,29,326788,2,0,L|387:91,1,62.9999980773926,10|0,0:0|0:0,0:0:0:0:
289,158,327100,2,0,L|299:220,1,62.9999980773926,2|0,3:2|0:0,0:0:0:0:
320,359,327413,1,10,0:0:0:0:
388,198,327569,1,10,0:0:0:0:
190,246,327725,6,0,L|375:282,1,188.999994232178,14|0,0:0|0:0,0:0:0:0:
