osu file format v14

[General]
AudioFilename: audio.mp3
AudioLeadIn: 0
PreviewTime: 62082
Countdown: 0
SampleSet: None
StackLeniency: 0.7
Mode: 3
LetterboxInBreaks: 0
SpecialStyle: 0
WidescreenStoryboard: 1

[Editor]
DistanceSpacing: 0.8
BeatDivisor: 8
GridSize: 16
TimelineZoom: 1.4

[Metadata]
Title:Sharkbait
TitleUnicode:Sharkbait
Artist:ryhki
ArtistUnicode:ryhki
Creator:Curiossity
Version:MAXIMUM
Source:SOUND VOLTEX VIVID WAVE
Tags:this song goes hard psystyle banger feel the energy
BeatmapID:2075808
BeatmapSetID:956189

[Difficulty]
HPDrainRate:8.7
CircleSize:4
OverallDifficulty:8.7
ApproachRate:5
SliderMultiplier:1.4
SliderTickRate:1

[Events]
//Background and Video events
0,0,"sharkbait.jpg",0,0
//Break Periods
//Storyboard Layer 0 (Background)
//Storyboard Layer 1 (Fail)
//Storyboard Layer 2 (Pass)
//Storyboard Layer 3 (Foreground)
//Storyboard Sound Samples

[TimingPoints]
535.423087338891,387.096774193548,4,2,0,50,1,0
28793,-100,4,2,0,50,0,1
36148,387.096774193548,5,2,0,50,1,1
38083,387.096774193548,4,2,0,50,1,1
39631,-100,4,2,0,50,0,0
75244,-100,4,2,0,50,0,1
86082,-100,4,2,0,50,0,0
90728,-100,4,2,0,50,0,1
100018,-100,4,2,0,50,0,0
106212,-100,4,2,0,50,0,1
112405,-100,4,2,0,50,0,0

[HitObjects]
64,192,535,5,0,0:0:0:0:
320,192,535,1,0,0:0:0:0:
448,192,535,1,0,0:0:0:0:
192,192,535,1,0,0:0:0:0:
320,192,922,1,0,0:0:0:0:
448,192,922,1,0,0:0:0:0:
64,192,922,1,0,0:0:0:0:
320,192,1309,1,0,0:0:0:0:
448,192,1309,1,0,0:0:0:0:
64,192,1309,1,0,0:0:0:0:
320,192,1696,1,0,0:0:0:0:
448,192,1696,1,0,0:0:0:0:
64,192,1696,1,0,0:0:0:0:
192,192,1890,1,0,0:0:0:0:
320,192,1890,1,0,0:0:0:0:
192,192,2083,1,0,0:0:0:0:
64,192,2083,1,0,0:0:0:0:
448,192,2083,1,0,0:0:0:0:
448,192,2470,1,0,0:0:0:0:
192,192,2470,1,0,0:0:0:0:
64,192,2470,1,0,0:0:0:0:
64,192,2858,1,0,0:0:0:0:
192,192,2858,1,0,0:0:0:0:
448,192,2858,1,0,0:0:0:0:
64,192,3148,1,0,0:0:0:0:
192,192,3148,1,0,0:0:0:0:
64,192,3245,1,0,0:0:0:0:
192,192,3245,1,0,0:0:0:0:
448,192,3245,1,0,0:0:0:0:
448,192,3438,1,0,0:0:0:0:
320,192,3438,1,0,0:0:0:0:
320,192,3535,1,0,0:0:0:0:
448,192,3535,1,0,0:0:0:0:
64,192,3632,1,0,0:0:0:0:
192,192,3632,128,0,4019:0:0:0:0:
64,192,4019,1,0,0:0:0:0:
448,192,4019,1,0,0:0:0:0:
320,192,4019,128,0,4406:0:0:0:0:
448,192,4406,1,0,0:0:0:0:
192,192,4406,1,0,0:0:0:0:
64,192,4406,128,0,4793:0:0:0:0:
192,192,4793,1,0,0:0:0:0:
320,192,4793,1,0,0:0:0:0:
448,192,4793,128,0,5180:0:0:0:0:
192,192,4987,1,0,0:0:0:0:
64,192,4987,1,0,0:0:0:0:
64,192,5180,1,0,0:0:0:0:
192,192,5180,1,0,0:0:0:0:
320,192,5180,128,0,5277:0:0:0:0:
320,192,5374,128,0,5470:0:0:0:0:
192,192,5567,1,0,0:0:0:0:
64,192,5567,1,0,0:0:0:0:
448,192,5567,1,0,0:0:0:0:
64,192,5761,1,0,0:0:0:0:
320,192,5761,1,0,0:0:0:0:
320,192,5954,1,0,0:0:0:0:
448,192,5954,1,0,0:0:0:0:
192,192,5954,128,0,6051:0:0:0:0:
192,192,6148,128,0,6245:0:0:0:0:
448,192,6341,128,0,6728:0:0:0:0:
64,192,6341,1,0,0:0:0:0:
64,192,6728,1,0,0:0:0:0:
192,192,6728,1,0,0:0:0:0:
320,192,6728,1,0,0:0:0:0:
448,192,6825,1,0,0:0:0:0:
320,192,6922,1,0,0:0:0:0:
448,192,7019,1,0,0:0:0:0:
64,192,7116,1,0,0:0:0:0:
192,192,7116,1,0,0:0:0:0:
320,192,7212,1,0,0:0:0:0:
448,192,7309,1,0,0:0:0:0:
320,192,7406,1,0,0:0:0:0:
192,192,7503,1,0,0:0:0:0:
64,192,7503,1,0,0:0:0:0:
448,192,7599,1,0,0:0:0:0:
320,192,7696,1,0,0:0:0:0:
448,192,7793,1,0,0:0:0:0:
192,192,7890,1,0,0:0:0:0:
64,192,7890,1,0,0:0:0:0:
320,192,7987,1,0,0:0:0:0:
64,192,8083,1,0,0:0:0:0:
448,192,8083,1,0,0:0:0:0:
192,192,8180,1,0,0:0:0:0:
448,192,8277,1,0,0:0:0:0:
320,192,8277,1,0,0:0:0:0:
64,192,8374,1,0,0:0:0:0:
192,192,8470,1,0,0:0:0:0:
64,192,8567,1,0,0:0:0:0:
320,192,8664,1,0,0:0:0:0:
448,192,8664,1,0,0:0:0:0:
192,192,8761,1,0,0:0:0:0:
64,192,8858,1,0,0:0:0:0:
192,192,8954,1,0,0:0:0:0:
320,192,9051,1,0,0:0:0:0:
448,192,9051,1,0,0:0:0:0:
64,192,9148,1,0,0:0:0:0:
192,192,9245,1,0,0:0:0:0:
64,192,9341,1,0,0:0:0:0:
320,192,9341,1,0,0:0:0:0:
448,192,9438,1,0,0:0:0:0:
192,192,9438,1,0,0:0:0:0:
320,192,9535,1,0,0:0:0:0:
192,192,9632,1,0,0:0:0:0:
448,192,9632,1,0,0:0:0:0:
64,192,9728,1,0,0:0:0:0:
320,192,9728,1,0,0:0:0:0:
192,192,9825,1,0,0:0:0:0:
64,192,9825,1,0,0:0:0:0:
320,192,9922,1,0,0:0:0:0:
448,192,9922,1,0,0:0:0:0:
192,192,10019,1,0,0:0:0:0:
64,192,10019,1,0,0:0:0:0:
320,192,10116,1,0,0:0:0:0:
448,192,10116,1,0,0:0:0:0:
192,192,10212,1,0,0:0:0:0:
64,192,10212,1,0,0:0:0:0:
64,192,10309,1,0,0:0:0:0:
192,192,10309,1,0,0:0:0:0:
320,192,10406,1,0,0:0:0:0:
448,192,10406,1,0,0:0:0:0:
320,192,10503,1,0,0:0:0:0:
448,192,10503,1,0,0:0:0:0:
64,192,10599,1,0,0:0:0:0:
192,192,10599,1,0,0:0:0:0:
320,192,10696,1,0,0:0:0:0:
448,192,10793,1,0,0:0:0:0:
64,192,10890,1,0,0:0:0:0:
192,192,10890,1,0,0:0:0:0:
448,192,10987,1,0,0:0:0:0:
320,192,11083,1,0,0:0:0:0:
192,192,11180,1,0,0:0:0:0:
64,192,11180,1,0,0:0:0:0:
320,192,11277,1,0,0:0:0:0:
64,192,12922,128,0,13261:0:0:0:0:
192,192,12922,128,0,13261:0:0:0:0:
320,192,12922,128,0,13261:0:0:0:0:
448,192,12922,128,0,13261:0:0:0:0:
64,192,13309,1,0,0:0:0:0:
192,192,13309,1,0,0:0:0:0:
448,192,13309,1,0,0:0:0:0:
64,192,13406,1,0,0:0:0:0:
448,192,13503,1,0,0:0:0:0:
448,192,13599,1,0,0:0:0:0:
192,192,13696,1,0,0:0:0:0:
320,192,13696,1,0,0:0:0:0:
320,192,13793,1,0,0:0:0:0:
64,192,13890,1,0,0:0:0:0:
192,192,13987,1,0,0:0:0:0:
448,192,14083,1,0,0:0:0:0:
320,192,14083,1,0,0:0:0:0:
448,192,14180,1,0,0:0:0:0:
64,192,14277,1,0,0:0:0:0:
64,192,14374,1,0,0:0:0:0:
192,192,14470,1,0,0:0:0:0:
320,192,14470,1,0,0:0:0:0:
192,192,14567,1,0,0:0:0:0:
448,192,14664,1,0,0:0:0:0:
320,192,14761,1,0,0:0:0:0:
192,192,14858,1,0,0:0:0:0:
64,192,14858,1,0,0:0:0:0:
64,192,14954,1,0,0:0:0:0:
448,192,15051,1,0,0:0:0:0:
448,192,15148,1,0,0:0:0:0:
320,192,15245,1,0,0:0:0:0:
192,192,15245,1,0,0:0:0:0:
320,192,15341,1,0,0:0:0:0:
64,192,15438,1,0,0:0:0:0:
192,192,15535,1,0,0:0:0:0:
448,192,15632,128,0,15922:0:0:0:0:
320,192,15632,128,0,15825:0:0:0:0:
64,192,16019,128,0,16358:0:0:0:0:
192,192,16019,128,0,16358:0:0:0:0:
320,192,16019,128,0,16358:0:0:0:0:
448,192,16019,128,0,16358:0:0:0:0:
448,192,16406,1,0,0:0:0:0:
64,192,16406,1,0,0:0:0:0:
320,192,16406,1,0,0:0:0:0:
448,192,16503,1,0,0:0:0:0:
192,192,16599,1,0,0:0:0:0:
192,192,16696,1,0,0:0:0:0:
320,192,16793,1,0,0:0:0:0:
64,192,16793,1,0,0:0:0:0:
448,192,16793,1,0,0:0:0:0:
64,192,16890,1,0,0:0:0:0:
448,192,16987,1,0,0:0:0:0:
320,192,17083,1,0,0:0:0:0:
64,192,17180,1,0,0:0:0:0:
192,192,17180,1,0,0:0:0:0:
448,192,17180,1,0,0:0:0:0:
64,192,17277,1,0,0:0:0:0:
320,192,17374,1,0,0:0:0:0:
320,192,17470,1,0,0:0:0:0:
192,192,17567,1,0,0:0:0:0:
64,192,17567,1,0,0:0:0:0:
448,192,17567,1,0,0:0:0:0:
448,192,17664,1,0,0:0:0:0:
64,192,17761,1,0,0:0:0:0:
192,192,17761,1,0,0:0:0:0:
448,192,17858,1,0,0:0:0:0:
320,192,17858,1,0,0:0:0:0:
192,192,17954,1,0,0:0:0:0:
320,192,17954,1,0,0:0:0:0:
64,192,17954,1,0,0:0:0:0:
192,192,18051,1,0,0:0:0:0:
320,192,18148,1,0,0:0:0:0:
448,192,18148,1,0,0:0:0:0:
448,192,18245,1,0,0:0:0:0:
320,192,18341,1,0,0:0:0:0:
192,192,18341,1,0,0:0:0:0:
64,192,18341,1,0,0:0:0:0:
64,192,18438,1,0,0:0:0:0:
320,192,18535,1,0,0:0:0:0:
192,192,18632,1,0,0:0:0:0:
64,192,18728,128,0,18777:0:0:0:0:
448,192,18728,128,0,18777:0:0:0:0:
64,192,19116,128,0,19454:0:0:0:0:
192,192,19116,128,0,19454:0:0:0:0:
320,192,19116,128,0,19454:0:0:0:0:
448,192,19116,128,0,19454:0:0:0:0:
64,192,19503,1,0,0:0:0:0:
192,192,19503,1,0,0:0:0:0:
448,192,19503,1,0,0:0:0:0:
64,192,19599,1,0,0:0:0:0:
320,192,19696,1,0,0:0:0:0:
320,192,19793,1,0,0:0:0:0:
192,192,19890,1,0,0:0:0:0:
64,192,19890,1,0,0:0:0:0:
448,192,19890,1,0,0:0:0:0:
320,192,19987,1,0,0:0:0:0:
192,192,20083,1,0,0:0:0:0:
192,192,20180,1,0,0:0:0:0:
448,192,20277,1,0,0:0:0:0:
320,192,20277,1,0,0:0:0:0:
64,192,20277,1,0,0:0:0:0:
448,192,20374,1,0,0:0:0:0:
192,192,20470,1,0,0:0:0:0:
64,192,20567,1,0,0:0:0:0:
320,192,20664,1,0,0:0:0:0:
448,192,20664,1,0,0:0:0:0:
192,192,20664,1,0,0:0:0:0:
320,192,20761,1,0,0:0:0:0:
64,192,20858,1,0,0:0:0:0:
448,192,20954,1,0,0:0:0:0:
320,192,21051,1,0,0:0:0:0:
192,192,21051,1,0,0:0:0:0:
64,192,21051,1,0,0:0:0:0:
192,192,21148,1,0,0:0:0:0:
64,192,21245,1,0,0:0:0:0:
320,192,21245,1,0,0:0:0:0:
448,192,21245,1,0,0:0:0:0:
320,192,21341,1,0,0:0:0:0:
192,192,21438,1,0,0:0:0:0:
64,192,21438,1,0,0:0:0:0:
192,192,21535,1,0,0:0:0:0:
64,192,21535,1,0,0:0:0:0:
320,192,21632,1,0,0:0:0:0:
448,192,21632,1,0,0:0:0:0:
320,192,21728,1,0,0:0:0:0:
448,192,21728,1,0,0:0:0:0:
64,192,22212,128,0,22551:0:0:0:0:
192,192,22212,128,0,22551:0:0:0:0:
320,192,22212,128,0,22551:0:0:0:0:
448,192,22212,128,0,22551:0:0:0:0:
64,192,22599,1,0,0:0:0:0:
448,192,22599,1,0,0:0:0:0:
320,192,22599,1,0,0:0:0:0:
192,192,22696,1,0,0:0:0:0:
320,192,22793,1,0,0:0:0:0:
448,192,22793,128,0,22890:0:0:0:0:
64,192,22890,1,0,0:0:0:0:
320,192,22987,1,0,0:0:0:0:
192,192,22987,1,0,0:0:0:0:
448,192,22987,128,0,23083:0:0:0:0:
64,192,23083,1,0,0:0:0:0:
320,192,23180,1,0,0:0:0:0:
448,192,23180,128,0,23277:0:0:0:0:
192,192,23277,1,0,0:0:0:0:
64,192,23374,1,0,0:0:0:0:
320,192,23374,1,0,0:0:0:0:
448,192,23374,128,0,23664:0:0:0:0:
192,192,23470,1,0,0:0:0:0:
64,192,23567,1,0,0:0:0:0:
320,192,23664,1,0,0:0:0:0:
64,192,23761,1,0,0:0:0:0:
192,192,23761,1,0,0:0:0:0:
448,192,23761,1,0,0:0:0:0:
192,192,23858,1,0,0:0:0:0:
320,192,23954,1,0,0:0:0:0:
448,192,24051,1,0,0:0:0:0:
192,192,24148,1,0,0:0:0:0:
320,192,24245,1,0,0:0:0:0:
64,192,24341,1,0,0:0:0:0:
64,192,24438,1,0,0:0:0:0:
448,192,24535,1,0,0:0:0:0:
448,192,24632,1,0,0:0:0:0:
64,192,24728,1,0,0:0:0:0:
192,192,24825,1,0,0:0:0:0:
320,192,24922,1,0,0:0:0:0:
320,192,25019,1,0,0:0:0:0:
64,192,25116,1,0,0:0:0:0:
448,192,25212,1,0,0:0:0:0:
320,192,25309,1,0,0:0:0:0:
192,192,25309,1,0,0:0:0:0:
64,192,25309,1,0,0:0:0:0:
192,192,25503,1,0,0:0:0:0:
448,192,25696,1,0,0:0:0:0:
448,192,25793,1,0,0:0:0:0:
448,192,25890,1,0,0:0:0:0:
448,192,25987,1,0,0:0:0:0:
64,192,26083,1,0,0:0:0:0:
192,192,26083,1,0,0:0:0:0:
320,192,26083,128,0,26374:0:0:0:0:
320,192,26470,128,0,26664:0:0:0:0:
448,192,26470,128,0,26664:0:0:0:0:
64,192,26664,1,0,0:0:0:0:
192,192,26712,1,0,0:0:0:0:
320,192,26761,1,0,0:0:0:0:
448,192,26809,1,0,0:0:0:0:
192,192,26858,1,0,0:0:0:0:
64,192,26858,1,0,0:0:0:0:
64,192,27245,1,0,0:0:0:0:
320,192,27245,1,0,0:0:0:0:
64,192,27632,1,0,0:0:0:0:
448,192,27632,1,0,0:0:0:0:
448,192,27728,1,0,0:0:0:0:
192,192,27825,1,0,0:0:0:0:
320,192,27922,1,0,0:0:0:0:
64,192,28019,1,0,0:0:0:0:
192,192,28019,1,0,0:0:0:0:
448,192,28019,1,0,0:0:0:0:
64,192,28406,128,0,28745:0:0:0:0:
192,192,28406,128,0,28745:0:0:0:0:
320,192,28406,128,0,28745:0:0:0:0:
448,192,28406,128,0,28745:0:0:0:0:
64,192,28793,1,0,0:0:0:0:
192,192,28793,1,0,0:0:0:0:
448,192,28793,1,0,0:0:0:0:
320,192,28890,1,0,0:0:0:0:
192,192,28987,1,0,0:0:0:0:
64,192,28987,1,0,0:0:0:0:
320,192,29083,1,0,0:0:0:0:
448,192,29083,1,0,0:0:0:0:
64,192,29180,1,0,0:0:0:0:
448,192,29180,1,0,0:0:0:0:
192,192,29180,1,0,0:0:0:0:
192,192,29277,1,0,0:0:0:0:
320,192,29374,1,0,0:0:0:0:
448,192,29374,1,0,0:0:0:0:
192,192,29470,1,0,0:0:0:0:
64,192,29470,1,0,0:0:0:0:
448,192,29567,1,0,0:0:0:0:
64,192,29567,1,0,0:0:0:0:
320,192,29567,1,0,0:0:0:0:
320,192,29664,1,0,0:0:0:0:
448,192,29664,1,0,0:0:0:0:
192,192,29761,1,0,0:0:0:0:
448,192,29858,1,0,0:0:0:0:
192,192,29954,1,0,0:0:0:0:
320,192,29954,1,0,0:0:0:0:
64,192,29954,1,0,0:0:0:0:
64,192,30051,1,0,0:0:0:0:
320,192,30148,1,0,0:0:0:0:
448,192,30148,1,0,0:0:0:0:
192,192,30245,1,0,0:0:0:0:
64,192,30245,1,0,0:0:0:0:
320,192,30341,1,0,0:0:0:0:
448,192,30341,1,0,0:0:0:0:
192,192,30341,1,0,0:0:0:0:
448,192,30438,1,0,0:0:0:0:
192,192,30535,1,0,0:0:0:0:
64,192,30535,1,0,0:0:0:0:
320,192,30632,1,0,0:0:0:0:
448,192,30632,1,0,0:0:0:0:
192,192,30728,1,0,0:0:0:0:
64,192,30728,1,0,0:0:0:0:
320,192,30728,1,0,0:0:0:0:
448,192,30825,1,0,0:0:0:0:
192,192,30922,1,0,0:0:0:0:
64,192,30922,1,0,0:0:0:0:
192,192,31019,1,0,0:0:0:0:
320,192,31116,1,0,0:0:0:0:
448,192,31116,1,0,0:0:0:0:
64,192,31116,1,0,0:0:0:0:
320,192,31212,1,0,0:0:0:0:
448,192,31212,1,0,0:0:0:0:
64,192,31309,1,0,0:0:0:0:
320,192,31406,1,0,0:0:0:0:
192,192,31406,1,0,0:0:0:0:
448,192,31503,128,0,31841:0:0:0:0:
320,192,31503,128,0,31841:0:0:0:0:
192,192,31503,128,0,31841:0:0:0:0:
64,192,31503,128,0,31841:0:0:0:0:
64,192,31890,1,0,0:0:0:0:
192,192,31890,1,0,0:0:0:0:
448,192,31890,1,0,0:0:0:0:
320,192,31987,1,0,0:0:0:0:
64,192,32083,128,0,32180:0:0:0:0:
192,192,32083,1,0,0:0:0:0:
448,192,32180,1,0,0:0:0:0:
64,192,32277,128,0,32374:0:0:0:0:
320,192,32277,1,0,0:0:0:0:
192,192,32277,1,0,0:0:0:0:
448,192,32374,1,0,0:0:0:0:
64,192,32470,128,0,32567:0:0:0:0:
192,192,32470,1,0,0:0:0:0:
320,192,32567,1,0,0:0:0:0:
64,192,32664,128,0,32954:0:0:0:0:
192,192,32664,1,0,0:0:0:0:
448,192,32664,1,0,0:0:0:0:
320,192,32761,1,0,0:0:0:0:
448,192,32858,1,0,0:0:0:0:
192,192,32858,1,0,0:0:0:0:
320,192,32954,1,0,0:0:0:0:
448,192,33051,1,0,0:0:0:0:
64,192,33051,1,0,0:0:0:0:
192,192,33051,1,0,0:0:0:0:
192,192,33148,1,0,0:0:0:0:
64,192,33148,1,0,0:0:0:0:
320,192,33245,1,0,0:0:0:0:
448,192,33245,1,0,0:0:0:0:
320,192,33341,1,0,0:0:0:0:
192,192,33438,1,0,0:0:0:0:
64,192,33438,1,0,0:0:0:0:
448,192,33438,1,0,0:0:0:0:
192,192,33535,1,0,0:0:0:0:
64,192,33632,1,0,0:0:0:0:
320,192,33632,1,0,0:0:0:0:
448,192,33728,1,0,0:0:0:0:
192,192,33825,1,0,0:0:0:0:
64,192,33825,1,0,0:0:0:0:
320,192,33825,1,0,0:0:0:0:
448,192,33922,1,0,0:0:0:0:
192,192,33922,1,0,0:0:0:0:
64,192,34019,1,0,0:0:0:0:
320,192,34116,1,0,0:0:0:0:
64,192,34212,1,0,0:0:0:0:
448,192,34212,1,0,0:0:0:0:
192,192,34212,1,0,0:0:0:0:
192,192,34309,1,0,0:0:0:0:
64,192,34309,1,0,0:0:0:0:
320,192,34406,1,0,0:0:0:0:
448,192,34503,1,0,0:0:0:0:
64,192,34503,1,0,0:0:0:0:
320,192,34599,1,0,0:0:0:0:
192,192,34599,1,0,0:0:0:0:
64,192,34599,128,0,34890:0:0:0:0:
448,192,34599,128,0,34890:0:0:0:0:
64,192,34987,1,0,0:0:0:0:
192,192,34987,1,0,0:0:0:0:
448,192,34987,1,0,0:0:0:0:
192,192,35083,1,0,0:0:0:0:
320,192,35180,1,0,0:0:0:0:
64,192,35277,1,0,0:0:0:0:
320,192,35277,1,0,0:0:0:0:
448,192,35277,1,0,0:0:0:0:
448,192,35374,1,0,0:0:0:0:
192,192,35470,1,0,0:0:0:0:
64,192,35567,1,0,0:0:0:0:
192,192,35567,1,0,0:0:0:0:
448,192,35567,1,0,0:0:0:0:
64,192,35664,1,0,0:0:0:0:
448,192,35761,1,0,0:0:0:0:
320,192,35793,1,0,0:0:0:0:
192,192,35825,1,0,0:0:0:0:
64,192,35858,1,0,0:0:0:0:
448,192,35890,1,0,0:0:0:0:
320,192,35922,1,0,0:0:0:0:
64,192,35954,1,0,0:0:0:0:
192,192,35954,1,0,0:0:0:0:
320,192,36051,1,0,0:0:0:0:
64,192,36148,1,0,0:0:0:0:
448,192,36148,1,0,0:0:0:0:
192,192,36148,1,0,0:0:0:0:
320,192,36196,1,0,0:0:0:0:
192,192,36244,1,0,0:0:0:0:
64,192,36244,1,0,0:0:0:0:
320,192,36341,1,0,0:0:0:0:
448,192,36341,1,0,0:0:0:0:
192,192,36438,1,0,0:0:0:0:
64,192,36535,1,0,0:0:0:0:
320,192,36535,1,0,0:0:0:0:
448,192,36535,1,0,0:0:0:0:
192,192,36631,1,0,0:0:0:0:
320,192,36728,1,0,0:0:0:0:
192,192,36825,1,0,0:0:0:0:
64,192,36825,1,0,0:0:0:0:
448,192,36825,1,0,0:0:0:0:
320,192,36922,1,0,0:0:0:0:
192,192,37018,1,0,0:0:0:0:
64,192,37115,1,0,0:0:0:0:
448,192,37115,1,0,0:0:0:0:
320,192,37115,1,0,0:0:0:0:
320,192,37309,1,0,0:0:0:0:
64,192,37309,1,0,0:0:0:0:
448,192,37309,1,0,0:0:0:0:
192,192,37357,1,0,0:0:0:0:
320,192,37406,1,0,0:0:0:0:
448,192,37406,1,0,0:0:0:0:
64,192,37502,1,0,0:0:0:0:
192,192,37502,1,0,0:0:0:0:
448,192,37599,1,0,0:0:0:0:
64,192,37599,1,0,0:0:0:0:
320,192,37696,1,0,0:0:0:0:
448,192,37696,1,0,0:0:0:0:
192,192,37889,1,0,0:0:0:0:
64,192,37889,1,0,0:0:0:0:
448,192,38083,1,0,0:0:0:0:
320,192,38083,1,0,0:0:0:0:
64,192,38083,1,0,0:0:0:0:
192,192,38179,1,0,0:0:0:0:
320,192,38228,1,0,0:0:0:0:
192,192,38276,1,0,0:0:0:0:
64,192,38373,1,0,0:0:0:0:
448,192,38373,1,0,0:0:0:0:
320,192,38373,1,0,0:0:0:0:
192,192,38470,1,0,0:0:0:0:
320,192,38518,1,0,0:0:0:0:
192,192,38566,1,0,0:0:0:0:
64,192,38663,1,0,0:0:0:0:
448,192,38663,1,0,0:0:0:0:
320,192,38663,1,0,0:0:0:0:
192,192,38760,1,0,0:0:0:0:
320,192,38808,1,0,0:0:0:0:
192,192,38857,1,0,0:0:0:0:
448,192,38953,1,0,0:0:0:0:
320,192,38953,1,0,0:0:0:0:
320,192,39050,1,0,0:0:0:0:
448,192,39050,1,0,0:0:0:0:
64,192,39050,1,0,0:0:0:0:
192,192,39147,1,0,0:0:0:0:
320,192,39195,1,0,0:0:0:0:
448,192,39244,1,0,0:0:0:0:
64,192,39244,1,0,0:0:0:0:
192,192,39244,1,0,0:0:0:0:
64,192,39437,1,0,0:0:0:0:
192,192,39470,1,0,0:0:0:0:
320,192,39502,1,0,0:0:0:0:
448,192,39534,1,0,0:0:0:0:
64,192,39566,1,0,0:0:0:0:
192,192,39599,1,0,0:0:0:0:
448,192,39631,128,0,40308:0:0:0:0:
320,192,39631,128,0,40212:0:0:0:0:
320,192,40986,128,0,41179:0:0:0:0:
64,192,41179,1,0,0:0:0:0:
448,192,41953,128,0,42147:0:0:0:0:
320,192,41953,128,0,42147:0:0:0:0:
320,192,42244,128,0,42437:0:0:0:0:
192,192,42534,128,0,42728:0:0:0:0:
448,192,42728,1,0,0:0:0:0:
192,192,43405,128,0,43502:0:0:0:0:
64,192,43502,128,0,43792:0:0:0:0:
320,192,43502,128,0,43792:0:0:0:0:
192,192,43889,128,0,44276:0:0:0:0:
448,192,43889,128,0,44082:0:0:0:0:
64,192,44276,1,0,0:0:0:0:
320,192,44276,1,0,0:0:0:0:
448,192,44276,1,0,0:0:0:0:
192,192,44663,1,0,0:0:0:0:
192,192,44857,1,0,0:0:0:0:
64,192,45050,1,0,0:0:0:0:
448,192,45050,1,0,0:0:0:0:
320,192,45147,1,0,0:0:0:0:
64,192,45244,1,0,0:0:0:0:
192,192,45292,1,0,0:0:0:0:
320,192,45341,1,0,0:0:0:0:
448,192,45389,1,0,0:0:0:0:
64,192,45437,1,0,0:0:0:0:
192,192,45437,1,0,0:0:0:0:
320,192,45631,1,0,0:0:0:0:
192,192,45728,1,0,0:0:0:0:
320,192,45824,1,0,0:0:0:0:
64,192,46018,1,0,0:0:0:0:
192,192,46018,1,0,0:0:0:0:
448,192,46115,1,0,0:0:0:0:
64,192,46212,1,0,0:0:0:0:
320,192,46308,1,0,0:0:0:0:
192,192,46405,1,0,0:0:0:0:
320,192,46502,1,0,0:0:0:0:
64,192,46599,1,0,0:0:0:0:
448,192,46599,1,0,0:0:0:0:
64,192,46792,1,0,0:0:0:0:
320,192,46986,1,0,0:0:0:0:
448,192,46986,1,0,0:0:0:0:
448,192,47179,1,0,0:0:0:0:
320,192,47228,1,0,0:0:0:0:
192,192,47276,1,0,0:0:0:0:
64,192,47324,1,0,0:0:0:0:
320,192,47373,1,0,0:0:0:0:
448,192,47373,1,0,0:0:0:0:
320,192,47760,1,0,0:0:0:0:
320,192,47953,1,0,0:0:0:0:
64,192,48147,1,0,0:0:0:0:
448,192,48147,1,0,0:0:0:0:
192,192,48244,1,0,0:0:0:0:
448,192,48341,1,0,0:0:0:0:
320,192,48389,1,0,0:0:0:0:
192,192,48437,1,0,0:0:0:0:
64,192,48486,1,0,0:0:0:0:
320,192,48534,1,0,0:0:0:0:
448,192,48534,1,0,0:0:0:0:
192,192,48728,1,0,0:0:0:0:
320,192,48824,1,0,0:0:0:0:
192,192,48921,1,0,0:0:0:0:
320,192,49115,1,0,0:0:0:0:
448,192,49115,1,0,0:0:0:0:
64,192,49212,1,0,0:0:0:0:
448,192,49308,1,0,0:0:0:0:
192,192,49405,1,0,0:0:0:0:
320,192,49502,1,0,0:0:0:0:
192,192,49599,1,0,0:0:0:0:
64,192,49695,1,0,0:0:0:0:
448,192,49695,1,0,0:0:0:0:
448,192,49889,1,0,0:0:0:0:
64,192,50082,1,0,0:0:0:0:
192,192,50082,1,0,0:0:0:0:
64,192,50276,1,0,0:0:0:0:
192,192,50324,1,0,0:0:0:0:
320,192,50373,1,0,0:0:0:0:
448,192,50421,1,0,0:0:0:0:
64,192,50470,128,0,52018:0:0:0:0:
192,192,50470,128,0,50760:0:0:0:0:
320,192,50857,1,0,0:0:0:0:
320,192,50953,1,0,0:0:0:0:
448,192,51050,128,0,51244:0:0:0:0:
192,192,51244,128,0,51437:0:0:0:0:
320,192,51437,128,0,51534:0:0:0:0:
192,192,51631,128,0,51824:0:0:0:0:
320,192,51824,128,0,51921:0:0:0:0:
192,192,52018,128,0,53566:0:0:0:0:
448,192,52018,128,0,52212:0:0:0:0:
64,192,52212,128,0,52308:0:0:0:0:
448,192,52405,128,0,52599:0:0:0:0:
64,192,52599,128,0,52695:0:0:0:0:
320,192,52792,128,0,52889:0:0:0:0:
320,192,52986,128,0,53082:0:0:0:0:
448,192,53179,128,0,53276:0:0:0:0:
64,192,53373,128,0,53470:0:0:0:0:
448,192,53566,128,0,55889:0:0:0:0:
320,192,53566,128,0,53857:0:0:0:0:
320,192,53953,128,0,54050:0:0:0:0:
64,192,54147,128,0,54244:0:0:0:0:
320,192,54341,128,0,54437:0:0:0:0:
64,192,54534,1,0,0:0:0:0:
320,192,54728,1,0,0:0:0:0:
64,192,54921,1,0,0:0:0:0:
320,192,55115,1,0,0:0:0:0:
320,192,55308,1,0,0:0:0:0:
192,192,55502,1,0,0:0:0:0:
192,192,55695,1,0,0:0:0:0:
320,192,55889,128,0,56566:0:0:0:0:
64,192,55889,1,0,0:0:0:0:
64,192,56082,1,0,0:0:0:0:
448,192,56276,1,0,0:0:0:0:
192,192,56373,1,0,0:0:0:0:
64,192,56421,1,0,0:0:0:0:
448,192,56470,1,0,0:0:0:0:
192,192,56566,1,0,0:0:0:0:
64,192,56615,1,0,0:0:0:0:
320,192,56663,1,0,0:0:0:0:
448,192,56663,1,0,0:0:0:0:
320,192,56857,1,0,0:0:0:0:
320,192,57050,1,0,0:0:0:0:
64,192,57437,1,0,0:0:0:0:
448,192,57437,1,0,0:0:0:0:
192,192,57824,1,0,0:0:0:0:
192,192,58018,1,0,0:0:0:0:
192,192,58212,1,0,0:0:0:0:
64,192,58212,1,0,0:0:0:0:
320,192,58792,1,0,0:0:0:0:
448,192,58792,1,0,0:0:0:0:
448,192,58986,1,0,0:0:0:0:
64,192,58986,1,0,0:0:0:0:
320,192,59373,1,0,0:0:0:0:
448,192,59373,1,0,0:0:0:0:
64,192,59760,1,0,0:0:0:0:
192,192,59760,1,0,0:0:0:0:
448,192,59760,128,0,61308:0:0:0:0:
320,192,59953,1,0,0:0:0:0:
192,192,60050,1,0,0:0:0:0:
320,192,60147,1,0,0:0:0:0:
192,192,60341,1,0,0:0:0:0:
64,192,60341,1,0,0:0:0:0:
320,192,60534,1,0,0:0:0:0:
192,192,60728,1,0,0:0:0:0:
64,192,60728,1,0,0:0:0:0:
64,192,60921,1,0,0:0:0:0:
192,192,60921,1,0,0:0:0:0:
64,192,61115,128,0,61308:0:0:0:0:
320,192,61308,1,0,0:0:0:0:
192,192,61308,128,0,62082:0:0:0:0:
320,192,62082,128,0,62179:0:0:0:0:
320,192,62276,128,0,62663:0:0:0:0:
64,192,62857,1,0,0:0:0:0:
192,192,62857,1,0,0:0:0:0:
448,192,62857,1,0,0:0:0:0:
192,192,62953,1,0,0:0:0:0:
320,192,63050,1,0,0:0:0:0:
320,192,63147,1,0,0:0:0:0:
64,192,63244,1,0,0:0:0:0:
448,192,63244,1,0,0:0:0:0:
64,192,63341,1,0,0:0:0:0:
320,192,63437,1,0,0:0:0:0:
448,192,63437,1,0,0:0:0:0:
192,192,63534,1,0,0:0:0:0:
64,192,63631,1,0,0:0:0:0:
448,192,63631,1,0,0:0:0:0:
448,192,63728,1,0,0:0:0:0:
192,192,63824,1,0,0:0:0:0:
64,192,63824,1,0,0:0:0:0:
320,192,63921,1,0,0:0:0:0:
448,192,64018,1,0,0:0:0:0:
64,192,64018,1,0,0:0:0:0:
64,192,64115,1,0,0:0:0:0:
448,192,64115,1,0,0:0:0:0:
192,192,64212,1,0,0:0:0:0:
320,192,64212,1,0,0:0:0:0:
448,192,64308,1,0,0:0:0:0:
192,192,64405,1,0,0:0:0:0:
64,192,64405,1,0,0:0:0:0:
64,192,64502,1,0,0:0:0:0:
192,192,64502,1,0,0:0:0:0:
320,192,64599,1,0,0:0:0:0:
448,192,64599,1,0,0:0:0:0:
192,192,64695,1,0,0:0:0:0:
64,192,64792,1,0,0:0:0:0:
320,192,64792,1,0,0:0:0:0:
64,192,64889,1,0,0:0:0:0:
320,192,64889,1,0,0:0:0:0:
192,192,64986,1,0,0:0:0:0:
448,192,64986,1,0,0:0:0:0:
320,192,65082,1,0,0:0:0:0:
192,192,65179,1,0,0:0:0:0:
64,192,65179,1,0,0:0:0:0:
320,192,65276,1,0,0:0:0:0:
64,192,65373,1,0,0:0:0:0:
192,192,65373,1,0,0:0:0:0:
320,192,65470,1,0,0:0:0:0:
64,192,65566,1,0,0:0:0:0:
448,192,65566,1,0,0:0:0:0:
192,192,65663,1,0,0:0:0:0:
320,192,65760,1,0,0:0:0:0:
448,192,65760,1,0,0:0:0:0:
192,192,65857,1,0,0:0:0:0:
64,192,65953,1,0,0:0:0:0:
448,192,65953,1,0,0:0:0:0:
448,192,66050,1,0,0:0:0:0:
64,192,66050,1,0,0:0:0:0:
192,192,66147,1,0,0:0:0:0:
320,192,66147,1,0,0:0:0:0:
64,192,66244,1,0,0:0:0:0:
320,192,66341,1,0,0:0:0:0:
448,192,66341,1,0,0:0:0:0:
320,192,66437,1,0,0:0:0:0:
448,192,66437,1,0,0:0:0:0:
192,192,66534,1,0,0:0:0:0:
64,192,66534,1,0,0:0:0:0:
320,192,66631,1,0,0:0:0:0:
192,192,66728,1,0,0:0:0:0:
64,192,66728,1,0,0:0:0:0:
320,192,66824,1,0,0:0:0:0:
448,192,66824,1,0,0:0:0:0:
192,192,66921,1,0,0:0:0:0:
64,192,66921,1,0,0:0:0:0:
320,192,67018,1,0,0:0:0:0:
448,192,67018,1,0,0:0:0:0:
192,192,67115,1,0,0:0:0:0:
64,192,67115,1,0,0:0:0:0:
64,192,67212,1,0,0:0:0:0:
192,192,67212,1,0,0:0:0:0:
320,192,67308,1,0,0:0:0:0:
448,192,67308,1,0,0:0:0:0:
320,192,67405,1,0,0:0:0:0:
448,192,67405,1,0,0:0:0:0:
64,192,67502,1,0,0:0:0:0:
192,192,67550,1,0,0:0:0:0:
320,192,67599,1,0,0:0:0:0:
448,192,67647,1,0,0:0:0:0:
64,192,67695,1,0,0:0:0:0:
192,192,67744,1,0,0:0:0:0:
320,192,67792,1,0,0:0:0:0:
448,192,67841,1,0,0:0:0:0:
64,192,67889,1,0,0:0:0:0:
192,192,67953,1,0,0:0:0:0:
320,192,68018,1,0,0:0:0:0:
448,192,68082,1,0,0:0:0:0:
64,192,68147,1,0,0:0:0:0:
192,192,68212,1,0,0:0:0:0:
320,192,68276,1,0,0:0:0:0:
448,192,68373,1,0,0:0:0:0:
64,192,68470,1,0,0:0:0:0:
192,192,68566,1,0,0:0:0:0:
320,192,68663,1,0,0:0:0:0:
448,192,68663,1,0,0:0:0:0:
64,192,68663,1,0,0:0:0:0:
320,192,69050,1,0,0:0:0:0:
448,192,69050,1,0,0:0:0:0:
192,192,69147,1,0,0:0:0:0:
320,192,69244,1,0,0:0:0:0:
192,192,69341,1,0,0:0:0:0:
320,192,69437,1,0,0:0:0:0:
64,192,69437,1,0,0:0:0:0:
192,192,69534,1,0,0:0:0:0:
320,192,69631,1,0,0:0:0:0:
448,192,69631,1,0,0:0:0:0:
192,192,69728,1,0,0:0:0:0:
320,192,69824,1,0,0:0:0:0:
448,192,69824,1,0,0:0:0:0:
192,192,69921,1,0,0:0:0:0:
320,192,70018,1,0,0:0:0:0:
448,192,70018,1,0,0:0:0:0:
192,192,70115,1,0,0:0:0:0:
320,192,70212,1,0,0:0:0:0:
64,192,70212,1,0,0:0:0:0:
448,192,70212,1,0,0:0:0:0:
192,192,70308,1,0,0:0:0:0:
320,192,70405,1,0,0:0:0:0:
192,192,70502,1,0,0:0:0:0:
320,192,70599,1,0,0:0:0:0:
448,192,70599,1,0,0:0:0:0:
192,192,70695,1,0,0:0:0:0:
320,192,70792,1,0,0:0:0:0:
448,192,70792,1,0,0:0:0:0:
192,192,70889,1,0,0:0:0:0:
320,192,70986,1,0,0:0:0:0:
64,192,70986,1,0,0:0:0:0:
192,192,71082,1,0,0:0:0:0:
320,192,71179,1,0,0:0:0:0:
448,192,71179,1,0,0:0:0:0:
192,192,71276,1,0,0:0:0:0:
320,192,71373,1,0,0:0:0:0:
192,192,71470,1,0,0:0:0:0:
448,192,71470,1,0,0:0:0:0:
320,192,71566,1,0,0:0:0:0:
192,192,71663,1,0,0:0:0:0:
320,192,71760,1,0,0:0:0:0:
64,192,71760,1,0,0:0:0:0:
448,192,71760,1,0,0:0:0:0:
192,192,71857,1,0,0:0:0:0:
320,192,71953,1,0,0:0:0:0:
192,192,72050,1,0,0:0:0:0:
320,192,72147,1,0,0:0:0:0:
64,192,72147,1,0,0:0:0:0:
448,192,72147,1,0,0:0:0:0:
192,192,72244,1,0,0:0:0:0:
320,192,72341,1,0,0:0:0:0:
64,192,72341,1,0,0:0:0:0:
448,192,72341,1,0,0:0:0:0:
192,192,72437,1,0,0:0:0:0:
320,192,72534,1,0,0:0:0:0:
64,192,72534,1,0,0:0:0:0:
192,192,72631,1,0,0:0:0:0:
320,192,72728,1,0,0:0:0:0:
64,192,72728,1,0,0:0:0:0:
448,192,72728,1,0,0:0:0:0:
192,192,72824,1,0,0:0:0:0:
320,192,72921,1,0,0:0:0:0:
64,192,72921,1,0,0:0:0:0:
448,192,72921,1,0,0:0:0:0:
192,192,73018,1,0,0:0:0:0:
320,192,73115,1,0,0:0:0:0:
64,192,73115,1,0,0:0:0:0:
448,192,73115,1,0,0:0:0:0:
192,192,73212,1,0,0:0:0:0:
320,192,73308,1,0,0:0:0:0:
64,192,73308,1,0,0:0:0:0:
448,192,73308,1,0,0:0:0:0:
192,192,73405,1,0,0:0:0:0:
320,192,73502,1,0,0:0:0:0:
64,192,73502,1,0,0:0:0:0:
448,192,73502,1,0,0:0:0:0:
192,192,73599,1,0,0:0:0:0:
320,192,73695,1,0,0:0:0:0:
64,192,73695,128,0,74373:0:0:0:0:
448,192,73695,128,0,74373:0:0:0:0:
192,192,73792,1,0,0:0:0:0:
320,192,73889,1,0,0:0:0:0:
192,192,73986,1,0,0:0:0:0:
320,192,74082,1,0,0:0:0:0:
192,192,74179,1,0,0:0:0:0:
320,192,74276,1,0,0:0:0:0:
192,192,74373,1,0,0:0:0:0:
320,192,74470,1,0,0:0:0:0:
448,192,74470,1,0,0:0:0:0:
64,192,74470,1,0,0:0:0:0:
192,192,74663,1,0,0:0:0:0:
448,192,74663,1,0,0:0:0:0:
448,192,74760,1,0,0:0:0:0:
192,192,74760,1,0,0:0:0:0:
320,192,74857,1,0,0:0:0:0:
64,192,74857,1,0,0:0:0:0:
192,192,75050,1,0,0:0:0:0:
320,192,75050,1,0,0:0:0:0:
192,192,75244,1,0,0:0:0:0:
64,192,75244,1,0,0:0:0:0:
448,192,75244,1,0,0:0:0:0:
64,192,75631,1,0,0:0:0:0:
448,192,75631,1,0,0:0:0:0:
192,192,75631,1,0,0:0:0:0:
192,192,76018,1,0,0:0:0:0:
64,192,76018,1,0,0:0:0:0:
448,192,76018,1,0,0:0:0:0:
192,192,76405,1,0,0:0:0:0:
64,192,76405,1,0,0:0:0:0:
448,192,76405,1,0,0:0:0:0:
64,192,76599,1,0,0:0:0:0:
320,192,76599,1,0,0:0:0:0:
64,192,76792,1,0,0:0:0:0:
192,192,76792,1,0,0:0:0:0:
448,192,76792,1,0,0:0:0:0:
192,192,76986,128,0,77179:0:0:0:0:
64,192,77179,1,0,0:0:0:0:
320,192,77179,1,0,0:0:0:0:
448,192,77179,1,0,0:0:0:0:
192,192,77373,1,0,0:0:0:0:
320,192,77373,1,0,0:0:0:0:
64,192,77566,1,0,0:0:0:0:
320,192,77566,1,0,0:0:0:0:
448,192,77566,1,0,0:0:0:0:
448,192,77760,1,0,0:0:0:0:
320,192,77808,1,0,0:0:0:0:
64,192,77857,1,0,0:0:0:0:
192,192,77905,1,0,0:0:0:0:
64,192,77953,1,0,0:0:0:0:
320,192,77953,1,0,0:0:0:0:
448,192,77953,1,0,0:0:0:0:
448,192,78147,1,0,0:0:0:0:
320,192,78147,1,0,0:0:0:0:
192,192,78341,1,0,0:0:0:0:
64,192,78341,1,0,0:0:0:0:
448,192,78341,1,0,0:0:0:0:
64,192,78534,1,0,0:0:0:0:
192,192,78534,1,0,0:0:0:0:
448,192,78534,1,0,0:0:0:0:
192,192,78631,1,0,0:0:0:0:
64,192,78728,1,0,0:0:0:0:
320,192,78728,1,0,0:0:0:0:
448,192,78728,1,0,0:0:0:0:
320,192,78921,1,0,0:0:0:0:
320,192,79018,1,0,0:0:0:0:
64,192,79115,1,0,0:0:0:0:
448,192,79115,1,0,0:0:0:0:
192,192,79115,1,0,0:0:0:0:
192,192,79308,1,0,0:0:0:0:
192,192,79405,1,0,0:0:0:0:
64,192,79502,1,0,0:0:0:0:
448,192,79502,1,0,0:0:0:0:
320,192,79502,1,0,0:0:0:0:
448,192,79695,1,0,0:0:0:0:
64,192,79695,1,0,0:0:0:0:
320,192,79695,1,0,0:0:0:0:
320,192,79792,1,0,0:0:0:0:
64,192,79889,1,0,0:0:0:0:
448,192,79889,1,0,0:0:0:0:
192,192,79889,1,0,0:0:0:0:
192,192,80082,1,0,0:0:0:0:
192,192,80179,1,0,0:0:0:0:
320,192,80276,1,0,0:0:0:0:
64,192,80276,1,0,0:0:0:0:
448,192,80276,1,0,0:0:0:0:
192,192,80470,1,0,0:0:0:0:
64,192,80566,1,0,0:0:0:0:
320,192,80566,1,0,0:0:0:0:
448,192,80566,1,0,0:0:0:0:
448,192,80663,1,0,0:0:0:0:
64,192,80760,1,0,0:0:0:0:
192,192,80760,1,0,0:0:0:0:
448,192,80857,1,0,0:0:0:0:
320,192,81050,1,0,0:0:0:0:
192,192,81050,1,0,0:0:0:0:
64,192,81050,1,0,0:0:0:0:
192,192,81244,1,0,0:0:0:0:
64,192,81437,1,0,0:0:0:0:
320,192,81437,1,0,0:0:0:0:
448,192,81437,1,0,0:0:0:0:
320,192,81534,1,0,0:0:0:0:
64,192,81631,1,0,0:0:0:0:
448,192,81631,1,0,0:0:0:0:
192,192,81631,1,0,0:0:0:0:
192,192,81728,1,0,0:0:0:0:
64,192,81824,1,0,0:0:0:0:
320,192,81824,1,0,0:0:0:0:
448,192,81824,1,0,0:0:0:0:
448,192,81921,1,0,0:0:0:0:
192,192,82018,1,0,0:0:0:0:
320,192,82115,1,0,0:0:0:0:
192,192,82212,1,0,0:0:0:0:
448,192,82212,1,0,0:0:0:0:
64,192,82212,1,0,0:0:0:0:
64,192,82308,1,0,0:0:0:0:
448,192,82405,1,0,0:0:0:0:
192,192,82502,1,0,0:0:0:0:
64,192,82599,1,0,0:0:0:0:
448,192,82599,1,0,0:0:0:0:
320,192,82599,1,0,0:0:0:0:
320,192,82695,1,0,0:0:0:0:
64,192,82792,1,0,0:0:0:0:
448,192,82889,1,0,0:0:0:0:
64,192,82986,1,0,0:0:0:0:
320,192,82986,1,0,0:0:0:0:
192,192,82986,1,0,0:0:0:0:
192,192,83082,1,0,0:0:0:0:
448,192,83179,1,0,0:0:0:0:
320,192,83276,1,0,0:0:0:0:
64,192,83373,1,0,0:0:0:0:
448,192,83373,1,0,0:0:0:0:
192,192,83373,1,0,0:0:0:0:
64,192,83470,1,0,0:0:0:0:
192,192,83566,1,0,0:0:0:0:
320,192,83663,1,0,0:0:0:0:
448,192,83663,1,0,0:0:0:0:
448,192,83760,1,0,0:0:0:0:
192,192,83760,1,0,0:0:0:0:
64,192,83760,1,0,0:0:0:0:
192,192,83857,1,0,0:0:0:0:
64,192,83953,1,0,0:0:0:0:
448,192,83953,1,0,0:0:0:0:
320,192,83953,1,0,0:0:0:0:
320,192,84050,1,0,0:0:0:0:
192,192,84147,1,0,0:0:0:0:
64,192,84147,1,0,0:0:0:0:
448,192,84147,1,0,0:0:0:0:
192,192,84244,1,0,0:0:0:0:
64,192,84244,1,0,0:0:0:0:
64,192,84341,1,0,0:0:0:0:
192,192,84341,1,0,0:0:0:0:
320,192,84437,1,0,0:0:0:0:
192,192,84534,1,0,0:0:0:0:
64,192,84534,1,0,0:0:0:0:
448,192,84534,1,0,0:0:0:0:
320,192,84631,1,0,0:0:0:0:
192,192,84728,1,0,0:0:0:0:
64,192,84824,1,0,0:0:0:0:
320,192,84824,1,0,0:0:0:0:
448,192,84824,1,0,0:0:0:0:
192,192,84921,1,0,0:0:0:0:
320,192,85018,1,0,0:0:0:0:
192,192,85115,1,0,0:0:0:0:
64,192,85115,1,0,0:0:0:0:
448,192,85115,1,0,0:0:0:0:
320,192,85212,1,0,0:0:0:0:
192,192,85308,1,0,0:0:0:0:
320,192,85405,1,0,0:0:0:0:
448,192,85405,1,0,0:0:0:0:
64,192,85405,1,0,0:0:0:0:
320,192,85502,1,0,0:0:0:0:
448,192,85502,1,0,0:0:0:0:
448,192,85599,1,0,0:0:0:0:
320,192,85599,1,0,0:0:0:0:
64,192,85695,1,0,0:0:0:0:
192,192,85720,1,0,0:0:0:0:
320,192,85744,1,0,0:0:0:0:
448,192,85768,1,0,0:0:0:0:
192,192,85889,1,0,0:0:0:0:
64,192,85889,1,0,0:0:0:0:
192,192,85986,1,0,0:0:0:0:
64,192,85986,1,0,0:0:0:0:
64,192,86082,1,0,0:0:0:0:
448,192,86082,1,0,0:0:0:0:
192,192,86082,1,0,0:0:0:0:
320,192,86179,1,0,0:0:0:0:
64,192,86276,1,0,0:0:0:0:
192,192,86373,1,0,0:0:0:0:
320,192,86470,1,0,0:0:0:0:
64,192,86566,1,0,0:0:0:0:
448,192,86663,1,0,0:0:0:0:
320,192,86760,1,0,0:0:0:0:
192,192,86857,128,0,87534:0:0:0:0:
64,192,86857,1,0,0:0:0:0:
448,192,86953,1,0,0:0:0:0:
320,192,87050,1,0,0:0:0:0:
448,192,87147,1,0,0:0:0:0:
64,192,87244,1,0,0:0:0:0:
320,192,87341,1,0,0:0:0:0:
448,192,87389,1,0,0:0:0:0:
64,192,87437,1,0,0:0:0:0:
320,192,87534,1,0,0:0:0:0:
448,192,87582,1,0,0:0:0:0:
64,192,87631,128,0,89179:0:0:0:0:
192,192,87631,128,0,88018:0:0:0:0:
448,192,88018,1,0,0:0:0:0:
448,192,88115,1,0,0:0:0:0:
320,192,88212,128,0,88405:0:0:0:0:
192,192,88405,128,0,88599:0:0:0:0:
448,192,88599,128,0,88695:0:0:0:0:
192,192,88792,128,0,88986:0:0:0:0:
448,192,88986,128,0,89082:0:0:0:0:
192,192,89179,128,0,90341:0:0:0:0:
320,192,89179,128,0,89373:0:0:0:0:
64,192,89373,128,0,89566:0:0:0:0:
320,192,89566,128,0,89760:0:0:0:0:
64,192,89760,128,0,89857:0:0:0:0:
448,192,89953,128,0,90050:0:0:0:0:
448,192,90147,128,0,90244:0:0:0:0:
64,192,90341,1,0,0:0:0:0:
320,192,90341,1,0,0:0:0:0:
448,192,90341,1,0,0:0:0:0:
192,192,90534,1,0,0:0:0:0:
320,192,90534,1,0,0:0:0:0:
192,192,90728,1,0,0:0:0:0:
64,192,90728,1,0,0:0:0:0:
448,192,90728,1,0,0:0:0:0:
64,192,90921,1,0,0:0:0:0:
64,192,91018,1,0,0:0:0:0:
192,192,91115,1,0,0:0:0:0:
320,192,91115,1,0,0:0:0:0:
448,192,91115,1,0,0:0:0:0:
64,192,91212,1,0,0:0:0:0:
448,192,91308,1,0,0:0:0:0:
320,192,91308,1,0,0:0:0:0:
448,192,91405,1,0,0:0:0:0:
320,192,91502,1,0,0:0:0:0:
192,192,91502,1,0,0:0:0:0:
64,192,91502,1,0,0:0:0:0:
448,192,91599,1,0,0:0:0:0:
64,192,91695,1,0,0:0:0:0:
192,192,91695,1,0,0:0:0:0:
192,192,91792,1,0,0:0:0:0:
64,192,91889,1,0,0:0:0:0:
320,192,91889,1,0,0:0:0:0:
448,192,91889,1,0,0:0:0:0:
448,192,91986,1,0,0:0:0:0:
64,192,92082,1,0,0:0:0:0:
64,192,92179,1,0,0:0:0:0:
448,192,92276,1,0,0:0:0:0:
320,192,92276,1,0,0:0:0:0:
192,192,92276,1,0,0:0:0:0:
320,192,92373,1,0,0:0:0:0:
192,192,92470,1,0,0:0:0:0:
64,192,92470,1,0,0:0:0:0:
448,192,92470,1,0,0:0:0:0:
192,192,92566,1,0,0:0:0:0:
64,192,92663,1,0,0:0:0:0:
320,192,92663,1,0,0:0:0:0:
448,192,92663,1,0,0:0:0:0:
448,192,92760,1,0,0:0:0:0:
320,192,92857,1,0,0:0:0:0:
192,192,92857,1,0,0:0:0:0:
64,192,92857,1,0,0:0:0:0:
64,192,92953,1,0,0:0:0:0:
192,192,93050,1,0,0:0:0:0:
320,192,93050,1,0,0:0:0:0:
448,192,93050,1,0,0:0:0:0:
320,192,93147,1,0,0:0:0:0:
320,192,93244,1,0,0:0:0:0:
64,192,93437,1,0,0:0:0:0:
448,192,93437,1,0,0:0:0:0:
192,192,93437,1,0,0:0:0:0:
64,192,93824,128,0,94212:0:0:0:0:
192,192,94212,1,0,0:0:0:0:
320,192,94212,1,0,0:0:0:0:
448,192,94212,1,0,0:0:0:0:
320,192,94308,1,0,0:0:0:0:
192,192,94405,1,0,0:0:0:0:
64,192,94405,1,0,0:0:0:0:
448,192,94405,1,0,0:0:0:0:
192,192,94502,1,0,0:0:0:0:
320,192,94599,1,0,0:0:0:0:
448,192,94599,1,0,0:0:0:0:
64,192,94599,1,0,0:0:0:0:
320,192,94695,1,0,0:0:0:0:
448,192,94695,1,0,0:0:0:0:
192,192,94792,1,0,0:0:0:0:
64,192,94792,1,0,0:0:0:0:
320,192,94889,1,0,0:0:0:0:
192,192,94986,1,0,0:0:0:0:
64,192,94986,1,0,0:0:0:0:
448,192,94986,1,0,0:0:0:0:
192,192,95082,1,0,0:0:0:0:
64,192,95082,1,0,0:0:0:0:
320,192,95179,1,0,0:0:0:0:
448,192,95179,1,0,0:0:0:0:
64,192,95276,1,0,0:0:0:0:
192,192,95373,1,0,0:0:0:0:
320,192,95373,1,0,0:0:0:0:
448,192,95373,1,0,0:0:0:0:
192,192,95470,1,0,0:0:0:0:
448,192,95470,1,0,0:0:0:0:
320,192,95566,1,0,0:0:0:0:
64,192,95566,1,0,0:0:0:0:
192,192,95663,1,0,0:0:0:0:
64,192,95760,1,0,0:0:0:0:
320,192,95760,1,0,0:0:0:0:
448,192,95760,1,0,0:0:0:0:
64,192,95857,1,0,0:0:0:0:
320,192,95857,1,0,0:0:0:0:
192,192,95953,1,0,0:0:0:0:
448,192,95953,1,0,0:0:0:0:
320,192,96050,1,0,0:0:0:0:
192,192,96147,1,0,0:0:0:0:
64,192,96147,1,0,0:0:0:0:
448,192,96147,1,0,0:0:0:0:
320,192,96341,1,0,0:0:0:0:
448,192,96341,1,0,0:0:0:0:
320,192,96437,1,0,0:0:0:0:
192,192,96534,1,0,0:0:0:0:
64,192,96534,1,0,0:0:0:0:
448,192,96534,1,0,0:0:0:0:
192,192,96728,1,0,0:0:0:0:
64,192,96728,1,0,0:0:0:0:
192,192,96824,1,0,0:0:0:0:
64,192,96921,1,0,0:0:0:0:
320,192,96921,1,0,0:0:0:0:
448,192,96921,1,0,0:0:0:0:
192,192,97115,1,0,0:0:0:0:
320,192,97115,1,0,0:0:0:0:
320,192,97212,1,0,0:0:0:0:
64,192,97308,1,0,0:0:0:0:
448,192,97308,1,0,0:0:0:0:
192,192,97308,1,0,0:0:0:0:
64,192,97405,1,0,0:0:0:0:
320,192,97502,1,0,0:0:0:0:
448,192,97502,1,0,0:0:0:0:
448,192,97599,1,0,0:0:0:0:
320,192,97695,1,0,0:0:0:0:
192,192,97695,1,0,0:0:0:0:
64,192,97695,1,0,0:0:0:0:
192,192,97792,1,0,0:0:0:0:
448,192,97889,1,0,0:0:0:0:
64,192,97889,1,0,0:0:0:0:
448,192,97986,1,0,0:0:0:0:
192,192,98082,1,0,0:0:0:0:
64,192,98082,1,0,0:0:0:0:
320,192,98082,1,0,0:0:0:0:
192,192,98179,1,0,0:0:0:0:
448,192,98276,1,0,0:0:0:0:
320,192,98276,1,0,0:0:0:0:
64,192,98276,1,0,0:0:0:0:
448,192,98373,1,0,0:0:0:0:
320,192,98470,1,0,0:0:0:0:
192,192,98470,1,0,0:0:0:0:
64,192,98470,1,0,0:0:0:0:
64,192,98566,1,0,0:0:0:0:
320,192,98663,1,0,0:0:0:0:
448,192,98663,1,0,0:0:0:0:
320,192,98760,1,0,0:0:0:0:
192,192,98857,1,0,0:0:0:0:
448,192,98857,1,0,0:0:0:0:
64,192,98857,1,0,0:0:0:0:
320,192,98953,1,0,0:0:0:0:
64,192,99050,1,0,0:0:0:0:
64,192,99147,1,0,0:0:0:0:
448,192,99244,128,0,99534:0:0:0:0:
192,192,99244,128,0,99437:0:0:0:0:
192,192,99534,1,0,0:0:0:0:
320,192,99631,128,0,99921:0:0:0:0:
64,192,99631,128,0,99921:0:0:0:0:
192,192,100018,1,0,0:0:0:0:
448,192,100018,1,0,0:0:0:0:
64,192,100018,128,0,100405:0:0:0:0:
320,192,100405,1,0,0:0:0:0:
320,192,100502,1,0,0:0:0:0:
192,192,100599,128,0,100792:0:0:0:0:
64,192,100792,1,0,0:0:0:0:
448,192,100792,1,0,0:0:0:0:
320,192,100889,1,0,0:0:0:0:
64,192,100986,1,0,0:0:0:0:
192,192,101034,1,0,0:0:0:0:
320,192,101082,1,0,0:0:0:0:
448,192,101131,1,0,0:0:0:0:
192,192,101179,1,0,0:0:0:0:
64,192,101179,128,0,101276:0:0:0:0:
448,192,101373,1,0,0:0:0:0:
320,192,101405,1,0,0:0:0:0:
192,192,101437,1,0,0:0:0:0:
448,192,101566,128,0,101760:0:0:0:0:
320,192,101663,1,0,0:0:0:0:
192,192,101760,1,0,0:0:0:0:
64,192,101760,128,0,101857:0:0:0:0:
320,192,101857,1,0,0:0:0:0:
448,192,101953,128,0,102147:0:0:0:0:
192,192,102050,1,0,0:0:0:0:
64,192,102147,128,0,102244:0:0:0:0:
320,192,102244,1,0,0:0:0:0:
64,192,102341,1,0,0:0:0:0:
448,192,102341,128,0,102437:0:0:0:0:
192,192,102534,1,0,0:0:0:0:
448,192,102534,128,0,102631:0:0:0:0:
192,192,102631,1,0,0:0:0:0:
320,192,102728,1,0,0:0:0:0:
448,192,102728,1,0,0:0:0:0:
64,192,102760,1,0,0:0:0:0:
192,192,102792,1,0,0:0:0:0:
320,192,102824,1,0,0:0:0:0:
192,192,102921,1,0,0:0:0:0:
320,192,102970,1,0,0:0:0:0:
448,192,103018,1,0,0:0:0:0:
192,192,103115,1,0,0:0:0:0:
64,192,103115,1,0,0:0:0:0:
448,192,103147,1,0,0:0:0:0:
320,192,103179,1,0,0:0:0:0:
192,192,103212,1,0,0:0:0:0:
448,192,103308,1,0,0:0:0:0:
64,192,103502,1,0,0:0:0:0:
448,192,103695,1,0,0:0:0:0:
320,192,103728,1,0,0:0:0:0:
192,192,103760,1,0,0:0:0:0:
448,192,103889,1,0,0:0:0:0:
64,192,103889,1,0,0:0:0:0:
320,192,104082,1,0,0:0:0:0:
192,192,104131,1,0,0:0:0:0:
64,192,104179,1,0,0:0:0:0:
448,192,104228,1,0,0:0:0:0:
320,192,104276,1,0,0:0:0:0:
192,192,104276,1,0,0:0:0:0:
64,192,104373,1,0,0:0:0:0:
320,192,104470,1,0,0:0:0:0:
64,192,104566,1,0,0:0:0:0:
320,192,104663,1,0,0:0:0:0:
448,192,104712,1,0,0:0:0:0:
64,192,104760,1,0,0:0:0:0:
192,192,104808,1,0,0:0:0:0:
320,192,104857,1,0,0:0:0:0:
448,192,104857,1,0,0:0:0:0:
192,192,104953,1,0,0:0:0:0:
320,192,105050,1,0,0:0:0:0:
64,192,105244,1,0,0:0:0:0:
192,192,105276,1,0,0:0:0:0:
320,192,105308,1,0,0:0:0:0:
64,192,105437,128,0,106115:0:0:0:0:
448,192,105437,128,0,106115:0:0:0:0:
64,192,106212,1,0,0:0:0:0:
448,192,106212,1,0,0:0:0:0:
320,192,106212,1,0,0:0:0:0:
192,192,106341,1,0,0:0:0:0:
320,192,106470,1,0,0:0:0:0:
448,192,106599,1,0,0:0:0:0:
192,192,106599,1,0,0:0:0:0:
64,192,106599,1,0,0:0:0:0:
320,192,106728,1,0,0:0:0:0:
192,192,106857,1,0,0:0:0:0:
64,192,106857,1,0,0:0:0:0:
448,192,106857,1,0,0:0:0:0:
64,192,106986,1,0,0:0:0:0:
192,192,106986,1,0,0:0:0:0:
320,192,107050,1,0,0:0:0:0:
448,192,107050,1,0,0:0:0:0:
192,192,107115,1,0,0:0:0:0:
64,192,107115,1,0,0:0:0:0:
320,192,107244,1,0,0:0:0:0:
448,192,107244,1,0,0:0:0:0:
64,192,107373,1,0,0:0:0:0:
448,192,107373,1,0,0:0:0:0:
320,192,107373,1,0,0:0:0:0:
192,192,107502,1,0,0:0:0:0:
320,192,107631,1,0,0:0:0:0:
448,192,107631,1,0,0:0:0:0:
64,192,107760,1,0,0:0:0:0:
192,192,107760,1,0,0:0:0:0:
448,192,107760,1,0,0:0:0:0:
64,192,108018,1,0,0:0:0:0:
192,192,108018,1,0,0:0:0:0:
448,192,108018,1,0,0:0:0:0:
448,192,108276,1,0,0:0:0:0:
192,192,108276,1,0,0:0:0:0:
64,192,108276,1,0,0:0:0:0:
64,192,108534,1,0,0:0:0:0:
448,192,108534,1,0,0:0:0:0:
320,192,108534,1,0,0:0:0:0:
192,192,108663,1,0,0:0:0:0:
320,192,108792,1,0,0:0:0:0:
448,192,108792,1,0,0:0:0:0:
192,192,108857,1,0,0:0:0:0:
320,192,108921,1,0,0:0:0:0:
448,192,108921,1,0,0:0:0:0:
64,192,108921,1,0,0:0:0:0:
192,192,109050,1,0,0:0:0:0:
448,192,109179,1,0,0:0:0:0:
320,192,109179,1,0,0:0:0:0:
192,192,109308,1,0,0:0:0:0:
64,192,109308,1,0,0:0:0:0:
320,192,109308,1,0,0:0:0:0:
64,192,109437,1,0,0:0:0:0:
192,192,109566,1,0,0:0:0:0:
448,192,109695,1,0,0:0:0:0:
320,192,109695,1,0,0:0:0:0:
64,192,109695,1,0,0:0:0:0:
448,192,109824,1,0,0:0:0:0:
320,192,109953,1,0,0:0:0:0:
192,192,110082,1,0,0:0:0:0:
64,192,110082,1,0,0:0:0:0:
448,192,110082,1,0,0:0:0:0:
320,192,110147,1,0,0:0:0:0:
64,192,110212,1,0,0:0:0:0:
192,192,110276,1,0,0:0:0:0:
448,192,110341,1,0,0:0:0:0:
320,192,110341,1,0,0:0:0:0:
64,192,110405,1,0,0:0:0:0:
192,192,110470,1,0,0:0:0:0:
448,192,110470,1,0,0:0:0:0:
320,192,110534,1,0,0:0:0:0:
64,192,110599,1,0,0:0:0:0:
192,192,110663,1,0,0:0:0:0:
320,192,110728,1,0,0:0:0:0:
448,192,110728,1,0,0:0:0:0:
64,192,110792,1,0,0:0:0:0:
192,192,110857,1,0,0:0:0:0:
320,192,110857,1,0,0:0:0:0:
448,192,110857,1,0,0:0:0:0:
320,192,111115,1,0,0:0:0:0:
192,192,111115,1,0,0:0:0:0:
448,192,111115,1,0,0:0:0:0:
320,192,111373,1,0,0:0:0:0:
192,192,111373,1,0,0:0:0:0:
448,192,111373,1,0,0:0:0:0:
64,192,111631,128,0,112341:0:0:0:0:
192,192,111631,128,0,112341:0:0:0:0:
448,192,111631,128,0,112341:0:0:0:0:
320,192,112018,128,0,112341:0:0:0:0:
64,192,112405,1,0,0:0:0:0:
448,192,112405,1,0,0:0:0:0:
192,192,112405,1,0,0:0:0:0:
320,192,112405,1,0,0:0:0:0:
