osu file format v14

[General]
AudioFilename: inst4.mp3
AudioLeadIn: 0
PreviewTime: 71309
Countdown: 0
SampleSet: Soft
StackLeniency: 0.3
Mode: 0
LetterboxInBreaks: 0
WidescreenStoryboard: 1

[Editor]
Bookmarks: 71428,86666
DistanceSpacing: 0.5
BeatDivisor: 6
GridSize: 16
TimelineZoom: 2.699999

[Metadata]
Title:Chatblanc
TitleUnicode:Chatblanc
Artist:roop
ArtistUnicode:roop
Creator:MeowUsername
Version:Voice's Another
Source:G2R2014 "GO BACK 2 YOUR ROOTS"
Tags:instrumental electronic bms npc newspaper cup mapping contest npc2021 Firis Mistlud KuranteMelodii krt atri voicecore -Atri- house
BeatmapID:2986336
BeatmapSetID:1382416

[Difficulty]
HPDrainRate:6
CircleSize:5
OverallDifficulty:8.5
ApproachRate:9
SliderMultiplier:3
SliderTickRate:1

[Events]
//Background and Video events
0,0,"dark.jpg",0,0
//Break Periods
//Storyboard Layer 0 (Background)
//Storyboard Layer 1 (Fail)
//Storyboard Layer 2 (Pass)
//Storyboard Layer 3 (Foreground)
//Storyboard Layer 4 (Overlay)
//Storyboard Sound Samples

[TimingPoints]
952,476.190476190476,4,2,4,100,1,0
2618,-200,4,2,4,30,0,0
5158,-200,4,2,4,5,0,0
5237,-200,4,2,4,30,0,0
5396,-200,4,2,4,5,0,0
5475,-200,4,2,4,30,0,0
5634,-200,4,2,4,5,0,0
5713,-200,4,2,4,40,0,0
6428,-133.333333333333,4,2,4,40,0,0
6666,-100,4,2,4,50,0,0
7142,-111.111111111111,4,2,4,50,0,0
10178,-111.111111111111,4,2,4,5,0,0
10237,-111.111111111111,4,2,4,50,0,0
10475,-100,4,2,4,50,0,0
11249,-100,4,2,4,5,0,0
11309,-111.111111111111,4,2,4,50,0,0
11487,-111.111111111111,4,2,4,5,0,0
11547,-125,4,2,4,50,0,0
11725,-125,4,2,4,5,0,0
11785,-125,4,2,4,50,0,0
11904,-111.111111111111,4,2,4,50,0,0
12082,-111.111111111111,4,2,4,5,0,0
12142,-111.111111111111,4,2,4,50,0,0
12321,-111.111111111111,4,2,4,5,0,0
12380,-111.111111111111,4,2,4,50,0,0
14285,-100,4,2,4,50,0,0
14761,-100,4,2,4,55,0,0
15237,-100,4,2,4,60,0,0
16190,-133.333333333333,4,2,4,50,0,0
17797,-133.333333333333,4,2,4,5,0,0
17856,-133.333333333333,4,2,4,50,0,0
18094,-100,4,2,4,50,0,0
19523,-111.111111111111,4,2,4,50,0,0
19701,-111.111111111111,4,2,4,5,0,0
19761,-111.111111111111,4,2,4,50,0,0
19940,-111.111111111111,4,2,4,5,0,0
19999,-111.111111111111,4,2,4,50,0,0
20951,-111.111111111111,4,2,4,60,0,0
22142,-200,4,2,4,40,0,0
23809,-133.333333333333,4,2,4,40,0,0
23967,-133.333333333333,4,2,4,5,0,0
24047,-133.333333333333,4,2,4,40,0,0
24205,-133.333333333333,4,2,4,5,0,0
24285,-133.333333333333,4,2,4,40,0,0
24444,-133.333333333333,4,2,4,5,0,0
24523,-133.333333333333,4,2,4,40,0,0
24761,-133.333333333333,4,2,4,45,0,0
25713,-100,4,2,4,55,0,0
26368,-100,4,2,4,5,0,0
26428,-100,4,2,4,55,0,0
29999,-83.3333333333333,4,2,4,55,0,0
30178,-83.3333333333333,4,2,4,5,0,0
30237,-100,4,2,4,55,0,0
30951,-100,4,2,4,60,0,0
31190,-133.333333333333,4,2,4,60,0,0
31428,-100,4,2,4,60,0,0
31666,-133.333333333333,4,2,4,60,0,0
31904,-100,4,2,4,60,0,0
32142,-133.333333333333,4,2,4,60,0,0
32380,-100,4,2,4,60,0,0
32856,-200,4,2,4,40,0,0
33332,-133.333333333333,4,2,4,45,0,0
33571,-133.333333333333,4,2,4,50,0,0
33809,-133.333333333333,4,2,4,55,0,0
34047,-133.333333333333,4,2,4,60,0,0
34285,-133.333333333333,4,2,4,65,0,0
35158,-133.333333333333,4,2,4,40,0,0
35416,-133.333333333333,4,2,4,5,0,0
35475,-133.333333333333,4,2,4,40,0,0
35654,-133.333333333333,4,2,4,5,0,0
35713,-133.333333333333,4,2,4,40,0,0
35892,-133.333333333333,4,2,4,5,0,0
35951,-133.333333333333,4,2,4,40,0,0
36130,-133.333333333333,4,2,4,5,0,0
36190,-133.333333333333,4,2,4,40,0,0
36666,-133.333333333333,4,2,4,45,0,0
37142,-100,4,2,4,55,0,0
37618,-83.3333333333333,4,2,4,55,0,0
37856,-100,4,2,4,55,0,0
39880,-133.333333333333,4,2,4,55,0,0
41428,-200,4,2,4,40,0,0
41904,-200,4,2,4,50,0,0
43332,-200,4,2,4,40,0,0
43809,-200,4,2,4,50,0,0
45237,-200,4,2,4,40,0,0
45713,-200,4,2,4,50,0,0
46547,-200,4,2,4,45,0,0
46666,-166.666666666667,4,2,4,45,0,0
46844,-166.666666666667,4,2,4,5,0,0
46904,-166.666666666667,4,2,4,45,0,0
47082,-166.666666666667,4,2,4,5,0,0
47142,-166.666666666667,4,2,4,45,0,0
47499,-166.666666666667,4,2,4,55,0,0
48094,-100,4,2,4,55,0,0
48571,-142.857142857143,4,2,4,50,0,0
50475,-125,4,2,4,55,0,0
52380,-111.111111111111,4,2,4,60,0,0
53571,-111.111111111111,4,2,4,65,0,0
54285,-200,4,2,4,40,0,0
56190,-333.333333333333,4,2,4,30,0,0
59999,-200,4,2,4,35,0,0
60475,-200,4,2,4,40,0,0
60951,-200,4,2,4,45,0,0
61428,-200,4,2,4,50,0,0
61904,-200,4,2,4,55,0,0
62380,-200,4,2,4,60,0,0
63809,-133.333333333333,4,2,4,60,0,0
66666,-133.333333333333,4,2,4,65,0,0
67618,-133.333333333333,4,2,4,40,0,0
67737,-133.333333333333,4,2,4,42,0,0
67856,-133.333333333333,4,2,4,44,0,0
67975,-133.333333333333,4,2,4,46,0,0
68094,-133.333333333333,4,2,4,48,0,0
68213,-133.333333333333,4,2,4,50,0,0
68332,-133.333333333333,4,2,4,52,0,0
68451,-133.333333333333,4,2,4,54,0,0
68571,-133.333333333333,4,2,4,56,0,0
68690,-133.333333333333,4,2,4,58,0,0
68809,-133.333333333333,4,2,4,60,0,0
68928,-133.333333333333,4,2,4,62,0,0
69047,-133.333333333333,4,2,4,64,0,0
69166,-133.333333333333,4,2,4,66,0,0
69285,-133.333333333333,4,2,4,5,0,0
69523,-125,4,2,4,50,0,0
69761,-500,4,2,4,50,0,0
70237,-500,4,2,4,5,0,0
70475,-133.333333333333,4,2,4,55,0,0
70832,-133.333333333333,4,2,4,5,0,0
70951,-100,4,2,4,60,0,0
71309,-100,4,2,4,5,0,0
71428,-83.3333333333333,4,2,4,70,0,0
71904,-66.6666666666667,4,2,4,70,0,0
73094,-100,4,2,4,72,0,0
73571,-90.9090909090909,4,2,4,74,0,0
73809,-83.3333333333333,4,2,4,76,0,0
74047,-74.0740740740741,4,2,4,78,0,0
74285,-66.6666666666667,4,2,4,80,0,0
75237,-83.3333333333333,4,2,4,70,0,0
76190,-74.0740740740741,4,2,4,70,0,0
77142,-83.3333333333333,4,2,4,70,0,0
78094,-74.0740740740741,4,2,4,75,0,0
78571,-74.0740740740741,4,2,4,76,0,0
78690,-74.0740740740741,4,2,4,77,0,0
78809,-74.0740740740741,4,2,4,78,0,0
78928,-74.0740740740741,4,2,4,79,0,0
79047,-83.3333333333333,4,2,4,80,0,0
79285,-83.3333333333333,4,2,4,70,0,0
79523,-66.6666666666667,4,2,4,70,0,0
80713,-83.3333333333333,4,2,4,72,0,0
80951,-100,4,2,4,72,0,0
81190,-90.9090909090909,4,2,4,74,0,0
81428,-83.3333333333333,4,2,4,76,0,0
81666,-74.0740740740741,4,2,4,78,0,0
81904,-66.6666666666667,4,2,4,80,0,0
82856,-83.3333333333333,4,2,4,70,0,0
83809,-74.0740740740741,4,2,4,70,0,0
84761,-83.3333333333333,4,2,4,70,0,0
85713,-500,4,2,4,50,0,0
85951,-500,4,2,4,5,0,0
86190,-500,4,2,4,50,0,0
86428,-500,4,2,4,5,0,0
86666,-83.3333333333333,4,2,4,70,0,0
87142,-66.6666666666667,4,2,4,70,0,0
88332,-66.6666666666667,4,2,4,72,0,0
88571,-100,4,2,4,72,0,0
88809,-90.9090909090909,4,2,4,74,0,0
89047,-83.3333333333333,4,2,4,76,0,0
89285,-74.0740740740741,4,2,4,78,0,0
89523,-66.6666666666667,4,2,4,80,0,0
90475,-83.3333333333333,4,2,4,70,0,0
91428,-74.0740740740741,4,2,4,70,0,0
92380,-83.3333333333333,4,2,4,70,0,0
93332,-74.0740740740741,4,2,4,75,0,0
93809,-74.0740740740741,4,2,4,78,0,0
93928,-74.0740740740741,4,2,4,79,0,0
94047,-74.0740740740741,4,2,4,80,0,0
94285,-83.3333333333333,4,2,4,75,0,0
96190,-83.3333333333333,4,2,4,76,0,0
96428,-83.3333333333333,4,2,4,77,0,0
96666,-83.3333333333333,4,2,4,78,0,0
96904,-83.3333333333333,4,2,4,79,0,0
97142,-66.6666666666667,4,2,4,80,0,0
98094,-74.0740740740741,4,2,4,75,0,0
98332,-83.3333333333333,4,2,4,75,0,0
99999,-83.3333333333333,4,2,4,80,0,0
100951,-83.3333333333333,4,2,4,81,0,0
101071,-83.3333333333333,4,2,4,82,0,0
101190,-83.3333333333333,4,2,4,83,0,0
101309,-83.3333333333333,4,2,4,84,0,0
101428,-83.3333333333333,4,2,4,85,0,0
101904,-200,4,2,4,85,0,0
102142,-200,4,2,4,80,0,0
102380,-200,4,2,4,75,0,0
102618,-200,4,2,4,70,0,0
102856,-200,4,2,4,65,0,0
103094,-200,4,2,4,60,0,0
103332,-200,4,2,4,55,0,0
103571,-200,4,2,4,50,0,0
103809,-200,4,2,4,45,0,0
104047,-200,4,2,4,40,0,0
104285,-200,4,2,4,35,0,0
104523,-200,4,2,4,30,0,0
104761,-200,4,2,4,25,0,0
104999,-200,4,2,4,20,0,0

[Colours]
Combo1 : 255,0,0
Combo2 : 128,255,255
Combo3 : 18,124,255
Combo4 : 192,192,192
Combo5 : 255,162,255

[HitObjects]
93,203,2618,5,0,0:0:0:0:
93,203,2856,2,0,L|181:185,1,75,2|0,0:0|0:0,0:0:0:0:
166,187,3332,2,0,P|145:227|152:269,1,75
413,278,3809,22,0,L|332:288,1,75
338,287,4205,37,0,0:0:0:0:
341,281,4285,22,0,P|337:246|316:222,1,50
304,355,4523,2,0,P|269:331|263:305,1,50,0|2,0:0|0:0,0:0:0:0:
264,313,4761,1,0,0:0:0:0:
403,165,4999,38,0,B|413:191|413:191|387:217,1,50,2|0,0:0|0:0,0:0:0:0:
398,206,5237,22,0,B|413:191|413:191|403:165,1,50,2|0,0:0|0:0,0:0:0:0:
403,165,5475,38,0,B|413:191|413:191|387:217,1,50,2|0,0:0|0:0,0:0:0:0:
309,229,5713,22,0,P|292:164|338:118,1,125,2|0,0:0|0:0,0:0:0:0:
482,34,6190,22,0,L|474:82,1,37.5,0|0,1:0|0:0,0:0:0:0:
326,141,6428,2,0,P|329:158|363:183,1,56.2500021457673,0|0,1:0|0:0,0:0:0:0:
258,37,6666,22,0,B|250:25|238:23|238:23|191:28|191:28|189:29|189:29|156:32|156:32|154:31|154:31|107:35,1,150,4|0,1:2|0:0,0:0:0:0:
336,57,7142,1,8,1:1:0:0:
331,63,7261,2,0,P|383:120|443:102,1,134.999995880127
263,120,7618,21,0,1:0:0:0:
269,113,7737,2,0,B|255:129|255:129|201:119,2,67.4999979400635
137,107,8094,2,0,B|145:163|145:163|139:175|139:175|149:242,1,134.999995880127,8|0,1:1|0:0,0:0:0:0:
109,344,8451,37,0,0:0:0:0:
104,340,8571,2,0,P|82:320|86:268,1,67.4999979400635,0|0,1:0|0:0,0:0:0:0:
153,172,8809,2,0,L|146:260,1,67.4999979400635
39,361,9047,2,0,B|7:340|7:340|121:354,1,134.999995880127,8|0,1:1|0:0,0:0:0:0:
408,340,9523,22,0,P|430:320|426:268,1,67.4999979400635,0|0,1:0|0:0,0:0:0:0:
359,172,9761,2,0,L|366:260,1,67.4999979400635
473,361,9999,2,0,B|505:340|505:340|458:346|458:346|458:344|458:344|417:350,1,101.249996910095,8|0,1:1|0:0,0:0:0:0:
427,343,10237,2,0,L|385:347,2,33.7499989700318,2|0|0,0:0|0:0|0:0,0:0:0:0:
310,288,10475,38,0,B|300:269|300:269|300:271|300:271|286:243|286:243|302:217|341:223|341:223|341:220|341:220|345:224|345:224|372:237|380:275,2,150,0|0|8,1:0|0:0|1:1,0:0:0:0:
476,166,11071,22,0,B|422:160|422:160|419:161|419:161|354:155,1,112.5,8|0,0:0|0:0,0:0:0:0:
371,149,11309,38,0,L|483:158,1,101.249996910095,8|0,0:0|0:0,0:0:0:0:
465,151,11547,22,0,L|372:142,1,90,8|0,0:0|0:0,0:0:0:0:
380,137,11785,37,8,0:0:0:0:
384,131,11904,2,0,P|414:177|390:228,1,101.249996910095,8|0,1:1|0:0,0:0:0:0:
319,233,12142,2,0,P|289:187|313:136,1,101.249996910095,8|0,0:0|0:0,0:0:0:0:
384,131,12380,22,0,B|411:151|411:151|431:180|414:240|367:253|367:253|370:251|370:251|349:255|349:255|320:247|320:247|312:241|312:241|299:242|299:242|270:233|270:233|218:243|218:243|213:232|213:232|238:326|238:326|228:337|228:337|228:298,1,472.499985580445,8|0,1:2|0:0,0:0:0:0:
245,72,13332,38,0,B|255:52|255:52|237:74|214:78|214:78|232:149,1,134.999995880127,2|0,1:2|0:0,0:0:0:0:
369,89,13690,1,2,0:0:0:0:
376,84,13809,2,0,P|371:40|345:21,1,67.4999979400635,8|0,1:1|0:0,0:0:0:0:
136,84,14047,2,0,P|141:40|167:21,1,67.4999979400635,0|0,1:0|0:0,0:0:0:0:
313,154,14285,54,0,P|323:205|355:229,1,75,0|0,1:0|0:0,0:0:0:0:
199,154,14523,2,0,P|189:205|157:229,1,75,0|0,1:0|0:0,0:0:0:0:
343,309,14761,54,0,P|396:318|432:336,1,75,0|0,1:0|0:0,0:0:0:0:
169,309,14999,2,0,P|116:318|80:336,1,75,0|0,1:0|1:0,0:0:0:0:
256,374,15237,37,4,1:2:0:0:
165,101,16190,5,0,1:0:0:0:
165,101,16428,2,0,P|120:126|98:121,1,56.2500021457673
10,43,16666,2,0,P|66:23|111:54,1,112.500004291535,8|0,1:1|0:0,0:0:0:0:
333,30,17023,37,0,0:0:0:0:
347,101,17142,21,0,1:0:0:0:
347,101,17380,2,0,P|392:126|414:121,1,56.2500021457673
502,43,17618,2,0,P|446:23|412:43,1,84.3750032186509,8|0,1:1|0:0,0:0:0:0:
413,22,17856,2,0,L|401:55,2,28.1250010728836,2|0|0,0:0|0:0|0:0,0:0:0:0:
264,207,18094,38,0,B|312:219|312:219|346:182,1,100,0|0,1:0|0:0,0:0:0:0:
346,181,18332,2,0,L|333:274,1,75
174,133,18571,21,8,1:1:0:0:
162,138,18690,2,0,L|145:46,1,75,8|0,0:0|0:0,0:0:0:0:
100,170,18928,2,0,L|81:270,1,75,8|0,0:0|1:0,0:0:0:0:
187,248,19166,38,0,B|123:253|123:253|120:256|120:256|35:264,1,150,8|8,0:0|0:0,0:0:0:0:
39,264,19523,22,0,B|42:240|66:224|66:224|106:218|123:251,1,101.249996910095,8|0,1:1|0:0,0:0:0:0:
164,307,19761,2,0,B|161:331|137:347|137:347|97:353|80:320,1,101.249996910095,8|0,0:0|0:0,0:0:0:0:
39,264,19999,38,0,B|66:161|161:147|234:178|208:258|179:262|179:262|229:240|229:240|241:273|241:273|272:257|272:257|277:274|277:274|306:257|334:275,1,472.499985580445,8|0,1:2|2:0,0:0:0:0:
489,324,20951,6,0,L|395:317,1,67.4999979400635,0|0,1:0|0:0,0:0:0:0:
278,175,21190,2,0,L|362:172,1,67.4999979400635,0|0,1:0|0:0,0:0:0:0:
411,325,21428,21,0,1:0:0:0:
394,259,21547,1,0,1:0:0:0:
411,193,21666,1,0,1:0:0:0:
428,127,21785,1,0,1:0:0:0:
416,60,21904,1,4,1:2:0:0:
416,60,22142,6,0,B|400:54|382:66|382:66|362:76|338:66,2,75
217,18,22856,2,0,L|292:12,1,75
165,82,23253,21,0,0:0:0:0:
160,87,23332,38,0,L|211:94,1,50
43,41,23571,2,0,P|53:73|78:84,1,50,0|2,0:0|0:0,0:0:0:0:
79,87,23809,22,0,P|96:118|77:159,1,75.000002861023
72,167,24047,38,0,B|87:159|89:136|89:136|102:158|128:154,1,75.000002861023,2|0,0:0|0:0,0:0:0:0:
121,155,24285,22,0,B|102:158|89:136|89:136|87:159|71:166,1,75.000002861023,2|0,0:0|0:0,0:0:0:0:
72,167,24523,38,0,L|140:149,1,37.5000014305115,2|8,0:0|0:0,0:0:0:0:
189,209,24761,37,2,0:0:0:0:
185,214,24880,2,0,P|235:216|312:219,1,112.500004291535,8|0,0:0|0:0,0:0:0:0:
467,131,25237,6,0,P|436:111|404:117,1,56.2500021457673,0|8,1:0|0:0,0:0:0:0:
467,257,25475,2,0,P|436:277|404:271,1,56.2500021457673,0|8,1:0|0:0,0:0:0:0:
310,50,25713,22,0,B|340:53|354:24|354:24|347:60|347:60|345:64|345:64|339:96|339:96|340:99|340:99|330:145,1,150,4|0,1:2|0:0,0:0:0:0:
216,265,26190,2,0,P|206:205|266:168,1,112.5,8|0,1:1|0:0,0:0:0:0:
259,193,26428,2,0,P|268:218|262:242,2,37.5
107,124,26666,21,0,1:0:0:0:
115,131,26785,2,0,L|210:120,1,75
11,236,27023,37,0,0:0:0:0:
20,241,27142,2,0,P|60:215|66:172,1,75,8|0,1:1|0:0,0:0:0:0:
46,65,27380,2,0,B|26:75|17:89|17:89|35:131,1,75,8|0,0:0|0:0,0:0:0:0:
112,299,27618,1,0,0:0:0:0:
19,350,27856,21,8,0:0:0:0:
93,372,27975,1,8,0:0:0:0:
112,299,28094,1,8,1:1:0:0:
40,278,28213,1,8,0:0:0:0:
264,266,28571,37,8,1:2:0:0:
192,287,28690,1,8,0:0:0:0:
149,225,28809,1,8,0:0:0:0:
194,165,28928,1,8,0:0:0:0:
264,190,29047,5,8,1:0:0:0:
345,354,29285,6,0,B|333:337|314:334|314:334|295:350|273:349|273:349|252:340|226:341,1,112.5,2|0,0:0|0:0,0:0:0:0:
133,331,29523,38,0,B|122:331|110:340|110:340|104:273|174:259|205:300,1,150,0|0,1:0|0:0,0:0:0:0:
403,276,29999,2,0,B|366:272|366:272|369:274|369:274|341:259|341:259|347:262|347:262|281:254,1,134.999995880127,8|0,1:1|0:0,0:0:0:0:
283,255,30237,2,0,L|331:276,2,37.5,2|0|0,0:0|0:0|0:0,0:0:0:0:
411,351,30475,21,0,1:0:0:0:
407,346,30594,2,0,B|449:337|463:310|463:310|471:313|471:313|465:306|465:306|484:259|441:219,1,150
256,139,30951,6,0,P|243:180|282:224,1,100,8|0,1:1|0:0,0:0:0:0:
275,62,31190,2,0,L|261:18,2,37.5000014305115,0|0|0,3:0|3:0|3:0,3:0:0:0:
331,117,31428,38,0,P|372:106|390:51,1,100,0|0,1:0|0:0,0:0:0:0:
256,139,31666,2,0,L|224:172,2,37.5000014305115,0|0|0,3:0|3:0|3:0,3:0:0:0:
275,62,31904,22,0,P|245:30|187:41,1,100,8|0,1:1|0:0,0:0:0:0:
331,117,32142,2,0,L|374:126,2,37.5000014305115,0|0|0,3:0|3:0|3:0,3:0:0:0:
256,139,32380,38,0,P|209:172|138:130,1,100,0|0,1:0|0:0,0:0:0:0:
48,54,32618,5,0,3:0:0:0:
51,39,32698,5,0,3:0:0:0:
63,31,32777,5,0,3:0:0:0:
77,27,32856,6,0,B|75:63|75:63|71:73|71:73|66:138,1,100,0|0,1:0|0:0,0:0:0:0:
59,216,33332,5,0,3:0:0:0:
75,218,33451,1,0,1:0:0:0:
143,133,33571,5,0,3:0:0:0:
165,131,33690,1,0,1:0:0:0:
219,254,33809,37,0,3:0:0:0:
246,257,33928,1,0,3:0:0:0:
290,98,34047,37,0,3:0:0:0:
323,93,34166,1,0,3:0:0:0:
379,304,34285,37,2,3:2:0:0:
461,217,35158,37,2,0:0:0:0:
466,223,35237,22,0,P|411:222|396:264,1,84.3750032186509
401,327,35475,38,0,B|429:324|429:324|451:341|451:341|497:336,1,84.3750032186509,2|0,0:0|0:0,0:0:0:0:
482,331,35713,22,0,B|453:333|453:333|431:316|431:316|385:321,1,84.3750032186509,2|0,0:0|0:0,0:0:0:0:
404,311,35951,38,0,B|432:308|432:308|454:325|454:325|500:320,1,84.3750032186509,2|0,0:0|0:0,0:0:0:0:
352,363,36190,22,0,B|290:358|290:358|289:357|289:357|236:353|236:353|234:354|234:354|177:350,1,168.750006437302,2|0,0:0|0:0,0:0:0:0:
7,303,36666,22,0,P|25:327|57:329,1,56.2500021457673,0|0,1:0|0:0,0:0:0:0:
239,253,36904,2,0,P|254:235|246:191,1,56.2500021457673,0|0,1:0|0:0,0:0:0:0:
63,123,37142,22,0,B|76:157|53:186|53:186|78:157|112:160|112:160|78:156|74:140,1,150,4|0,1:2|0:0,0:0:0:0:
226,252,37618,22,0,B|257:236|290:256|290:256|290:257|290:257|322:277|364:256,1,134.999995880127,10|0,1:1|0:0,0:0:0:0:
354,249,37856,2,0,L|350:292,2,37.5
139,163,38094,37,0,1:0:0:0:
106,250,38213,2,0,B|52:231|66:175|97:159|97:159|164:165,1,150,0|8,0:0|0:0,0:0:0:0:
288,105,38571,22,0,L|367:98,2,75,10|8|2,1:1|0:0|0:0,0:0:0:0:
139,33,38928,37,0,0:0:0:0:
131,32,38987,1,0,0:0:0:0:
124,30,39047,2,0,B|94:23|94:23|61:72|77:135|139:146|139:146|135:146|135:146|198:183|172:277|138:287|138:287|108:287|108:287|108:292|108:292|94:264|51:266,1,450,0|0,1:0|0:0,0:0:0:0:
256,299,39880,6,0,L|316:289,1,56.2500021457673,2|0,1:2|0:0,0:0:0:0:
359,229,40118,2,0,P|418:220|457:273,1,112.500004291535,2|0,0:0|0:0,0:0:0:0:
311,289,40475,6,0,L|275:287,2,28.1250010728836,0|0|0,1:0|0:0|0:0,0:0:0:0:
452,254,40713,2,0,P|465:219|453:191,1,56.2500021457673,0|0,1:0|0:0,0:0:0:0:
387,153,40951,21,4,1:2:0:0:
395,282,41190,1,0,0:0:0:0:
387,153,41428,21,0,0:0:0:0:
374,158,41547,1,0,0:0:0:0:
364,168,41666,1,0,0:0:0:0:
360,182,41785,1,0,0:0:0:0:
363,195,41904,38,0,L|448:187,1,75,2|0,0:0|0:0,0:0:0:0:
266,229,42261,2,0,B|303:232|303:232|328:261|328:261|380:265,1,112.5,2|0,0:0|0:0,0:0:0:0:
213,339,42856,21,2,1:2:0:0:
89,298,43094,1,0,0:0:0:0:
213,339,43332,37,0,0:0:0:0:
203,328,43451,1,0,0:0:0:0:
196,316,43570,1,0,0:0:0:0:
194,302,43689,1,0,0:0:0:0:
197,288,43809,22,0,P|248:283|274:303,1,75,2|0,0:0|0:0,0:0:0:0:
89,298,44166,2,0,B|72:285|82:264|82:264|123:273|125:333,1,112.5,2|0,0:0|0:0,0:0:0:0:
11,364,44761,37,2,1:2:0:0:
48,204,44999,1,0,0:0:0:0:
85,44,45237,21,0,0:0:0:0:
89,57,45356,1,0,0:0:0:0:
95,69,45475,1,0,0:0:0:0:
106,78,45594,1,0,0:0:0:0:
120,80,45713,38,0,B|107:69|107:69|46:75,1,75,2|0,0:0|0:0,0:0:0:0:
182,19,46071,2,0,L|300:28,1,112.5,2|0,0:0|0:0,0:0:0:0:
472,37,46547,1,0,0:0:0:0:
474,28,46666,22,0,P|441:21|405:52,1,67.4999979400635,10|0,1:2|0:0,0:0:0:0:
424,106,46904,2,0,P|457:113|493:82,1,67.4999979400635,8|0,0:0|0:0,0:0:0:0:
359,81,47142,1,8,0:0:0:0:
317,134,47261,1,8,0:0:0:0:
351,191,47380,1,8,0:0:0:0:
347,199,47499,38,0,L|287:196,1,44.999998626709,4|8,0:0|0:0,0:0:0:0:
100,259,47737,2,0,L|166:253,1,44.999998626709,4|8,0:0|0:0,0:0:0:0:
278,334,47975,1,8,0:0:0:0:
271,338,48094,6,0,B|253:336|249:303|249:303|275:277|319:280|338:302|338:302|348:309|355:312|355:312|389:328|421:309,1,225,8|0,0:0|0:0,0:0:0:0:
474,164,48571,22,0,P|489:140|491:106,1,52.4999983978272,2|0,1:2|0:0,0:0:0:0:
384,247,48809,2,0,B|371:234|371:234|360:174|360:174|363:164|363:164|357:157|357:157|351:109|351:109|344:107|344:107|412:110,1,209.999993591309,8|8,0:0|2:0,0:0:0:0:
280,197,49523,38,0,P|249:186|227:173,1,52.4999983978272,2|0,1:2|0:0,0:0:0:0:
397,109,49761,2,8,B|413:128|413:128|359:118|359:118|350:112|350:112|339:115|339:115|297:106|297:106|292:111|292:111|320:94|326:54,1,209.999993591309,8|8,0:0|2:0,0:0:0:0:
280,197,50475,22,0,L|213:207,1,60,2|0,1:2|0:0,0:0:0:0:
64,75,50713,2,8,B|102:31|102:31|99:37|99:37|149:28|149:28|160:31|160:31|168:25|168:25|209:23|209:23|205:19|205:19|270:56,1,240,8|8,0:0|2:0,0:0:0:0:
9,131,51428,38,0,P|3:153|36:187,1,60,2|0,1:2|0:0,0:0:0:0:
188,297,51666,2,8,B|209:302|209:302|208:253|146:224|100:265|100:265|83:309|131:338,1,240
331,155,52380,22,0,L|324:78,1,67.4999979400635,2|8,1:2|0:0,0:0:0:0:
181,229,52618,2,0,L|188:306,1,67.4999979400635,0|8,0:0|0:0,0:0:0:0:
398,154,52856,38,0,B|393:150|385:151|385:151|318:157,1,67.4999979400635,2|8,1:2|0:0,0:0:0:0:
114,230,53094,2,0,B|119:234|127:233|127:233|194:227,1,67.4999979400635,0|8,0:0|0:0,0:0:0:0:
388,219,53332,22,0,P|400:168|394:141,1,67.4999979400635,2|8,1:2|0:0,0:0:0:0:
168,129,53571,53,0,1:0:0:0:
127,164,53690,21,8,3:2:0:0:
114,230,53809,37,10,3:2:0:0:
169,288,53928,21,8,3:2:0:0:
235,279,54047,37,8,3:2:0:0:
264,233,54166,21,0,3:0:0:0:
256,192,54285,38,0,B|259:229|233:254|233:254|245:247|245:247|290:261|290:261|300:261|300:261|308:265|308:265|379:286|379:286|367:290|367:290|438:312|476:231|416:190|416:190|421:196|421:196|341:175|341:175|367:166|387:116|387:116|379:135|360:149,1,600,4|0,0:3|2:0,0:0:0:0:
372,138,56666,37,0,0:0:0:0:
285,174,56904,2,0,P|223:166|148:161,1,134.999995880127,2|0,0:0|0:0,0:0:0:0:
15,200,58094,22,0,P|42:232|91:223,1,89.9999972534181,2|0,0:0|0:0,0:0:0:0:
150,161,58809,2,0,B|107:161|89:124|89:124|106:178|84:232,1,179.999994506836,2|0,0:0|0:0,0:0:0:0:
50,295,59999,37,0,1:0:0:0:
58,296,60475,1,0,1:0:0:0:
75,298,60951,1,0,1:0:0:0:
101,301,61428,1,0,1:0:0:0:
136,305,61904,1,0,1:0:0:0:
180,309,62380,1,0,1:0:0:0:
250,357,62856,22,0,B|255:359|255:359|328:349,1,75,4|0,1:2|0:0,0:0:0:0:
369,255,63332,2,0,B|364:253|364:253|291:263,1,75,4|0,1:2|0:0,0:0:0:0:
475,350,63809,38,0,L|457:218,1,112.500004291535,4|0,1:2|0:0,0:0:0:0:
369,255,64166,1,0,0:0:0:0:
359,259,64285,2,0,B|374:167|374:167|381:208,1,112.500004291535,0|0,1:0|0:0,0:0:0:0:
383,35,64761,22,0,B|401:12|401:12|385:105,1,112.500004291535,4|0,1:2|0:0,0:0:0:0:
260,212,65118,1,0,0:0:0:0:
252,218,65237,2,0,P|217:201|220:132,1,112.500004291535,0|0,1:0|0:0,0:0:0:0:
217,134,65713,38,0,L|337:143,1,112.500004291535,4|0,1:2|0:0,0:0:0:0:
186,50,66071,1,0,0:0:0:0:
193,56,66190,2,0,B|147:89|147:89|94:74,1,112.500004291535,0|0,1:0|0:0,0:0:0:0:
288,67,66666,21,4,1:2:0:0:
236,221,66904,1,0,0:0:0:0:
82,169,67142,1,4,1:2:0:0:
134,15,67380,1,0,0:0:0:0:
256,192,67618,12,0,69285,1:0:0:0:
172,258,69523,22,0,P|168:303|150:321,1,60,0|0,1:0|0:0,0:0:0:0:
78,298,69761,38,0,P|82:253|100:235,1,60,8|0,1:1|0:0,0:0:0:0:
90,242,70475,6,0,B|194:236|151:286|274:270,1,168.750006437302,2|0,0:0|0:0,0:0:0:0:
433,173,70951,2,0,B|312:148|353:213|206:185,1,225,2|0,0:0|0:0,0:0:0:0:
3,71,71428,6,0,P|91:48|113:141,1,179.999994506836,6|0,1:2|0:0,0:0:0:0:
90,242,71785,1,0,0:0:0:0:
42,291,71904,2,2,B|-22:221|65:150|101:167|89:243|89:243|86:217|86:217|136:181|188:210|188:210|185:210|185:210|224:260|290:238,2,450.000017166138,8|2|8,1:1|1:0|1:1,0:0:0:0:
482,225,73094,37,2,0:0:0:0:
512,150,73213,1,2,0:0:0:0:
470,81,73332,22,2,L|395:87,1,75,2|0,1:0|0:0,0:0:0:0:
255,190,73571,2,2,L|345:199,1,82.5000025177003,2|0,0:0|0:0,0:0:0:0:
392,80,73809,2,2,B|349:84|349:84|344:80|344:80|293:85,1,89.9999972534181,10|8,1:0|0:0,0:0:0:0:
146,183,74047,2,2,B|193:188|193:188|197:192|197:192|260:198,1,101.250000386238,2|8,0:0|0:0,0:0:0:0:
294,79,74285,38,0,B|192:90|192:90|176:98|176:98|58:109,1,225.000008583069,8|0,3:2|0:0,0:0:0:0:
242,341,74642,1,0,0:0:0:0:
246,347,74761,22,0,B|350:356|350:356|366:352|366:352|505:364,1,225.000008583069,8|0,3:2|0:0,0:0:0:0:
175,48,75237,38,0,B|135:23|102:54|102:54|97:50|97:50|97:65|97:65|64:90|2:62,1,179.999994506836,6|0,1:2|0:0,0:0:0:0:
329,23,75713,1,8,1:1:0:0:
329,23,75951,2,0,P|359:60|357:102,1,89.9999972534181
187,308,76190,22,0,B|177:341|145:341|145:341|141:346|141:346|131:339|131:339|105:311|106:255|158:214,1,202.500000772476,2|0,1:0|0:0,0:0:0:0:
240,161,76547,1,0,0:0:0:0:
105,100,76666,2,0,P|121:162|241:159,1,202.500000772476,8|0,1:1|0:0,0:0:0:0:
502,13,77142,37,2,1:0:0:0:
418,259,77380,2,0,P|477:239|471:191,1,89.9999972534181
460,134,77618,21,10,1:1:0:0:
511,365,77856,2,0,P|508:311|464:288,1,89.9999972534181
265,348,78094,38,0,L|161:341,1,101.250000386238,2|8,1:0|0:0,0:0:0:0:
418,259,78332,2,0,B|402:287|359:289|359:289|309:285,1,101.250000386238,0|8,0:0|0:0,0:0:0:0:
42,157,78571,21,2,1:0:0:0:
104,90,78690,1,0,1:0:0:0:
185,48,78809,1,2,1:0:0:0:
275,36,78928,1,0,1:0:0:0:
364,56,79047,1,6,1:2:0:0:
268,188,79285,38,0,P|267:225|313:277,1,89.9999972534181
419,260,79523,22,0,B|448:231|448:231|395:218|395:218|406:216|406:216|421:182|380:146|380:146|384:153|384:153|311:104|237:194|292:254|292:254|284:230|298:205,2,450.000017166138,8|2|8,1:1|1:2|1:1,0:0:0:0:
1,372,80713,38,0,P|19:326|108:335,1,134.999995880127,2|0,0:0|0:0,0:0:0:0:
105,322,80951,22,0,P|125:361|178:354,1,75,2|0,1:0|0:0,0:0:0:0:
90,221,81190,2,0,P|46:242|49:301,1,82.5000025177003,2|0,0:0|0:0,0:0:0:0:
181,175,81428,2,0,P|179:115|151:98,1,89.9999972534181,2|8,1:1|0:0,0:0:0:0:
252,247,81666,2,0,P|311:240|333:206,1,101.250000386238,2|8,0:0|0:0,0:0:0:0:
126,4,81904,38,0,B|104:29|81:110|77:191|90:222,1,225.000008583069,8|0,3:2|0:0,0:0:0:0:
377,380,82261,1,0,0:0:0:0:
386,380,82380,22,0,B|408:355|431:274|435:193|422:162,1,225.000008583069,8|0,3:2|0:0,0:0:0:0:
27,334,82856,38,0,B|59:267|127:271|127:271|134:273|134:273|159:278|159:278|162:275|162:275|163:279|163:279|187:283,1,179.999994506836,6|0,1:2|0:0,0:0:0:0:
341,315,83332,1,8,1:1:0:0:
341,315,83571,2,0,P|293:320|251:323,1,89.9999972534181
81,178,83809,22,0,B|135:163|143:106|143:106|130:163|183:199,1,202.500000772476,2|0,1:2|0:0,0:0:0:0:
56,95,84166,1,0,0:0:0:0:
180,34,84285,2,0,P|235:19|190:114,1,202.500000772476,8|0,1:1|0:0,0:0:0:0:
401,197,84761,37,2,1:0:0:0:
150,276,84999,2,0,L|246:285,1,89.9999972534181
344,294,85237,21,10,1:1:0:0:
401,37,85475,2,0,L|345:115,1,89.9999972534181
288,196,85713,6,0,P|306:206|316:209,1,30,0|0,1:0|0:0,0:0:0:0:
481,373,86190,2,0,P|477:353|472:344,1,30,0|0,1:0|0:0,0:0:0:0:
246,79,86666,22,0,P|212:140|300:191,1,179.999994506836,2|0,1:0|0:0,0:0:0:0:
305,28,87023,1,0,0:0:0:0:
246,79,87142,22,0,B|236:138|168:125|164:87|164:87|162:69|162:69|176:124|164:198|40:228|-49:119|49:21|118:55|95:139,2,450.000017166138,8|2|8,1:1|1:0|1:1,0:0:0:0:
501,96,88332,38,0,B|469:54|469:54|473:65|473:65|353:78,1,168.750006437302,2|0,0:0|0:0,0:0:0:0:
358,88,88571,22,0,P|320:61|311:28,1,75,2|0,1:0|0:0,0:0:0:0:
268,210,88809,2,0,P|284:162|256:116,1,82.5000025177003,2|0,0:0|0:0,0:0:0:0:
436,180,89047,2,0,P|380:192|349:174,1,89.9999972534181,10|8,1:1|0:0,0:0:0:0:
256,315,89285,2,0,P|310:302|338:255,1,101.250000386238,2|8,0:0|0:0,0:0:0:0:
471,341,89523,38,0,B|456:324|417:318|417:318|391:315|391:315|388:313|388:313|338:306|338:306|335:307|335:307|306:304|306:304|264:299|232:333,1,225.000008583069,8|0,3:2|0:0,0:0:0:0:
46,49,89880,1,0,0:0:0:0:
41,43,89999,22,0,B|56:60|95:66|95:66|121:69|121:69|124:71|124:71|174:78|174:78|177:77|177:77|206:80|206:80|248:85|280:51,1,225.000008583069,8|0,3:2|0:0,0:0:0:0:
500,229,90475,38,0,B|471:229|442:218|442:218|407:214|384:231|384:231|354:217|303:227,1,179.999994506836,6|0,1:2|0:0,0:0:0:0:
9,254,90951,1,8,1:1:0:0:
9,254,91190,2,0,P|21:289|92:278,1,89.9999972534181
266,235,91428,22,0,B|255:95|255:95|232:163,1,202.500000772476,2|0,1:2|0:0,0:0:0:0:
350,126,91785,1,0,0:0:0:0:
277,34,91904,2,0,P|193:80|254:158,1,202.500000772476,8|0,1:1|0:0,0:0:0:0:
2,12,92380,37,2,1:0:0:0:
109,255,92618,2,0,B|154:257|154:257|103:220,1,89.9999972534181
23,218,92856,21,10,1:1:0:0:
265,109,93094,2,0,B|233:80|233:80|172:84,1,89.9999972534181
109,255,93332,38,0,P|95:308|133:344,1,101.250000386238,2|8,1:0|0:0,0:0:0:0:
186,83,93571,2,0,L|168:193,1,101.250000386238,0|8,0:0|0:0,0:0:0:0:
311,382,93809,21,2,1:0:0:0:
303,281,93928,1,0,1:0:0:0:
295,180,94047,1,2,1:0:0:0:
448,53,94285,38,0,P|454:93|413:142,1,89.9999972534181,6|0,1:2|0:0,0:0:0:0:
226,209,94523,2,0,P|220:169|261:120,1,89.9999972534181
471,209,94761,2,0,L|359:224,1,89.9999972534181,10|0,1:1|0:0,0:0:0:0:
186,83,94999,2,0,L|74:98,1,89.9999972534181
295,180,95237,22,0,B|374:191|374:191|392:201|392:201|476:210,1,179.999994506836,2|0,1:0|0:0,0:0:0:0:
225,142,95594,1,0,0:0:0:0:
156,259,95713,2,0,B|108:299|150:340|150:340|229:341|262:253|211:198,1,269.999991760254,8|0,1:1|0:0,0:0:0:0:
20,27,96190,37,2,1:0:0:0:
18,44,96309,1,0,0:0:0:0:
84,56,96428,21,2,0:0:0:0:
85,82,96547,1,0,0:0:0:0:
154,70,96666,37,10,1:1:0:0:
165,103,96785,1,8,0:0:0:0:
224,67,96904,21,2,0:0:0:0:
247,104,97023,1,8,0:0:0:0:
292,45,97142,38,0,B|335:86|335:86|330:69|330:69|387:63|387:63|397:56|397:56|413:60|413:60|494:51,1,225.000008583069,8|0,3:2|0:0,0:0:0:0:
225,345,97499,1,0,0:0:0:0:
220,339,97618,22,0,B|176:297|176:297|181:314|181:314|125:321|125:321|115:328|115:328|99:324|99:324|18:333,1,225.000008583069,8|0,3:2|0:0,0:0:0:0:
466,256,98094,38,0,B|444:252|444:252|412:259|384:241|384:241|338:233,1,101.250000386238,6|0,1:2|0:0,0:0:0:0:
178,142,98332,2,0,P|115:158|95:211,1,89.9999972534181
338,149,98571,2,0,P|355:86|320:43,1,89.9999972534181,10|0,1:1|0:0,0:0:0:0:
251,284,98809,2,0,P|297:331|352:321,1,89.9999972534181
341,62,99047,21,2,1:0:0:0:
126,107,99285,1,0,0:0:0:0:
171,322,99523,1,10,1:1:0:0:
386,277,99761,1,0,0:0:0:0:
341,62,99999,38,0,B|303:89|303:89|309:145,1,89.9999972534181,0|4,1:0|0:0,0:0:0:0:
386,277,100237,2,0,B|359:239|359:239|303:245,1,89.9999972534181,0|4,0:0|0:0,0:0:0:0:
171,322,100475,2,0,B|209:295|209:295|203:239,1,89.9999972534181,10|4,1:1|0:0,0:0:0:0:
126,107,100713,2,0,B|153:145|153:145|209:139,1,89.9999972534181,0|4,0:0|0:0,0:0:0:0:
276,183,100951,21,2,1:0:0:0:
265,212,101071,1,4,0:0:0:0:
236,201,101190,1,2,0:0:0:0:
247,172,101309,1,4,0:0:0:0:
309,219,101428,6,0,L|250:209,1,44.999998626709,10|0,1:1|0:0,0:0:0:0:
228,245,101547,6,0,L|238:186,1,44.999998626709,4|0,0:0|0:0,0:0:0:0:
202,164,101666,38,0,L|261:174,1,44.999998626709,2|0,1:0|0:0,0:0:0:0:
283,138,101785,54,0,L|273:197,1,44.999998626709,4|0,0:0|0:0,0:0:0:0:
228,186,101904,54,0,B|179:109|170:39|170:39|181:16|181:16|278:2|278:2|295:20|295:20|304:92|280:179|280:179|231:204|231:204|205:292|215:360|215:360|233:381|233:381|329:367|329:367|339:342|339:342|330:274|283:197,1,975,4|0,1:3|0:0,0:0:0:0:
