osu file format v14

[General]
AudioFilename: inst4.mp3
AudioLeadIn: 0
PreviewTime: 71309
Countdown: 0
SampleSet: Soft
StackLeniency: 0.3
Mode: 0
LetterboxInBreaks: 0
WidescreenStoryboard: 1

[Editor]
Bookmarks: 71428,86666
DistanceSpacing: 1
BeatDivisor: 4
GridSize: 16
TimelineZoom: 4.199998

[Metadata]
Title:Chatblanc
TitleUnicode:Chatblanc
Artist:roop
ArtistUnicode:roop
Creator:MeowUsername
Version:Hard
Source:G2R2014 "GO BACK 2 YOUR ROOTS"
Tags:instrumental electronic bms npc newspaper cup mapping contest npc2021 Firis Mistlud KuranteMelodii krt atri voicecore -Atri- house
BeatmapID:2920083
BeatmapSetID:1382416

[Difficulty]
HPDrainRate:4
CircleSize:3.6
OverallDifficulty:6.5
ApproachRate:7.2
SliderMultiplier:1.5
SliderTickRate:1

[Events]
//Background and Video events
0,0,"dark.jpg",0,0
//Break Periods
//Storyboard Layer 0 (Background)
//Storyboard Layer 1 (Fail)
//Storyboard Layer 2 (Pass)
//Storyboard Layer 3 (Foreground)
//Storyboard Layer 4 (Overlay)
//Storyboard Sound Samples

[TimingPoints]
952,476.190476190476,4,2,0,60,1,0
7856,-100,4,2,0,5,0,0
8094,-100,4,2,0,60,0,0
11666,-100,4,2,0,5,0,0
11904,-100,4,2,0,60,0,0
25952,-100,4,2,0,5,0,0
26190,-100,4,2,0,60,0,0
29761,-100,4,2,0,5,0,0
29999,-100,4,2,0,60,0,0
37380,-100,4,2,0,5,0,0
37618,-100,4,2,0,60,0,0
39047,-100,4,2,0,70,0,0
54285,-250,4,2,1,70,0,0
55237,-142.857142857143,4,2,1,60,0,0
56190,-142.857142857143,4,2,1,50,0,0
63809,-100,4,2,1,50,0,0
71428,-83.3333333333333,4,2,0,90,0,1
75475,-83.3333333333333,4,2,0,5,0,1
75594,-83.3333333333333,4,2,0,90,0,1
83094,-83.3333333333333,4,2,0,5,0,1
83213,-83.3333333333333,4,2,0,90,0,1
85713,-83.3333333333333,4,2,0,70,0,0
86666,-83.3333333333333,4,2,0,90,0,1
90714,-83.3333333333333,4,2,0,5,0,1
90952,-83.3333333333333,4,2,0,90,0,1
98333,-83.3333333333333,4,2,0,5,0,1
98571,-83.3333333333333,4,2,0,90,0,1
101904,-83.3333333333333,4,2,0,90,0,0

[Colours]
Combo1 : 255,189,235
Combo2 : 189,253,255
Combo3 : 255,236,189
Combo4 : 220,189,255
Combo5 : 255,198,189
Combo6 : 255,0,0
Combo7 : 154,193,242
Combo8 : 100,110,255

[HitObjects]
256,192,6190,37,4,0:3:0:0:
256,192,6428,1,4,0:3:0:0:
299,258,6666,86,0,L|384:265,1,75,4|0,0:1|0:0,0:0:0:0:
449,288,7142,1,10,0:2:0:0:
477,218,7380,1,0,0:0:0:0:
501,147,7618,6,0,L|416:154,1,75,2|0,0:0|0:0,0:0:0:0:
351,160,8094,1,10,0:0:0:0:
224,72,8571,86,0,P|170:87|148:124,1,75,2|2,0:0|0:0,0:0:0:0:
137,171,9047,1,8,0:0:0:0:
177,308,9523,38,0,P|225:335|267:324,1,75,2|2,0:0|0:0,0:0:0:0:
310,300,9999,1,8,0:0:0:0:
349,236,10237,2,0,L|353:175,1,37.5,2|0,3:1|3:0,3:0:0:0:
377,171,10476,86,0,L|369:93,1,75,4|0,0:3|0:0,0:0:0:0:
359,20,10952,1,10,0:0:0:0:
285,32,11190,1,0,0:0:0:0:
209,38,11428,6,0,L|201:116,1,75,2|0,0:0|0:0,0:0:0:0:
192,187,11904,1,8,0:0:0:0:
121,330,12380,86,0,L|32:313,1,75,2|2,0:1|0:1,0:0:0:0:
6,231,12856,1,2,0:1:0:0:
51,155,13095,1,2,0:1:0:0:
87,79,13333,37,4,0:3:0:0:
87,79,13452,1,2,0:2:0:0:
87,79,13571,1,2,0:2:0:0:
171,89,13809,85,4,0:3:0:0:
182,90,13928,1,0,3:2:0:0:
195,90,14047,1,4,0:3:0:0:
206,90,14166,1,0,3:2:0:0:
220,91,14285,6,0,L|309:100,1,75,4|4,0:3|0:3,0:0:0:0:
339,158,14761,2,0,L|428:167,1,75,4|4,0:3|0:3,0:0:0:0:
483,138,15237,1,4,0:2:0:0:
301,367,16190,86,0,L|215:365,1,75,2|2,0:0|0:0,0:0:0:0:
151,359,16666,1,8,0:0:0:0:
92,220,17142,38,0,L|178:218,1,75,2|2,0:0|0:0,0:0:0:0:
242,212,17618,1,8,0:0:0:0:
282,274,17856,2,0,L|331:279,1,37.5,2|0,0:1|0:0,0:0:0:0:
349,300,18095,86,0,L|431:290,1,75,4|0,0:3|0:0,0:0:0:0:
463,227,18571,1,10,0:0:0:0:
461,152,18809,1,2,0:0:0:0:
441,79,19047,6,0,B|397:61|397:61|303:74,1,112.5,2|2,0:0|0:0,0:0:0:0:
304,94,19523,1,8,0:0:0:0:
229,91,19761,1,2,0:0:0:0:
168,134,19999,86,0,L|120:122,3,37.5,0|2|2|2,0:0|0:0|0:0|0:0,0:0:0:0:
152,211,20476,2,0,L|104:199,3,37.5,4|0|8|0,0:3|0:0|0:3|0:0,0:0:0:0:
125,291,20952,37,8,0:3:0:0:
114,309,21071,1,8,0:3:0:0:
97,322,21190,1,8,0:3:0:0:
77,329,21309,1,8,0:3:0:0:
53,327,21428,2,0,L|15:318,3,37.5,2|2|2|2,0:3|0:3|0:3|0:3,0:0:0:0:
11,238,21904,85,4,0:1:0:0:
254,177,25237,5,4,0:3:0:0:
254,177,25476,1,4,0:3:0:0:
184,144,25714,86,0,L|109:148,1,75,4|0,0:3|0:0,0:0:0:0:
30,190,26190,2,0,P|85:165|64:228,1,150,2|2,0:1|0:0,0:0:0:0:
227,361,27142,1,10,0:0:0:0:
296,333,27380,1,2,0:0:0:0:
365,303,27618,37,2,0:0:0:0:
412,244,27856,2,0,L|399:199,1,37.5,2|2,0:0|0:0,0:0:0:0:
373,182,28094,2,0,L|377:138,1,37.5,10|2,0:0|0:0,0:0:0:0:
269,109,28571,2,0,L|274:62,1,37.5,2|2,0:0|0:0,0:0:0:0:
298,43,28809,2,0,L|287:0,1,37.5,2|2,0:0|0:0,0:0:0:0:
176,5,29285,1,2,0:1:0:0:
142,73,29523,86,0,L|140:168,1,75,4|0,0:3|0:0,0:0:0:0:
72,220,29999,2,0,P|115:181|98:250,1,150,2|2,0:1|0:0,0:0:0:0:
11,369,30952,1,8,0:0:0:0:
158,339,31428,6,0,L|249:345,1,75,0|0,3:0|3:0,3:0:0:0:
280,285,31904,2,0,L|361:284,1,75,0|0,3:0|3:0,3:0:0:0:
393,348,32380,2,0,L|482:352,1,75,0|0,3:0|3:0,0:0:0:0:
499,283,32856,1,4,0:3:0:0:
368,199,33333,85,4,0:3:0:0:
339,122,33571,1,0,3:3:0:0:
335,112,33690,1,0,3:3:0:0:
331,100,33809,2,0,L|338:42,3,37.5,0|0|0|0,3:0|3:0|3:0|3:0,0:0:0:0:
247,79,34285,37,4,0:0:0:0:
256,192,36666,85,4,0:3:0:0:
256,192,36904,1,4,0:3:0:0:
306,136,37142,6,0,L|380:130,1,75,4|0,0:3|0:0,0:0:0:0:
477,124,37618,2,0,P|414:117|453:169,1,150,2|2,0:1|0:0,0:0:0:0:
512,293,38571,1,10,0:0:0:0:
369,340,39047,85,0,3:0:0:0:
350,341,39166,1,0,3:0:0:0:
331,342,39285,1,0,3:0:0:0:
312,343,39404,1,0,3:0:0:0:
293,344,39523,2,0,L|277:385,2,37.5,8|0|0,3:2|3:0|3:0,0:0:0:0:
262,321,39880,2,0,P|221:293|170:289,1,75,2|2,0:1|0:1,0:0:0:0:
55,263,40476,37,8,0:3:0:0:
49,247,40595,1,8,0:3:0:0:
44,231,40714,1,4,0:3:0:0:
93,166,40952,85,4,0:1:0:0:
93,166,42856,5,4,0:3:0:0:
93,166,44761,85,4,0:3:0:0:
93,166,46666,37,4,0:3:0:0:
142,222,46904,2,0,L|134:280,2,37.5,2|2|2,0:0|0:0|0:0,0:0:0:0:
203,178,47380,1,2,0:0:0:0:
203,178,47499,2,0,L|298:169,1,75,10|10,0:3|0:3,0:0:0:0:
386,200,48095,1,2,0:0:0:0:
459,183,48333,1,2,0:1:0:0:
487,113,48571,85,10,0:3:0:0:
353,45,49047,1,10,0:3:0:0:
220,115,49523,1,10,0:3:0:0:
78,66,49999,1,10,0:3:0:0:
72,140,50237,1,2,0:0:0:0:
67,215,50476,5,10,0:3:0:0:
203,276,50952,1,10,0:3:0:0:
343,222,51428,1,10,0:3:0:0:
474,294,51904,1,10,0:3:0:0:
312,366,52380,85,10,0:3:0:0:
305,353,52499,2,0,L|309:300,2,37.5,2|2|2,0:0|0:0|0:0,0:0:0:0:
384,331,52856,1,10,0:3:0:0:
391,318,52975,2,0,L|387:265,2,37.5,2|2|2,0:0|0:0|0:0,0:0:0:0:
308,280,53333,37,10,0:3:0:0:
301,267,53452,2,0,L|305:214,2,37.5,2|2|2,0:0|0:0|0:0,0:0:0:0:
380,245,53809,1,10,0:3:0:0:
381,232,53928,1,0,3:0:0:0:
383,219,54047,1,0,3:0:0:0:
384,208,54166,1,0,3:0:0:0:
385,194,54285,86,0,B|390:74,2,120,4|4|4,0:3|0:3|0:3,0:0:0:0:
464,20,58095,85,4,0:3:0:0:
482,351,59999,102,0,L|365:344,1,104.999996795654,4|4,0:3|0:3,0:0:0:0:
432,255,60952,2,0,L|306:246,1,104.999996795654,4|4,0:3|0:3,0:0:0:0:
381,157,61904,2,0,L|258:148,1,104.999996795654,4|4,0:3|0:3,0:0:0:0:
333,61,62856,2,0,L|220:54,1,104.999996795654,4|4,0:3|0:3,0:0:0:0:
52,55,63809,6,0,L|47:140,1,75,4|0,0:3|0:0,0:0:0:0:
119,150,64285,2,0,L|114:235,1,75,4|0,0:3|0:0,0:0:0:0:
155,287,64761,2,0,L|240:292,1,75,4|0,0:3|0:0,0:0:0:0:
256,361,65237,2,0,L|341:366,1,75,4|0,0:3|0:0,0:0:0:0:
388,317,65714,102,0,L|391:227,1,75,4|0,0:3|0:0,0:0:0:0:
457,208,66190,2,0,L|460:118,1,75,4|0,0:3|0:0,0:0:0:0:
407,79,66666,1,4,0:3:0:0:
332,81,66904,1,0,0:0:0:0:
298,148,67142,2,0,L|208:151,1,75,4|0,0:3|0:0,0:0:0:0:
159,111,67618,6,0,L|152:12,1,75,4|0,0:3|0:0,0:0:0:0:
69,137,68095,2,0,L|62:38,1,75,4|0,0:3|0:0,0:0:0:0:
77,219,68571,2,0,L|84:318,1,75,4|0,0:3|0:0,0:0:0:0:
167,193,69048,2,0,L|174:292,1,75,4|0,0:3|0:0,0:0:0:0:
146,346,69523,101,4,0:3:0:0:
236,384,69761,1,0,3:0:0:0:
501,331,70476,22,0,P|512:276|437:265,1,150,2|2,0:0|0:0,0:0:0:0:
406,108,71428,53,4,0:1:0:0:
325,67,71666,1,2,0:0:0:0:
250,117,71904,2,0,B|196:124|165:100,1,89.9999972534181,0|0,1:0|0:0,0:0:0:0:
130,69,72261,1,2,0:0:0:0:
96,38,72380,2,0,B|58:60|58:60|61:173,1,134.999995880127,4|2,0:3|0:0,0:0:0:0:
60,196,72856,1,0,1:0:0:0:
118,264,73095,1,2,0:0:0:0:
207,266,73333,70,0,P|253:291|273:338,1,89.9999972534181,4|2,0:3|0:0,0:0:0:0:
308,347,73690,2,0,P|346:311|353:260,1,89.9999972534181,2|2,0:0|0:0,0:0:0:0:
360,229,74047,1,2,0:0:0:0:
395,231,74166,1,2,0:0:0:0:
427,214,74285,5,6,0:0:0:0:
375,107,74523,1,2,0:0:0:0:
261,143,74761,85,6,0:2:0:0:
313,36,74999,1,2,0:0:0:0:
184,93,75237,54,0,P|128:88|90:63,1,89.9999972534181,6|0,0:2|0:0,0:0:0:0:
79,53,75594,1,0,0:0:0:0:
66,27,75714,1,0,1:0:0:0:
7,98,75952,1,2,0:0:0:0:
62,169,76190,2,0,L|54:278,1,89.9999972534181,4|2,0:3|0:0,0:0:0:0:
153,281,76666,2,0,L|146:191,1,89.9999972534181,0|2,1:0|0:0,0:0:0:0:
243,185,77142,70,0,L|235:294,1,89.9999972534181,4|2,0:3|0:0,0:0:0:0:
334,280,77618,2,0,L|327:190,1,89.9999972534181,0|2,1:0|0:0,0:0:0:0:
370,104,78095,1,2,3:0:0:0:
384,113,78214,1,0,3:0:0:0:
397,123,78333,1,0,3:0:0:0:
406,135,78452,1,0,3:0:0:0:
415,147,78571,2,0,L|423:198,3,44.999998626709,2|0|0|0,3:0|3:0|3:0|3:0,0:0:0:0:
502,155,79047,5,4,0:3:0:0:
505,244,79285,1,2,0:0:0:0:
445,311,79523,2,0,P|384:315|335:297,1,89.9999972534181,0|0,1:0|0:0,0:0:0:0:
314,291,79880,1,2,0:0:0:0:
283,258,79999,2,0,B|263:220|263:220|156:210,1,134.999995880127,4|2,0:3|0:0,0:0:0:0:
126,205,80476,1,0,1:0:0:0:
63,140,80714,1,2,0:0:0:0:
104,60,80952,86,0,L|210:46,1,89.9999972534181,4|2,0:3|0:0,0:0:0:0:
233,68,81309,2,0,L|334:53,1,89.9999972534181,2|2,0:0|0:0,0:0:0:0:
358,81,81666,1,2,0:0:0:0:
393,74,81785,1,2,0:0:0:0:
427,66,81904,53,6,0:0:0:0:
391,179,82142,1,2,0:0:0:0:
269,159,82380,69,6,0:0:0:0:
305,272,82618,1,2,0:0:0:0:
184,195,82856,6,0,P|110:189|84:198,1,89.9999972534181,6|0,0:0|0:0,0:0:0:0:
75,211,83213,1,0,0:0:0:0:
60,234,83333,1,0,1:0:0:0:
10,156,83571,1,2,0:0:0:0:
58,79,83809,2,0,B|144:41|144:41|266:74,1,179.999994506836,4|0,0:3|1:0,0:0:0:0:
301,113,84523,1,2,0:0:0:0:
381,72,84761,86,0,L|394:174,1,89.9999972534181,4|2,0:3|0:0,0:0:0:0:
328,225,85237,2,0,L|323:324,1,89.9999972534181,0|2,1:0|0:0,0:0:0:0:
382,383,85714,1,2,0:1:0:0:
486,20,86666,53,4,0:1:0:0:
451,103,86904,1,2,0:0:0:0:
365,129,87142,2,0,P|286:141|271:153,1,89.9999972534181,0|0,1:0|0:0,0:0:0:0:
245,174,87499,1,2,0:0:0:0:
219,210,87618,1,4,0:3:0:0:
152,137,87856,2,0,B|135:68|155:103|140:33,2,89.9999972534181,2|2|2,0:1|1:1|0:1,0:0:0:0:
101,211,88571,69,4,0:3:0:0:
143,290,88809,1,2,0:0:0:0:
151,299,88928,1,2,0:0:0:0:
160,307,89047,2,0,L|208:313,1,44.999998626709,0|2,1:0|0:0,0:0:0:0:
241,299,89285,2,0,L|289:293,1,44.999998626709,2|2,0:0|0:0,0:0:0:0:
324,315,89523,5,6,0:0:0:0:
386,226,89761,1,2,0:0:0:0:
498,260,89999,85,6,0:0:0:0:
479,154,90237,1,0,0:0:0:0:
371,224,90476,54,0,P|325:222|279:194,1,89.9999972534181,6|0,0:0|0:0,0:0:0:0:
241,123,90952,1,0,1:0:0:0:
180,189,91190,1,2,0:0:0:0:
117,124,91428,1,4,0:3:0:0:
54,189,91666,2,0,B|37:258|57:223|42:293,2,89.9999972534181,2|2|2,0:1|1:0|0:1,0:0:0:0:
13,108,92380,69,4,0:3:0:0:
41,22,92618,1,2,0:0:0:0:
129,5,92856,2,0,L|235:-2,1,89.9999972534181,0|2,1:1|0:0,0:0:0:0:
296,46,93333,1,4,3:0:0:0:
316,45,93452,1,0,3:0:0:0:
333,45,93571,1,0,3:0:0:0:
347,45,93690,1,0,3:0:0:0:
362,45,93809,2,0,B|383:60|383:60|382:165,1,89.9999972534181,0|0,1:0|3:0,0:0:0:0:
380,149,94166,1,0,3:0:0:0:
377,166,94285,6,0,L|339:270,1,89.9999972534181,4|0,0:3|0:0,0:0:0:0:
266,370,94761,2,0,L|242:249,1,89.9999972534181,0|2,1:0|0:0,0:0:0:0:
239,237,95118,1,0,0:0:0:0:
230,192,95237,1,4,0:3:0:0:
145,243,95476,2,0,B|80:251|124:238|41:246,2,89.9999972534181,2|2|2,0:1|1:0|0:1,0:0:0:0:
237,273,96190,85,4,0:3:0:0:
325,259,96428,1,2,0:0:0:0:
330,245,96547,1,2,0:0:0:0:
332,229,96666,2,0,L|337:183,1,44.999998626709,0|2,1:0|0:0,0:0:0:0:
307,150,96904,2,0,L|301:99,1,44.999998626709,2|2,0:0|0:0,0:0:0:0:
314,62,97142,53,6,0:0:0:0:
207,42,97380,1,2,0:0:0:0:
154,142,97618,69,6,0:0:0:0:
92,53,97856,1,2,0:0:0:0:
36,164,98095,6,0,P|55:219|92:251,1,89.9999972534181,6|0,0:0|0:0,0:0:0:0:
163,263,98571,1,0,1:0:0:0:
247,231,98809,1,2,0:0:0:0:
298,304,99047,1,4,0:3:0:0:
385,282,99285,2,0,B|443:295|408:314|507:328,2,89.9999972534181,2|2|2,0:1|1:0|0:1,0:0:0:0:
389,192,99999,86,0,L|398:127,1,44.999998626709,0|0,3:0|3:0,0:0:0:0:
366,112,100237,2,0,L|375:47,1,44.999998626709,0|0,3:0|3:0,0:0:0:0:
281,107,100475,53,0,3:0:0:0:
250,79,100594,1,0,3:0:0:0:
221,49,100713,2,0,L|196:-11,1,44.999998626709,0|0,3:0|3:0,0:0:0:0:
154,102,100951,70,0,L|103:61,3,44.999998626709,0|0|0|0,3:0|3:0|3:3|3:0,0:0:0:0:
101,174,101428,5,0,1:0:0:0:
100,204,101547,1,0,3:0:0:0:
99,235,101666,1,0,1:0:0:0:
99,266,101785,1,0,1:0:0:0:
98,299,101904,85,4,0:0:0:0:
