osu file format v14

[General]
AudioFilename: audio.mp3
AudioLeadIn: 0
PreviewTime: 2215
Countdown: 0
SampleSet: None
StackLeniency: 0.7
Mode: 1
LetterboxInBreaks: 0
WidescreenStoryboard: 1

[Editor]
DistanceSpacing: 0.9
BeatDivisor: 16
GridSize: 16
TimelineZoom: 1.780001

[Metadata]
Title:Perrito 100% real bailando cumbia
TitleUnicode:Perrito 100% real bailando cumbia
Artist:rodricoro
ArtistUnicode:rodricoro
Creator:Midnaait
Version:Muzukashii 50% real
Source:
Tags:marcelo canario Antonio Rios Nunca me faltes
BeatmapID:1714327
BeatmapSetID:817498

[Difficulty]
HPDrainRate:9
CircleSize:5
OverallDifficulty:4.5
ApproachRate:5
SliderMultiplier:1.6
SliderTickRate:3

[Events]
//Background and Video events
0,0,"bark.jpg",0,50
//Break Periods
//Storyboard Layer 0 (Background)
//Storyboard Layer 1 (Fail)
//Storyboard Layer 2 (Pass)
//Storyboard Layer 3 (Foreground)
//Storyboard Sound Samples

[TimingPoints]
926,572.929100023872,4,1,0,75,1,0
2378,558.139534883721,4,1,0,75,1,8
2378,-102.870813397129,4,1,0,75,0,8
2518,558.139534883721,4,1,0,75,1,0
2518,-102.870813397129,4,1,0,75,0,0
4192,574.162679425837,4,1,0,75,1,0
4192,-100,4,1,0,75,0,0
15675,582.52427184466,4,1,0,75,1,0
15675,-98.5645933014354,4,1,0,75,0,0
16257,566.037735849057,4,1,0,75,1,8
16257,-101.435406698565,4,1,0,75,0,8
17955,574.162679425837,4,1,0,75,1,0
17955,-100,4,1,0,75,0,1
29438,-100,4,1,0,75,0,0
29510,-100,4,1,0,25,0,0

[HitObjects]
160,96,926,6,0,L|160:176,1,79.8281227529746
224,160,2378,1,0,0:0:0:0:
224,160,2518,1,0,0:0:0:0:
224,160,2797,1,8,0:0:0:0:
224,160,2936,1,8,0:0:0:0:
224,160,3215,1,8,0:0:0:0:
224,160,3634,1,0,0:0:0:0:
224,160,3913,1,8,0:0:0:0:
224,160,4192,1,4,0:0:0:0:
224,160,4622,1,0,0:0:0:0:
224,160,4766,1,0,0:0:0:0:
224,160,5053,1,8,0:0:0:0:
224,160,5196,1,8,0:0:0:0:
224,160,5483,1,8,0:0:0:0:
224,128,5914,1,0,0:0:0:0:
224,160,6201,1,8,0:0:0:0:
224,160,6488,1,0,0:0:0:0:
224,160,7062,1,8,0:0:0:0:
224,160,7349,1,0,0:0:0:0:
224,160,7636,1,8,0:0:0:0:
224,160,7924,1,0,0:0:0:0:
224,160,8067,1,0,0:0:0:0:
224,160,8211,1,0,0:0:0:0:
240,176,8498,1,8,0:0:0:0:
224,160,8641,1,8,0:0:0:0:
224,160,9646,1,0,0:0:0:0:
224,160,9933,1,8,0:0:0:0:
224,160,10220,1,0,0:0:0:0:
224,160,10364,1,0,0:0:0:0:
224,160,10507,1,0,0:0:0:0:
224,160,10794,1,8,0:0:0:0:
224,160,10938,1,8,0:0:0:0:
208,160,11799,1,0,0:0:0:0:
224,160,11943,1,0,0:0:0:0:
224,160,12230,1,8,0:0:0:0:
224,160,12517,1,8,0:0:0:0:
224,160,12660,1,8,0:0:0:0:
224,160,13091,1,0,0:0:0:0:
224,160,13378,1,8,0:0:0:0:
224,160,13665,1,8,0:0:0:0:
224,160,13809,1,8,0:0:0:0:
224,160,13952,1,8,0:0:0:0:
224,160,14526,1,8,0:0:0:0:
224,160,14814,1,8,0:0:0:0:
224,160,15101,1,0,0:0:0:0:
224,160,15388,1,8,0:0:0:0:
224,160,15675,1,4,0:0:0:0:
224,160,17955,1,4,0:0:0:0:
224,160,18385,1,0,0:0:0:0:
224,160,18529,1,0,0:0:0:0:
224,160,18816,1,8,0:0:0:0:
224,160,18959,1,8,0:0:0:0:
224,160,19246,1,8,0:0:0:0:
224,128,19677,1,0,0:0:0:0:
224,160,19964,1,8,0:0:0:0:
224,160,20251,1,0,0:0:0:0:
144,144,20825,1,8,0:0:0:0:
224,160,21112,1,0,0:0:0:0:
224,160,21399,1,8,0:0:0:0:
224,160,21543,1,8,0:0:0:0:
224,160,21687,1,8,0:0:0:0:
224,160,21974,1,0,0:0:0:0:
240,160,22261,1,8,0:0:0:0:
224,160,22404,1,8,0:0:0:0:
224,160,23696,1,8,0:0:0:0:
224,160,23840,1,8,0:0:0:0:
224,160,23983,1,8,0:0:0:0:
224,160,24270,1,0,0:0:0:0:
224,160,24557,1,8,0:0:0:0:
224,160,24701,1,8,0:0:0:0:
224,160,25562,1,0,0:0:0:0:
240,160,25706,1,0,0:0:0:0:
224,160,25993,1,8,0:0:0:0:
240,160,26280,1,8,0:0:0:0:
224,160,26423,1,8,0:0:0:0:
224,160,26854,1,0,0:0:0:0:
224,160,27141,1,8,0:0:0:0:
224,160,27428,1,8,0:0:0:0:
224,160,27572,1,8,0:0:0:0:
224,160,27715,1,8,0:0:0:0:
224,176,28433,1,8,0:0:0:0:
224,160,28577,1,0,0:0:0:0:
224,160,28864,1,8,0:0:0:0:
224,160,29151,1,0,0:0:0:0:
224,160,29438,1,12,0:0:0:0:
256,192,29725,12,0,31160,0:0:0:0:
