osu file format v14

[General]
AudioFilename: audio.mp3
AudioLeadIn: 0
PreviewTime: 62656
Countdown: 0
SampleSet: Soft
StackLeniency: 0.7
Mode: 0
LetterboxInBreaks: 0
WidescreenStoryboard: 0

[Editor]
DistanceSpacing: 1.6
BeatDivisor: 4
GridSize: 4
TimelineZoom: 2.699999

[Metadata]
Title:Traveler's tale
TitleUnicode:Traveler's tale
Artist:riya(eufonius)
ArtistUnicode:riya(eufonius)
Creator:Garden
Version:Hard
Source:ISLAND
Tags:-Nanaka- Misure アイランド frontwing visual novel opening full version
BeatmapID:1051614
BeatmapSetID:487968

[Difficulty]
HPDrainRate:5
CircleSize:3.7
OverallDifficulty:6
ApproachRate:7
SliderMultiplier:1.4
SliderTickRate:1

[Events]
//Background and Video events
0,0,"bg1.jpg",0,0
//Break Periods
//Storyboard Layer 0 (Background)
//Storyboard Layer 1 (Fail)
//Storyboard Layer 2 (Pass)
//Storyboard Layer 3 (Foreground)
//Storyboard Sound Samples

[TimingPoints]
3406,428.571428571429,4,2,1,40,1,0
3406,-133.333333333333,4,2,1,40,0,0
3834,-133.333333333333,4,2,1,20,0,0
4048,-133.333333333333,4,2,1,40,0,0
4691,-133.333333333333,4,2,1,20,0,0
4906,-133.333333333333,4,2,1,40,0,0
5548,-133.333333333333,4,2,1,20,0,0
5763,-133.333333333333,4,2,1,40,0,0
6191,-133.333333333333,4,2,1,20,0,0
6406,-133.333333333333,4,2,1,40,0,0
10263,-100,4,2,1,50,0,0
20548,-111.111111111111,4,2,1,50,0,0
34048,-100,4,2,1,50,0,0
47763,-100,4,2,1,40,0,0
47977,-111.111111111111,4,2,1,50,0,0
54834,-100,4,2,1,50,0,0
63406,-100,4,2,1,60,0,1
92334,-100,4,2,1,50,0,0
104548,-111.111111111111,4,2,1,50,0,0
118048,-100,4,2,1,50,0,0
131763,-100,4,2,1,40,0,0
131977,-111.111111111111,4,2,1,50,0,0
138834,-100,4,2,1,50,0,0
147406,-100,4,2,1,60,0,1
171406,-111.111111111111,4,2,1,50,0,0
181691,-100,4,2,1,50,0,0
190263,-133.333333333333,4,2,1,50,0,0
190906,-100,4,2,1,60,0,1
219191,-100,4,2,1,50,0,0
234727,-100,4,2,1,40,0,0
236548,-100,4,2,1,30,0,0
238263,-100,4,2,1,20,0,0
239977,-100,4,2,1,5,0,0

[Colours]
Combo1 : 190,255,125
Combo2 : 164,255,255
Combo3 : 255,190,159
Combo4 : 206,206,206
SliderBorder : 80,110,255

[HitObjects]
95,140,3406,6,0,P|134:175|151:231,1,105.000004005432,2|0,0:0|0:0,0:0:0:0:
140,310,4048,1,2,0:0:0:0:
140,310,4263,2,0,P|200:299|256:301,1,105.000004005432,2|0,0:0|0:0,0:0:0:0:
331,320,4906,1,2,0:0:0:0:
331,320,5120,6,0,L|338:194,1,105.000004005432,2|0,0:0|0:0,0:0:0:0:
284,149,5763,1,2,0:0:0:0:
284,149,5977,2,0,L|279:84,1,52.5000020027161,2|0,0:0|0:0,0:0:0:0:
345,42,6406,1,2,0:0:0:0:
345,42,6834,6,0,P|379:30|419:30,2,52.5000020027161,2|0|2,0:0|0:0|0:0,0:0:0:0:
279,96,7477,2,0,P|228:91|165:92,1,105.000004005432,2|0,0:0|0:0,0:0:0:0:
91,106,8120,1,2,0:0:0:0:
90,106,8548,6,0,L|100:220,1,105.000004005432,2|2,0:0|0:0,0:0:0:0:
216,331,9406,2,0,L|228:213,1,105.000004005432,2|2,0:0|0:0,0:0:0:0:
114,32,10263,6,0,P|172:60|265:52,1,140,6|8,0:1|0:0,0:0:0:0:
340,31,10906,1,0,0:0:0:0:
429,69,11120,2,0,L|434:147,1,70,2|0,0:0|0:0,0:0:0:0:
382,222,11548,2,0,P|342:216|302:214,1,70,10|0,0:0|0:0,0:0:0:0:
214,221,11977,5,2,0:1:0:0:
177,312,12191,1,0,0:0:0:0:
258,366,12406,2,0,P|273:328|272:288,1,70,8|2,0:0|0:1,0:0:0:0:
214,221,12834,2,0,L|60:209,1,140,0|8,0:0|0:0,0:0:0:0:
125,129,13477,1,2,0:0:0:0:
125,129,13584,1,2,0:0:0:0:
125,129,13691,6,0,P|129:82|125:42,1,70,2|0,0:1|0:0,0:0:0:0:
216,17,14120,1,10,0:1:0:0:
292,77,14334,1,0,0:0:0:0:
239,159,14548,2,0,P|231:187|229:231,2,70,2|0|10,0:1|0:0|0:0,0:0:0:0:
292,77,15191,6,0,P|361:83|452:73,1,140,2|0,0:1|0:0,0:0:0:0:
487,157,15834,1,10,0:0:0:0:
487,157,16048,2,0,P|424:197|412:270,1,140,2|2,0:1|0:0,0:0:0:0:
430,368,16691,1,4,0:0:0:0:
430,368,17120,6,0,P|362:360|272:360,1,140,6|10,0:1|0:0,0:0:0:0:
178,363,17763,2,0,P|117:335|97:270,1,140,6|0,0:1|0:0,0:0:0:0:
114,172,18406,1,10,0:0:0:0:
221,207,18620,6,0,B|269:216|269:216|384:205,1,140,6|0,0:1|0:0,0:0:0:0:
450,169,19263,2,0,P|447:131|435:89,1,70,10|0,0:0|0:0,0:0:0:0:
376,32,19691,1,0,0:0:0:0:
376,32,19906,2,0,P|309:50|235:51,1,140,10|0,0:0|0:0,0:0:0:0:
129,26,20548,6,0,P|67:31|21:85,1,125.999996154785,4|0,0:0|0:0,0:0:0:0:
16,163,21191,1,2,0:3:0:0:
60,239,21406,2,0,L|123:227,1,62.9999980773926,0|2,0:0|0:3,0:0:0:0:
207,208,21834,2,0,P|213:248|216:277,1,62.9999980773926,8|0,0:0|0:0,0:0:0:0:
164,350,22263,6,0,P|220:322|287:317,1,125.999996154785,2|0,0:3|0:0,0:0:0:0:
367,341,22906,2,0,P|420:330|461:259,1,125.999996154785,2|2,0:3|0:3,0:0:0:0:
440,187,23548,2,0,P|439:157|440:115,1,62.9999980773926,8|0,0:0|0:0,0:0:0:0:
353,70,23977,6,0,P|347:142|349:210,1,125.999996154785,2|0,0:3|0:0,0:0:0:0:
400,267,24620,2,0,P|344:246|265:256,1,125.999996154785,2|2,0:3|0:3,0:0:0:0:
209,305,25263,2,0,P|201:346|203:381,1,62.9999980773926,8|0,0:0|0:0,0:0:0:0:
278,250,25691,6,0,P|275:183|266:117,1,125.999996154785,2|0,0:3|0:0,0:0:0:0:
232,43,26334,2,0,P|171:40|116:82,1,125.999996154785,2|2,0:0|0:0,0:0:0:0:
76,153,26977,1,8,0:0:0:0:
114,232,27191,1,0,0:0:0:0:
200,192,27406,6,0,B|235:179|235:179|327:177,1,125.999996154785,2|0,0:3|0:0,0:0:0:0:
411,181,28048,2,0,P|443:232|426:319,1,125.999996154785,2|2,0:3|0:3,0:0:0:0:
376,358,28691,2,0,L|304:354,1,62.9999980773926,8|0,0:0|0:0,0:0:0:0:
346,259,29120,6,0,L|475:230,1,125.999996154785,2|0,0:3|0:0,0:0:0:0:
500,148,29763,2,0,P|464:105|383:94,1,125.999996154785,2|2,0:3|0:3,0:0:0:0:
319,131,30406,2,0,P|284:142|253:146,1,62.9999980773926,8|0,0:0|0:0,0:0:0:0:
157,151,30834,6,0,B|170:190|170:190|173:290,1,125.999996154785,2|0,0:3|0:0,0:0:0:0:
104,331,31477,2,0,P|170:324|232:352,1,125.999996154785,2|2,0:3|0:3,0:0:0:0:
310,366,32120,1,8,0:0:0:0:
383,317,32334,1,0,0:0:0:0:
317,243,32548,6,0,P|297:201|287:111,1,125.999996154785,2|0,0:3|0:0,0:0:0:0:
324,36,33191,1,2,0:3:0:0:
397,96,33406,1,2,0:0:0:0:
286,122,33620,2,0,P|248:127|202:130,1,62.9999980773926,2|10,0:3|0:1,0:0:0:0:
112,192,34048,6,0,P|180:202|249:220,1,140,4|2,0:0|0:3,0:0:0:0:
345,245,34691,1,8,0:0:0:0:
307,335,34906,2,0,P|267:336|231:332,2,70,0|2|0,0:0|0:3|0:0,0:0:0:0:
404,324,35548,1,8,0:0:0:0:
345,245,35763,6,0,P|321:169|343:99,1,140,2|2,0:3|0:3,0:0:0:0:
387,29,36406,2,0,L|460:32,1,70,8|0,0:0|0:0,0:0:0:0:
497,120,36834,1,2,0:3:0:0:
497,120,37048,2,0,P|494:159|478:195,2,70,0|8|0,0:0|0:0|0:0,0:0:0:0:
392,132,37691,6,0,P|323:139|237:126,1,140,2|8,0:3|0:0,0:0:0:0:
166,84,38334,1,0,0:0:0:0:
68,91,38548,2,0,P|42:132|33:166,1,70,2|0,0:3|0:0,0:0:0:0:
36,251,38977,1,8,0:0:0:0:
127,317,39191,6,0,L|136:169,1,140,2|2,0:3|0:3,0:0:0:0:
166,84,39834,2,0,P|204:65|238:62,1,70,8|0,0:0|0:0,0:0:0:0:
332,80,40263,1,2,0:3:0:0:
332,80,40477,1,0,0:0:0:0:
308,175,40691,2,0,P|303:213|301:247,1,70,8|0,0:0|0:0,0:0:0:0:
320,348,41120,6,0,P|396:358|450:319,1,140,4|8,0:0|0:0,0:0:0:0:
487,235,41763,1,0,0:0:0:0:
444,146,41977,2,0,P|444:109|451:59,2,70,2|0|8,0:3|0:0|0:0,0:0:0:0:
390,228,42620,6,0,P|323:217|248:211,1,140,2|2,0:3|0:3,0:0:0:0:
153,217,43263,1,8,0:0:0:0:
82,149,43477,1,0,0:0:0:0:
125,61,43691,2,0,P|159:60|203:70,1,70,2|0,0:3|0:0,0:0:0:0:
259,141,44120,2,0,L|250:220,1,70,8|0,0:0|0:0,0:0:0:0:
160,286,44548,6,0,L|152:215,1,70,2|0,0:3|0:0,0:0:0:0:
60,251,44977,1,8,0:0:0:0:
95,342,45191,2,0,P|158:368|222:344,1,140,0|0,0:0|0:0,0:0:0:0:
253,251,45834,1,8,0:0:0:0:
176,148,46048,6,0,B|163:185|163:185|159:290,1,140,2|2,0:3|0:3,0:0:0:0:
253,251,46691,2,0,P|298:244|332:248,1,70,10|0,0:0|0:0,0:0:0:0:
406,296,47120,2,0,L|402:371,2,70,10|0|8,0:0|0:0|0:0,0:0:0:0:
489,244,47763,1,8,0:0:0:0:
461,141,47977,6,0,P|397:128|340:146,1,125.999996154785,4|0,0:0|0:0,0:0:0:0:
274,205,48620,1,2,0:3:0:0:
274,205,48834,2,0,L|268:343,1,125.999996154785,2|8,0:3|0:0,0:0:0:0:
268,330,49691,6,0,B|206:315|206:315|144:324,1,125.999996154785,2|0,0:3|0:0,0:0:0:0:
59,349,50334,2,0,P|49:293|46:220,1,125.999996154785,2|2,0:3|0:3,0:0:0:0:
68,138,50977,2,0,L|139:128,1,62.9999980773926,8|0,0:0|0:0,0:0:0:0:
254,195,51406,6,0,L|192:192,1,62.9999980773926,2|0,0:3|0:0,0:0:0:0:
130,255,51834,1,0,0:0:0:0:
163,336,52048,2,0,P|221:327|289:323,1,125.999996154785,2|2,0:3|0:3,0:0:0:0:
372,297,52691,2,0,L|369:222,1,62.9999980773926,8|0,0:0|0:0,0:0:0:0:
283,194,53120,6,0,P|250:187|212:190,2,62.9999980773926,2|0|0,0:3|0:0|0:0,0:0:0:0:
369,234,53763,2,0,P|439:221|474:179,1,125.999996154785,2|2,0:3|0:3,0:0:0:0:
468,92,54406,2,0,P|438:89|405:90,1,62.9999980773926,8|0,0:0|0:0,0:0:0:0:
309,109,54834,6,0,L|299:36,1,70,4|0,0:0|0:0,0:0:0:0:
202,52,55263,2,0,L|212:143,1,70,0|2,0:0|0:3,0:0:0:0:
274,198,55691,1,0,0:0:0:0:
274,198,55906,1,2,0:3:0:0:
184,237,56120,2,0,P|147:246|102:251,1,70,8|0,0:0|0:0,0:0:0:0:
32,325,56548,6,0,P|107:338|182:361,1,140,2|8,0:3|0:0,0:0:0:0:
256,313,57191,1,0,0:0:0:0:
256,313,57406,2,0,P|265:277|272:240,1,70,2|0,0:3|0:0,0:0:0:0:
185,197,57834,2,0,P|177:159|176:110,1,70,8|0,0:0|0:0,0:0:0:0:
222,41,58263,6,0,L|306:40,2,70,2|0|8,0:3|0:0|0:0,0:0:0:0:
124,50,58906,1,0,0:0:0:0:
124,50,59120,2,0,P|132:93|129:141,1,70,2|0,0:3|0:0,0:0:0:0:
51,174,59548,2,0,P|44:220|44:257,1,70,8|0,0:0|0:0,0:0:0:0:
133,312,59977,6,0,L|276:282,1,140,6|8,0:3|0:0,0:0:0:0:
357,238,60620,1,0,0:0:0:0:
297,160,60834,2,0,P|291:123|291:86,1,70,2|0,0:3|0:0,0:0:0:0:
361,21,61263,1,8,0:0:0:0:
484,88,61477,5,4,0:0:0:0:
486,109,61906,5,4,0:0:0:0:
487,130,62334,6,0,L|341:138,1,140,4|8,0:0|0:0,0:0:0:0:
334,143,62870,1,0,0:0:0:0:
321,148,62977,1,8,0:0:0:0:
268,230,63191,1,8,0:0:0:0:
357,365,63406,6,0,P|384:303|367:236,2,140,6|8|2,0:1|0:0|0:3,0:0:0:0:
288,295,64477,1,2,0:3:0:0:
195,325,64691,2,0,L|125:320,1,70,8|0,0:0|0:0,0:0:0:0:
46,239,65120,6,0,B|27:305|27:305|25:376,1,140,2|8,0:1|0:0,0:0:0:0:
125,320,65763,2,0,L|146:235,1,70,0|2,0:0|0:3,0:0:0:0:
167,157,66191,1,2,0:3:0:0:
266,189,66406,1,8,0:0:0:0:
266,189,66834,6,0,L|340:184,1,70,4|0,0:0|0:0,0:0:0:0:
430,211,67263,2,0,L|431:117,1,70,8|0,0:0|0:0,0:0:0:0:
349,87,67691,1,2,0:3:0:0:
429,31,67906,2,0,P|463:25|498:27,1,70,2|8,0:3|0:0,0:0:0:0:
349,87,68334,6,0,P|272:89|206:79,1,140,6|0,0:1|0:0,0:0:0:0:
115,107,68977,2,0,L|108:189,1,70,8|0,0:0|0:0,0:0:0:0:
131,272,69406,1,2,0:3:0:0:
224,242,69620,2,0,P|262:237|304:240,2,70,2|8|0,0:3|0:0|0:0,0:0:0:0:
299,326,70263,6,0,B|356:334|398:325|398:325|416:308|422:288,1,140,6|8,0:1|0:0,0:0:0:0:
449,198,70906,1,0,0:0:0:0:
449,198,71120,2,0,L|440:111,1,70,2|2,0:3|0:3,0:0:0:0:
388,46,71548,1,8,0:0:0:0:
302,94,71763,1,0,0:0:0:0:
209,62,71977,6,0,P|173:58|128:64,2,70,2|0|10,0:1|0:0|0:1,0:0:0:0:
302,94,72620,2,0,L|299:178,1,70,2|0,0:3|0:0,0:0:0:0:
293,261,73048,1,2,0:3:0:0:
199,229,73263,2,0,L|130:229,1,70,8|0,0:0|0:0,0:0:0:0:
6,312,73691,6,0,L|92:312,1,70,2|0,0:1|0:0,0:0:0:0:
170,339,74120,1,8,0:0:0:0:
129,229,74334,2,0,P|117:158|139:86,1,140,6|0,0:1|0:0,0:0:0:0:
218,41,74977,2,0,P|255:49|291:49,1,70,8|0,0:0|0:0,0:0:0:0:
397,30,75406,5,4,0:0:0:0:
420,139,75620,1,0,0:0:0:0:
309,159,75834,1,8,0:0:0:0:
287,49,76048,2,0,P|217:32|144:47,1,140,4|8,0:0|0:0,0:0:0:0:
129,66,76584,1,0,0:0:0:0:
129,66,76691,2,0,P|90:73|47:73,1,70,8|0,0:0|0:0,0:0:0:0:
74,186,77120,6,0,P|160:167|219:182,2,140,6|8|2,0:1|0:0|0:3,0:0:0:0:
9,259,78191,1,2,0:3:0:0:
55,345,78406,2,0,P|93:343|132:335,1,70,8|0,0:0|0:0,0:0:0:0:
215,283,78834,6,0,B|204:215|204:215|214:144,1,140,2|8,0:1|0:0,0:0:0:0:
302,216,79477,2,0,L|313:287,1,70,0|2,0:0|0:3,0:0:0:0:
387,349,79906,1,2,0:3:0:0:
478,309,80120,1,8,0:0:0:0:
478,309,80548,6,0,L|482:230,1,70,4|0,0:0|0:0,0:0:0:0:
455,144,80977,2,0,P|421:140|378:146,1,70,8|0,0:0|0:0,0:0:0:0:
294,180,81406,1,2,0:3:0:0:
204,139,81620,2,0,P|203:101|207:69,1,70,2|8,0:3|0:0,0:0:0:0:
294,180,82048,6,0,P|294:246|285:322,1,140,6|0,0:1|0:0,0:0:0:0:
201,370,82691,1,8,0:0:0:0:
108,335,82906,2,0,L|33:336,1,70,0|2,0:0|0:3,0:0:0:0:
10,242,83334,2,0,L|94:240,1,70,2|8,0:3|0:0,0:0:0:0:
175,265,83763,1,0,0:0:0:0:
286,202,83977,6,0,B|189:173|189:173|149:175,1,140,4|8,0:0|0:0,0:0:0:0:
174,265,84620,2,0,P|230:220|240:152,1,140,4|2,0:0|0:3,0:0:0:0:
169,83,85263,2,0,L|99:79,1,70,8|0,0:0|0:0,0:0:0:0:
252,31,85691,6,0,B|292:31|292:31|353:51|353:51|388:51,1,140,2|8,0:1|0:0,0:0:0:0:
486,35,86334,2,0,P|491:96|495:186,1,140,0|2,0:0|0:3,0:0:0:0:
478,275,86977,1,8,0:0:0:0:
478,275,87406,6,0,P|435:267|389:267,1,70,6|0,0:1|0:0,0:0:0:0:
337,333,87834,1,8,0:0:0:0:
262,269,88048,2,0,B|286:200|239:196|274:122,1,140,2|2,0:1|0:3,0:0:0:0:
349,73,88691,1,8,0:0:0:0:
356,171,88906,6,0,L|210:169,1,140,2|2,0:1|0:3,0:0:0:0:
104,169,89548,1,8,0:0:0:0:
179,104,89763,2,0,P|202:177|168:244,1,140,2|2,0:1|0:1,0:0:0:0:
103,296,90406,1,8,0:0:0:0:
103,296,90834,6,0,L|28:291,1,70,4|0,0:0|0:0,0:0:0:0:
91,197,91263,2,0,L|12:173,1,70,12|0,0:0|0:0,0:0:0:0:
151,118,91691,1,12,0:0:0:0:
73,48,91906,1,4,0:3:0:0:
151,118,92120,1,12,0:0:0:0:
220,29,92334,5,12,0:0:0:0:
238,164,94263,6,0,B|274:164|274:164|341:150|341:150|376:150,2,140,4|8|2,0:1|0:0|0:3,0:0:0:0:
141,146,95334,1,2,0:3:0:0:
141,146,95548,2,0,P|127:190|124:223,1,70,8|0,0:0|0:0,0:0:0:0:
122,319,95977,6,0,P|192:298|268:304,1,140,2|8,0:3|0:0,0:0:0:0:
345,347,96620,2,0,P|378:344|417:332,1,70,0|2,0:0|0:3,0:0:0:0:
492,276,97048,1,2,0:3:0:0:
422,206,97263,1,8,0:0:0:0:
422,206,97691,6,0,L|348:199,1,70,2|0,0:3|0:0,0:0:0:0:
267,150,98120,2,0,P|261:118|265:74,1,70,8|0,0:0|0:0,0:0:0:0:
334,13,98548,1,2,0:3:0:0:
334,13,98763,1,2,0:3:0:0:
424,50,98977,2,0,L|500:45,1,70,8|0,0:0|0:0,0:0:0:0:
498,143,99406,6,0,P|425:147|354:162,1,140,2|8,0:3|0:0,0:0:0:0:
273,206,100048,1,0,0:0:0:0:
273,206,100263,2,0,L|266:291,1,70,2|2,0:3|0:3,0:0:0:0:
171,293,100691,1,8,0:0:0:0:
125,206,100906,1,0,0:0:0:0:
199,142,101120,6,0,P|269:115|342:138,2,140,4|8|2,0:0|0:0|0:3,0:0:0:0:
125,206,102191,1,2,0:3:0:0:
34,167,102406,1,8,0:0:0:0:
105,40,102620,6,0,L|114:118,1,70,0|2,0:0|0:3,0:0:0:0:
125,206,103048,1,0,0:0:0:0:
216,170,103263,1,8,0:0:0:0:
288,236,103477,2,0,P|352:260|421:236,1,140,4|4,0:0|0:3,0:0:0:0:
429,230,104013,1,4,0:3:0:0:
439,220,104120,1,8,0:0:0:0:
476,129,104334,1,0,0:0:0:0:
400,45,104548,6,0,B|313:54|313:54|271:73,1,125.999996154785,2|0,0:3|1:0,0:0:0:0:
236,151,105191,1,0,0:0:0:0:
236,151,105406,2,0,P|205:158|174:163,1,62.9999980773926,2|2,1:2|0:3,0:0:0:0:
86,153,105834,2,0,P|77:193|76:234,1,62.9999980773926,0|2,1:0|0:3,0:0:0:0:
103,304,106263,5,2,1:3:0:0:
27,349,106477,1,0,0:0:0:0:
103,304,106691,2,0,P|141:299|180:300,1,62.9999980773926,0|0,1:0|0:0,0:0:0:0:
250,324,107120,1,0,1:0:0:0:
315,264,107334,2,0,L|312:187,2,62.9999980773926,2|0|2,0:3|1:0|0:3,0:0:0:0:
368,350,107977,6,0,P|433:322|498:318,1,125.999996154785,2|0,1:3|1:0,0:0:0:0:
490,229,108620,2,0,P|449:224|413:214,1,62.9999980773926,0|0,0:0|1:0,0:0:0:0:
353,171,109048,2,0,L|352:93,1,62.9999980773926,2|0,0:3|1:0,0:0:0:0:
316,27,109477,1,0,0:0:0:0:
234,60,109691,6,0,P|199:67|170:68,1,62.9999980773926,2|0,1:3|0:0,0:0:0:0:
90,33,110120,1,0,1:0:0:0:
28,95,110334,1,0,0:0:0:0:
108,130,110548,2,0,L|120:200,2,62.9999980773926,0|2|0,1:0|0:3|1:0,0:0:0:0:
171,68,111191,1,2,0:3:0:0:
245,127,111406,6,0,L|385:120,1,125.999996154785,2|0,1:3|1:0,0:0:0:0:
458,118,112048,1,0,0:0:0:0:
434,203,112263,2,0,P|426:244|423:280,1,62.9999980773926,0|2,1:0|0:3,0:0:0:0:
372,336,112691,2,0,L|303:333,1,62.9999980773926,0|2,1:0|0:3,0:0:0:0:
228,295,113120,6,0,P|230:266|238:230,2,62.9999980773926,2|0|0,1:3|0:0|1:0,0:0:0:0:
159,351,113763,2,0,P|116:357|82:357,1,62.9999980773926,0|0,0:0|1:0,0:0:0:0:
9,346,114191,1,2,0:3:0:0:
30,260,114406,2,0,P|30:223|28:182,1,62.9999980773926,0|2,1:0|0:3,0:0:0:0:
73,120,114834,6,0,P|137:96|204:109,2,125.999996154785,2|0|0,1:3|1:0|1:0,0:0:0:0:
29,197,115906,2,0,L|29:277,1,62.9999980773926,2|0,0:3|1:0,0:0:0:0:
81,357,116334,6,0,B|118:344|118:344|164:362|219:346,1,125.999996154785,4|8,0:1|0:0,0:0:0:0:
282,309,116977,1,8,0:0:0:0:
377,328,117191,1,8,0:3:0:0:
377,328,117298,1,8,0:3:0:0:
377,328,117406,2,0,L|374:378,2,31.4999990386963,4|4|8,0:3|0:3|0:3,0:0:0:0:
383,240,117834,1,8,0:0:0:0:
282,309,118048,6,0,P|206:324|140:320,1,140,4|2,0:0|0:3,0:0:0:0:
48,297,118691,1,8,0:0:0:0:
68,200,118906,2,0,P|67:167|61:123,2,70,0|2|0,0:0|0:3|0:0,0:0:0:0:
162,224,119548,1,8,0:0:0:0:
245,172,119763,6,0,B|288:149|288:149|399:142,1,140,2|2,0:3|0:3,0:0:0:0:
464,191,120406,2,0,P|442:222|426:262,1,70,8|0,0:0|0:0,0:0:0:0:
413,347,120834,1,2,0:3:0:0:
413,347,121048,2,0,L|496:338,2,70,0|8|0,0:0|0:0|0:0,0:0:0:0:
323,305,121691,6,0,L|166:291,1,140,2|8,0:3|0:0,0:0:0:0:
85,294,122334,1,0,0:0:0:0:
33,210,122548,2,0,P|28:176|33:127,1,70,2|0,0:3|0:0,0:0:0:0:
104,76,122977,1,8,0:0:0:0:
176,152,123191,6,0,L|184:303,1,140,2|2,0:3|0:3,0:0:0:0:
252,361,123834,2,0,P|283:346|333:333,1,70,8|0,0:0|0:0,0:0:0:0:
414,320,124263,1,2,0:3:0:0:
414,320,124477,1,0,0:0:0:0:
373,230,124691,2,0,P|369:190|371:152,1,70,8|0,0:0|0:0,0:0:0:0:
457,100,125120,6,0,L|310:108,1,140,4|8,0:0|0:0,0:0:0:0:
219,93,125763,2,0,P|217:68|224:6,2,70,0|2|0,0:0|0:3|0:0,0:0:0:0:
239,189,126406,1,8,0:0:0:0:
344,196,126620,6,0,B|353:237|353:237|349:345,1,140,2|2,0:3|0:3,0:0:0:0:
253,358,127263,1,8,0:0:0:0:
253,358,127477,1,0,0:0:0:0:
157,334,127691,2,0,P|120:328|79:327,1,70,2|0,0:3|0:0,0:0:0:0:
27,248,128120,2,0,P|65:239|103:230,1,70,8|0,0:0|0:0,0:0:0:0:
170,147,128548,6,0,P|183:181|193:223,1,70,2|0,0:3|0:0,0:0:0:0:
238,299,128977,1,8,0:0:0:0:
333,277,129191,2,0,P|333:206|338:127,1,140,0|0,0:0|0:0,0:0:0:0:
359,41,129834,1,8,0:0:0:0:
255,83,130048,6,0,B|213:94|213:94|101:99,1,140,2|2,0:3|0:3,0:0:0:0:
20,120,130691,2,0,L|31:212,1,70,10|0,0:0|0:0,0:0:0:0:
85,269,131120,2,0,L|75:344,2,70,10|0|8,0:0|0:0|0:0,0:0:0:0:
160,206,131763,1,8,0:0:0:0:
242,274,131977,6,0,P|304:303|380:296,1,125.999996154785,4|0,0:0|0:0,0:0:0:0:
444,268,132620,1,2,0:3:0:0:
444,268,132834,2,0,L|438:128,1,125.999996154785,2|8,0:3|0:0,0:0:0:0:
438,142,133691,6,0,B|410:138|410:138|389:142|389:142|354:130|310:145,1,125.999996154785,2|0,0:3|0:0,0:0:0:0:
227,164,134334,2,0,B|221:134|221:134|231:110|228:85|228:85|216:61|220:22,1,125.999996154785,2|2,0:3|0:3,0:0:0:0:
308,41,134977,2,0,L|381:29,1,62.9999980773926,8|0,0:0|0:0,0:0:0:0:
467,59,135406,6,0,P|462:95|461:129,1,62.9999980773926,2|0,0:3|0:0,0:0:0:0:
485,206,135834,1,0,0:0:0:0:
405,243,136048,2,0,L|265:230,1,125.999996154785,2|2,0:3|0:3,0:0:0:0:
195,202,136691,2,0,P|181:239|176:278,1,62.9999980773926,8|0,0:0|0:0,0:0:0:0:
183,350,137120,6,0,P|148:345|102:346,2,62.9999980773926,2|0|0,0:3|0:0|0:0,0:0:0:0:
269,367,137763,2,0,P|335:349|366:294,1,125.999996154785,2|2,0:3|0:3,0:0:0:0:
321,225,138406,2,0,P|316:196|316:155,1,62.9999980773926,8|0,0:0|0:0,0:0:0:0:
316,57,138834,6,0,L|227:61,1,70,4|0,0:0|0:0,0:0:0:0:
174,128,139263,2,0,L|73:117,1,70,0|2,0:0|0:3,0:0:0:0:
26,180,139691,1,0,0:0:0:0:
26,180,139906,1,2,0:3:0:0:
114,220,140120,2,0,L|109:300,1,70,8|0,0:0|0:0,0:0:0:0:
35,363,140548,6,0,P|100:341|184:346,1,140,2|8,0:3|0:0,0:0:0:0:
265,368,141191,1,0,0:0:0:0:
359,340,141406,2,0,L|356:265,1,70,2|0,0:3|0:0,0:0:0:0:
262,193,141834,2,0,L|258:263,1,70,8|0,0:0|0:0,0:0:0:0:
175,317,142263,6,0,P|143:303|98:300,2,70,2|0|8,0:3|0:0|0:0,0:0:0:0:
265,368,142906,1,0,0:0:0:0:
265,368,143120,2,0,L|350:362,1,70,2|0,0:3|0:0,0:0:0:0:
431,348,143548,2,0,L|442:270,1,70,8|0,0:0|0:0,0:0:0:0:
332,251,143977,6,0,P|305:196|309:108,1,140,6|8,0:3|0:0,0:0:0:0:
336,25,144620,1,8,0:3:0:0:
240,48,144834,2,0,P|202:55|158:59,1,70,6|0,0:3|0:0,0:0:0:0:
69,34,145263,1,8,0:0:0:0:
68,148,145477,6,0,L|72:295,1,140,4|0,0:0|3:0,0:0:0:0:
130,373,146120,1,0,3:0:0:0:
226,306,146334,6,0,L|371:281,1,140,4|8,3:2|0:0,0:0:0:0:
377,279,146870,1,0,0:0:0:0:
390,277,146977,1,8,0:0:0:0:
470,220,147191,1,8,0:0:0:0:
447,73,147406,6,0,P|392:115|382:189,2,140,6|8|2,0:1|0:0|0:3,0:0:0:0:
476,166,148477,1,2,0:3:0:0:
442,257,148691,2,0,P|406:274|372:277,1,70,8|0,0:0|0:0,0:0:0:0:
287,220,149120,6,0,P|222:197|133:212,1,140,2|8,0:1|0:0,0:0:0:0:
63,245,149763,2,0,L|62:323,1,70,0|2,0:0|0:3,0:0:0:0:
143,368,150191,1,2,0:3:0:0:
231,321,150406,1,8,0:0:0:0:
231,321,150834,6,0,L|230:246,1,70,4|0,0:0|0:0,0:0:0:0:
245,153,151263,2,0,P|276:143|314:143,1,70,8|0,0:0|0:0,0:0:0:0:
408,166,151691,1,2,0:3:0:0:
498,127,151906,2,0,P|495:92|485:53,1,70,2|8,0:3|0:0,0:0:0:0:
408,166,152334,6,0,L|411:320,1,140,6|0,0:1|0:0,0:0:0:0:
327,358,152977,2,0,P|287:361|250:358,1,70,8|0,0:0|0:0,0:0:0:0:
161,335,153406,1,2,0:3:0:0:
208,249,153620,2,0,P|213:216|210:175,2,70,2|8|0,0:3|0:0|0:0,0:0:0:0:
124,144,154263,6,0,P|200:134|262:122,1,140,6|8,0:1|0:0,0:0:0:0:
356,93,154906,1,0,0:0:0:0:
286,24,155120,2,0,P|247:25|210:34,1,70,2|2,0:3|0:3,0:0:0:0:
126,66,155548,1,8,0:0:0:0:
34,26,155763,1,0,0:0:0:0:
126,66,155977,6,0,L|123:149,2,70,2|0|10,0:1|0:0|0:1,0:0:0:0:
216,31,156620,2,0,P|249:24|294:24,1,70,2|0,0:3|0:0,0:0:0:0:
381,42,157048,1,2,0:3:0:0:
316,115,157263,2,0,L|315:193,1,70,8|0,0:0|0:0,0:0:0:0:
406,278,157691,6,0,L|409:208,1,70,2|0,0:1|0:0,0:0:0:0:
444,117,158120,1,8,0:0:0:0:
315,184,158334,2,0,P|248:199|178:192,1,140,6|0,0:1|0:0,0:0:0:0:
79,184,158977,2,0,P|68:223|65:255,1,70,8|0,0:0|0:0,0:0:0:0:
131,361,159406,5,4,0:0:0:0:
246,348,159620,1,0,0:0:0:0:
131,361,159834,1,8,0:0:0:0:
180,252,160048,2,0,B|225:234|225:234|327:240,1,140,4|8,0:0|0:0,0:0:0:0:
352,248,160584,1,0,0:0:0:0:
352,248,160691,2,0,P|353:291|360:323,1,70,8|0,0:0|0:0,0:0:0:0:
469,232,161120,6,0,P|495:168|474:101,2,140,6|8|2,0:1|0:0|0:3,0:0:0:0:
400,163,162191,1,2,0:3:0:0:
307,196,162406,2,0,L|229:197,1,70,8|0,0:0|0:0,0:0:0:0:
143,135,162834,6,0,P|194:91|268:89,1,140,2|8,0:1|0:0,0:0:0:0:
355,124,163477,2,0,P|390:124|435:115,1,70,0|2,0:0|0:3,0:0:0:0:
501,57,163906,1,2,0:3:0:0:
410,20,164120,1,8,0:0:0:0:
410,20,164548,6,0,P|369:20|327:30,1,70,4|0,0:0|0:0,0:0:0:0:
264,87,164977,2,0,L|260:161,1,70,8|0,0:0|0:0,0:0:0:0:
279,253,165406,1,2,0:3:0:0:
357,195,165620,2,0,P|396:188|450:192,1,70,2|8,0:3|0:0,0:0:0:0:
279,253,166048,6,0,P|207:260|138:257,1,140,6|0,0:1|0:0,0:0:0:0:
43,236,166691,1,8,0:0:0:0:
86,147,166906,2,0,L|79:58,1,70,0|2,0:0|0:3,0:0:0:0:
174,49,167334,2,0,L|181:129,1,70,2|8,0:3|0:0,0:0:0:0:
230,203,167763,1,0,0:0:0:0:
321,137,167977,6,0,P|378:113|469:131,1,140,4|8,0:0|0:0,0:0:0:0:
464,221,168620,2,0,P|399:245|330:234,1,140,4|2,0:0|0:3,0:0:0:0:
237,202,169263,2,0,P|198:197|150:203,1,70,8|0,0:0|0:0,0:0:0:0:
218,300,169691,6,0,P|281:289|330:234,1,140,2|8,0:1|0:0,0:0:0:0:
237,202,170334,2,0,B|205:193|160:200|160:200|122:191|106:162,1,140,0|8,0:0|0:3,0:0:0:0:
73,75,170977,1,8,0:0:0:0:
73,75,171406,6,0,B|116:64|116:64|156:79|220:70,1,125.999996154785,4|0,0:0|0:0,0:0:0:0:
280,101,172048,2,0,L|277:177,2,62.9999980773926,2|2|0,0:3|0:3|0:0,0:0:0:0:
363,64,172691,1,2,0:0:0:0:
363,64,173120,5,2,0:3:0:0:
439,108,173334,2,0,L|510:107,2,62.9999980773926,0|0|2,0:0|0:0|0:3,0:0:0:0:
372,166,173977,2,0,P|364:206|364:241,1,62.9999980773926,0|2,0:0|0:3,0:0:0:0:
394,316,174406,1,2,0:0:0:0:
394,316,174834,6,0,P|324:314|251:322,1,125.999996154785,2|0,0:3|0:0,0:0:0:0:
183,345,175477,1,2,0:3:0:0:
97,322,175691,2,0,P|87:290|84:255,1,62.9999980773926,0|2,0:0|0:3,0:0:0:0:
87,172,176120,1,2,0:0:0:0:
87,172,176548,5,2,0:3:0:0:
172,193,176763,2,0,P|206:197|258:200,2,62.9999980773926,0|0|2,0:0|0:0|0:3,0:0:0:0:
147,107,177406,2,0,L|155:42,1,62.9999980773926,0|2,0:0|0:3,0:0:0:0:
242,18,177834,1,2,0:0:0:0:
242,18,178263,6,0,P|297:42|327:104,1,125.999996154785,2|0,0:3|0:0,0:0:0:0:
334,186,178906,2,0,P|364:180|396:180,2,62.9999980773926,2|0|2,0:3|0:0|0:3,0:0:0:0:
257,228,179548,1,2,0:0:0:0:
257,228,179977,6,0,L|256:304,1,62.9999980773926,2|0,0:3|0:0,0:0:0:0:
188,348,180406,2,0,P|156:347|124:339,1,62.9999980773926,0|2,0:0|0:3,0:0:0:0:
41,268,180834,2,0,L|166:252,1,125.999996154785,0|2,0:0|0:0,0:0:0:0:
165,251,181691,6,0,P|138:188|154:121,1,140,4|0,0:0|0:0,0:0:0:0:
214,43,182334,1,2,0:3:0:0:
298,92,182548,2,0,P|338:101|388:100,1,70,0|2,0:0|0:3,0:0:0:0:
460,73,182977,1,8,0:0:0:0:
491,165,183191,1,0,0:0:0:0:
400,203,183406,6,0,P|358:203|319:212,1,70,2|0,0:3|0:0,0:0:0:0:
262,278,183834,2,0,P|217:279|174:271,1,70,8|0,0:0|0:0,0:0:0:0:
97,251,184263,1,2,0:3:0:0:
97,251,184477,1,0,0:0:0:0:
132,159,184691,2,0,L|129:76,1,70,8|0,0:0|0:0,0:0:0:0:
229,13,185120,6,0,L|227:83,1,70,2|0,0:3|0:0,0:0:0:0:
296,152,185548,2,0,L|291:232,1,70,8|0,0:0|0:0,0:0:0:0:
201,261,185977,2,0,P|164:254|125:256,1,70,2|0,0:3|0:0,0:0:0:0:
45,302,186406,1,8,0:0:0:0:
159,354,186620,6,0,B|258:359|258:359|303:346,1,140,4|8,0:0|0:0,0:0:0:0:
244,263,187263,2,0,P|239:228|241:193,1,70,8|8,0:0|0:3,0:0:0:0:
303,118,187691,1,8,0:0:0:0:
303,118,187798,1,0,0:0:0:0:
303,118,187906,2,0,L|351:115,2,35,8|0|4,0:0|0:0|0:3,0:0:0:0:
183,78,188334,5,12,0:0:0:0:
163,84,188763,5,12,0:0:0:0:
143,90,189191,5,12,0:0:0:0:
60,144,189406,6,0,L|64:190,3,35,0|0|0|0,3:0|0:0|3:0|0:0,0:0:0:0:
66,210,189834,1,0,3:0:0:0:
27,301,190048,1,8,0:0:0:0:
155,306,190263,6,0,B|192:295|192:295|273:295|273:295|308:285,1,157.500006008148,4|6,0:0|0:1,0:0:0:0:
325,273,191334,5,2,0:3:0:0:
414,233,191548,2,0,P|448:230|487:234,1,70,8|0,0:0|0:0,0:0:0:0:
325,273,191977,6,0,B|318:235|318:235|321:129,1,140,2|8,0:1|0:0,0:0:0:0:
328,35,192620,2,0,P|363:24|405:18,1,70,0|2,0:0|0:3,0:0:0:0:
487,54,193048,1,2,0:3:0:0:
453,149,193263,1,8,0:0:0:0:
453,149,193691,6,0,P|410:155|371:155,1,70,4|0,0:0|0:0,0:0:0:0:
286,137,194120,2,0,L|279:217,1,70,8|0,0:0|0:0,0:0:0:0:
275,304,194548,1,2,0:3:0:0:
362,260,194763,2,0,P|395:254|442:257,1,70,2|8,0:3|0:0,0:0:0:0:
275,304,195191,6,0,P|193:300|115:286,1,140,6|0,0:1|0:0,0:0:0:0:
42,261,195834,2,0,L|40:183,1,70,8|0,0:0|0:0,0:0:0:0:
69,97,196263,1,2,0:3:0:0:
162,126,196477,2,0,P|194:132|237:134,2,70,2|8|0,0:3|0:0|0:0,0:0:0:0:
136,224,197120,6,0,P|206:226|275:240,1,140,6|8,0:1|0:0,0:0:0:0:
368,269,197763,2,0,P|364:234|368:190,1,70,0|2,0:0|0:3,0:0:0:0:
385,103,198191,1,2,0:3:0:0:
294,65,198406,2,0,P|260:57|211:59,1,70,8|0,0:0|0:0,0:0:0:0:
133,92,198834,6,0,P|95:96|46:93,2,70,2|0|10,0:1|0:0|0:1,0:0:0:0:
209,153,199477,2,0,P|214:190|217:234,1,70,2|0,0:3|0:0,0:0:0:0:
198,319,199906,1,2,0:3:0:0:
285,363,200120,2,0,L|365:354,1,70,8|0,0:0|0:0,0:0:0:0:
434,286,200548,6,0,P|437:250|434:201,1,70,2|0,0:1|0:0,0:0:0:0:
368,144,200977,1,8,0:0:0:0:
296,210,201191,1,2,0:1:0:0:
296,210,201298,1,0,3:0:0:0:
296,210,201406,2,0,L|297:258,2,35,0|0|0,3:0|3:0|3:0,0:0:0:0:
225,141,201834,2,0,L|230:104,2,35,0|0|0,3:0|3:0|3:0,0:0:0:0:
137,212,202263,6,0,P|98:219|57:218,1,70,8|0,3:2|3:0,0:0:0:0:
10,139,202691,1,2,0:3:0:0:
95,54,202906,2,0,P|163:44|233:84,1,140,4|8,0:0|0:0,0:0:0:0:
231,88,203441,1,0,0:0:0:0:
234,102,203548,1,8,0:0:0:0:
239,200,203763,1,0,0:0:0:0:
125,280,203977,6,0,B|119:243|119:243|149:136,2,140,6|8|2,0:1|0:0|0:3,0:0:0:0:
196,347,205048,1,2,0:3:0:0:
287,311,205263,2,0,P|324:303|372:308,1,70,8|0,0:0|0:0,0:0:0:0:
465,332,205691,6,0,P|486:267|462:188,1,140,2|8,0:1|0:0,0:0:0:0:
379,158,206334,2,0,L|300:151,1,70,0|2,0:0|0:3,0:0:0:0:
215,181,206763,1,2,0:3:0:0:
143,113,206977,1,8,0:0:0:0:
143,113,207406,6,0,L|148:40,1,70,4|0,0:0|0:0,0:0:0:0:
52,22,207834,2,0,L|46:108,1,70,8|0,0:0|0:0,0:0:0:0:
42,190,208263,1,2,0:3:0:0:
138,210,208477,2,0,P|174:202|212:182,1,70,2|8,0:3|0:0,0:0:0:0:
42,190,208906,6,0,L|32:348,1,140,6|0,0:1|0:0,0:0:0:0:
122,370,209548,1,8,0:0:0:0:
206,319,209763,2,0,L|291:317,1,70,0|2,0:0|0:3,0:0:0:0:
367,283,210191,2,0,P|376:317|383:357,1,70,2|8,0:3|0:0,0:0:0:0:
480,351,210620,1,0,0:0:0:0:
446,230,210834,6,0,L|305:224,1,140,4|8,0:0|0:0,0:0:0:0:
209,206,211477,2,0,P|243:147|327:128,1,140,4|2,0:0|0:3,0:0:0:0:
306,224,212120,2,0,L|301:310,1,70,8|0,0:0|0:0,0:0:0:0:
237,367,212548,6,0,P|173:338|106:347,1,140,2|8,0:1|0:0,0:0:0:0:
9,369,213191,2,0,B|9:336|9:336|21:267|21:267|21:230,1,140,0|2,0:0|0:3,0:0:0:0:
16,131,213834,1,8,0:0:0:0:
16,131,214263,6,0,P|55:126|101:131,1,70,6|0,0:1|0:0,0:0:0:0:
182,143,214691,1,8,0:0:0:0:
239,222,214906,2,0,P|277:156|262:90,1,140,2|2,0:1|0:3,0:0:0:0:
182,45,215548,1,8,0:0:0:0:
182,143,215763,6,0,L|327:175,1,140,2|2,0:1|0:3,0:0:0:0:
414,195,216406,1,8,0:0:0:0:
454,284,216620,2,0,B|378:308|386:264|313:289,1,140,2|2,0:1|0:1,0:0:0:0:
223,320,217263,1,8,0:0:0:0:
223,320,217691,6,0,L|220:246,1,70,4|0,0:0|0:0,0:0:0:0:
129,154,218120,2,0,L|125:224,1,70,12|0,0:0|0:0,0:0:0:0:
219,111,218548,1,12,0:0:0:0:
90,66,218763,1,4,0:3:0:0:
219,111,218977,1,12,0:0:0:0:
33,144,219191,5,12,0:0:0:0:
33,144,221120,6,0,P|105:138|170:94,1,140,6|8,0:1|0:0,0:0:0:0:
228,31,221763,1,0,0:0:0:0:
312,80,221977,2,0,P|319:118|318:158,1,70,2|0,0:0|0:0,0:0:0:0:
231,193,222406,2,0,P|222:226|219:275,1,70,10|0,0:0|0:0,0:0:0:0:
243,356,222834,5,2,0:1:0:0:
323,299,223048,1,0,0:0:0:0:
402,356,223263,2,0,P|437:345|478:338,1,70,8|2,0:0|0:1,0:0:0:0:
497,245,223691,2,0,P|429:235|357:210,1,140,0|8,0:0|0:0,0:0:0:0:
284,168,224334,1,2,0:0:0:0:
284,168,224441,1,2,0:0:0:0:
284,168,224548,6,0,L|287:92,1,70,2|0,0:1|0:0,0:0:0:0:
223,22,224977,1,10,0:1:0:0:
160,97,225191,1,0,0:0:0:0:
82,36,225406,2,0,P|52:30|12:33,2,70,2|0|8,0:1|0:0|0:0,0:0:0:0:
160,97,226048,6,0,L|152:249,1,140,2|0,0:1|0:0,0:0:0:0:
147,350,226691,1,8,0:0:0:0:
83,274,226906,2,0,P|157:252|228:292,1,140,2|2,0:1|0:0,0:0:0:0:
308,343,227548,1,4,0:0:0:0:
308,343,227977,6,0,L|307:191,1,140,6|10,0:1|0:0,0:0:0:0:
331,107,228620,2,0,P|401:60|466:71,1,140,6|0,0:1|0:0,0:0:0:0:
416,156,229263,1,10,0:0:0:0:
307,203,229477,6,0,B|210:201|210:201|168:191,1,140,6|0,0:1|0:0,0:0:0:0:
81,145,230120,2,0,P|83:108|98:73,1,70,10|0,0:0|0:0,0:0:0:0:
177,23,230548,1,0,0:0:0:0:
258,78,230763,6,0,L|257:245,1,140,10|0,0:0|0:0,0:0:0:0:
257,217,231620,5,12,0:0:0:0:
337,282,231834,1,12,0:0:0:0:
430,252,232048,2,0,L|437:222,3,23.3333333333333,4|0|0|0,3:0|3:0|3:0|3:0,0:0:0:0:
487,145,232477,2,0,L|478:72,1,70,2|8,0:0|0:0,0:0:0:0:
380,22,232906,6,0,P|332:44|243:53,1,140,12|0,0:0|0:0,0:0:0:0:
149,35,233548,1,10,0:0:0:0:
130,131,233763,1,0,0:0:0:0:
225,154,233977,2,0,P|259:148|310:146,2,70,10|8|4,0:0|0:3|0:3,0:0:0:0:
155,243,234620,5,4,0:0:0:0:
256,192,234727,12,0,239977,1:0:0:0:
