osu file format v14

[General]
AudioFilename: audio.mp3
AudioLeadIn: 0
PreviewTime: 62656
Countdown: 0
SampleSet: Soft
StackLeniency: 0.7
Mode: 0
LetterboxInBreaks: 0
WidescreenStoryboard: 0

[Editor]
DistanceSpacing: 1
BeatDivisor: 2
GridSize: 4
TimelineZoom: 0.8999997

[Metadata]
Title:Traveler's tale
TitleUnicode:Traveler's tale
Artist:riya(eufonius)
ArtistUnicode:riya(eufonius)
Creator:Garden
Version:Easy
Source:ISLAND
Tags:-Nanaka- Misure アイランド frontwing visual novel opening full version
BeatmapID:1042129
BeatmapSetID:487968

[Difficulty]
HPDrainRate:2
CircleSize:2.8
OverallDifficulty:2
ApproachRate:3
SliderMultiplier:0.899999999999999
SliderTickRate:1

[Events]
//Background and Video events
0,0,"bg1.jpg",0,0
//Break Periods
//Storyboard Layer 0 (Background)
//Storyboard Layer 1 (Fail)
//Storyboard Layer 2 (Pass)
//Storyboard Layer 3 (Foreground)
//Storyboard Sound Samples

[TimingPoints]
3406,428.571428571429,4,2,1,40,1,0
10263,-100,4,2,1,50,0,0
10691,-100,4,2,2,50,0,0
11120,-100,4,2,1,50,0,0
12406,-100,4,2,2,50,0,0
12620,-100,4,2,1,50,0,0
14977,-100,4,2,2,50,0,0
15191,-100,4,2,1,50,0,0
17548,-100,4,2,2,50,0,0
17763,-100,4,2,1,50,0,0
35548,-100,4,2,2,50,0,0
35763,-100,4,2,1,50,0,0
38120,-100,4,2,2,50,0,0
38334,-100,4,2,1,50,0,0
42406,-100,4,2,2,50,0,0
42620,-100,4,2,1,50,0,0
44977,-100,4,2,2,50,0,0
45191,-100,4,2,1,50,0,0
61263,-100,4,2,2,50,0,0
61477,-100,4,2,1,50,0,0
63406,-100,4,2,1,60,0,1
65548,-100,4,2,2,60,0,1
65977,-100,4,2,1,60,0,1
68120,-100,4,2,2,60,0,1
68334,-100,4,2,1,60,0,1
70691,-100,4,2,2,60,0,1
71120,-100,4,2,1,60,0,1
74120,-100,4,2,2,60,0,1
74334,-100,4,2,1,60,0,1
75834,-100,4,2,2,60,0,1
76048,-100,4,2,1,60,0,1
79263,-100,4,2,2,60,0,1
79691,-100,4,2,1,60,0,1
80977,-100,4,2,2,60,0,1
81191,-100,4,2,1,60,0,1
84406,-100,4,2,2,60,0,1
84620,-100,4,2,1,60,0,1
86120,-100,4,2,2,60,0,1
86548,-100,4,2,1,60,0,1
92334,-100,4,2,1,50,0,0
96406,-100,4,2,2,50,0,0
96834,-100,4,2,1,50,0,0
103263,-100,4,2,2,50,0,0
103477,-100,4,2,1,50,0,0
119548,-100,4,2,2,50,0,0
119763,-100,4,2,1,50,0,0
122120,-100,4,2,2,50,0,0
122334,-100,4,2,1,50,0,0
126406,-100,4,2,2,50,0,0
126620,-100,4,2,1,50,0,0
128977,-100,4,2,2,50,0,0
129191,-100,4,2,1,50,0,0
145263,-100,4,2,2,50,0,0
145477,-100,4,2,1,50,0,0
147406,-100,4,2,1,60,0,1
149548,-100,4,2,2,60,0,1
149977,-100,4,2,1,60,0,1
152120,-100,4,2,2,60,0,1
152334,-100,4,2,1,60,0,1
154691,-100,4,2,2,60,0,1
155120,-100,4,2,1,60,0,1
158120,-100,4,2,2,60,0,1
158334,-100,4,2,1,60,0,1
159834,-100,4,2,2,60,0,1
160048,-100,4,2,1,60,0,1
163263,-100,4,2,2,60,0,1
163691,-100,4,2,1,60,0,1
164977,-100,4,2,2,60,0,1
165191,-100,4,2,1,60,0,1
168406,-100,4,2,2,60,0,1
168620,-100,4,2,1,60,0,1
170120,-100,4,2,2,60,0,1
170548,-100,4,2,1,60,0,1
171406,-100,4,2,1,50,0,0
186406,-100,4,2,2,50,0,0
186620,-100,4,2,1,50,0,0
190906,-100,4,2,1,60,0,1
192406,-100,4,2,2,60,0,1
192834,-100,4,2,1,60,0,1
194977,-100,4,2,2,60,0,1
195191,-100,4,2,1,60,0,1
197548,-100,4,2,2,60,0,1
197977,-100,4,2,1,60,0,1
202691,-100,4,2,2,60,0,1
202906,-100,4,2,1,60,0,1
206120,-100,4,2,2,60,0,1
206548,-100,4,2,1,60,0,1
207834,-100,4,2,2,60,0,1
208048,-100,4,2,1,60,0,1
211263,-100,4,2,2,60,0,1
211477,-100,4,2,1,60,0,1
212977,-100,4,2,2,60,0,1
213406,-100,4,2,1,60,0,1
218977,-100,4,2,2,60,0,1
219191,-100,4,2,1,50,0,0
221548,-100,4,2,2,50,0,0
221977,-100,4,2,1,50,0,0
223263,-100,4,2,2,50,0,0
223477,-100,4,2,1,50,0,0
225834,-100,4,2,2,50,0,0
226048,-100,4,2,1,50,0,0
228406,-100,4,2,2,50,0,0
228620,-100,4,2,1,50,0,0
234834,-100,4,2,1,40,0,0
236548,-100,4,2,1,30,0,0
238263,-100,4,2,1,20,0,0
239977,-100,4,2,1,5,0,0

[Colours]
Combo1 : 190,255,125
Combo2 : 164,255,255
Combo3 : 255,190,159
Combo4 : 206,206,206
SliderBorder : 80,110,255

[HitObjects]
312,44,3406,6,0,B|251:77|182:49|182:49|135:80,1,180,2|2,0:0|0:0,0:0:0:0:
51,228,5120,2,0,B|110:267|180:251|180:251|214:288,1,180,2|2,0:0|0:0,0:0:0:0:
271,350,6406,1,0,0:0:0:0:
350,307,6834,6,0,P|414:285|486:293,2,135,2|2|2,0:0|0:0|0:0,0:0:0:0:
271,350,8548,2,0,P|216:358|167:353,1,89.9999999999999,2|0,0:0|0:0,0:0:0:0:
94,331,9406,2,0,L|85:231,1,89.9999999999999,2|2,0:0|0:0,0:0:0:0:
20,178,10263,6,0,P|107:198|195:177,1,180,6|2,0:1|0:0,0:0:0:0:
269,129,11548,1,10,0:0:0:0:
260,39,11977,2,0,P|204:32|125:32,2,135,2|2|8,0:1|0:1|0:0,0:0:0:0:
346,65,13691,6,0,P|349:121|357:162,1,89.9999999999999,2|10,0:1|0:1,0:0:0:0:
394,235,14548,2,0,P|341:202|266:203,2,135,2|2|10,0:1|0:1|0:0,0:0:0:0:
461,294,16263,1,0,0:0:0:0:
388,347,16691,1,12,0:0:0:0:
311,299,17120,6,0,L|354:153,1,135,6|6,0:1|0:1,0:0:0:0:
373,82,18191,1,0,0:0:0:0:
304,25,18620,2,0,P|241:21|170:44,2,135,6|10|10,0:1|0:0|0:0,0:0:0:0:
433,64,20548,6,0,L|448:254,1,180,4|0,0:0|0:0,0:0:0:0:
417,328,21834,1,8,0:0:0:0:
328,310,22263,2,0,P|260:307|193:314,2,135,2|2|8,0:3|0:3|0:0,0:0:0:0:
325,219,23977,6,0,P|258:216|190:223,2,135,2|2|8,0:3|0:3|0:0,0:0:0:0:
415,219,25691,2,0,P|421:167|416:122,1,89.9999999999999,2|0,0:3|0:0,0:0:0:0:
396,42,26548,1,0,0:0:0:0:
307,27,26977,1,8,0:0:0:0:
230,74,27406,6,0,P|163:93|96:91,2,135,2|2|8,0:3|0:3|0:0,0:0:0:0:
307,27,29120,2,0,P|364:18|401:20,2,89.9999999999999,2|0|0,0:3|0:0|0:0,0:0:0:0:
308,117,30406,1,8,0:0:0:0:
390,153,30834,6,0,P|434:208|436:296,2,135,2|2|8,0:3|0:3|0:0,0:0:0:0:
308,117,32548,2,0,P|262:122|218:117,1,89.9999999999999,2|0,0:3|0:0,0:0:0:0:
133,87,33406,2,0,P|59:98|11:143,1,135,2|4,0:0|0:0,0:0:0:0:
120,222,34691,5,8,0:0:0:0:
197,176,35120,2,0,P|280:162|365:171,2,135,2|2|8,0:3|0:3|0:0,0:0:0:0:
120,222,36834,2,0,P|107:274|106:322,1,89.9999999999999,2|8,0:3|0:0,0:0:0:0:
177,364,37691,6,0,L|334:356,1,135,2|0,0:3|0:0,0:0:0:0:
398,333,38763,1,0,0:0:0:0:
480,368,39191,2,0,P|443:321|439:245,1,135,2|8,0:3|0:0,0:0:0:0:
490,174,40263,2,0,P|486:121|469:79,1,89.9999999999999,2|8,0:3|0:0,0:0:0:0:
387,58,41120,6,0,P|337:64|281:63,1,89.9999999999999,4|8,0:0|0:0,0:0:0:0:
211,36,41977,2,0,P|139:30|69:47,2,135,2|2|8,0:3|0:3|0:0,0:0:0:0:
297,64,43691,2,0,P|289:123|290:173,1,89.9999999999999,2|8,0:3|0:0,0:0:0:0:
350,219,44548,6,0,P|282:213|217:228,1,135,2|0,0:3|0:0,0:0:0:0:
133,262,45620,1,0,0:0:0:0:
45,239,46048,2,0,P|31:187|34:86,1,135,2|10,0:3|0:0,0:0:0:0:
99,47,47120,2,0,P|143:41|204:54,1,89.9999999999999,10|8,0:0|0:0,0:0:0:0:
257,105,47977,6,0,L|442:116,1,180,4|2,0:0|0:3,0:0:0:0:
494,46,49263,1,8,0:0:0:0:
405,30,49691,2,0,P|345:105|375:184,1,180,2|0,0:3|0:0,0:0:0:0:
430,243,50977,1,8,0:0:0:0:
342,265,51406,6,0,P|272:262|196:288,2,135,2|2|8,0:3|0:3|0:0,0:0:0:0:
430,243,53120,2,0,B|439:154|439:154|467:113,2,135,2|2|8,0:3|0:3|0:0,0:0:0:0:
454,329,54834,6,0,P|405:344|361:345,1,89.9999999999999,4|0,0:0|0:0,0:0:0:0:
279,323,55691,2,0,L|270:218,1,89.9999999999999,0|8,0:0|0:0,0:0:0:0:
231,152,56548,2,0,P|184:160|143:182,2,89.9999999999999,2|8|2,0:3|0:0|0:3,0:0:0:0:
320,157,57834,1,8,0:0:0:0:
271,233,58263,6,0,L|279:328,1,89.9999999999999,2|8,0:3|0:0,0:0:0:0:
198,364,59120,2,0,P|143:368|103:360,1,89.9999999999999,2|8,0:3|0:0,0:0:0:0:
25,328,59977,1,6,0:3:0:0:
65,247,60406,1,8,0:0:0:0:
24,166,60834,2,0,B|12:117|26:78|26:78|65:52,1,135,2|4,0:3|0:0,0:0:0:0:
150,27,61906,5,4,0:0:0:0:
232,62,62334,1,4,0:0:0:0:
448,125,63406,6,0,P|449:80|458:24,2,89.9999999999999,6|8|2,0:1|0:0|0:3,0:0:0:0:
469,212,64691,1,8,0:0:0:0:
448,299,65120,2,0,B|396:309|396:309|266:309,1,180,2|2,0:1|0:3,0:0:0:0:
180,292,66406,1,8,0:0:0:0:
214,209,66834,6,0,P|215:161|207:109,1,89.9999999999999,4|8,0:0|0:0,0:0:0:0:
141,60,67691,2,0,P|207:65|273:49,2,135,2|6|8,0:3|0:1|0:0,0:0:0:0:
53,39,69406,2,0,P|33:82|22:130,1,89.9999999999999,2|8,0:3|0:0,0:0:0:0:
81,192,70263,6,0,P|179:176|270:192,1,180,6|2,0:1|0:3,0:0:0:0:
344,214,71548,1,8,0:0:0:0:
278,276,71977,2,0,P|281:319|276:373,2,89.9999999999999,2|10|0,0:1|0:1|0:0,0:0:0:0:
258,188,73263,1,8,0:0:0:0:
301,109,73691,6,0,B|349:114|389:93|389:93|438:111,2,135,2|6|8,0:1|0:1|0:0,0:0:0:0:
212,109,75406,2,0,B|164:114|124:93|124:93|75:111,2,135,4|4|8,0:0|0:0|0:0,0:0:0:0:
301,109,77120,5,6,0:1:0:0:
257,187,77548,2,0,L|257:282,1,89.9999999999999,8|2,0:0|0:3,0:0:0:0:
198,346,78406,1,8,0:0:0:0:
122,298,78834,2,0,B|113:272|111:241|111:241|122:181|122:181|106:150|103:122,1,180,2|2,0:1|0:3,0:0:0:0:
86,35,80120,1,8,0:0:0:0:
175,23,80548,6,0,P|247:22|328:37,1,135,4|0,0:0|0:0,0:0:0:0:
389,73,81620,1,2,0:3:0:0:
313,121,82048,2,0,B|297:162|297:162|293:274,1,135,6|8,0:1|0:0,0:0:0:0:
319,339,83120,2,0,P|365:323|406:297,1,89.9999999999999,2|8,0:3|0:0,0:0:0:0:
475,253,83977,6,0,P|445:314|453:388,2,135,4|4|8,0:0|0:0|0:0,0:0:0:0:
482,163,85691,2,0,L|297:176,1,180,2|2,0:1|0:3,0:0:0:0:
218,208,86977,1,8,0:0:0:0:
164,135,87406,6,0,L|161:37,1,89.9999999999999,6|8,0:1|0:0,0:0:0:0:
71,50,88263,2,0,L|75:143,1,89.9999999999999,2|8,0:3|0:0,0:0:0:0:
98,226,89120,2,0,P|147:218|195:221,2,89.9999999999999,2|8|2,0:3|0:0|0:3,0:0:0:0:
34,289,90406,1,8,0:0:0:0:
104,344,90834,6,0,P|148:345|193:337,1,89.9999999999999,4|12,0:0|0:0,0:0:0:0:
275,301,91691,2,0,B|272:211|272:211|248:159,1,135,12|12,0:0|0:0,0:0:0:0:
253,170,94263,6,0,P|251:125|239:80,2,89.9999999999999,4|8|2,0:1|0:0|0:3,0:0:0:0:
231,257,95548,1,8,0:0:0:0:
182,333,95977,2,0,B|262:379|289:293|380:349,1,180,2|2,0:3|0:3,0:0:0:0:
442,364,97263,1,8,0:0:0:0:
493,290,97691,6,0,L|482:196,1,89.9999999999999,2|8,0:3|0:0,0:0:0:0:
436,123,98548,2,0,P|460:85|496:59,2,89.9999999999999,2|8|2,0:3|0:0|0:3,0:0:0:0:
395,203,99834,1,8,0:0:0:0:
308,178,100263,2,0,P|266:173|210:177,1,89.9999999999999,2|8,0:3|0:0,0:0:0:0:
133,205,101120,5,4,0:0:0:0:
66,265,101548,2,0,P|71:308|64:360,2,89.9999999999999,8|2|8,0:0|0:3|0:0,0:0:0:0:
46,177,102834,2,0,P|91:125|159:118,2,135,2|4|8,0:3|0:0|0:0,0:0:0:0:
133,205,104548,6,0,B|181:212|218:184|218:184|267:179|311:203,1,180,2|2,0:3|1:2,0:0:0:0:
385,240,105834,1,0,1:0:0:0:
473,221,106263,2,0,P|478:171|474:115,1,89.9999999999999,2|0,1:3|1:0,0:0:0:0:
450,45,107120,2,0,L|343:53,1,89.9999999999999,0|0,1:0|1:0,0:0:0:0:
270,53,107977,6,0,B|181:45|181:45|124:61,2,135,2|0|0,1:3|1:0|1:0,0:0:0:0:
360,51,109691,2,0,P|382:101|388:146,1,89.9999999999999,2|0,1:3|1:0,0:0:0:0:
307,176,110548,2,0,P|294:227|292:268,1,89.9999999999999,0|0,1:0|1:0,0:0:0:0:
336,342,111406,6,0,P|383:346|442:374,2,89.9999999999999,2|0|0,1:3|1:0|1:0,0:0:0:0:
246,342,112691,1,0,1:0:0:0:
157,360,113120,2,0,B|109:369|67:360|67:360|33:323|32:274,1,180,2|0,1:3|1:0,0:0:0:0:
37,189,114406,1,0,1:0:0:0:
126,200,114834,6,0,L|239:210,1,89.9999999999999,2|0,1:3|1:0,0:0:0:0:
215,117,115691,2,0,B|127:109|127:109|87:82,1,135,0|4,1:0|0:1,0:0:0:0:
156,23,116763,2,0,B|248:31|248:31|297:57|305:111,1,180,8|8,0:0|0:3,0:0:0:0:
268,180,118048,6,0,B|252:225|252:225|251:337,1,135,4|8,0:0|0:0,0:0:0:0:
319,370,119120,2,0,P|249:361|182:373,2,135,2|2|8,0:3|0:3|0:0,0:0:0:0:
409,370,120834,2,0,P|424:319|422:273,1,89.9999999999999,2|8,0:3|0:0,0:0:0:0:
342,242,121691,6,0,B|319:209|320:156|320:156|352:116,1,135,2|0,0:3|0:0,0:0:0:0:
411,57,122763,1,0,0:0:0:0:
323,34,123191,2,0,P|264:47|165:46,1,135,2|8,0:3|0:0,0:0:0:0:
104,19,124263,2,0,P|63:25|14:67,1,89.9999999999999,2|8,0:3|0:0,0:0:0:0:
35,142,125120,6,0,P|45:178|40:236,1,89.9999999999999,4|8,0:0|0:0,0:0:0:0:
120,274,125977,2,0,B|210:262|210:262|272:277,2,135,2|2|8,0:3|0:3|0:0,0:0:0:0:
42,230,127691,2,0,P|34:186|31:133,1,89.9999999999999,2|8,0:3|0:0,0:0:0:0:
51,53,128548,6,0,P|99:67|198:71,1,135,2|0,0:3|0:0,0:0:0:0:
269,42,129620,1,0,0:0:0:0:
358,47,130048,2,0,B|356:76|343:96|343:96|341:194,1,135,2|10,0:3|0:0,0:0:0:0:
299,259,131120,2,0,L|199:263,1,89.9999999999999,10|8,0:0|0:0,0:0:0:0:
203,352,131977,6,0,B|337:346|337:346|391:320,1,180,4|2,0:0|0:3,0:0:0:0:
440,260,133263,1,8,0:0:0:0:
352,240,133691,2,0,P|305:169|324:71,1,180,2|0,0:3|0:0,0:0:0:0:
390,24,134977,1,8,0:0:0:0:
475,52,135406,6,0,B|471:143|471:143|480:196,2,135,2|2|8,0:3|0:3|0:0,0:0:0:0:
390,24,137120,2,0,P|324:33|242:20,2,135,2|2|8,0:3|0:3|0:0,0:0:0:0:
475,52,138834,6,0,L|471:159,1,89.9999999999999,4|0,0:0|0:0,0:0:0:0:
435,224,139691,2,0,P|391:218|347:226,1,89.9999999999999,0|8,0:0|0:0,0:0:0:0:
348,316,140548,2,0,P|392:322|436:314,2,89.9999999999999,2|8|2,0:3|0:0|0:3,0:0:0:0:
269,271,141834,1,8,0:0:0:0:
309,190,142263,6,0,P|312:146|305:94,1,89.9999999999999,2|8,0:3|0:0,0:0:0:0:
243,35,143120,2,0,P|198:35|144:40,1,89.9999999999999,2|8,0:3|0:0,0:0:0:0:
67,67,143977,1,6,0:3:0:0:
50,155,144406,1,8,0:0:0:0:
112,219,144834,2,0,B|202:210|202:210|259:218,1,135,6|4,0:3|0:0,0:0:0:0:
322,264,145906,6,0,P|307:308|314:355,1,89.9999999999999,0|4,3:0|3:2,0:0:0:0:
395,315,146763,2,0,P|407:240|365:186,1,135,8|6,0:0|0:1,0:0:0:0:
297,150,147834,5,8,0:0:0:0:
213,183,148263,2,0,P|161:186|115:177,1,89.9999999999999,2|8,0:3|0:0,0:0:0:0:
73,105,149120,2,0,L|56:293,1,180,2|2,0:1|0:3,0:0:0:0:
116,351,150406,1,8,0:0:0:0:
193,305,150834,6,0,L|192:207,1,89.9999999999999,4|8,0:0|0:0,0:0:0:0:
213,127,151691,2,0,P|284:118|355:140,2,135,2|6|8,0:3|0:1|0:0,0:0:0:0:
127,157,153406,2,0,P|77:151|36:128,1,89.9999999999999,2|8,0:3|0:0,0:0:0:0:
15,47,154263,6,0,B|70:28|70:28|209:22,1,180,6|2,0:1|0:3,0:0:0:0:
280,34,155548,1,8,0:0:0:0:
253,120,155977,2,0,P|239:176|237:222,2,89.9999999999999,2|10|0,0:1|0:1|0:0,0:0:0:0:
341,100,157263,1,8,0:0:0:0:
425,133,157691,6,0,P|433:196|437:277,2,135,2|6|8,0:1|0:1|0:0,0:0:0:0:
341,100,159406,2,0,B|292:91|251:109|251:109|190:93,2,135,4|4|8,0:0|0:0|0:0,0:0:0:0:
425,133,161120,5,6,0:1:0:0:
468,211,161548,2,0,L|467:304,1,89.9999999999999,8|2,0:0|0:3,0:0:0:0:
385,339,162406,1,8,0:0:0:0:
297,315,162834,2,0,B|250:315|250:315|168:340|168:340|120:340,1,180,2|2,0:1|0:3,0:0:0:0:
34,314,164120,1,8,0:0:0:0:
77,235,164548,6,0,B|87:198|87:198|89:91,1,135,4|0,0:0|0:0,0:0:0:0:
140,27,165620,1,2,0:3:0:0:
219,68,166048,2,0,P|273:123|295:209,1,135,6|8,0:1|0:0,0:0:0:0:
312,264,167120,2,0,L|408:263,1,89.9999999999999,2|8,0:3|0:0,0:0:0:0:
419,351,167977,6,0,L|274:351,2,135,4|4|8,0:0|0:0|0:0,0:0:0:0:
484,290,169691,2,0,P|488:201|443:124,1,180,2|2,0:1|0:3,0:0:0:0:
367,76,170977,1,8,0:0:0:0:
287,118,171406,6,0,P|218:135|151:130,2,135,4|2|2,0:0|0:3|0:0,0:0:0:0:
364,164,173120,2,0,L|353:355,1,180,2|0,0:3|0:0,0:0:0:0:
265,363,174406,1,2,0:0:0:0:
180,333,174834,6,0,P|112:327|36:340,2,135,2|2|2,0:3|0:3|0:0,0:0:0:0:
265,363,176548,2,0,P|350:342|394:264,1,180,2|0,0:3|0:0,0:0:0:0:
357,184,177834,1,2,0:0:0:0:
368,94,178263,6,0,P|433:75|502:83,2,135,2|2|2,0:3|0:3|0:0,0:0:0:0:
286,131,179977,2,0,B|230:144|230:144|179:114|105:132,1,180,2|0,0:3|0:0,0:0:0:0:
34,177,181263,1,2,0:0:0:0:
113,220,181691,6,0,L|117:358,2,135,4|2|8,0:0|0:3|0:0,0:0:0:0:
111,130,183406,2,0,P|156:123|212:131,1,89.9999999999999,2|8,0:3|0:0,0:0:0:0:
286,153,184263,2,0,P|331:162|379:158,1,89.9999999999999,2|8,0:3|0:0,0:0:0:0:
446,104,185120,5,2,0:3:0:0:
401,25,185548,1,8,0:0:0:0:
314,49,185977,2,0,L|157:49,1,135,2|4,0:3|0:0,0:0:0:0:
91,71,187048,1,8,0:0:0:0:
153,136,187477,2,0,P|202:222|177:309,1,180,8|12,0:3|0:0,0:0:0:0:
99,323,188763,5,12,0:0:0:0:
91,233,189191,2,0,B|269:203|269:203|316:211,1,225,12|4,0:0|0:0,0:0:0:0:
409,305,190906,6,0,P|442:249|441:173,1,135,6|8,0:1|0:0,0:0:0:0:
409,96,191977,2,0,P|310:97|231:77,1,180,2|2,0:1|0:3,0:0:0:0:
148,43,193263,1,8,0:0:0:0:
73,93,193691,6,0,P|64:146|65:202,1,89.9999999999999,4|8,0:0|0:0,0:0:0:0:
137,233,194548,2,0,P|71:227|4:247,2,135,2|6|8,0:3|0:1|0:0,0:0:0:0:
219,270,196263,2,0,L|223:369,1,89.9999999999999,2|8,0:3|0:0,0:0:0:0:
312,364,197120,6,0,L|320:166,1,180,6|2,0:1|0:3,0:0:0:0:
373,112,198406,1,8,0:0:0:0:
460,131,198834,2,0,P|469:180|470:222,2,89.9999999999999,2|10|0,0:1|0:1|0:0,0:0:0:0:
433,44,200120,1,8,0:0:0:0:
344,26,200548,6,0,P|276:31|209:31,2,135,2|2|0,0:1|0:1|3:0,0:0:0:0:
372,112,202263,2,0,P|440:107|507:111,2,135,8|4|8,3:2|0:0|0:0,0:0:0:0:
289,149,203977,5,6,0:1:0:0:
201,126,204406,2,0,P|151:136|109:165,1,89.9999999999999,8|2,0:0|0:3,0:0:0:0:
72,233,205263,1,8,0:0:0:0:
119,310,205691,2,0,B|163:303|163:303|207:316|207:316|261:297|312:315,1,180,2|2,0:1|0:3,0:0:0:0:
379,341,206977,1,8,0:0:0:0:
456,304,207406,6,0,L|451:160,1,135,4|0,0:0|0:0,0:0:0:0:
464,79,208477,1,2,0:3:0:0:
379,47,208906,2,0,P|301:63|251:108,1,135,6|8,0:1|0:0,0:0:0:0:
230,182,209977,2,0,L|231:281,1,89.9999999999999,2|8,0:3|0:0,0:0:0:0:
254,359,210834,6,0,B|302:364|342:345|342:345|398:357,2,135,4|4|8,0:0|0:0|0:0,0:0:0:0:
166,339,212548,2,0,B|125:325|76:337|76:337|34:302|39:242,1,180,2|2,0:1|0:3,0:0:0:0:
37,169,213834,1,8,0:0:0:0:
109,115,214263,6,0,L|216:107,1,89.9999999999999,6|8,0:1|0:0,0:0:0:0:
287,125,215120,2,0,P|304:170|310:228,1,89.9999999999999,2|8,0:3|0:0,0:0:0:0:
279,295,215977,2,0,L|187:306,2,89.9999999999999,2|8|2,0:3|0:0|0:3,0:0:0:0:
368,285,217263,1,8,0:0:0:0:
428,218,217691,6,0,P|430:170|422:118,1,89.9999999999999,4|12,0:0|0:0,0:0:0:0:
390,45,218548,2,0,B|300:42|300:42|256:59,1,135,12|12,0:0|0:0,0:0:0:0:
258,58,221120,6,0,B|243:116|243:116|243:243,1,180,6|2,0:1|0:0,0:0:0:0:
262,324,222406,1,10,0:0:0:0:
346,292,222834,2,0,P|419:286|486:307,2,135,2|2|8,0:1|0:1|0:0,0:0:0:0:
262,324,224548,6,0,P|216:330|169:326,1,89.9999999999999,2|10,0:1|0:1,0:0:0:0:
97,276,225406,2,0,L|93:129,2,135,2|2|8,0:1|0:1|0:0,0:0:0:0:
172,326,227120,1,0,0:0:0:0:
262,324,227548,1,12,0:0:0:0:
345,290,227977,6,0,P|368:226|357:157,1,135,6|6,0:1|0:1,0:0:0:0:
309,85,229048,1,0,0:0:0:0:
376,26,229477,2,0,P|443:33|503:63,2,135,6|10|10,0:1|0:0|0:0,0:0:0:0:
196,56,231620,6,0,B|152:68|152:68|108:55|63:69|63:69|45:94|38:120,1,180,12|2,0:0|0:0,0:0:0:0:
35,197,232906,2,0,B|72:208|72:208|191:207,1,135,12|10,0:0|0:0,0:0:0:0:
256,192,233977,2,0,P|266:228|268:352,1,135,10|4,0:0|0:0,0:0:0:0:
256,192,234834,12,0,239977,1:0:0:0:
