osu file format v14

[General]
AudioFilename: audio.ogg
AudioLeadIn: 0
PreviewTime: 64904
Countdown: 0
SampleSet: Drum
StackLeniency: 0.7
Mode: 3
LetterboxInBreaks: 0
SpecialStyle: 0
WidescreenStoryboard: 0

[Editor]
Bookmarks: 8434,14081,28198,31022,39492,50786,62081,64904,76198,87492,88904,100198,108669
DistanceSpacing: 0.7
BeatDivisor: 4
GridSize: 8
TimelineZoom: 1.5

[Metadata]
Title:one of a kind
TitleUnicode:one of a kind
Artist:riya (eufonius)
ArtistUnicode:riya (eufonius)
Creator:Drum-Hitnormal
Version:Champion
Source:蒼の彼方のフォーリズム EXTRA2
Tags:Ao no Kanata no Four Rhythm - EXTRA2 Aokana - Four Rhythms Across the Blue - EXTRA2 鳶沢みさき Tobisawa Misaki dudehacker japanese pop jpop j-pop video game opening visual novel vn eroge galge sprite FILMIC NOVEL faputa Savageeeee nabi- galgame short
BeatmapID:3927308
BeatmapSetID:1904641

[Difficulty]
HPDrainRate:8
CircleSize:4
OverallDifficulty:8
ApproachRate:5
SliderMultiplier:1.4
SliderTickRate:1

[Events]
//Background and Video events
0,0,"main_visual2.jpg",0,0
Video,-50,"extra2_op.mp4"
//Break Periods
//Storyboard Layer 0 (Background)
//Storyboard Layer 1 (Fail)
//Storyboard Layer 2 (Pass)
//Storyboard Layer 3 (Foreground)
//Storyboard Layer 4 (Overlay)
//Storyboard Sound Samples

[TimingPoints]
8434,352.941176470588,4,3,1,70,1,0
28286,-100,4,3,1,40,0,0
37904,-100,4,3,1,70,0,0
64904,-100,4,3,1,70,0,1
87492,-100,4,3,1,70,0,0

[HitObjects]
192,192,8434,128,0,8610:0:0:0:0:
320,192,8610,128,0,8698:0:0:0:0:
64,192,8698,1,0,0:0:0:0:
192,192,8786,128,0,8963:0:0:0:0:
448,192,8963,1,0,0:0:0:0:
320,192,9051,1,0,0:0:0:0:
192,192,9139,128,0,9316:0:0:0:0:
448,192,9316,128,0,9492:0:0:0:0:
64,192,9404,1,0,0:0:0:0:
320,192,9492,1,0,0:0:0:0:
192,192,9669,128,0,10022:0:0:0:0:
320,192,9757,1,0,0:0:0:0:
448,192,9845,1,0,0:0:0:0:
320,192,10022,128,0,10198:0:0:0:0:
192,192,10110,1,0,0:0:0:0:
64,192,10198,128,0,10375:0:0:0:0:
448,192,10375,128,0,10551:0:0:0:0:
320,192,10463,1,0,0:0:0:0:
192,192,10551,128,0,10728:0:0:0:0:
320,192,10728,128,0,10904:0:0:0:0:
192,192,10816,1,0,0:0:0:0:
64,192,10904,128,0,11169:0:0:0:0:
448,192,11081,128,0,11257:0:0:0:0:
320,192,11169,1,0,0:0:0:0:
64,192,11257,1,2,0:0:0:0:
192,192,11257,128,0,11345:0:0:0:0:
320,192,11433,128,0,11522:0:0:0:0:
448,192,11610,1,0,0:0:0:0:
64,192,11610,128,8,11698:0:0:0:0:
320,192,11610,1,0,0:0:0:0:
448,192,11786,128,0,11875:0:0:0:0:
192,192,11963,128,2,12051:0:0:0:0:
320,192,11963,1,0,0:0:0:0:
64,192,12139,128,0,12228:0:0:0:0:
320,192,12316,128,2,12404:0:0:0:0:
64,192,12316,1,8,0:0:0:0:
448,192,12316,1,0,0:0:0:0:
320,192,12492,1,0,0:0:0:0:
192,192,12492,128,2,12581:0:0:0:0:
64,192,12669,128,0,12757:0:0:0:0:
448,192,12669,128,0,12933:0:0:0:0:
320,192,12845,128,0,12933:0:0:0:0:
64,192,13022,128,0,13110:0:0:0:0:
192,192,13022,128,0,13286:0:0:0:0:
320,192,13198,128,0,13286:0:0:0:0:
64,192,13375,1,0,0:0:0:0:
448,192,13375,1,0,0:0:0:0:
192,192,13433,1,0,0:0:0:0:
320,192,13492,1,0,0:0:0:0:
448,192,13551,1,0,0:0:0:0:
64,192,13610,1,0,0:0:0:0:
192,192,13669,1,0,0:0:0:0:
320,192,13728,1,8,0:0:0:0:
448,192,13728,1,0,0:0:0:0:
64,192,13786,1,0,0:0:0:0:
448,192,13845,1,0,0:0:0:0:
320,192,13904,1,0,0:0:0:0:
192,192,13963,1,0,0:0:0:0:
64,192,14022,1,0,0:0:0:0:
320,192,14081,1,2,0:0:0:0:
448,192,14081,128,4,14169:0:0:0:0:
448,192,14257,128,0,14345:0:0:0:0:
64,192,14433,1,8,0:0:0:0:
192,192,14433,1,0,0:0:0:0:
448,192,14433,128,0,14610:0:0:0:0:
320,192,14610,1,0,0:0:0:0:
320,192,14786,1,0,0:0:0:0:
192,192,14786,128,2,14875:0:0:0:0:
192,192,14963,128,0,15139:0:0:0:0:
64,192,15139,1,8,0:0:0:0:
320,192,15139,1,0,0:0:0:0:
448,192,15139,1,0,0:0:0:0:
448,192,15316,128,0,15581:0:0:0:0:
64,192,15492,1,2,0:0:0:0:
192,192,15492,1,0,0:0:0:0:
448,192,15669,128,0,15845:0:0:0:0:
320,192,15845,1,0,0:0:0:0:
64,192,15845,1,8,0:0:0:0:
192,192,15845,1,0,0:0:0:0:
320,192,16022,128,0,16375:0:0:0:0:
64,192,16198,1,2,0:0:0:0:
448,192,16198,1,0,0:0:0:0:
192,192,16375,128,0,16551:0:0:0:0:
64,192,16551,128,8,16728:0:0:0:0:
320,192,16551,1,0,0:0:0:0:
448,192,16551,1,0,0:0:0:0:
448,192,16728,1,0,0:0:0:0:
64,192,16904,128,2,16992:0:0:0:0:
320,192,16904,1,0,0:0:0:0:
64,192,17081,128,0,17169:0:0:0:0:
64,192,17257,128,8,17433:0:0:0:0:
320,192,17257,1,0,0:0:0:0:
448,192,17257,1,0,0:0:0:0:
192,192,17433,1,0,0:0:0:0:
192,192,17610,128,2,17698:0:0:0:0:
448,192,17610,1,0,0:0:0:0:
192,192,17786,128,0,17963:0:0:0:0:
64,192,17963,1,8,0:0:0:0:
320,192,17963,1,0,0:0:0:0:
448,192,17963,1,0,0:0:0:0:
320,192,18139,128,0,18492:0:0:0:0:
64,192,18316,1,2,0:0:0:0:
448,192,18316,1,0,0:0:0:0:
192,192,18492,128,0,18845:0:0:0:0:
320,192,18669,1,8,0:0:0:0:
448,192,18669,1,0,0:0:0:0:
64,192,18669,1,4,0:0:0:0:
64,192,18845,128,0,19198:0:0:0:0:
192,192,19022,1,2,0:0:0:0:
320,192,19022,1,4,0:0:0:0:
448,192,19022,128,0,19375:0:0:0:0:
320,192,19198,128,0,19375:0:0:0:0:
64,192,19375,1,8,0:0:0:0:
192,192,19375,128,4,19551:0:0:0:0:
320,192,19551,128,0,19728:0:0:0:0:
448,192,19728,128,0,19816:0:0:0:0:
64,192,19728,1,2,0:0:0:0:
192,192,19728,1,4,0:0:0:0:
448,192,19904,128,0,19992:0:0:0:0:
64,192,20081,1,8,0:0:0:0:
192,192,20081,1,0,0:0:0:0:
448,192,20081,128,0,20257:0:0:0:0:
320,192,20257,1,0,0:0:0:0:
192,192,20433,128,2,20522:0:0:0:0:
320,192,20433,1,0,0:0:0:0:
192,192,20610,128,0,20786:0:0:0:0:
64,192,20786,1,8,0:0:0:0:
320,192,20786,1,0,0:0:0:0:
448,192,20786,1,0,0:0:0:0:
448,192,20963,128,0,21228:0:0:0:0:
64,192,21139,1,2,0:0:0:0:
192,192,21139,1,0,0:0:0:0:
448,192,21316,128,0,21492:0:0:0:0:
320,192,21492,1,0,0:0:0:0:
192,192,21492,1,0,0:0:0:0:
64,192,21492,1,8,0:0:0:0:
320,192,21669,128,0,22022:0:0:0:0:
64,192,21845,1,2,0:0:0:0:
448,192,21845,1,0,0:0:0:0:
192,192,22022,128,0,22198:0:0:0:0:
64,192,22198,128,8,22375:0:0:0:0:
320,192,22198,1,0,0:0:0:0:
448,192,22198,1,0,0:0:0:0:
448,192,22375,1,0,0:0:0:0:
64,192,22551,1,2,0:0:0:0:
192,192,22551,1,4,0:0:0:0:
320,192,22551,128,0,22728:0:0:0:0:
192,192,22728,128,0,22904:0:0:0:0:
320,192,22904,1,0,0:0:0:0:
448,192,22904,128,0,23081:0:0:0:0:
64,192,22904,1,8,0:0:0:0:
64,192,23081,128,0,23433:0:0:0:0:
448,192,23257,1,2,0:0:0:0:
320,192,23257,128,0,23433:0:0:0:0:
192,192,23433,128,0,23610:0:0:0:0:
448,192,23610,1,8,0:0:0:0:
64,192,23610,128,0,23786:0:0:0:0:
448,192,23786,128,0,24139:0:0:0:0:
64,192,23963,1,2,0:0:0:0:
192,192,23963,128,0,24139:0:0:0:0:
320,192,24139,128,0,24316:0:0:0:0:
64,192,24316,1,8,0:0:0:0:
448,192,24316,128,0,24492:0:0:0:0:
64,192,24492,128,0,24845:0:0:0:0:
448,192,24669,1,2,0:0:0:0:
320,192,24669,128,0,24845:0:0:0:0:
192,192,24845,128,0,25022:0:0:0:0:
320,192,25022,1,4,0:0:0:0:
448,192,25022,1,8,0:0:0:0:
64,192,25022,128,0,25198:0:0:0:0:
448,192,25198,128,0,25375:0:0:0:0:
320,192,25375,1,0,0:0:0:0:
64,192,25375,1,4,0:0:0:0:
192,192,25375,128,2,25639:0:0:0:0:
320,192,25551,128,0,25904:0:0:0:0:
192,192,25728,128,8,25904:0:0:0:30:
448,192,25904,128,0,26610:0:0:0:0:
64,192,26081,1,0,0:0:0:0:
192,192,26257,1,0,0:0:0:0:
320,192,26433,1,8,0:0:0:30:
64,192,26610,128,4,27139:0:0:0:0:
192,192,26786,1,2,0:0:0:0:
320,192,26786,1,0,0:0:0:0:
448,192,26786,1,0,0:0:0:0:
192,192,26963,1,0,0:0:0:0:
320,192,27051,1,0,0:0:0:0:
192,192,27139,128,8,27492:0:0:0:0:
448,192,27139,1,4,0:0:0:0:
320,192,27316,1,0,0:0:0:0:
448,192,27404,1,0,0:0:0:0:
320,192,27492,128,4,27845:0:0:0:0:
64,192,27492,128,2,27581:0:0:0:0:
64,192,27669,128,2,27757:0:0:0:0:
192,192,27669,128,0,27757:0:0:0:0:
192,192,27845,128,2,27933:0:0:0:0:
448,192,27845,128,4,28198:0:0:0:0:
192,192,28022,128,2,28110:0:0:0:0:
320,192,28022,128,0,28110:0:0:0:0:
192,192,28198,1,4,0:0:0:0:
320,192,28198,1,0,0:0:0:0:
64,192,28198,1,2,0:0:0:0:
64,192,28375,1,0,0:0:0:0:
192,192,28551,1,2,0:0:0:0:
448,192,28551,1,0,0:0:0:0:
448,192,28728,1,0,0:0:0:0:
192,192,28816,1,0,0:0:0:0:
320,192,28904,1,0,0:0:0:0:
64,192,28904,1,2,0:0:0:0:
320,192,29081,1,0,0:0:0:0:
192,192,29257,1,0,0:0:0:0:
64,192,29257,1,2,0:0:0:0:
192,192,29433,1,0,0:0:0:0:
320,192,29522,1,0,0:0:0:0:
64,192,29610,1,2,0:0:0:0:
448,192,29610,1,0,0:0:0:0:
64,192,29786,1,0,0:0:0:0:
192,192,29875,1,0,0:0:0:0:
448,192,29963,1,0,0:0:0:0:
320,192,29963,1,2,0:0:0:0:
192,192,30139,1,0,0:0:0:0:
320,192,30228,1,0,0:0:0:0:
64,192,30316,1,2,0:0:0:0:
192,192,30316,1,0,0:0:0:0:
64,192,30492,1,0,0:0:0:0:
448,192,30492,1,0,0:0:0:0:
192,192,30669,1,2,0:0:0:0:
448,192,30669,1,0,0:0:0:0:
320,192,30845,1,0,0:0:0:0:
448,192,30933,1,0,0:0:0:0:
192,192,31022,1,0,0:0:0:0:
64,192,31022,1,2,0:0:0:0:
64,192,31198,1,0,0:0:0:0:
192,192,31286,1,0,0:0:0:0:
320,192,31375,1,2,0:0:0:0:
448,192,31375,1,0,0:0:0:0:
192,192,31551,1,0,0:0:0:0:
320,192,31551,1,0,0:0:0:0:
64,192,31728,1,2,0:0:0:0:
192,192,31728,1,0,0:0:0:0:
448,192,31816,1,0,0:0:0:0:
320,192,31904,1,0,0:0:0:0:
192,192,31992,1,0,0:0:0:0:
64,192,32081,1,2,0:0:0:0:
448,192,32081,1,0,0:0:0:0:
320,192,32257,1,0,0:0:0:0:
64,192,32257,1,0,0:0:0:0:
192,192,32345,1,0,0:0:0:0:
320,192,32433,1,2,0:0:0:0:
448,192,32433,1,0,0:0:0:0:
448,192,32610,1,0,0:0:0:0:
192,192,32610,1,0,0:0:0:0:
320,192,32698,1,0,0:0:0:0:
64,192,32786,1,2,0:0:0:0:
448,192,32786,1,0,0:0:0:0:
64,192,32963,1,0,0:0:0:0:
320,192,32963,1,0,0:0:0:0:
192,192,33051,1,0,0:0:0:0:
320,192,33139,1,2,0:0:0:0:
448,192,33139,1,0,0:0:0:0:
64,192,33228,1,0,0:0:0:0:
448,192,33316,1,0,0:0:0:0:
320,192,33404,1,0,0:0:0:0:
64,192,33492,1,2,0:0:0:0:
192,192,33492,1,0,0:0:0:0:
448,192,33669,1,0,0:0:0:0:
64,192,33845,1,2,0:0:0:0:
192,192,33845,1,0,0:0:0:0:
448,192,33933,1,0,0:0:0:0:
320,192,34022,1,0,0:0:0:0:
192,192,34110,1,0,0:0:0:0:
64,192,34198,1,2,0:0:0:0:
448,192,34198,1,0,0:0:0:0:
192,192,34375,1,0,0:0:0:0:
448,192,34375,1,0,0:0:0:0:
320,192,34551,1,2,0:0:0:0:
448,192,34551,1,0,0:0:0:0:
192,192,34639,1,0,0:0:0:0:
320,192,34728,1,0,0:0:0:0:
192,192,34816,1,0,0:0:0:0:
64,192,34904,1,2,0:0:0:0:
448,192,34904,1,0,0:0:0:0:
64,192,35081,1,0,0:0:0:0:
320,192,35081,1,0,0:0:0:0:
192,192,35169,1,0,0:0:0:0:
320,192,35257,1,2,0:0:0:0:
448,192,35257,1,0,0:0:0:0:
64,192,35345,1,0,0:0:0:0:
448,192,35433,1,0,0:0:0:0:
192,192,35433,1,0,0:0:0:0:
64,192,35610,1,2,0:0:0:0:
320,192,35610,1,0,0:0:0:0:
64,192,35786,1,0,0:0:0:0:
448,192,35786,1,0,0:0:0:0:
192,192,35963,1,2,0:0:0:0:
320,192,35963,1,0,0:0:0:0:
448,192,36051,1,0,0:0:0:0:
320,192,36139,1,0,0:0:0:0:
64,192,36139,1,0,0:0:0:0:
192,192,36228,1,0,0:0:0:0:
64,192,36316,1,2,0:0:0:0:
448,192,36316,1,0,0:0:0:0:
320,192,36492,1,0,0:0:0:0:
64,192,36669,1,2,0:0:0:0:
192,192,36669,1,0,0:0:0:0:
448,192,36757,1,0,0:0:0:0:
320,192,36845,1,0,0:0:0:0:
192,192,36933,1,0,0:0:0:0:
64,192,37022,1,2,0:0:0:0:
448,192,37022,1,0,0:0:0:0:
320,192,37198,1,0,0:0:0:0:
64,192,37198,1,0,0:0:0:0:
192,192,37286,1,0,0:0:0:0:
320,192,37375,1,2,0:0:0:0:
448,192,37375,1,0,0:0:0:0:
64,192,37551,1,8,0:0:0:0:
448,192,37551,1,0,0:0:0:0:
192,192,37639,1,0,0:0:0:0:
320,192,37728,1,0,0:0:0:0:
64,192,37728,1,2,0:0:0:0:
192,192,37904,1,8,0:0:0:0:
448,192,37904,1,4,0:0:0:0:
320,192,37992,1,0,0:0:0:0:
64,192,38081,1,2,0:0:0:0:
192,192,38081,1,0,0:0:0:0:
448,192,38081,1,0,0:0:0:0:
64,192,38257,1,0,0:0:0:0:
320,192,38257,1,0,0:0:0:0:
448,192,38433,1,4,0:0:0:0:
320,192,38433,1,2,0:0:0:0:
64,192,38522,1,0,0:0:0:0:
192,192,38522,1,0,0:0:0:0:
448,192,38610,1,0,0:0:0:0:
320,192,38698,1,0,0:0:0:0:
64,192,38786,1,2,0:0:0:0:
192,192,38786,1,4,0:0:0:0:
448,192,38786,1,0,0:0:0:0:
320,192,38963,1,0,0:0:0:0:
192,192,38963,1,0,0:0:0:0:
64,192,39139,1,2,0:0:0:0:
320,192,39139,1,4,0:0:0:0:
448,192,39139,1,0,0:0:0:0:
192,192,39316,1,0,0:0:0:0:
448,192,39316,1,0,0:0:0:0:
192,192,39492,1,4,0:0:0:0:
320,192,39492,1,0,0:0:0:0:
64,192,39492,1,2,0:0:0:0:
448,192,39492,1,0,0:0:0:0:
320,192,39669,1,0,0:0:0:0:
320,192,39757,1,0,0:0:0:0:
64,192,39845,1,8,0:0:0:0:
192,192,39845,1,0,0:0:0:0:
64,192,40022,1,0,0:0:0:0:
320,192,40022,1,0,0:0:0:0:
320,192,40198,1,2,0:0:0:0:
448,192,40198,1,0,0:0:0:0:
448,192,40286,1,0,0:0:0:0:
192,192,40375,1,0,0:0:0:0:
192,192,40463,1,0,0:0:0:0:
64,192,40551,1,8,0:0:0:0:
320,192,40551,1,0,0:0:0:0:
192,192,40728,1,0,0:0:0:0:
448,192,40728,1,0,0:0:0:0:
320,192,40816,1,0,0:0:0:0:
64,192,40904,1,2,0:0:0:0:
192,192,40904,1,0,0:0:0:0:
320,192,40992,1,0,0:0:0:0:
448,192,41081,1,0,0:0:0:0:
64,192,41081,1,0,0:0:0:0:
192,192,41257,1,8,0:0:0:0:
448,192,41257,1,0,0:0:0:0:
320,192,41433,1,0,0:0:0:0:
320,192,41522,1,0,0:0:0:0:
64,192,41610,1,2,0:0:0:0:
192,192,41610,1,0,0:0:0:0:
64,192,41786,1,0,0:0:0:0:
320,192,41786,1,0,0:0:0:0:
448,192,41963,1,0,0:0:0:0:
192,192,41963,1,8,0:0:0:0:
64,192,42139,1,0,0:0:0:0:
320,192,42139,1,0,0:0:0:0:
64,192,42316,1,2,0:0:0:0:
448,192,42316,1,0,0:0:0:0:
192,192,42492,1,0,0:0:0:0:
448,192,42492,1,0,0:0:0:0:
192,192,42669,1,8,0:0:0:0:
320,192,42669,1,0,0:0:0:0:
320,192,42845,1,0,0:0:0:0:
64,192,42845,1,0,0:0:0:0:
192,192,42933,1,0,0:0:0:0:
320,192,43022,1,2,0:0:0:0:
448,192,43022,1,0,0:0:0:0:
448,192,43110,1,0,0:0:0:0:
192,192,43198,1,0,0:0:0:0:
192,192,43286,1,0,0:0:0:0:
64,192,43375,1,8,0:0:0:0:
320,192,43375,1,0,0:0:0:0:
448,192,43551,1,0,0:0:0:0:
320,192,43639,1,0,0:0:0:0:
64,192,43728,1,2,0:0:0:0:
192,192,43728,1,0,0:0:0:0:
64,192,43904,1,0,0:0:0:0:
320,192,44081,1,8,0:0:0:0:
448,192,44081,1,0,0:0:0:0:
192,192,44257,1,0,0:0:0:0:
192,192,44345,1,0,0:0:0:0:
448,192,44433,1,0,0:0:0:0:
64,192,44433,1,2,0:0:0:0:
448,192,44610,1,0,0:0:0:0:
320,192,44698,1,0,0:0:0:0:
64,192,44786,1,8,0:0:0:0:
192,192,44786,1,0,0:0:0:0:
64,192,44963,1,0,0:0:0:0:
192,192,45051,1,0,0:0:0:0:
320,192,45139,1,4,0:0:0:0:
448,192,45139,1,0,0:0:0:0:
64,192,45139,1,2,0:0:0:0:
192,192,45316,1,0,0:0:0:0:
448,192,45316,1,0,0:0:0:0:
64,192,45492,1,8,0:0:0:0:
320,192,45492,1,0,0:0:0:0:
64,192,45669,1,0,0:0:0:0:
448,192,45669,1,0,0:0:0:0:
320,192,45845,1,0,0:0:0:0:
192,192,45845,1,2,0:0:0:0:
192,192,45933,1,0,0:0:0:0:
448,192,46022,1,0,0:0:0:0:
320,192,46022,1,0,0:0:0:0:
64,192,46198,1,8,0:0:0:0:
192,192,46198,1,0,0:0:0:0:
64,192,46286,1,0,0:0:0:0:
320,192,46375,1,0,0:0:0:0:
448,192,46375,1,0,0:0:0:0:
64,192,46551,1,2,0:0:0:0:
192,192,46551,1,0,0:0:0:0:
448,192,46728,1,0,0:0:0:0:
192,192,46728,1,0,0:0:0:0:
320,192,46904,1,8,0:0:0:0:
448,192,46904,1,0,0:0:0:0:
64,192,47081,1,0,0:0:0:0:
320,192,47081,1,0,0:0:0:0:
64,192,47169,1,0,0:0:0:0:
192,192,47257,1,2,0:0:0:0:
448,192,47257,1,0,0:0:0:0:
448,192,47433,1,0,0:0:0:0:
320,192,47433,1,0,0:0:0:0:
64,192,47610,1,8,0:0:0:0:
192,192,47610,1,0,0:0:0:0:
320,192,47786,1,0,0:0:0:0:
192,192,47875,1,0,0:0:0:0:
64,192,47963,1,2,0:0:0:0:
448,192,47963,1,0,0:0:0:0:
192,192,48139,1,0,0:0:0:0:
320,192,48316,1,8,0:0:0:0:
448,192,48316,1,0,0:0:0:0:
64,192,48492,1,0,0:0:0:0:
320,192,48581,1,0,0:0:0:0:
192,192,48669,1,2,0:0:0:0:
448,192,48669,1,0,0:0:0:0:
192,192,48757,1,0,0:0:0:0:
320,192,48845,1,0,0:0:0:0:
320,192,48933,1,0,0:0:0:0:
64,192,49022,1,8,0:0:0:0:
192,192,49022,1,0,0:0:0:0:
448,192,49198,1,0,0:0:0:0:
64,192,49198,1,0,0:0:0:0:
448,192,49375,1,0,0:0:0:0:
192,192,49375,1,2,0:0:0:0:
320,192,49463,1,0,0:0:0:0:
64,192,49551,1,0,0:0:0:0:
192,192,49551,1,0,0:0:0:0:
64,192,49728,1,8,0:0:0:0:
320,192,49728,1,0,0:0:0:0:
192,192,49904,1,0,0:0:0:0:
448,192,49904,1,0,0:0:0:0:
448,192,49992,1,0,0:0:0:0:
192,192,50081,1,8,0:0:0:0:
64,192,50081,1,2,0:0:0:0:
320,192,50169,1,8,0:0:0:0:
448,192,50169,1,0,0:0:0:0:
64,192,50257,1,0,0:0:0:0:
192,192,50257,1,0,0:0:0:0:
320,192,50433,1,8,0:0:0:0:
448,192,50433,1,0,0:0:0:0:
192,192,50610,1,0,0:0:0:0:
64,192,50610,1,0,0:0:0:0:
64,192,50786,1,2,0:0:0:0:
320,192,50786,1,0,0:0:0:0:
448,192,50786,1,0,0:0:0:0:
192,192,50875,1,0,0:0:0:0:
64,192,50963,1,2,0:0:0:0:
448,192,50963,1,0,0:0:0:0:
320,192,51051,1,0,0:0:0:0:
192,192,51139,1,0,0:0:0:0:
64,192,51139,1,2,0:0:0:0:
448,192,51228,1,0,0:0:0:0:
192,192,51316,1,0,0:0:0:0:
320,192,51404,1,0,0:0:0:0:
64,192,51492,128,4,52110:0:0:0:0:
192,192,51492,128,0,51669:0:0:0:0:
192,192,51757,128,0,52110:0:0:0:0:
320,192,51757,128,0,51933:0:0:0:0:
320,192,52022,128,0,52375:0:0:0:0:
448,192,52022,128,0,52110:0:0:0:0:
192,192,52198,128,2,52375:0:0:0:0:
64,192,52198,128,4,52375:0:0:0:0:
64,192,52463,1,2,0:0:0:0:
192,192,52463,1,0,0:0:0:0:
320,192,52551,128,0,52816:0:0:0:0:
448,192,52551,128,0,53257:0:0:0:0:
64,192,52728,1,2,0:0:0:0:
192,192,52728,1,0,0:0:0:0:
192,192,52904,128,8,53169:0:0:0:0:
320,192,52904,128,0,53257:0:0:0:0:
64,192,53257,128,0,53522:0:0:0:0:
192,192,53257,128,0,53433:0:0:0:0:
320,192,53522,128,0,53610:0:0:0:0:
448,192,53522,128,0,54228:0:0:0:0:
64,192,53610,1,2,0:0:0:0:
192,192,53610,1,0,0:0:0:0:
320,192,53698,1,2,0:0:0:0:
192,192,53786,1,0,0:0:0:0:
64,192,53786,1,2,0:0:0:0:
320,192,53875,1,0,0:0:0:0:
192,192,53963,1,0,0:0:0:0:
64,192,54051,1,0,0:0:0:0:
192,192,54139,1,0,0:0:0:0:
320,192,54228,1,0,0:0:0:0:
64,192,54316,128,4,54581:0:0:0:0:
192,192,54316,128,0,54492:0:0:0:0:
448,192,54316,1,0,0:0:0:0:
192,192,54581,128,0,54845:0:0:0:0:
320,192,54581,128,0,54757:0:0:0:0:
320,192,54845,128,0,55022:0:0:0:0:
448,192,54845,128,0,54933:0:0:0:0:
64,192,55022,1,2,0:0:0:0:
192,192,55022,1,4,0:0:0:0:
448,192,55022,128,0,55375:0:0:0:0:
64,192,55286,1,2,0:0:0:0:
320,192,55286,1,0,0:0:0:0:
192,192,55375,128,0,55728:0:0:0:0:
448,192,55551,1,0,0:0:0:0:
320,192,55551,128,2,55904:0:0:0:0:
448,192,55728,1,0,0:0:0:0:
64,192,55728,1,8,0:0:0:0:
64,192,55904,128,0,56257:0:0:0:0:
192,192,55992,1,0,0:0:0:0:
448,192,56081,1,0,0:0:0:0:
320,192,56169,1,0,0:0:0:0:
192,192,56257,1,0,0:0:0:0:
320,192,56345,1,0,0:0:0:0:
64,192,56433,1,2,0:0:0:0:
192,192,56433,1,4,0:0:0:0:
448,192,56433,128,0,57051:0:0:0:0:
64,192,56610,1,2,0:0:0:0:
192,192,56610,1,0,0:0:0:0:
64,192,56786,1,2,0:0:0:0:
192,192,56786,1,0,0:0:0:0:
320,192,56875,1,0,0:0:0:0:
64,192,56963,1,0,0:0:0:0:
192,192,57051,1,0,0:0:0:0:
448,192,57139,128,0,57316:0:0:0:0:
320,192,57139,1,8,0:0:0:0:
64,192,57228,1,0,0:0:0:0:
320,192,57316,1,0,0:0:0:0:
64,192,57404,1,0,0:0:0:0:
192,192,57404,128,0,57581:0:0:0:0:
448,192,57492,1,0,0:0:0:0:
192,192,57669,1,0,0:0:0:0:
320,192,57669,128,0,57845:0:0:0:0:
448,192,57845,1,0,0:0:0:0:
64,192,57845,128,2,58198:0:0:0:0:
320,192,57933,1,0,0:0:0:0:
192,192,58022,1,0,0:0:0:0:
320,192,58110,1,2,0:0:0:0:
448,192,58110,1,0,0:0:0:0:
192,192,58198,1,0,0:0:0:0:
320,192,58286,1,0,0:0:0:0:
448,192,58375,1,0,0:0:0:0:
64,192,58375,1,2,0:0:0:0:
192,192,58463,1,0,0:0:0:0:
448,192,58551,128,0,58728:0:0:0:0:
320,192,58551,1,8,0:0:0:0:
192,192,58639,1,0,0:0:0:0:
320,192,58728,1,0,0:0:0:0:
64,192,58816,128,0,58992:0:0:0:0:
192,192,58904,1,0,0:0:0:0:
448,192,58992,1,0,0:0:0:0:
320,192,59081,128,0,59257:0:0:0:0:
192,192,59257,1,4,0:0:0:0:
448,192,59257,1,0,0:0:0:0:
64,192,59257,1,2,0:0:0:0:
320,192,59345,1,0,0:0:0:0:
192,192,59433,1,0,0:0:0:0:
320,192,59522,1,0,0:0:0:0:
64,192,59610,1,2,0:0:0:0:
448,192,59610,1,0,0:0:0:0:
320,192,59698,1,0,0:0:0:0:
192,192,59786,1,0,0:0:0:0:
64,192,59875,1,0,0:0:0:0:
448,192,59963,1,0,0:0:0:0:
320,192,59963,1,2,0:0:0:0:
192,192,60051,1,0,0:0:0:0:
448,192,60139,1,0,0:0:0:0:
320,192,60228,1,0,0:0:0:0:
64,192,60316,1,2,0:0:0:0:
192,192,60316,1,0,0:0:0:0:
448,192,60404,1,0,0:0:0:0:
64,192,60492,1,0,0:0:0:0:
192,192,60581,1,0,0:0:0:0:
320,192,60669,1,2,0:0:0:0:
448,192,60669,1,0,0:0:0:0:
192,192,60757,1,0,0:0:0:0:
64,192,60845,1,0,0:0:0:70:LR_Tom Hit.wav
320,192,60845,1,0,0:0:0:0:
448,192,60933,1,0,0:0:0:0:
64,192,61022,1,2,0:0:0:0:
192,192,61022,1,0,0:0:0:70:LR_Tom Hit.wav
320,192,61110,1,0,0:0:0:70:LR_Tom Hit.wav
448,192,61110,1,0,0:0:0:0:
192,192,61198,1,0,0:0:0:0:
448,192,61286,1,0,0:0:0:0:
320,192,61286,1,0,0:0:0:0:
64,192,61375,1,2,0:0:0:0:
192,192,61375,1,0,0:0:0:70:LR_Tom Hit.wav
320,192,61463,1,0,0:0:0:0:
64,192,61551,1,0,0:0:0:70:LR_Tom Hit.wav
448,192,61551,1,0,0:0:0:0:
192,192,61639,1,0,0:0:0:0:
320,192,61728,1,2,0:0:0:0:
448,192,61728,1,0,0:0:0:70:LR_Tom Hit.wav
192,192,61816,1,0,0:0:0:0:
64,192,61904,1,0,0:0:0:70:LR_Tom Hit.wav
448,192,61904,1,0,0:0:0:0:
192,192,61992,1,0,0:0:0:70:LR_Tom Hit.wav
320,192,61992,1,0,0:0:0:0:
64,192,62081,1,2,0:0:0:40:
448,192,62081,1,0,0:0:0:0:
192,192,62257,1,0,0:0:0:0:
448,192,62433,1,0,0:0:0:0:
192,192,62433,1,2,0:0:0:40:
320,192,62610,1,0,0:0:0:0:
64,192,62786,1,2,0:0:0:40:
320,192,62786,1,0,0:0:0:0:
192,192,63139,1,2,0:0:0:40:
320,192,63139,1,0,0:0:0:0:
320,192,63316,1,0,0:0:0:0:
192,192,63492,1,2,0:0:0:40:
448,192,63492,1,0,0:0:0:0:
448,192,63669,1,0,0:0:0:0:
64,192,63845,1,0,0:0:0:0:
192,192,63845,1,0,0:0:0:0:
320,192,63933,1,0,0:0:0:0:
64,192,64198,1,0,0:0:0:0:
448,192,64198,1,0,0:0:0:0:
320,192,64286,1,0,0:0:0:0:
448,192,64375,1,0,0:0:0:0:
192,192,64375,1,2,0:0:0:0:
320,192,64463,1,0,0:0:0:0:
448,192,64551,1,0,0:0:0:0:
64,192,64551,1,8,0:0:0:0:
192,192,64595,1,0,0:0:0:0:
320,192,64639,1,0,0:0:0:0:
448,192,64683,1,0,0:0:0:0:
64,192,64728,1,0,0:0:0:0:
192,192,64772,1,0,0:0:0:0:
320,192,64816,1,0,0:0:0:0:
448,192,64860,1,0,0:0:0:0:
192,192,64904,1,4,0:0:0:0:
64,192,64904,128,2,65257:0:0:0:0:
448,192,65081,1,0,0:0:0:0:
192,192,65169,1,0,0:0:0:0:
320,192,65257,1,8,0:0:0:0:
448,192,65257,1,0,0:0:0:0:
320,192,65433,128,0,65610:0:0:0:0:
64,192,65610,1,2,0:0:0:0:
192,192,65610,1,0,0:0:0:0:
448,192,65698,1,0,0:0:0:0:
64,192,65786,128,0,65875:0:0:0:0:
448,192,65963,1,0,0:0:0:0:
64,192,65963,128,8,66669:0:0:0:0:
192,192,66051,1,0,0:0:0:0:
320,192,66139,1,0,0:0:0:0:
448,192,66228,1,0,0:0:0:0:
192,192,66316,1,2,0:0:0:0:
448,192,66404,1,0,0:0:0:0:
192,192,66492,1,0,0:0:0:0:
320,192,66581,1,0,0:0:0:0:
192,192,66669,1,8,0:0:0:0:
448,192,66669,1,0,0:0:0:0:
64,192,66757,1,0,0:0:0:0:
320,192,66845,1,0,0:0:0:0:
192,192,66933,1,0,0:0:0:0:
64,192,67022,128,2,67110:0:0:0:0:
448,192,67022,1,4,0:0:0:0:
448,192,67198,128,0,67286:0:0:0:0:
320,192,67286,1,0,0:0:0:0:
64,192,67375,1,8,0:0:0:0:
192,192,67375,128,0,67463:0:0:0:0:
320,192,67551,128,0,67639:0:0:0:0:
64,192,67728,1,2,0:0:0:0:
320,192,67728,128,4,68081:0:0:0:0:
448,192,67728,1,0,0:0:0:0:
64,192,67904,1,0,0:0:0:0:
192,192,67992,1,0,0:0:0:0:
64,192,68081,1,8,0:0:0:0:
448,192,68081,1,0,0:0:0:0:
192,192,68257,128,0,68433:0:0:0:0:
320,192,68345,1,0,0:0:0:0:
64,192,68433,1,2,0:0:0:0:
448,192,68433,1,0,0:0:0:0:
320,192,68522,1,0,0:0:0:0:
64,192,68610,1,0,0:0:0:0:
192,192,68698,1,0,0:0:0:0:
64,192,68786,128,8,68875:0:0:0:0:
320,192,68786,1,0,0:0:0:0:
448,192,68786,1,0,0:0:0:0:
64,192,68963,128,0,69316:0:0:0:0:
192,192,69051,1,0,0:0:0:0:
320,192,69139,1,2,0:0:0:0:
448,192,69139,1,0,0:0:0:0:
192,192,69316,1,0,0:0:0:0:
320,192,69404,1,0,0:0:0:0:
192,192,69492,128,8,69669:0:0:0:0:
448,192,69492,1,0,0:0:0:0:
320,192,69669,1,0,0:0:0:0:
192,192,69757,1,0,0:0:0:0:
320,192,69845,128,0,70022:0:0:0:0:
64,192,69845,1,2,0:0:0:0:
448,192,70022,1,0,0:0:0:0:
320,192,70110,1,0,0:0:0:0:
64,192,70198,128,8,70375:0:0:0:0:
192,192,70198,1,0,0:0:0:0:
448,192,70198,1,0,0:0:0:0:
448,192,70375,128,0,70551:0:0:0:0:
192,192,70551,1,4,0:0:0:0:
64,192,70551,1,2,0:0:0:0:
320,192,70551,1,0,0:0:0:0:
192,192,70728,1,0,0:0:0:0:
320,192,70816,1,0,0:0:0:0:
64,192,70904,1,8,0:0:0:0:
448,192,70904,1,0,0:0:0:0:
192,192,70992,1,0,0:0:0:0:
320,192,71081,128,0,71257:0:0:0:0:
64,192,71257,1,2,0:0:0:0:
448,192,71257,1,0,0:0:0:0:
192,192,71345,1,0,0:0:0:0:
448,192,71433,1,0,0:0:0:0:
320,192,71522,1,0,0:0:0:0:
64,192,71610,1,8,0:0:0:0:
192,192,71610,1,0,0:0:0:0:
448,192,71698,1,0,0:0:0:0:
64,192,71786,128,0,71963:0:0:0:0:
192,192,71963,1,2,0:0:0:0:
320,192,71963,1,0,0:0:0:0:
448,192,72139,128,0,72228:0:0:0:0:
64,192,72228,1,0,0:0:0:0:
448,192,72316,128,0,72669:0:0:0:0:
192,192,72316,1,8,0:0:0:0:
64,192,72492,1,0,0:0:0:0:
192,192,72581,1,0,0:0:0:0:
64,192,72669,1,2,0:0:0:0:
320,192,72669,1,0,0:0:0:0:
448,192,72757,1,0,0:0:0:0:
64,192,72845,1,0,0:0:0:0:
192,192,72933,1,0,0:0:0:0:
320,192,73022,1,8,0:0:0:0:
448,192,73022,1,0,0:0:0:0:
64,192,73110,1,0,0:0:0:0:
192,192,73198,1,0,0:0:0:0:
320,192,73286,1,0,0:0:0:0:
64,192,73375,128,2,73463:0:0:0:0:
448,192,73375,1,0,0:0:0:0:
192,192,73463,1,0,0:0:0:0:
448,192,73551,1,0,0:0:0:0:
320,192,73639,1,0,0:0:0:0:
64,192,73728,1,8,0:0:0:0:
192,192,73728,128,0,73816:0:0:0:0:
448,192,73816,1,0,0:0:0:0:
320,192,73904,1,0,0:0:0:0:
192,192,73992,1,0,0:0:0:0:
64,192,74081,1,2,0:0:0:0:
448,192,74081,128,0,74169:0:0:0:0:
320,192,74169,1,0,0:0:0:0:
192,192,74257,1,0,0:0:0:0:
64,192,74345,1,0,0:0:0:0:
448,192,74433,1,0,0:0:0:0:
192,192,74433,128,8,74522:0:0:0:0:
64,192,74610,1,4,0:0:0:0:
192,192,74610,128,0,74963:0:0:0:70:LR_Tom Hit.wav
320,192,74786,1,2,0:0:0:0:
448,192,74786,1,0,0:0:0:0:
64,192,74963,1,0,0:0:0:70:LR_Tom Hit.wav
448,192,74963,128,0,75051:0:0:0:0:
320,192,75139,1,0,0:0:0:70:LR_Tom Hit.wav
64,192,75139,128,8,75228:0:0:0:0:
192,192,75228,1,0,0:0:0:70:LR_Tom Hit.wav
448,192,75316,1,0,0:0:0:0:
320,192,75316,128,0,75492:0:0:0:0:
64,192,75492,1,2,0:0:0:0:
192,192,75492,1,0,0:0:0:70:LR_Tom Hit.wav
448,192,75581,1,0,0:0:0:0:
192,192,75669,1,0,0:0:0:70:LR_Tom Hit.wav
320,192,75757,1,0,0:0:0:0:
64,192,75845,1,8,0:0:0:0:
448,192,75845,1,0,0:0:0:0:
192,192,75889,1,0,0:0:0:0:
320,192,75933,1,0,0:0:0:0:
448,192,75978,1,0,0:0:0:0:
64,192,76022,1,0,0:0:0:70:LR_Tom Hit.wav
192,192,76066,1,0,0:0:0:0:
320,192,76110,1,0,0:0:0:0:
448,192,76154,1,0,0:0:0:0:
64,192,76198,128,2,76551:0:0:0:0:
192,192,76198,1,4,0:0:0:0:
448,192,76375,1,0,0:0:0:0:
192,192,76463,1,0,0:0:0:0:
448,192,76551,1,0,0:0:0:0:
320,192,76551,1,8,0:0:0:0:
320,192,76728,128,0,76904:0:0:0:0:
64,192,76904,1,2,0:0:0:0:
192,192,76904,1,0,0:0:0:0:
448,192,76992,1,0,0:0:0:0:
64,192,77081,128,0,77169:0:0:0:0:
64,192,77257,128,8,77963:0:0:0:0:
448,192,77257,1,0,0:0:0:0:
192,192,77345,1,0,0:0:0:0:
320,192,77433,1,0,0:0:0:0:
448,192,77522,1,0,0:0:0:0:
192,192,77610,1,2,0:0:0:0:
448,192,77698,1,0,0:0:0:0:
192,192,77786,1,0,0:0:0:0:
320,192,77875,1,0,0:0:0:0:
192,192,77963,1,8,0:0:0:0:
448,192,77963,1,0,0:0:0:0:
64,192,78051,1,0,0:0:0:0:
320,192,78139,1,0,0:0:0:0:
192,192,78228,1,0,0:0:0:0:
64,192,78316,128,2,78404:0:0:0:0:
448,192,78316,1,0,0:0:0:0:
448,192,78492,128,0,78581:0:0:0:0:
320,192,78581,1,0,0:0:0:0:
64,192,78669,1,8,0:0:0:0:
192,192,78669,128,0,78757:0:0:0:0:
320,192,78845,128,0,78933:0:0:0:0:
448,192,79022,1,0,0:0:0:0:
320,192,79022,128,0,79375:0:0:0:0:
64,192,79022,1,2,0:0:0:0:
64,192,79198,1,0,0:0:0:0:
192,192,79286,1,0,0:0:0:0:
64,192,79375,1,8,0:0:0:0:
448,192,79375,1,0,0:0:0:0:
192,192,79551,128,0,79728:0:0:0:0:
320,192,79639,1,0,0:0:0:0:
64,192,79728,1,2,0:0:0:0:
448,192,79728,1,0,0:0:0:0:
320,192,79816,1,0,0:0:0:0:
192,192,79904,128,0,79992:0:0:0:0:
64,192,79992,1,0,0:0:0:0:
192,192,80081,1,8,0:0:0:0:
320,192,80081,128,0,80169:0:0:0:0:
448,192,80081,1,0,0:0:0:0:
320,192,80257,128,4,80786:0:0:0:0:
192,192,80345,1,0,0:0:0:0:
448,192,80433,1,0,0:0:0:0:
64,192,80433,1,2,0:0:0:0:
64,192,80610,1,0,0:0:0:0:
192,192,80698,1,0,0:0:0:0:
64,192,80786,1,8,0:0:0:0:
448,192,80786,1,0,0:0:0:0:
192,192,80963,128,4,81139:0:0:0:0:
320,192,80963,1,0,0:0:0:0:
448,192,81139,1,0,0:0:0:0:
64,192,81139,1,2,0:0:0:0:
320,192,81316,128,0,81492:0:0:0:0:
192,192,81492,1,0,0:0:0:0:
64,192,81492,128,8,81669:0:0:0:0:
320,192,81669,128,0,81845:0:0:0:0:
448,192,81669,128,0,82022:0:0:0:0:
64,192,81845,1,2,0:0:0:0:
192,192,81845,1,0,0:0:0:0:
192,192,82022,128,0,82198:0:0:0:0:
64,192,82198,1,8,0:0:0:0:
320,192,82198,128,0,82551:0:0:0:0:
64,192,82375,128,0,82551:0:0:0:0:
448,192,82551,1,0,0:0:0:0:
192,192,82551,1,2,0:0:0:0:
320,192,82728,128,0,82904:0:0:0:0:
64,192,82904,1,8,0:0:0:0:
192,192,82904,128,0,83081:0:0:0:0:
320,192,83081,128,0,83433:0:0:0:0:
448,192,83081,128,0,83257:0:0:0:0:
64,192,83257,1,2,0:0:0:0:
192,192,83257,1,0,0:0:0:0:
192,192,83433,128,0,83610:0:0:0:0:
320,192,83610,1,0,0:0:0:0:
64,192,83610,128,8,83963:0:0:0:0:
448,192,83786,128,0,83963:0:0:0:0:
192,192,83963,1,2,0:0:0:0:
320,192,83963,1,0,0:0:0:0:
64,192,84139,1,0,0:0:0:0:
320,192,84139,128,0,84316:0:0:0:0:
192,192,84316,128,8,84492:0:0:0:0:
448,192,84316,1,0,0:0:0:0:
320,192,84492,128,0,85022:0:0:0:0:
448,192,84492,128,0,85198:0:0:0:0:
64,192,84492,128,0,84845:0:0:0:0:
192,192,84669,1,2,0:0:0:0:
192,192,84845,128,0,85022:0:0:0:0:
64,192,85022,128,8,85198:0:0:0:0:
192,192,85198,128,0,85551:0:0:0:0:
320,192,85198,128,0,85728:0:0:0:0:
64,192,85375,1,2,0:0:0:0:
448,192,85551,128,0,85728:0:0:0:0:
192,192,85728,128,8,85904:0:0:0:0:
320,192,85904,128,0,86257:0:0:0:0:
64,192,85904,128,0,86433:0:0:0:0:
448,192,86081,1,2,0:0:0:0:
192,192,86257,1,0,0:0:0:0:
320,192,86433,128,8,86786:0:0:0:0:
448,192,86433,128,0,86610:0:0:0:0:
64,192,86610,1,0,0:0:0:0:
64,192,86786,1,2,0:0:0:0:
192,192,86786,128,0,87051:0:0:0:0:
320,192,86963,1,0,0:0:0:0:
448,192,87051,128,0,87316:0:0:0:0:
64,192,87139,1,8,0:0:0:0:
192,192,87139,1,0,0:0:0:0:
64,192,87316,128,0,88375:0:0:0:0:
192,192,87316,128,0,88375:0:0:0:0:
320,192,87492,1,2,0:0:0:0:
448,192,87492,128,0,87669:0:0:0:0:
320,192,87669,128,0,87845:0:0:0:0:
448,192,87845,128,2,88022:0:0:0:0:
320,192,88022,128,0,88198:0:0:0:0:
448,192,88198,128,2,88375:0:0:0:0:
320,192,88375,128,0,88551:0:0:0:0:
64,192,88551,1,8,0:0:0:0:
192,192,88551,1,0,0:0:0:0:
448,192,88551,1,0,0:0:0:0:
64,192,88904,1,2,0:0:0:0:
320,192,88904,1,4,0:0:0:0:
448,192,88904,1,0,0:0:0:0:
192,192,88992,1,0,0:0:0:0:
320,192,89081,1,0,0:0:0:0:
192,192,89169,1,0,0:0:0:0:
64,192,89257,1,8,0:0:0:0:
448,192,89257,1,0,0:0:0:0:
320,192,89345,1,0,0:0:0:0:
192,192,89433,1,0,0:0:0:0:
64,192,89522,1,0,0:0:0:0:
448,192,89610,1,2,0:0:0:0:
192,192,89698,1,0,0:0:0:0:
320,192,89786,1,0,0:0:0:0:
64,192,89875,1,0,0:0:0:0:
192,192,89963,1,8,0:0:0:0:
448,192,89963,1,0,0:0:0:0:
320,192,90051,1,0,0:0:0:0:
64,192,90139,1,0,0:0:0:0:
192,192,90228,1,0,0:0:0:0:
320,192,90316,1,2,0:0:0:0:
192,192,90404,1,0,0:0:0:0:
448,192,90492,1,0,0:0:0:0:
320,192,90581,1,0,0:0:0:0:
64,192,90669,1,8,0:0:0:0:
192,192,90669,1,0,0:0:0:0:
448,192,90757,1,0,0:0:0:0:
320,192,90845,1,0,0:0:0:0:
192,192,90933,1,0,0:0:0:0:
64,192,91022,1,2,0:0:0:0:
320,192,91022,1,4,0:0:0:0:
448,192,91022,1,0,0:0:0:0:
192,192,91110,1,0,0:0:0:0:
64,192,91198,1,0,0:0:0:0:
320,192,91286,1,4,0:0:0:0:
448,192,91286,1,0,0:0:0:0:
64,192,91375,1,8,0:0:0:0:
192,192,91375,1,0,0:0:0:0:
448,192,91463,1,0,0:0:0:0:
64,192,91551,1,4,0:0:0:0:
320,192,91551,1,0,0:0:0:0:
192,192,91639,1,0,0:0:0:0:
448,192,91728,1,0,0:0:0:0:
320,192,91728,1,4,0:0:0:0:
64,192,91728,1,2,0:0:0:0:
192,192,91816,1,0,0:0:0:0:
320,192,91904,1,0,0:0:0:0:
192,192,91992,1,0,0:0:0:0:
64,192,92081,1,8,0:0:0:0:
448,192,92081,1,0,0:0:0:0:
320,192,92169,1,0,0:0:0:0:
192,192,92257,1,0,0:0:0:0:
64,192,92345,1,0,0:0:0:0:
448,192,92433,1,2,0:0:0:0:
192,192,92522,1,0,0:0:0:0:
320,192,92610,1,0,0:0:0:0:
192,192,92698,1,0,0:0:0:0:
64,192,92786,1,8,0:0:0:0:
448,192,92786,1,0,0:0:0:0:
320,192,92875,1,0,0:0:0:0:
64,192,92963,128,0,93316:0:0:0:0:
192,192,92963,128,0,93139:0:0:0:0:
448,192,93051,1,0,0:0:0:0:
320,192,93139,1,2,0:0:0:0:
192,192,93228,1,0,0:0:0:0:
448,192,93316,1,0,0:0:0:0:
320,192,93404,1,0,0:0:0:0:
192,192,93492,128,8,93581:0:0:0:0:
448,192,93492,128,0,93669:0:0:0:0:
64,192,93581,1,0,0:0:0:0:
320,192,93669,1,0,0:0:0:0:
192,192,93757,1,0,0:0:0:0:
320,192,93845,128,0,94022:0:0:0:0:
64,192,93845,128,2,93933:0:0:0:0:
448,192,93933,1,0,0:0:0:0:
192,192,94022,1,0,0:0:0:0:
320,192,94110,1,0,0:0:0:0:
64,192,94198,128,8,94286:0:0:0:0:
192,192,94198,128,0,94375:0:0:0:0:
448,192,94286,1,0,0:0:0:0:
320,192,94375,1,0,0:0:0:0:
192,192,94463,1,0,0:0:0:0:
448,192,94551,1,0,0:0:0:0:
64,192,94551,1,4,0:0:0:0:
320,192,94551,1,2,0:0:0:0:
192,192,94639,1,0,0:0:0:0:
320,192,94728,1,0,0:0:0:0:
192,192,94816,1,0,0:0:0:0:
64,192,94904,1,8,0:0:0:0:
448,192,94904,1,0,0:0:0:0:
320,192,94992,1,0,0:0:0:0:
192,192,95081,1,0,0:0:0:0:
64,192,95169,1,0,0:0:0:0:
448,192,95257,1,2,0:0:0:0:
192,192,95345,1,0,0:0:0:0:
320,192,95433,1,0,0:0:0:0:
64,192,95522,1,0,0:0:0:0:
192,192,95610,1,8,0:0:0:0:
448,192,95610,1,0,0:0:0:0:
320,192,95698,1,0,0:0:0:0:
64,192,95786,1,0,0:0:0:0:
192,192,95875,1,0,0:0:0:0:
320,192,95963,1,2,0:0:0:0:
192,192,96051,1,0,0:0:0:0:
448,192,96139,1,0,0:0:0:0:
320,192,96228,1,0,0:0:0:0:
64,192,96316,1,8,0:0:0:0:
192,192,96316,1,4,0:0:0:0:
448,192,96404,1,0,0:0:0:0:
320,192,96492,1,0,0:0:0:0:
192,192,96581,1,0,0:0:0:0:
448,192,96669,1,0,0:0:0:0:
320,192,96669,1,4,0:0:0:0:
64,192,96669,1,2,0:0:0:0:
192,192,96757,1,0,0:0:0:0:
64,192,96845,1,0,0:0:0:0:
448,192,96933,1,0,0:0:0:0:
64,192,97022,1,4,0:0:0:0:
192,192,97022,1,8,0:0:0:0:
320,192,97022,1,0,0:0:0:0:
448,192,97110,1,0,0:0:0:0:
320,192,97198,1,0,0:0:0:0:
192,192,97286,1,0,0:0:0:0:
64,192,97375,1,2,0:0:0:0:
448,192,97375,1,0,0:0:0:0:
192,192,97463,1,0,0:0:0:0:
320,192,97551,1,0,0:0:0:0:
192,192,97639,1,0,0:0:0:0:
64,192,97728,1,8,0:0:0:0:
448,192,97728,1,0,0:0:0:0:
320,192,97816,1,0,0:0:0:0:
192,192,97904,1,0,0:0:0:0:
64,192,97992,1,0,0:0:0:0:
320,192,98081,1,2,0:0:0:0:
448,192,98081,1,0,0:0:0:0:
192,192,98169,1,0,0:0:0:0:
320,192,98257,1,0,0:0:0:0:
448,192,98257,1,0,0:0:0:0:
192,192,98345,1,0,0:0:0:0:
64,192,98433,1,8,0:0:0:0:
448,192,98433,1,0,0:0:0:0:
320,192,98522,1,0,0:0:0:0:
64,192,98610,128,4,98963:0:0:0:0:
192,192,98610,1,0,0:0:0:70:LR_Tom Hit.wav
448,192,98698,1,0,0:0:0:0:
320,192,98786,1,2,0:0:0:0:
192,192,98875,1,0,0:0:0:0:
320,192,98963,1,0,0:0:0:70:LR_Tom Hit.wav
448,192,98963,1,0,0:0:0:0:
192,192,99051,1,0,0:0:0:0:
448,192,99139,1,0,0:0:0:70:LR_Tom Hit.wav
64,192,99139,1,8,0:0:0:0:
192,192,99228,1,0,0:0:0:70:LR_Tom Hit.wav
320,192,99228,1,0,0:0:0:0:
64,192,99316,1,0,0:0:0:0:
448,192,99316,1,0,0:0:0:0:
320,192,99404,1,0,0:0:0:0:
64,192,99492,1,2,0:0:0:0:
192,192,99492,1,0,0:0:0:70:LR_Tom Hit.wav
448,192,99492,1,0,0:0:0:0:
320,192,99581,1,0,0:0:0:0:
64,192,99669,1,0,0:0:0:70:LR_Tom Hit.wav
192,192,99669,1,0,0:0:0:0:
320,192,99757,1,0,0:0:0:0:
64,192,99845,1,8,0:0:0:0:
448,192,99845,1,0,0:0:0:0:
192,192,99889,1,0,0:0:0:0:
320,192,99933,1,0,0:0:0:0:
448,192,99978,1,0,0:0:0:0:
64,192,100022,1,0,0:0:0:70:LR_Tom Hit.wav
192,192,100066,1,0,0:0:0:0:
320,192,100110,1,0,0:0:0:0:
448,192,100154,1,0,0:0:0:0:
64,192,100198,1,2,0:0:0:0:
192,192,100198,1,4,0:0:0:0:
320,192,100286,1,0,0:0:0:0:
192,192,100375,1,0,0:0:0:0:
64,192,100463,1,0,0:0:0:0:
448,192,100551,1,0,0:0:0:0:
320,192,100551,1,8,0:0:0:0:
192,192,100639,1,0,0:0:0:0:
320,192,100728,1,0,0:0:0:0:
448,192,100816,1,0,0:0:0:0:
64,192,100904,1,2,0:0:0:0:
320,192,100992,1,0,0:0:0:0:
192,192,101081,1,0,0:0:0:0:
448,192,101169,1,0,0:0:0:0:
64,192,101257,1,8,0:0:0:0:
320,192,101257,1,0,0:0:0:0:
192,192,101345,1,0,0:0:0:0:
448,192,101433,1,0,0:0:0:0:
320,192,101522,1,0,0:0:0:0:
192,192,101610,1,2,0:0:0:0:
320,192,101698,1,0,0:0:0:0:
64,192,101786,1,0,0:0:0:0:
192,192,101875,1,0,0:0:0:0:
320,192,101963,1,8,0:0:0:0:
448,192,101963,1,0,0:0:0:0:
64,192,102051,1,0,0:0:0:0:
192,192,102139,1,0,0:0:0:0:
320,192,102228,1,0,0:0:0:0:
64,192,102316,1,2,0:0:0:0:
192,192,102316,1,4,0:0:0:0:
448,192,102316,1,0,0:0:0:0:
320,192,102404,1,0,0:0:0:0:
448,192,102492,1,0,0:0:0:0:
64,192,102581,1,4,0:0:0:0:
192,192,102581,1,0,0:0:0:0:
448,192,102669,1,0,0:0:0:0:
320,192,102669,1,8,0:0:0:0:
64,192,102757,1,0,0:0:0:0:
192,192,102845,1,4,0:0:0:0:
448,192,102845,1,0,0:0:0:0:
320,192,102933,1,0,0:0:0:0:
64,192,103022,1,2,0:0:0:0:
192,192,103022,1,4,0:0:0:0:
448,192,103022,1,0,0:0:0:0:
320,192,103110,1,0,0:0:0:0:
192,192,103198,1,0,0:0:0:0:
320,192,103286,1,0,0:0:0:0:
64,192,103375,1,8,0:0:0:0:
448,192,103375,1,0,0:0:0:0:
192,192,103463,1,0,0:0:0:0:
320,192,103551,1,0,0:0:0:0:
448,192,103639,1,0,0:0:0:0:
64,192,103728,1,2,0:0:0:0:
320,192,103816,1,0,0:0:0:0:
192,192,103904,1,0,0:0:0:0:
320,192,103992,1,0,0:0:0:0:
64,192,104081,1,8,0:0:0:0:
448,192,104081,1,0,0:0:0:0:
192,192,104169,1,0,0:0:0:0:
320,192,104257,128,0,104433:0:0:0:0:
448,192,104257,128,0,104610:0:0:0:0:
64,192,104345,1,0,0:0:0:0:
192,192,104433,1,2,0:0:0:0:
320,192,104522,1,0,0:0:0:0:
64,192,104610,1,0,0:0:0:0:
192,192,104698,1,0,0:0:0:0:
64,192,104786,128,8,104963:0:0:0:0:
320,192,104786,128,0,104875:0:0:0:0:
448,192,104875,1,0,0:0:0:0:
192,192,104963,1,0,0:0:0:0:
320,192,105051,1,0,0:0:0:0:
192,192,105139,128,2,105316:0:0:0:0:
448,192,105139,128,0,105228:0:0:0:0:
64,192,105228,1,0,0:0:0:0:
320,192,105316,1,0,0:0:0:0:
192,192,105404,1,0,0:0:0:0:
320,192,105492,128,8,105669:0:0:0:0:
448,192,105492,128,0,105581:0:0:0:0:
64,192,105581,1,0,0:0:0:0:
192,192,105669,1,0,0:0:0:0:
320,192,105757,1,0,0:0:0:0:
64,192,105845,128,2,106375:0:0:0:0:
192,192,105845,1,4,0:0:0:0:
448,192,105845,1,0,0:0:0:0:
448,192,106022,1,0,0:0:0:0:
320,192,106198,1,0,0:0:0:0:
192,192,106198,1,8,0:0:0:0:
320,192,106375,128,0,106728:0:0:0:0:
64,192,106551,1,2,0:0:0:0:
192,192,106551,1,0,0:0:0:0:
192,192,106728,1,0,0:0:0:0:
320,192,106904,1,8,0:0:0:0:
448,192,106904,128,0,107610:0:0:0:0:
320,192,107081,1,0,0:0:0:0:
192,192,107257,1,0,0:0:0:0:
64,192,107257,1,2,0:0:0:0:
192,192,107433,1,0,0:0:0:0:
64,192,107610,1,8,0:0:0:0:
320,192,107610,128,0,107963:0:0:0:0:
64,192,107786,1,0,0:0:0:0:
192,192,107963,128,2,108316:0:0:0:0:
448,192,107963,1,0,0:0:0:0:
448,192,108139,1,0,0:0:0:0:
64,192,108316,1,8,0:0:0:0:
320,192,108316,1,0,0:0:0:0:
320,192,108492,1,0,0:0:0:0:
64,192,108669,128,4,109022:0:0:0:0:
192,192,108669,1,2,0:0:0:0:
448,192,108669,1,0,0:0:0:0:
192,192,108845,1,0,0:0:0:0:
320,192,109022,1,0,0:0:0:70:LR_Tom Hit.wav
448,192,109022,1,0,0:0:0:0:
192,192,109198,128,4,109551:0:0:0:0:
448,192,109198,1,0,0:0:0:0:
320,192,109375,1,0,0:0:0:0:
64,192,109375,1,0,0:0:0:70:LR_Tom Hit.wav
64,192,109551,1,0,0:0:0:70:LR_Tom Hit.wav
448,192,109551,1,0,0:0:0:0:
192,192,109639,1,0,0:0:0:70:LR_Tom Hit.wav
320,192,109639,1,0,0:0:0:0:
64,192,109728,1,2,0:0:0:0:
448,192,109728,1,0,0:0:0:0:
448,192,109904,128,0,111404:0:0:0:0:
320,192,109904,128,0,111404:0:0:0:70:LR_Tom Hit.wav
64,192,109904,1,2,0:0:0:0:
192,192,109904,128,4,111404:0:0:0:0:
64,192,111492,128,0,112904:0:0:0:0:
192,192,111492,128,0,112463:0:0:0:0:
320,192,111492,128,0,112639:0:0:0:0:
448,192,112198,128,0,112816:0:0:0:0:
192,192,112551,128,0,112904:0:0:0:0:
320,192,112728,128,0,112904:0:0:0:0:
448,192,112904,1,0,0:0:0:0:
