osu file format v14

[General]
AudioFilename: audio.mp3
AudioLeadIn: 0
PreviewTime: 127881
Countdown: 0
SampleSet: Soft
StackLeniency: 0.6
Mode: 0
LetterboxInBreaks: 0
WidescreenStoryboard: 1

[Editor]
Bookmarks: 27672,41006,56006,82672,96006,128506,156839,183506,198506,225172,239339,252672,272672
DistanceSpacing: 0.9
BeatDivisor: 4
GridSize: 32
TimelineZoom: 1.299999

[Metadata]
Title:Chroma
TitleUnicode:Chroma
Artist:riya (eufonius) & Ceui
ArtistUnicode:riya (eufonius) & Ceui
Creator:ImpurePug
Version:Harmony
Source:リディー&スールのアトリエ ~不思議な絵画の錬金術士~
Tags:a19 atelier lydie & suelle fushigi na kaiga no renkinjutsushi the alchemists and the mysterious paintings ボーカル アルバム vocal album 矢野 達也 yano tatsuya 三好 翔太 miyoshi shouta shota 高橋 寛知 takahashi hirotomo 向山 有輝 mukouyama mukoyama yuuki yuki 藤井 亮太 fujii ryouta ryota japanese pop
BeatmapID:3274854
BeatmapSetID:1603709

[Difficulty]
HPDrainRate:6
CircleSize:4.7
OverallDifficulty:7.7
ApproachRate:8.5
SliderMultiplier:1.64
SliderTickRate:1

[Events]
//Background and Video events
0,0,"bg2x.jpg",0,0
//Break Periods
//Storyboard Layer 0 (Background)
//Storyboard Layer 1 (Fail)
//Storyboard Layer 2 (Pass)
//Storyboard Layer 3 (Foreground)
//Storyboard Layer 4 (Overlay)
//Storyboard Sound Samples

[TimingPoints]
542,416.666666666667,4,2,1,45,1,0
750,512.820512820513,4,2,1,45,1,0
1006,416.666666666667,4,2,1,45,1,0
1631,-125,4,2,1,45,0,0
14339,-125,4,2,2,45,0,0
14756,-125,4,2,1,45,0,0
25797,-90.9090909090909,4,2,1,45,0,0
26214,-76.9230769230769,4,2,1,45,0,0
26422,-76.9230769230769,4,2,3,45,0,0
26631,-76.9230769230769,4,2,1,45,0,0
26839,-66.6666666666667,4,2,1,45,0,0
27117,-66.6666666666667,4,2,6,45,0,0
27186,-66.6666666666667,4,2,2,45,0,0
27256,-100,4,2,1,45,0,0
27672,-125,4,2,1,45,0,0
28297,-100,4,2,2,45,0,0
28401,-100,4,2,1,45,0,0
29131,-125,4,2,1,45,0,0
29964,-76.9230769230769,4,2,1,45,0,0
30485,-76.9230769230769,4,2,5,45,0,0
30589,-76.9230769230769,4,2,1,45,0,0
31006,-76.9230769230769,4,2,2,45,0,0
31422,-90.9090909090909,4,2,1,45,0,0
32047,-100,4,2,1,45,0,0
32464,-111.111111111111,4,2,1,45,0,0
33297,-83.3333333333333,4,2,3,45,0,0
33714,-71.4285714285714,4,2,2,45,0,0
33922,-125,4,2,1,45,0,0
34339,-111.111111111111,4,2,1,45,0,0
35797,-125,4,2,1,45,0,0
36214,-111.111111111111,4,2,1,45,0,0
36631,-90.9090909090909,4,2,1,45,0,0
37672,-100,4,2,1,45,0,0
38089,-125,4,2,1,45,0,0
39756,-76.9230769230769,4,2,1,45,0,0
39964,-90.9090909090909,4,2,1,45,0,0
40276,-90.9090909090909,4,2,3,45,0,0
40381,-66.6666666666667,4,2,1,45,0,0
40589,-66.6666666666667,4,2,1,45,0,0
41006,-133.333333333333,4,2,2,45,0,0
41214,-133.333333333333,4,2,1,45,0,0
47672,-111.111111111111,4,2,4,45,0,0
48089,-111.111111111111,4,2,1,45,0,0
51006,-125,4,2,1,45,0,0
51422,-111.111111111111,4,2,1,45,0,0
51839,-90.9090909090909,4,2,1,45,0,0
52464,-83.3333333333333,4,2,1,45,0,0
52881,-100,4,2,1,45,0,0
53297,-90.9090909090909,4,2,1,45,0,0
54964,-76.9230769230769,4,2,2,45,0,0
55381,-100,4,2,2,45,0,0
55589,-100,4,2,1,45,0,0
56006,-83.3333333333333,4,2,2,60,0,0
56422,-83.3333333333333,4,2,1,60,0,0
56631,-90.9090909090909,4,2,1,60,0,0
60797,-90.9090909090909,4,2,4,60,0,0
61214,-90.9090909090909,4,2,1,60,0,0
66631,-90.9090909090909,4,2,2,60,0,0
66839,-90.9090909090909,4,2,1,60,0,0
67047,-90.9090909090909,4,2,2,60,0,0
67256,-90.9090909090909,4,2,1,60,0,0
68089,-90.9090909090909,4,2,3,60,0,0
68193,-90.9090909090909,4,2,1,60,0,0
68401,-90.9090909090909,4,2,2,60,0,0
68506,-66.6666666666667,4,2,1,60,0,0
68783,-66.6666666666667,4,2,2,60,0,0
68922,-66.6666666666667,4,2,1,60,0,0
69131,-58.8235294117647,4,2,1,60,0,0
69339,-100,4,2,2,60,0,0
69756,-100,4,2,1,60,0,0
69964,-90.9090909090909,4,2,1,60,0,0
74131,-90.9090909090909,4,2,4,60,0,0
74548,-90.9090909090909,4,2,1,60,0,0
81839,-90.9090909090909,4,2,4,60,0,0
82047,-90.9090909090909,4,2,2,60,0,0
82256,-90.9090909090909,4,2,1,60,0,0
82672,-83.3333333333333,4,2,1,45,0,0
83297,-90.9090909090909,4,2,1,45,0,0
89026,-66.6666666666667,4,2,1,45,0,0
89339,-90.9090909090909,4,2,3,45,0,0
89547,-90.9090909090909,4,2,1,45,0,0
93089,-111.111111111111,4,2,1,45,0,0
93506,-90.9090909090909,4,2,1,45,0,0
94547,-76.9230769230769,4,2,1,45,0,0
94964,-66.6666666666667,4,2,4,45,0,0
95589,-66.6666666666667,4,2,1,45,0,0
96006,-100,4,2,1,50,0,0
101943,-100,4,2,2,50,0,0
102256,-76.9230769230769,4,2,1,50,0,0
102672,-100,4,2,1,50,0,0
105276,-100,4,2,2,50,0,0
105381,-100,4,2,1,50,0,0
108506,-100,4,2,4,50,0,0
108818,-125,4,2,1,50,0,0
109339,-125,4,2,1,45,0,0
116006,-125,4,2,4,45,0,0
116422,-125,4,2,1,45,0,0
126006,-125,4,2,1,10,0,0
128089,-125,4,2,1,45,0,0
128506,416.666666666667,4,2,1,45,1,0
128506,-111.111111111111,4,2,1,45,0,0
133297,-111.111111111111,4,2,4,45,0,0
133506,-111.111111111111,4,2,1,45,0,0
134131,-90.9090909090908,4,2,3,45,0,0
134547,-90.9090909090908,4,2,1,45,0,0
134964,-90.9090909090908,4,2,2,45,0,0
135172,-111.111111111111,4,2,1,45,0,0
139756,-90.9090909090908,4,2,1,45,0,0
139964,-76.9230769230769,4,2,1,45,0,0
140381,-66.6666666666667,4,2,1,45,0,0
140589,-90.9090909090908,4,2,1,45,0,0
141318,-90.9090909090908,4,2,2,45,0,0
141839,-111.111111111111,4,2,4,45,0,0
142256,-111.111111111111,4,2,3,45,0,0
142464,-111.111111111111,4,2,1,45,0,0
143922,-76.9230769230769,4,2,4,45,0,0
144131,-90.9090909090909,4,2,1,45,0,0
144547,-111.111111111111,4,2,1,45,0,0
146006,-83.3333333333333,4,2,1,45,0,0
147464,-83.3333333333333,4,2,3,45,0,0
147881,-62.5,4,2,1,45,0,0
148089,-66.6666666666667,4,2,4,45,0,0
148506,-100,4,2,1,45,0,0
148922,-111.111111111111,4,2,1,45,0,0
150172,-83.3333333333333,4,2,1,45,0,0
150589,-111.111111111111,4,2,1,45,0,0
151422,-90.9090909090908,4,2,1,45,0,0
151839,-100,4,2,3,45,0,0
152464,-111.111111111111,4,2,1,45,0,0
154339,-90.9090909090909,4,2,1,45,0,0
154651,-90.9090909090909,4,2,2,45,0,0
154756,-66.6666666666667,4,2,1,45,0,0
154964,-100,4,2,2,45,0,0
155172,-100,4,2,4,45,0,0
156422,-133.333333333333,4,2,1,45,0,0
156839,-125,4,2,1,40,0,0
158922,-111.111111111111,4,2,1,40,0,0
159339,-83.3333333333333,4,2,1,40,0,0
159756,-100,4,2,1,40,0,0
160589,-83.3333333333333,4,2,1,40,0,0
161006,-99.9999999999999,4,2,1,40,0,0
161422,-166.666666666667,4,2,1,40,0,0
161839,-125,4,2,1,40,0,0
163506,-125,4,2,1,40,0,0
164339,-111.111111111111,4,2,1,40,0,0
167672,-100,4,2,1,40,0,0
168922,-111.111111111111,4,2,1,40,0,0
170172,-100,4,2,1,45,0,0
170589,-111.111111111111,4,2,1,45,0,0
172256,-111.111111111111,4,2,1,45,0,0
172672,-83.3333333333333,4,2,1,45,0,0
173090,-100,4,2,1,45,0,0
176110,-76.9230769230769,4,2,1,45,0,0
176422,-111.111111111111,4,2,1,45,0,0
178297,-83.3333333333333,4,2,1,45,0,0
180172,-90.9090909090909,4,2,1,45,0,0
180589,-111.111111111111,4,2,1,45,0,0
182672,-76.9230769230769,4,2,1,45,0,0
183089,-76.9230769230769,4,2,3,50,0,0
183506,-100,4,2,1,60,0,0
183714,-83.3333333333333,4,2,1,50,0,0
185172,-100,4,2,1,50,0,0
186214,-100,4,2,5,50,0,0
186318,-100,4,2,1,50,0,0
188089,-71.4285714285714,4,2,1,50,0,0
188297,-71.4285714285714,4,2,5,50,0,0
188506,-71.4285714285714,4,2,1,50,0,0
189547,-71.4285714285714,4,2,5,50,0,0
189756,-71.4285714285714,4,2,1,50,0,0
189964,-90.9090909090909,4,2,1,50,0,0
190172,-100,4,2,4,50,0,0
190589,-83.3333333333333,4,2,1,50,0,0
190797,-100,4,2,1,50,0,0
192047,-100,4,2,5,50,0,0
192256,-100,4,2,1,50,0,0
192464,-83.3333333333333,4,2,1,50,0,0
192881,-66.6666666666667,4,2,1,50,0,0
193193,-66.6666666666667,4,2,5,50,0,0
193401,-66.6666666666667,4,2,1,50,0,0
193644,-100,4,2,1,50,0,0
193783,-100,4,2,0,50,0,0
193922,-100,4,2,1,50,0,0
194200,-100,4,2,0,50,0,0
194339,-100,4,2,1,50,0,0
194617,-100,4,2,0,50,0,0
194756,-100,4,2,1,50,0,0
195033,-100,4,2,0,50,0,0
195172,-100,4,2,1,50,0,0
195589,-100,4,2,1,50,0,0
195797,-100,4,2,0,50,0,0
196006,-100,4,2,1,50,0,0
196214,-100,4,2,5,50,0,0
196422,-100,4,2,3,50,0,0
196839,-434.782608695652,4,2,1,50,0,0
198506,-166.666666666667,4,2,1,30,0,0
211839,-100,4,2,4,40,0,0
212047,-100,4,2,1,40,0,0
212464,-125,4,2,1,40,0,0
213506,-100,4,2,1,40,0,0
214131,-125,4,2,4,40,0,0
214547,-125,4,2,1,40,0,0
215172,-125,4,2,4,40,0,0
215589,-125,4,2,1,40,0,0
218506,-125,4,2,3,45,0,0
218714,-125,4,2,1,45,0,0
221839,-125,4,2,1,50,0,0
223297,-125,4,2,3,55,0,0
224339,-125,4,2,1,60,0,0
224964,-125,4,2,1,70,0,0
225589,-142.857142857143,4,2,1,50,0,0
226006,416.666666666667,4,2,1,50,1,0
226006,-66.6666666666667,4,2,2,50,0,0
226214,-66.6666666666667,4,2,1,50,0,0
226631,-76.9230769230769,4,2,1,60,0,0
226839,-100,4,2,1,60,0,0
227047,-100,4,2,5,60,0,0
227256,-100,4,2,1,60,0,0
227464,-55.5555555555556,4,2,1,60,0,0
227672,-76.9230769230769,4,2,3,60,0,0
227881,-76.9230769230769,4,2,1,60,0,0
228089,-66.6666666666667,4,2,1,60,0,0
228297,-45.4545454545455,4,2,1,60,0,0
228610,-50,4,2,1,60,0,0
229026,-50,4,2,4,60,0,0
229131,-58.8235294117647,4,2,1,60,0,0
229339,-62.5,4,2,1,60,0,0
229547,-62.5,4,2,5,60,0,0
229651,-62.5,4,2,1,60,0,0
229756,-100,4,2,1,60,0,0
230797,-62.5,4,2,1,60,0,0
231110,-62.5,4,2,5,60,0,0
231422,-100,4,2,1,60,0,0
231839,-100,4,2,1,45,0,0
232672,-111.111111111111,4,2,1,50,0,0
233714,-111.111111111111,4,2,1,60,0,0
234131,-111.111111111111,4,2,4,60,0,0
234547,-71.4285714285714,4,2,1,60,0,0
234964,-111.111111111111,4,2,1,60,0,0
235381,-71.4285714285714,4,2,1,60,0,0
235485,-71.4285714285714,4,2,2,60,0,0
235589,-100,4,2,1,60,0,0
236839,-100,4,2,1,70,0,0
237464,-100,4,2,4,60,0,0
237881,-66.6666666666667,4,2,4,60,0,0
238193,-55.5555555555556,4,2,3,60,0,0
238401,-55.5555555555556,4,2,1,60,0,0
238783,-55.5555555555556,4,2,2,60,0,0
238922,-55.5555555555556,4,2,1,60,0,0
239339,-83.3333333333333,4,2,2,60,0,0
239756,-83.3333333333333,4,2,1,60,0,0
239964,-90.9090909090909,4,2,1,60,0,0
240381,-71.4285714285714,4,2,1,60,0,0
240797,-90.9090909090909,4,2,1,60,0,0
242672,-90.9090909090909,4,2,4,60,0,0
243089,-90.9090909090909,4,2,1,60,0,0
243714,-71.4285714285714,4,2,1,60,0,0
244131,-71.4285714285714,4,2,4,60,0,0
244548,-71.4285714285714,4,2,1,60,0,0
245381,-90.9090909090909,4,2,1,60,0,0
245589,-125,4,2,1,60,0,0
247672,-90.9090909090909,4,2,1,60,0,0
248506,-76.9230769230769,4,2,1,60,0,0
249339,-76.9230769230769,4,2,4,60,0,0
249756,-76.9230769230769,4,2,1,60,0,0
252256,-111.111111111111,4,2,1,60,0,0
252672,-90.9090909090909,4,2,1,60,0,0
253089,-90.9090909090909,4,2,1,50,0,0
254339,-100,4,2,1,50,0,0
255381,-100,4,2,5,50,0,0
255589,-100,4,2,1,50,0,0
256006,-90.9090909090909,4,2,1,50,0,0
256422,-71.4285714285714,4,2,1,50,0,0
256839,-76.9230769230769,4,2,1,50,0,0
257256,-66.6666666666667,4,2,1,50,0,0
258297,-66.6666666666667,4,2,5,50,0,0
258401,-66.6666666666667,4,2,1,50,0,0
258506,-83.3333333333333,4,2,1,50,0,0
258922,-66.6666666666667,4,2,1,50,0,0
259339,-100,4,2,1,50,0,0
259860,-100,4,2,6,35,0,0
259964,-100,4,2,5,35,0,0
260068,-100,4,2,2,35,0,0
260172,-100,4,2,0,25,0,0
260381,-100,4,2,1,30,0,0
260589,-125,4,2,1,40,0,0
260797,-83.3333333333333,4,2,1,45,0,0
261839,-83.3333333333333,4,2,5,50,0,0
261943,-83.3333333333333,4,2,1,50,0,0
262256,-83.3333333333333,4,2,1,55,0,0
262672,-250,4,2,3,50,0,0
263089,-90.9090909090909,4,2,1,50,0,0
263714,-66.6666666666667,4,2,1,50,0,0
264131,-90.9090909090909,4,2,1,50,0,0
264547,-66.6666666666667,4,2,1,50,0,0
264964,-66.6666666666667,4,2,4,50,0,0
265381,-66.6666666666667,4,2,1,50,0,0
266006,-90.9090909090909,4,2,1,50,0,0
266422,-111.111111111111,4,2,1,50,0,0
266631,-111.111111111111,4,2,5,25,0,0
266735,-111.111111111111,4,2,6,35,0,0
266839,-111.111111111111,4,2,1,50,0,0
267394,-111.111111111111,4,2,0,50,0,0
267672,-111.111111111111,4,2,1,50,0,0
267811,-111.111111111111,4,2,0,50,0,0
268089,-111.111111111111,4,2,1,50,0,0
268367,-111.111111111111,4,2,0,50,0,0
268506,-111.111111111111,4,2,1,50,0,0
268644,-111.111111111111,4,2,0,50,0,0
268922,-111.111111111111,4,2,1,50,0,0
269200,-111.111111111111,4,2,0,50,0,0
269339,-66.6666666666667,4,2,1,50,0,0
269756,-90.9090909090909,4,2,1,50,0,0
270068,-90.9090909090909,4,2,6,35,0,0
270172,-90.9090909090909,4,2,1,40,0,0
270381,-90.9090909090909,4,2,1,45,0,0
270485,-90.9090909090909,4,2,5,45,0,0
270589,-58.8235294117647,4,2,1,50,0,0
270797,-90.9090909090909,4,2,1,50,0,0
271214,-66.6666666666667,4,2,1,50,0,0
271422,-66.6666666666667,4,2,4,50,0,0
271839,-55.5555555555556,4,2,1,50,0,0
272151,-55.5555555555556,4,2,4,50,0,0
272360,-55.5555555555556,4,2,1,50,0,0
272672,-166.666666666667,4,2,3,50,0,0
272881,-166.666666666667,4,2,1,50,0,0
274547,-166.666666666667,4,2,1,40,0,0
275797,-166.666666666667,4,2,1,30,0,0
277339,-166.666666666667,4,2,5,20,0,0
279756,-166.666666666667,4,2,6,10,0,0

[Colours]
Combo1 : 249,153,235
Combo2 : 203,255,96
Combo3 : 132,253,241
Combo4 : 135,125,255

[HitObjects]
422,234,542,5,2,0:3:0:0:
487,263,750,1,0,0:0:0:0:
458,328,1006,2,0,P|402:330|353:237,1,164,4|2,3:2|0:0,0:0:0:0:
292,148,1631,2,0,L|278:225,1,65.6,0|2,0:0|0:0,0:0:0:0:
197,197,2047,2,0,L|208:132,1,65.6,0|0,0:0|0:0,0:0:0:0:
257,79,2464,1,2,0:0:0:0:
367,168,2672,6,0,P|414:172|494:104,1,131.2,0|2,3:0|0:0,0:0:0:0:
508,59,3297,1,0,0:0:0:0:
449,13,3506,1,2,0:0:0:0:
425,81,3714,1,0,0:0:0:0:
351,313,4131,5,0,0:0:0:0:
351,313,4235,1,0,0:0:0:0:
351,313,4339,1,0,3:0:0:0:
292,359,4548,1,0,0:0:0:0:
268,291,4756,1,2,0:0:0:0:
324,242,4964,2,0,L|297:106,1,131.2,0|2,0:0|0:0,0:0:0:0:
246,63,5589,1,0,0:0:0:0:
186,103,5797,2,0,P|133:82|116:49,1,65.6,2|0,0:0|3:0,0:0:0:0:
0,13,6214,5,0,0:0:0:0:
56,48,6422,2,0,L|190:28,1,131.2,2|2,0:0|0:0,0:0:0:0:
190,21,7256,1,2,0:0:0:0:
74,131,7464,5,0,0:0:0:0:
7,170,7672,2,0,P|59:207|121:192,1,131.2,0|2,3:0|0:0,0:0:0:0:
189,159,8297,1,0,0:0:0:0:
189,159,8401,1,0,0:0:0:0:
189,159,8506,1,2,0:0:0:0:
121,192,8714,2,0,P|110:140|123:113,1,65.6
170,81,9131,1,2,0:0:0:0:
222,227,9339,5,0,3:0:0:0:
76,279,9756,1,2,0:0:0:0:
24,133,10172,1,0,0:0:0:0:
170,81,10589,1,2,0:0:0:0:
325,341,11006,6,0,B|385:352|394:305|451:317,1,131.2,0|2,3:0|0:0,0:0:0:0:
507,352,11631,2,0,L|520:387,2,32.8,0|0|2,3:0|0:0|0:0,0:0:0:0:
450,316,12047,2,0,L|471:188,1,98.4,0|0,3:0|0:0,0:0:0:0:
477,220,12464,2,0,P|503:200|517:150,1,65.6,2|0,0:0|3:0,0:0:0:0:
372,125,12881,5,0,0:0:0:0:
386,194,13089,1,2,0:0:0:0:
443,149,13297,2,0,P|442:90|376:54,1,131.2,0|0,3:0|3:0,0:0:0:0:
305,11,13922,2,0,P|271:24|222:33,1,65.6,8|0,3:3|0:0,0:0:0:0:
6,230,14339,6,0,P|57:228|149:267,1,131.2,4|8,3:1|0:0,0:0:0:0:
184,303,14964,1,2,3:2:0:0:
184,303,15381,1,0,3:0:0:0:
131,351,15589,1,8,0:0:0:0:
201,372,15797,1,2,0:0:0:0:
254,321,16006,2,0,P|251:267|188:227,1,131.2,0|8,3:0|0:0,0:0:0:0:
144,173,16631,6,0,L|162:89,1,65.6,0|0,3:2|0:0,0:0:0:0:
77,5,17047,1,2,3:2:0:0:
33,68,17256,2,0,P|65:82|119:70,1,65.6,8|0,0:0|0:0,0:0:0:0:
212,50,17672,6,0,P|253:22|336:41,1,131.2,0|8,3:0|0:0,0:0:0:0:
381,82,18297,1,2,3:2:0:0:
381,82,18714,1,0,3:0:0:0:
442,112,18922,1,10,0:0:0:0:
481,57,19131,1,0,0:0:0:0:
420,21,19339,5,0,3:0:0:0:
366,68,19547,1,0,0:0:0:0:
395,133,19756,1,8,0:0:0:0:
467,127,19964,1,0,3:0:0:0:
481,57,20173,1,2,0:0:0:0:
467,127,20381,2,0,P|470:161|496:199,1,65.6,0|8,3:0|0:0,0:0:0:0:
512,271,20797,5,0,0:0:0:0:
509,276,20901,1,0,0:0:0:0:
506,281,21006,2,0,L|380:264,1,98.4,2|0,3:2|0:0,0:0:0:0:
396,259,21422,2,0,P|383:292|403:334,1,65.6,8|0,0:0|3:0,0:0:0:0:
452,367,21839,1,0,0:0:0:0:
452,367,22047,1,0,3:0:0:0:
390,320,22256,1,8,0:0:0:0:
320,329,22464,1,2,0:0:0:0:
187,256,22672,6,0,L|168:179,1,65.6,0|0,3:0|0:0,0:0:0:0:
245,173,23089,2,0,L|260:236,1,65.6,8|0,0:0|3:0,0:0:0:0:
98,187,23506,6,0,P|115:141|138:123,1,65.6,2|0,0:0|3:0,0:0:0:0:
187,256,23922,2,0,P|149:287|120:291,1,65.6,8|0,0:0|0:0,0:0:0:0:
218,106,24339,6,0,P|294:118|316:185,1,131.2,2|8,3:2|0:0,0:0:0:0:
391,221,25068,1,0,0:0:0:0:
391,221,25172,2,0,L|469:208,1,65.6,2|8,0:0|0:3,0:0:0:0:
508,160,25589,1,8,0:0:0:0:
509,243,25797,6,0,B|438:230|468:182|385:178,1,135.300004129028,4|0,3:2|0:0,0:0:0:0:
333,151,26214,2,0,P|326:182|346:228,1,53.2999975601197,0|0,3:0|0:0,0:0:0:0:
264,242,26422,2,0,P|247:215|200:196,1,53.2999975601197,4|0,1:2|0:0,0:0:0:0:
160,311,26631,6,0,P|188:325|237:318,1,53.2999975601197,0|0,3:0|0:0,0:0:0:0:
273,375,26839,2,0,B|338:362|310:318|387:314,1,123.000004692078,0|0,3:0|1:0,0:0:0:0:
382,317,27117,1,8,0:0:0:0:
390,321,27186,1,8,0:0:0:0:
397,324,27256,2,0,L|481:338,1,82,0|2,1:0|0:0,0:0:0:0:
363,106,27672,6,0,P|301:70|228:112,1,131.2,4|8,3:1|0:0,0:0:0:0:
181,116,28297,1,10,0:0:0:0:
173,111,28401,2,0,L|188:16,1,82,0|0,0:0|0:0,0:0:0:0:
185,30,28714,5,0,3:0:0:0:
301,145,28922,1,8,1:2:0:0:
419,45,29131,2,0,L|506:30,1,65.6,0|0,3:0|0:0,0:0:0:0:
470,182,29547,6,0,P|432:165|408:129,1,65.6,0|8,3:0|0:0,0:0:0:0:
487,106,29964,2,0,P|468:198|394:223,1,159.899992680359,0|0,1:0|0:0,0:0:0:0:
405,229,30381,5,0,3:0:0:0:
394,227,30485,1,8,0:0:0:0:
383,225,30589,1,8,1:2:0:0:
359,213,30693,1,2,0:0:0:0:
337,231,30797,1,2,3:3:0:0:
299,206,30901,1,2,0:3:0:0:
253,233,31006,2,0,L|132:250,1,106.599995120239,4|0,3:2|0:0,0:0:0:0:
5,379,31422,5,8,0:0:0:0:
22,262,31631,2,0,B|91:267|66:318|140:325,1,135.300004129028,0|0,1:0|0:0,0:0:0:0:
149,331,32047,2,0,P|110:341|75:373,1,82,0|8,3:0|1:2,0:0:0:0:
147,169,32464,6,0,L|162:43,1,110.699996621704,4|0,3:2|0:0,0:0:0:0:
171,53,32881,1,0,3:0:0:0:
65,1,33089,1,10,1:2:0:0:
107,237,33297,2,0,P|171:246|223:171,1,147.599995495606,4|0,3:2|0:0,0:0:0:0:
231,191,33714,6,0,P|222:222|247:267,1,57.3999982482911,4|0,3:2|0:0,0:0:0:0:
283,350,33922,2,0,L|390:335,1,98.4,8|0,1:2|0:0,0:0:0:0:
470,363,34339,6,0,B|397:357|423:303|341:297,1,147.599995495606,4|8,3:1|1:2,0:0:0:0:
228,245,34964,5,2,0:3:0:0:
225,251,35068,1,2,0:3:0:0:
222,257,35172,1,2,3:2:0:0:
341,306,35381,1,0,3:0:0:0:
424,207,35589,1,8,1:2:0:0:
355,97,35797,2,0,L|372:-5,1,98.4,2|0,0:0|0:0,0:0:0:0:
377,7,36214,2,0,P|424:21|464:7,1,73.7999977478028,0|8,3:0|1:2,0:0:0:0:
323,175,36631,6,0,P|251:138|160:162,1,135.300004129028,2|0,3:2|0:0,0:0:0:0:
190,151,37047,1,0,3:0:0:0:
84,44,37256,1,8,1:2:0:0:
0,93,37464,5,0,0:3:0:0:
0,93,37568,1,2,0:3:0:0:
0,93,37672,2,0,B|65:93|41:132|108:141,1,123,2|0,3:2|0:0,0:0:0:0:
108,151,38089,2,0,L|93:223,1,65.6,8|2,1:2|3:0,0:0:0:0:
84,44,38506,5,0,0:0:0:0:
0,141,38714,1,0,3:0:0:0:
66,250,38922,1,8,1:2:0:0:
190,220,39131,1,4,3:2:0:0:
201,93,39339,1,2,0:0:0:0:
201,93,39547,6,0,L|149:106,1,32.8,0|0,3:0|0:0,0:0:0:0:
48,182,39756,6,0,L|123:162,1,53.2999975601197,4|0,1:1|0:0,0:0:0:0:
231,216,39964,6,0,L|187:227,1,45.1000013763428,0|0,3:0|0:0,0:0:0:0:
35,324,40172,5,0,3:0:0:0:
65,371,40276,1,4,1:2:0:0:
119,373,40381,2,0,P|156:343|157:281,1,61.5000023460389,0|0,3:0|0:0,0:0:0:0:
342,270,40589,6,0,B|364:213|324:175|310:201|268:166|289:107,1,184.500007038117,4|0,1:2|0:0,0:0:0:0:
339,60,41006,5,4,3:2:0:0:
409,78,41214,1,0,0:0:0:0:
358,129,41422,1,8,0:0:0:0:
288,111,41631,1,0,0:0:0:0:
269,42,41839,1,0,0:0:0:0:
269,42,42256,6,0,P|290:3|326:-15,1,61.5000023460389,8|0,0:0|0:0,0:0:0:0:
409,78,42672,2,0,P|388:117|352:135,1,61.5000023460389,0|0,3:0|0:0,0:0:0:0:
358,129,43089,2,0,P|397:122|465:182,1,123.000004692078,8|0,0:0|0:0,0:0:0:0:
511,219,43714,1,0,3:0:0:0:
472,272,43922,2,0,L|494:351,1,61.5000023460389,8|0,0:0|0:0,0:0:0:0:
357,202,44339,6,0,P|323:230|315:270,1,61.5000023460389,0|0,3:0|0:0,0:0:0:0:
353,336,44755,2,0,P|394:351|432:338,1,61.5000023460389,8|0,0:0|0:0,0:0:0:0:
472,272,45172,2,0,P|464:228|434:201,1,61.5000023460389,0|0,0:0|3:0,0:0:0:0:
392,268,45589,1,8,0:0:0:0:
260,203,45797,5,0,0:0:0:0:
229,267,46006,2,0,L|264:386,1,123.000004692078,0|8,3:0|3:2,0:0:0:0:
382,287,46631,5,0,0:0:0:0:
229,267,46839,2,0,P|236:288|335:319,1,123.000004692078,0|8,3:0|3:2,0:0:0:0:
378,292,47360,1,8,0:3:0:0:
382,287,47464,1,4,0:3:0:0:
229,267,47672,6,0,L|85:288,1,110.699996621704,4|0,3:2|0:0,0:0:0:0:
119,282,48089,1,8,3:2:0:0:
32,269,48297,5,0,0:0:0:0:
41,369,48506,2,0,B|54:357|54:357|22:317|33:266,1,110.699996621704,2|0,3:2|0:0,0:0:0:0:
36,257,48922,2,0,L|65:175,1,73.7999977478028,8|0,3:2|0:0,0:0:0:0:
134,84,49339,6,0,P|86:113|15:82,1,110.699996621704,0|0,3:0|0:0,0:0:0:0:
11,6,49756,2,0,P|46:14|73:39,1,73.7999977478028,8|0,3:2|0:0,0:0:0:0:
168,161,50172,5,2,3:2:0:0:
276,200,50381,1,0,0:0:0:0:
365,169,50589,1,8,3:2:0:0:
418,118,50797,1,0,0:0:0:0:
418,118,50901,1,0,0:0:0:0:
418,118,51006,2,0,L|432:10,1,98.4,2|0,3:2|0:0,0:0:0:0:
440,12,51422,2,0,P|482:16|516:49,1,73.7999977478028,8|0,3:2|0:0,0:0:0:0:
446,192,51839,2,0,P|387:187|347:132,1,90.2000027526856,0|0,3:0|0:0,0:0:0:0:
347,98,52256,5,2,3:2:0:0:
475,264,52464,2,0,P|525:219|500:134,1,147.599995495606,2|0,0:0|0:0,0:0:0:0:
512,145,52881,1,2,0:0:0:0:
418,118,53089,1,0,3:0:0:0:
304,306,53297,6,0,L|144:337,1,135.300004129028,2|0,0:0|0:0,0:0:0:0:
157,321,53714,1,2,0:0:0:0:
256,364,53922,1,0,3:0:0:0:
390,245,54131,5,2,0:0:0:0:
390,245,54235,1,2,0:0:0:0:
390,245,54339,1,4,3:2:0:0:
229,294,54547,1,0,0:0:0:0:
74,176,54756,5,0,0:0:0:0:
300,247,54964,2,0,P|285:188|188:183,1,159.899992680359,4|0,3:2|0:0,0:0:0:0:
189,169,55381,2,0,P|198:138|179:89,1,82,4|8,3:2|0:3,0:0:0:0:
222,247,55797,1,4,0:3:0:0:
273,82,56006,6,0,P|295:21|386:25,1,147.599995495606,4|0,3:1|0:0,0:0:0:0:
430,47,56422,1,8,1:2:0:0:
503,204,56631,2,0,B|506:276|449:257|449:324,1,135.300004129028,2|0,0:0|0:0,0:0:0:0:
443,333,57047,5,2,0:0:0:0:
412,225,57256,1,8,1:2:0:0:
316,174,57464,2,0,P|273:180|216:224,1,90.2000027526856,0|0,0:0|3:0,0:0:0:0:
205,366,57881,5,2,0:0:0:0:
287,349,58089,1,8,1:2:0:0:
314,266,58297,1,2,0:3:0:0:
314,266,58401,1,2,0:0:0:0:
314,266,58506,1,0,3:0:0:0:
224,289,58714,5,2,0:0:0:0:
224,289,58922,1,8,1:2:0:0:
68,216,59131,2,0,L|43:106,1,90.2000027526856,2|0,0:0|3:3,0:0:0:0:
48,128,59756,6,0,P|82:88|77:3,1,135.300004129028,8|0,1:2|0:0,0:0:0:0:
75,13,60172,1,2,3:2:0:0:
123,99,60381,1,0,0:0:0:0:
217,127,60589,1,8,1:2:0:0:
306,84,60797,6,0,B|373:93|355:144|424:150,1,135.300004129028,6|0,3:2|0:0,0:0:0:0:
488,137,61214,1,0,3:0:0:0:
441,84,61422,1,8,1:2:0:0:
464,207,61631,1,2,0:0:0:0:
511,69,61839,5,0,3:0:0:0:
391,27,62047,1,2,0:0:0:0:
349,146,62256,1,8,1:2:0:0:
467,189,62464,1,0,0:0:0:0:
149,94,62672,5,4,3:2:0:0:
29,136,62880,1,0,0:0:0:0:
73,256,63089,1,8,1:2:0:0:
191,213,63297,1,2,0:0:0:0:
153,97,63506,5,0,3:0:0:0:
153,97,63714,2,0,L|165:7,1,90.2000027526856,2|8,0:0|1:2,0:0:0:0:
73,112,64131,2,0,P|101:161|204:159,1,135.300004129028,0|0,3:0|0:0,0:0:0:0:
186,169,64547,1,2,3:2:0:0:
95,196,64756,2,0,P|53:246|48:292,1,90.2000027526856,8|0,1:2|0:0,0:0:0:0:
12,345,65172,6,0,L|154:361,1,135.300004129028,2|0,0:0|0:0,0:0:0:0:
158,366,65589,2,0,P|179:319|158:266,1,90.2000027526856,10|0,1:2|0:0,0:0:0:0:
314,218,66006,6,0,P|330:267|408:306,1,135.300004129028,2|0,3:2|0:0,0:0:0:0:
413,303,66422,1,8,1:2:0:0:
402,216,66631,1,8,0:0:0:0:
405,207,66735,1,8,0:0:0:0:
409,198,66839,1,0,3:0:0:0:
496,247,67047,5,8,0:0:0:0:
278,306,67256,1,8,1:2:0:0:
346,88,67464,2,0,P|398:92|439:143,1,90.2000027526856,4|0,3:2|0:0,0:0:0:0:
500,160,67881,1,0,0:0:0:0:
379,211,68089,5,4,1:2:0:0:
372,217,68193,2,0,L|257:202,1,90.2000027526856,2|8,0:0|0:0,0:0:0:0:
243,149,68506,6,0,P|211:188|232:250,1,61.5000023460389,4|0,1:1|0:0,0:0:0:0:
170,371,68714,5,0,1:0:0:0:
179,363,68783,1,8,0:0:0:0:
184,352,68853,1,8,0:0:0:0:
186,339,68922,2,0,P|174:287|156:266,1,61.5000023460389,8|0,1:2|0:3,0:0:0:0:
78,241,69131,6,0,L|2:260,1,69.700001329422,4|0,0:3|0:0,0:0:0:0:
1,253,69339,6,0,P|62:260|76:348,1,164,4|8,3:1|1:2,0:0:0:0:
217,339,69964,1,0,0:0:0:0:
226,346,70068,2,0,L|345:332,1,90.2000027526856,2|0,0:0|0:0,0:0:0:0:
315,335,70381,5,0,3:0:0:0:
327,227,70590,1,8,1:2:0:0:
417,165,70797,2,0,P|460:171|517:215,1,90.2000027526856,2|0,0:0|3:0,0:0:0:0:
512,352,71214,5,0,3:0:0:0:
445,316,71423,1,8,1:2:0:0:
444,246,71631,1,2,0:3:0:0:
444,246,71735,1,2,0:0:0:0:
444,246,71839,1,0,3:0:0:0:
512,277,72048,5,2,0:0:0:0:
512,277,72256,1,8,1:2:0:0:
374,207,72464,2,0,L|385:96,1,90.2000027526856,2|0,0:0|3:0,0:0:0:0:
382,117,73089,6,0,P|443:101|453:11,1,135.300004129028,8|0,1:2|0:0,0:0:0:0:
462,29,73506,1,0,3:0:0:0:
509,126,73715,1,2,0:0:0:0:
350,313,73923,5,8,1:2:0:0:
297,219,74131,2,0,B|230:210|246:166|178:160,1,135.300004129028,4|0,3:2|0:0,0:0:0:0:
166,169,74548,1,0,3:0:0:0:
308,121,74756,5,8,1:2:0:0:
199,24,74964,2,0,P|237:59|235:98,1,90.2000027526856,2|0,0:0|3:0,0:0:0:0:
70,257,75381,1,2,3:2:0:0:
29,197,75589,2,0,P|40:146|75:128,1,90.2000027526856,8|0,1:2|0:0,0:0:0:0:
230,264,76006,5,4,3:2:0:0:
152,238,76214,1,0,0:0:0:0:
152,157,76422,1,8,1:2:0:0:
230,132,76631,1,0,0:0:0:0:
277,198,76839,1,0,3:0:0:0:
409,363,77047,5,2,0:0:0:0:
512,328,77256,1,8,1:2:0:0:
482,227,77464,2,0,P|422:206|351:292,1,180.400005505371,0|0,3:0|3:0,0:0:0:0:
512,328,78089,6,0,B|459:315|478:297|432:289,1,90.2000027526856,8|2,1:2|0:0,0:0:0:0:
260,242,78506,1,2,0:0:0:0:
178,299,78714,1,0,3:0:0:0:
81,314,78922,2,0,L|94:197,1,90.2000027526856,8|2,1:2|0:0,0:0:0:0:
22,19,79339,6,0,L|7:131,1,90.2000027526856,2|8,3:2|0:3,0:0:0:0:
14,115,79651,1,4,0:3:0:0:
18,122,79756,2,0,P|76:138|126:80,1,135.300004129028,8|0,1:2|0:0,0:0:0:0:
124,82,80172,6,0,P|120:47|87:14,1,45.1000013763428,4|0,3:3|0:0,0:0:0:0:
22,12,80381,5,8,0:3:0:0:
167,161,80589,1,8,1:2:0:0:
337,42,80797,2,0,B|356:32|356:32|401:29|431:94,1,90.2000027526856,4|0,3:2|0:0,0:0:0:0:
506,236,81214,5,0,3:1:0:0:
511,124,81422,1,12,1:0:0:0:
501,133,81526,2,4,L|441:121,2,45.1000013763428,2|12|4,0:0|3:0|0:3,0:0:0:0:
494,144,81839,6,0,L|375:166,1,90.2000027526856,4|8,1:2|0:0,0:0:0:0:
304,200,82151,1,8,0:0:0:0:
366,214,82256,6,0,P|384:253|416:271,1,45.1000013763428,8|0,0:3|0:0,0:0:0:0:
363,319,82464,6,0,P|396:331|442:323,1,45.1000013763428,4|0,0:3|0:0,0:0:0:0:
466,365,82672,6,0,P|523:342|442:287,1,196.799993994141,4|8,3:1|1:2,0:0:0:0:
363,319,83297,1,2,0:0:0:0:
358,326,83401,1,2,0:3:0:0:
353,333,83506,2,0,L|253:320,1,90.2000027526856,2|0,3:3|0:0,0:0:0:0:
251,325,83818,2,0,L|243:377,1,45.1000013763428,2|8,0:0|1:2,0:0:0:0:
82,282,84131,6,0,P|63:221|94:154,1,135.300004129028,2|0,0:0|0:0,0:0:0:0:
90,157,84547,1,0,3:0:0:0:
170,198,84756,1,8,1:2:0:0:
232,133,84964,1,0,0:0:0:0:
189,53,85172,2,0,P|138:73|82:44,1,90.2000027526856,2|0,3:1|0:0,0:0:0:0:
91,55,85485,2,0,L|106:-8,1,45.1000013763428,2|8,0:0|1:2,0:0:0:0:
6,180,85797,6,0,L|16:223,1,45.1000013763428,2|0,0:0|0:0,0:0:0:0:
0,299,86006,2,0,B|71:317|92:235|169:255,1,180.400005505371,0|8,3:0|1:2,0:0:0:0:
223,319,86631,5,0,0:0:0:0:
223,319,86735,1,2,0:3:0:0:
223,319,86839,1,0,3:0:0:0:
300,364,87047,1,0,3:0:0:0:
408,349,87256,1,8,1:2:0:0:
478,266,87464,2,0,L|498:159,1,90.2000027526856,0|0,0:0|3:0,0:0:0:0:
323,25,87881,2,0,L|339:113,1,90.2000027526856,0|8,0:0|1:2,0:0:0:0:
499,103,88297,5,0,0:0:0:0:
499,103,88401,2,0,P|460:74|409:78,1,90.2000027526856,0|0,3:0|0:0,0:0:0:0:
397,157,88714,6,0,P|433:180|503:167,1,90.2000027526856,4|0,3:2|0:0,0:0:0:0:
399,4,89026,6,0,P|351:36|344:73,1,61.5000023460389,4|8,1:1|0:3,0:0:0:0:
252,176,89235,5,2,0:0:0:0:
310,219,89339,2,0,L|327:326,1,90.2000027526856,4|0,3:2|0:0,0:0:0:0:
322,125,89756,5,8,1:2:0:0:
225,268,89964,1,2,0:3:0:0:
225,268,90068,1,2,0:3:0:0:
225,268,90172,2,0,P|144:281|108:253,1,90.2000027526856,2|0,3:2|3:0,0:0:0:0:
131,273,90485,2,0,L|116:202,1,45.1000013763428,2|8,0:0|1:2,0:0:0:0:
14,329,90797,6,0,L|4:373,1,45.1000013763428,2|0,0:0|0:0,0:0:0:0:
13,377,91006,2,0,L|120:353,1,90.2000027526856,0|2,3:0|0:0,0:0:0:0:
109,360,91318,1,2,0:0:0:0:
117,362,91422,1,8,1:2:0:0:
207,213,91631,6,0,P|184:165|118:145,1,90.2000027526856,0|0,0:0|3:0,0:0:0:0:
0,132,92047,1,0,3:0:0:0:
74,168,92256,1,8,1:2:0:0:
180,32,92464,5,2,0:0:0:0:
180,32,92568,1,2,0:0:0:0:
180,32,92672,2,0,P|242:9|306:78,1,135.300004129028,2|0,3:3|0:0,0:0:0:0:
301,51,93089,2,0,L|324:148,1,73.7999977478028,8|0,1:2|0:0,0:0:0:0:
512,175,93506,6,0,P|450:152|386:221,1,135.300004129028,2|2,3:2|0:0,0:0:0:0:
394,196,93922,2,0,L|382:249,1,45.1000013763428,8|0,1:2|0:0,0:0:0:0:
350,366,94131,6,0,B|360:291|304:318|312:240,1,135.300004129028,4|0,3:2|0:0,0:0:0:0:
298,240,94547,2,0,P|308:203|328:187,1,53.2999975601197,2|0,0:0|0:0,0:0:0:0:
334,124,94756,2,0,P|371:114|394:123,1,53.2999975601197,0|0,1:2|0:0,0:0:0:0:
452,97,94964,6,0,P|509:167|398:211,1,246.000009384156,4|4,3:2|3:1,0:0:0:0:
394,196,95485,1,2,0:0:0:0:
409,181,95589,1,2,3:0:0:0:
448,192,95693,1,2,0:3:0:0:
467,244,95797,1,2,1:2:0:0:
423,296,95901,1,2,0:0:0:0:
353,292,96006,6,0,L|247:278,1,82,4|0,3:2|0:0,0:0:0:0:
205,239,96318,1,0,3:2:0:0:
199,231,96422,2,0,L|206:288,1,41,8|0,1:2|0:0,0:0:0:0:
183,371,96631,6,0,P|136:338|64:344,1,123,0|0,3:0|0:0,0:0:0:0:
62,351,97047,2,0,L|57:310,2,41,0|2|8,3:0|0:0|1:2,0:0:0:0:
46,165,97464,1,0,3:0:0:0:
0,227,97672,6,0,P|62:240|124:143,1,164,0|8,3:0|1:2,0:0:0:0:
197,7,98297,1,2,3:2:0:0:
156,68,98506,1,0,3:0:0:0:
204,135,98714,1,2,0:0:0:0:
204,135,98818,1,2,0:0:0:0:
204,135,98923,2,0,L|309:114,1,82,8|2,1:2|0:0,0:0:0:0:
148,71,99339,6,0,L|43:50,1,82,0|0,3:0|0:0,0:0:0:0:
281,33,99756,1,8,1:2:0:0:
144,210,99964,1,2,0:0:0:0:
144,210,100172,2,0,P|142:286|166:315,1,82,0|0,3:0|0:0,0:0:0:0:
152,302,100485,2,0,L|213:290,1,41,2|8,0:0|1:2,0:0:0:0:
391,246,100797,5,0,3:0:0:0:
260,332,101006,2,0,B|332:338|304:368|372:380,1,123,2|0,0:0|0:0,0:0:0:0:
370,379,101422,2,0,P|348:339|367:274,1,82,8|0,1:2|0:0,0:0:0:0:
481,137,101839,5,2,3:2:0:0:
501,171,101943,1,8,0:0:0:0:
501,212,102047,2,0,L|446:223,1,41,0|0,3:2|0:0,0:0:0:0:
335,136,102256,2,0,B|270:141|295:168|235:178,1,106.599995120239,8|2,1:2|0:0,0:0:0:0:
228,175,102533,1,2,0:3:0:0:
217,171,102603,1,2,0:3:0:0:
209,168,102672,6,0,P|192:129|294:84,1,164,4|10,3:2|1:2,0:0:0:0:
346,9,103297,1,2,0:0:0:0:
411,159,103506,2,0,P|398:112|386:65,1,82,0|2,0:0|3:2,0:0:0:0:
481,47,103922,1,8,1:2:0:0:
337,173,104131,2,0,P|357:215|474:215,1,164,2|0,0:0|3:0,0:0:0:0:
504,135,104756,2,0,L|448:143,1,41,8|0,0:2|0:0,0:0:0:0:
377,237,104964,2,0,L|360:327,1,82,2|2,1:2|0:3,0:0:0:0:
365,324,105276,1,8,0:0:0:0:
369,331,105381,1,2,0:0:0:0:
502,372,105589,5,8,1:2:0:0:
493,323,105693,1,2,0:0:0:0:
456,289,105797,1,2,0:3:0:0:
406,290,105901,1,2,0:3:0:0:
365,324,106006,1,2,3:2:0:0:
454,233,106214,1,0,3:0:0:0:
430,360,106422,1,8,1:2:0:0:
373,252,106631,1,2,0:0:0:0:
482,306,106839,1,2,0:3:0:0:
373,252,107047,2,0,P|338:228|323:167,1,82,2|8,0:0|1:2,0:0:0:0:
170,240,107464,6,0,L|120:256,1,41,2|0,0:0|0:0,0:0:0:0:
129,270,107672,2,0,B|62:263|88:230|20:217,1,123,2|0,3:2|0:0,0:0:0:0:
10,292,108089,2,0,L|33:378,1,82,6|0,3:3|3:0,0:0:0:0:
253,225,108506,2,0,P|265:156|236:92,1,123,4|2,1:2|0:3,0:0:0:0:
237,96,108922,2,0,L|247:22,1,65.6,0|2,3:0|0:3,0:0:0:0:
262,236,109339,5,4,3:2:0:0:
262,236,109756,1,8,0:0:0:0:
265,288,109894,1,0,0:0:0:0:
305,321,110033,1,0,0:0:0:0:
357,317,110172,1,2,1:2:0:0:
380,270,110311,1,0,0:0:0:0:
430,255,110450,1,0,0:0:0:0:
474,282,110589,1,8,0:0:0:0:
485,333,110728,1,0,0:0:0:0:
453,375,110867,1,0,0:0:0:0:
453,375,111006,1,2,3:2:0:0:
380,270,111283,5,2,0:0:0:0:
424,218,111422,2,0,L|399:71,1,131.2,8|2,3:2|1:2,0:0:0:0:
450,24,112117,5,2,0:3:0:0:
406,76,112256,2,0,P|353:67|325:13,1,87.4666666666667,8|0,0:0|0:0,0:0:0:0:
321,30,112672,6,0,L|228:50,1,87.4666666666667,0|0,3:0|0:0,0:0:0:0:
166,14,113089,5,8,0:0:0:0:
150,64,113228,1,0,0:0:0:0:
182,105,113367,1,0,0:0:0:0:
257,179,113506,5,2,1:2:0:0:
297,236,113645,1,0,0:0:0:0:
279,303,113784,1,0,0:0:0:0:
216,332,113922,1,8,0:0:0:0:
152,302,114061,1,0,0:0:0:0:
136,233,114200,1,0,0:0:0:0:
136,233,114339,2,0,P|129:184|79:154,1,87.4666666666667,0|0,3:0|0:0,0:0:0:0:
3,199,114756,5,8,0:0:0:0:
13,267,114894,1,0,0:0:0:0:
85,285,115033,1,0,0:0:0:0:
136,233,115172,2,0,L|230:211,1,87.4666666666667,2|0,1:2|0:0,0:0:0:0:
231,218,115589,2,0,B|273:223|258:236|297:244,1,65.6,8|2,0:0|0:3,0:0:0:0:
367,263,115901,5,2,0:3:0:0:
367,263,116006,2,0,P|316:268|283:350,1,131.2,4|8,3:2|0:0,0:0:0:0:
239,298,116561,1,0,0:0:0:0:
187,290,116700,1,0,0:0:0:0:
143,318,116839,1,2,1:2:0:0:
116,363,116978,1,0,0:0:0:0:
65,376,117117,1,0,0:0:0:0:
17,352,117256,1,8,0:0:0:0:
3,301,117394,1,0,0:0:0:0:
34,258,117533,1,0,0:0:0:0:
34,258,117672,2,0,L|46:142,1,87.4666666666667,0|0,3:0|0:0,0:0:0:0:
39,161,118089,6,0,P|92:138|109:78,1,87.4666666666667,8|0,3:2|0:0,0:0:0:0:
75,52,118506,1,2,1:2:0:0:
181,168,118783,5,8,0:3:0:0:
130,222,118922,2,0,P|178:243|227:229,1,87.4666666666667,8|0,0:0|0:0,0:0:0:0:
169,319,119339,5,4,3:3:0:0:
196,364,119478,1,0,0:0:0:0:
247,373,119617,1,0,0:0:0:0:
299,322,119756,5,8,0:0:0:0:
307,319,119894,1,0,0:0:0:0:
315,316,120033,1,0,0:0:0:0:
391,333,120172,5,2,1:2:0:0:
374,264,120311,1,0,0:0:0:0:
308,240,120450,1,0,0:0:0:0:
243,212,120589,1,8,0:0:0:0:
212,149,120728,1,0,0:0:0:0:
226,80,120867,1,0,0:0:0:0:
286,45,121006,2,0,P|348:45|397:124,1,131.2,4|8,3:2|0:0,0:0:0:0:
500,131,121700,5,2,0:3:0:0:
438,162,121839,2,0,L|290:132,1,131.2,2|2,0:0|0:0,0:0:0:0:
313,140,122672,5,2,0:3:0:0:
256,192,122881,12,2,126006,0:1:0:0:
256,192,128089,5,4,1:3:0:0:
512,67,128506,5,4,3:2:0:0:
458,106,128714,1,0,0:0:0:0:
398,77,128922,1,8,0:2:0:0:
394,10,129131,2,0,P|343:4|289:84,1,147.599995495606,0|0,1:0|3:0,0:0:0:0:
144,144,129756,1,8,0:0:0:0:
73,117,129964,2,0,L|148:134,2,73.7999977478028,0|0|0,0:0|3:0|3:0,0:0:0:0:
281,174,130589,1,8,0:0:0:0:
168,226,130797,2,0,B|230:219|209:190|268:184,1,110.699996621704,0|0,1:0|0:0,0:0:0:0:
281,174,131214,1,0,3:0:0:0:
149,300,131422,6,0,L|136:388,1,73.7999977478028,8|0,1:2|0:0,0:0:0:0:
99,178,131839,2,0,P|75:119|-7:126,1,147.599995495606,0|8,3:0|0:0,0:0:0:0:
11,333,132464,2,0,P|29:333|80:299,1,73.7999977478028,0|0,1:0|3:0,0:0:0:0:
279,367,132881,1,0,3:0:0:0:
221,326,133089,1,8,1:2:0:0:
160,227,133297,6,0,L|149:300,1,73.7999977478028,4|0,0:2|3:0,0:0:0:0:
131,145,133714,2,0,L|73:98,1,73.7999977478028,0|8,3:0|0:2,0:0:0:0:
216,162,134131,6,0,B|275:173|284:119|344:132,1,135.300004129028,4|0,1:2|0:0,0:0:0:0:
443,99,134547,6,0,P|425:124|388:127,1,45.1000013763428,4|0,1:1|0:0,0:0:0:0:
270,109,134756,1,8,0:0:0:0:
370,240,134964,5,8,0:0:0:0:
370,217,135068,1,8,0:0:0:0:
378,196,135172,2,0,L|502:213,1,110.699996621704,4|0,3:2|0:0,0:0:0:0:
498,202,135589,1,8,0:0:0:0:
296,272,135797,1,0,1:0:0:0:
439,344,136006,5,0,3:0:0:0:
507,380,136214,1,0,0:0:0:0:
401,277,136422,6,0,P|367:309|359:350,1,73.7999977478028,8|0,1:2|0:0,0:0:0:0:
212,307,136839,6,0,P|204:258|141:206,1,110.699996621704,2|0,3:3|0:0,0:0:0:0:
102,173,137256,2,0,L|117:71,1,73.7999977478028,8|0,0:0|1:0,0:0:0:0:
121,298,137672,5,0,0:0:0:0:
41,234,137881,1,0,3:0:0:0:
41,234,138089,2,0,L|6:140,1,73.7999977478028,8|0,1:2|0:0,0:0:0:0:
45,41,138401,5,0,0:0:0:0:
30,59,138506,2,0,P|69:81|149:70,1,110.699996621704,2|0,3:3|0:0,0:0:0:0:
133,77,138922,1,8,0:0:0:0:
41,234,139131,5,0,1:0:0:0:
112,308,139339,1,0,0:0:0:0:
202,258,139547,1,0,3:0:0:0:
193,154,139756,2,0,L|206:93,1,45.1000013763428,8|0,1:2|0:0,0:0:0:0:
222,32,139964,6,0,L|260:190,1,159.899992680359,4|0,3:2|0:0,0:0:0:0:
295,247,140381,2,0,P|328:204|313:156,1,61.5000023460389,0|0,3:0|0:0,0:0:0:0:
512,38,140589,6,0,B|462:44|482:64|429:72,1,90.2000027526856,12|0,1:1|0:0,0:0:0:0:
177,153,141006,2,0,B|227:159|207:179|260:187,1,90.2000027526856,8|0,1:3|3:0,0:0:0:0:
328,199,141318,5,8,0:0:0:0:
336,191,141422,2,0,L|354:22,1,135.300004129028,8|0,1:2|0:0,0:0:0:0:
512,38,141839,6,0,P|508:86|406:88,1,147.599995495606,4|12,0:2|1:2,0:0:0:0:
157,17,142464,2,0,P|200:-3|253:83,1,147.599995495606,2|0,0:0|3:0,0:0:0:0:
323,332,143089,1,8,0:0:0:0:
317,336,143297,2,0,P|277:308|326:219,1,147.599995495606,0|0,1:0|0:0,0:0:0:0:
332,131,143922,6,0,L|392:143,1,53.2999975601197,12|0,1:2|0:0,0:0:0:0:
512,179,144131,2,0,P|460:182|412:263,1,135.300004129028,0|0,0:0|0:0,0:0:0:0:
429,337,144547,1,0,3:0:0:0:
508,356,144756,1,8,1:2:0:0:
484,283,144964,5,2,0:3:0:0:
280,325,145172,2,0,L|178:309,1,73.7999977478028,0|0,3:0|0:0,0:0:0:0:
202,308,145485,1,0,3:0:0:0:
196,302,145589,1,10,0:0:0:0:
70,350,145797,6,0,L|26:362,1,36.8999988739014,0|0,1:0|0:0,0:0:0:0:
20,369,146006,2,0,P|-2:334|32:258,1,98.3999969970704,0|0,0:0|3:0,0:0:0:0:
106,118,146422,1,8,1:2:0:0:
24,181,146631,6,0,P|83:222|154:209,1,147.599995495606,4|0,3:2|0:0,0:0:0:0:
201,156,147047,6,0,P|206:85|160:29,1,147.599995495606,4|0,3:0|0:0,0:0:0:0:
91,16,147464,6,0,P|26:46|2:114,1,147.599995495606,4|0,1:2|0:0,0:0:0:0:
125,138,147881,6,0,P|128:104|85:94,1,65.6,4|2,3:0|0:3,0:0:0:0:
52,171,148089,6,0,P|129:217|197:174,1,123.000004692078,4|4,1:1|0:3,0:0:0:0:
212,161,148401,1,2,0:0:0:0:
245,259,148506,6,0,P|301:235|357:257,1,123,4|0,3:1|3:0,0:0:0:0:
363,268,148922,2,0,L|378:342,1,73.7999977478028,8|0,0:0|1:3,0:0:0:0:
382,345,149235,5,2,0:3:0:0:
387,349,149339,1,0,3:0:0:0:
512,300,149547,1,2,0:3:0:0:
463,175,149756,1,8,1:2:0:0:
338,224,149964,1,2,0:0:0:0:
424,260,150172,6,0,L|440:100,1,147.599995495606,0|0,3:0|0:0,0:0:0:0:
360,131,150589,2,0,P|359:95|375:62,1,73.7999977478028,8|0,0:0|1:0,0:0:0:0:
507,79,151006,2,0,P|516:115|506:150,1,73.7999977478028,2|0,3:3|0:0,0:0:0:0:
317,200,151422,2,0,P|278:147|288:82,1,135.300004129028,8|0,1:2|0:0,0:0:0:0:
283,73,151839,6,0,P|229:67|186:-4,1,123,4|0,3:2|0:0,0:0:0:0:
179,10,152256,5,8,3:2:0:0:
23,140,152464,2,0,L|39:218,1,73.7999977478028,8|0,1:3|0:0,0:0:0:0:
82,261,152881,1,0,3:0:0:0:
142,234,153089,1,8,0:0:0:0:
134,168,153297,1,4,3:2:0:0:
15,10,153506,5,0,3:0:0:0:
8,75,153714,1,0,0:0:0:0:
69,101,153922,1,12,1:1:0:0:
161,77,154131,6,0,L|201:64,1,36.8999988739014,0|2,3:0|0:3,0:0:0:0:
339,117,154339,2,0,P|299:132|234:96,1,90.2000027526856,8|4,1:3|3:3,0:0:0:0:
262,27,154651,5,8,0:0:0:0:
266,21,154756,2,0,B|278:14|278:14|299:27|294:70,1,61.5000023460389,8|0,3:2|0:0,0:0:0:0:
217,191,154964,6,0,P|199:231|217:284,1,82,8|0,3:2|3:0,0:0:0:0:
250,322,155381,5,0,0:0:0:0:
315,284,155589,1,8,0:0:0:0:
264,231,155797,1,0,0:0:0:0:
205,267,156214,1,0,3:0:0:0:
394,366,156422,2,0,P|433:351|490:337,1,92.2500035190584,8|0,3:0|0:0,0:0:0:0:
491,347,156839,5,4,3:2:0:0:
481,338,157256,5,8,3:2:0:0:
479,352,157672,5,2,3:3:0:0:
499,274,157881,1,0,0:0:0:0:
478,210,158089,1,8,3:2:0:0:
438,160,158297,1,0,0:0:0:0:
389,147,158506,2,0,P|341:151|310:185,1,65.6,0|0,3:0|0:0,0:0:0:0:
332,282,158922,2,0,P|361:256|373:213,1,73.7999977478028,8|0,3:2|0:0,0:0:0:0:
261,129,159339,2,0,P|251:176|273:220,1,98.3999969970704,0|0,3:0|0:0,0:0:0:0:
465,159,159756,6,0,P|447:94|385:70,1,123,10|0,3:2|0:0,0:0:0:0:
388,66,160172,2,0,P|353:48|333:7,1,82,0|0,3:0|0:0,0:0:0:0:
131,114,160589,6,0,P|124:177|212:225,1,147.599995495606,10|0,3:2|0:0,0:0:0:0:
181,55,161006,2,0,P|132:35|78:60,1,82,0|0,3:0|0:0,0:0:0:0:
6,215,161422,6,0,L|93:199,1,73.7999977478028,8|0,3:2|0:0,0:0:0:0:
91,212,161839,2,0,P|141:175|130:114,1,131.2,0|8,3:0|3:2,0:0:0:0:
9,13,162464,1,2,0:3:0:0:
52,104,162672,2,0,L|78:20,1,65.6,0|0,3:0|0:0,0:0:0:0:
144,142,163089,2,0,P|133:189|90:212,1,98.4,8|0,3:2|0:0,0:0:0:0:
91,212,163506,6,0,L|102:302,1,65.6,2|0,3:3|0:0,0:0:0:0:
62,341,163922,1,8,3:2:0:0:
62,341,164131,1,0,0:0:0:0:
17,222,164339,6,0,P|31:166|125:147,1,147.599995495606,2|8,3:3|3:2,0:0:0:0:
162,88,164964,1,0,0:0:0:0:
250,330,165172,2,0,P|284:289|213:260,1,147.599995495606,2|8,3:2|3:2,0:0:0:0:
132,230,165797,5,0,0:0:0:0:
190,183,166006,2,0,P|235:168|331:217,1,147.599995495606,2|8,3:3|3:2,0:0:0:0:
132,230,166631,5,0,0:0:0:0:
323,205,166839,2,0,P|260:169|190:183,1,147.599995495606,2|8,3:2|3:2,0:0:0:0:
297,76,167463,5,0,0:0:0:0:
389,256,167672,2,0,P|405:186|356:109,1,164,2|8,3:2|3:2,0:0:0:0:
500,203,168297,5,0,0:0:0:0:
359,333,168506,2,0,P|400:336|441:324,1,82,2|0,3:2|0:0,0:0:0:0:
500,203,168922,2,0,P|499:247|485:281,1,73.7999977478028,8|0,3:2|0:0,0:0:0:0:
427,159,169339,2,0,P|446:118|472:93,1,73.7999977478028,2|0,3:3|0:0,0:0:0:0:
423,246,169756,1,8,1:2:0:0:
177,366,170172,6,0,L|42:358,1,123,4|0,3:2|0:0,0:0:0:0:
58,349,170589,2,0,P|74:290|46:257,1,73.7999977478028,8|0,3:2|0:0,0:0:0:0:
0,171,171006,5,2,3:3:0:0:
75,202,171214,1,2,0:0:0:0:
140,169,171422,1,8,3:2:0:0:
161,122,171631,1,0,0:0:0:0:
162,92,171839,2,0,P|174:37|213:11,1,73.7999977478028,0|0,3:3|0:0,0:0:0:0:
262,52,172256,2,0,P|256:101|217:131,1,73.7999977478028,10|0,3:2|0:0,0:0:0:0:
115,19,172672,2,0,P|159:-8|217:3,1,98.3999969970704,0|0,3:0|0:0,0:0:0:0:
295,181,173089,6,0,P|215:198|160:122,1,147.599995495606,8|0,3:2|0:0,0:0:0:0:
168,168,173506,2,0,L|147:255,1,82,2|0,3:2|0:0,0:0:0:0:
161,336,173922,1,8,3:2:0:0:
248,358,174131,1,0,0:0:0:0:
292,279,174339,1,0,3:0:0:0:
232,210,174547,1,0,0:0:0:0:
290,288,174756,6,0,P|314:301|387:293,1,82,8|0,3:2|0:0,0:0:0:0:
511,166,175172,2,0,P|498:190|434:225,1,82,0|0,3:0|0:0,0:0:0:0:
430,377,175589,2,0,L|448:277,1,82,8|0,3:2|0:0,0:0:0:0:
430,146,176006,5,0,3:0:0:0:
430,146,176110,2,0,B|404:129|404:129|367:150|380:199,1,106.599995120239,2|0,0:3|0:0,0:0:0:0:
383,203,176422,2,0,P|419:234|470:223,1,73.7999977478028,8|0,3:2|0:0,0:0:0:0:
512,162,176735,5,2,0:3:0:0:
512,162,176787,1,2,0:3:0:0:
512,162,176839,1,2,3:2:0:0:
487,72,177047,1,0,0:0:0:0:
390,0,177256,5,8,3:2:0:0:
363,104,177464,1,0,0:0:0:0:
243,210,177672,5,2,3:2:0:0:
226,219,177881,1,0,0:0:0:0:
243,115,178089,5,8,3:2:0:0:
375,188,178297,2,0,P|338:183|310:168,1,49.1999984985352,0|2,0:0|0:3,0:0:0:0:
247,124,178506,5,2,3:2:0:0:
138,179,178714,1,0,0:0:0:0:
60,107,178922,5,8,3:2:0:0:
41,100,179131,1,0,0:0:0:0:
99,45,179339,5,0,3:0:0:0:
180,69,179547,1,0,0:0:0:0:
155,3,179756,5,8,3:2:0:0:
123,117,179964,1,2,0:3:0:0:
123,117,180068,1,2,0:3:0:0:
123,117,180172,2,0,B|98:189|166:169|143:256,1,135.300004129028,2|0,3:2|0:0,0:0:0:0:
142,254,180589,2,0,L|240:235,1,73.7999977478028,8|2,3:2|0:0,0:0:0:0:
107,338,181006,2,0,L|179:352,1,73.7999977478028,0|0,3:0|0:0,0:0:0:0:
20,304,181422,5,8,3:2:0:0:
58,222,181631,1,2,0:0:0:0:
142,254,181839,1,0,3:0:0:0:
107,338,182047,1,2,0:0:0:0:
211,308,182256,5,8,3:2:0:0:
231,374,182464,1,0,3:0:0:0:
265,204,182672,6,0,L|290:256,1,53.2999975601197,0|0,1:2|0:0,0:0:0:0:
326,314,182881,1,0,0:0:0:0:
160,126,183089,5,12,3:2:0:0:
2,286,183297,1,0,0:0:0:0:
2,286,183401,1,0,0:0:0:0:
2,286,183506,1,4,3:2:0:0:
97,211,183714,6,0,L|144:224,1,49.1999984985352,2|0,0:0|3:0,0:0:0:0:
262,144,183922,2,0,P|229:179|221:227,1,98.3999969970704,8|0,1:2|0:0,0:0:0:0:
190,295,184235,1,0,0:0:0:0:
190,295,184339,2,0,P|203:321|236:339,1,49.1999984985352,0|0,3:0|0:0,0:0:0:0:
358,351,184547,1,0,3:0:0:0:
85,329,184756,1,8,1:2:0:0:
358,351,184964,5,0,3:0:0:0:
419,306,185172,2,0,P|429:245|372:185,1,123,2|0,0:0|3:0,0:0:0:0:
388,192,185589,1,8,3:2:0:0:
337,315,185797,2,0,L|358:351,1,41,0|0,1:0|0:0,0:0:0:0:
381,188,186006,5,0,3:0:0:0:
368,176,186110,1,0,0:0:0:0:
345,135,186214,1,8,0:0:0:0:
350,75,186318,1,0,0:0:0:0:
404,34,186422,1,10,1:2:0:0:
470,34,186526,1,2,0:0:0:0:
500,58,186631,1,2,0:3:0:0:
512,83,186735,1,2,0:3:0:0:
512,98,186839,6,0,L|452:86,1,41,0|0,3:2|0:0,0:0:0:0:
413,124,187047,1,2,0:3:0:0:
332,254,187256,6,0,L|272:266,1,41,10|0,3:2|0:0,0:0:0:0:
233,220,187464,1,0,1:0:0:0:
460,191,187672,5,0,3:0:0:0:
254,36,187881,1,2,3:2:0:0:
224,96,187985,1,2,0:3:0:0:
281,130,188089,2,0,L|300:190,1,57.3999982482911,8|0,1:2|0:0,0:0:0:0:
243,316,188297,5,8,0:0:0:0:
430,279,188506,1,2,3:2:0:0:
264,337,188714,1,0,0:0:0:0:
64,204,188922,5,8,0:2:0:0:
257,248,189131,2,0,L|188:224,1,57.3999982482911,0|0,1:0|0:0,0:0:0:0:
48,178,189339,1,2,0:0:0:0:
374,166,189547,5,8,0:0:0:0:
428,136,189651,1,8,0:0:0:0:
444,80,189756,1,8,1:2:0:0:
441,166,189860,1,2,0:3:0:0:
460,188,189964,2,0,P|488:200|532:196,1,45.1000013763428,8|0,0:3|0:0,0:0:0:0:
501,35,190172,6,0,P|439:6|373:49,1,123,4|4,3:2|0:3,0:0:0:0:
386,33,190589,2,0,L|369:81,1,49.1999984985352,10|0,0:2|0:0,0:0:0:0:
243,302,190797,2,0,B|161:294|195:224|111:217,1,164,0|0,1:0|3:0,0:0:0:0:
0,258,191422,5,8,1:2:0:0:
39,287,191526,1,0,0:0:0:0:
91,279,191631,1,2,0:3:0:0:
122,232,191735,1,2,0:3:0:0:
111,217,191839,2,0,L|102:128,1,82,0|8,3:0|0:0,0:0:0:0:
129,72,192151,1,8,0:0:0:0:
135,61,192256,1,8,0:0:0:0:
0,7,192464,6,0,P|7:54|47:81,1,98.3999969970704,0|0,1:0|0:0,0:0:0:0:
265,95,192881,6,0,P|255:59|234:47,1,61.5000023460389,0|0,3:0|0:0,0:0:0:0:
164,17,193089,1,8,1:2:0:0:
129,72,193193,1,8,0:0:0:0:
140,120,193297,1,8,0:0:0:0:
163,146,193401,1,0,0:3:0:0:
177,151,193506,1,2,3:2:0:0:
66,196,193644,6,0,P|40:189|20:172,1,54.6666666666667,2|0,0:3|3:0,0:0:0:0:
120,266,193922,5,8,1:2:0:0:
74,123,194061,2,0,P|65:166|86:210,1,54.6666666666667,2|0,0:0|3:0,0:0:0:0:
63,310,194339,5,2,0:0:0:0:
140,169,194478,2,0,P|167:136|209:127,1,54.6666666666667,0|0,0:0|3:0,0:0:0:0:
43,244,194756,5,8,1:2:0:0:
229,177,194894,2,0,P|189:150|141:153,1,54.6666666666667,2|0,0:0|3:0,0:0:0:0:
188,369,195172,2,0,P|270:373|307:267,1,164,4|8,3:1|1:2,0:0:0:0:
473,188,195797,5,0,3:0:0:0:
410,222,195901,1,0,3:0:0:0:
393,285,196006,1,10,3:3:0:0:
408,335,196110,1,2,0:0:0:0:
456,354,196214,1,8,0:0:0:0:
489,330,196318,1,8,0:0:0:0:
483,298,196422,1,12,1:2:0:0:
465,289,196526,1,2,0:3:0:0:
506,232,196631,1,2,0:0:0:0:
449,165,196735,1,0,0:0:0:0:
476,175,196839,2,0,L|489:58,1,113.159996201294,4|2,3:2|0:3,0:0:0:0:
493,59,198506,5,0,3:0:0:0:
437,98,198922,2,0,P|414:91|393:69,1,49.1999984985352,8|0,0:0|0:0,0:0:0:0:
348,24,199339,2,0,L|240:40,2,98.3999969970704,0|8|0,0:0|0:0|3:0,0:0:0:0:
437,98,200589,6,0,L|445:166,1,49.1999984985352,8|0,0:0|0:0,0:0:0:0:
503,189,201006,2,0,L|486:266,1,73.7999977478028,0|0,0:0|0:0,0:0:0:0:
493,268,201422,2,0,L|449:300,1,49.1999984985352,8|0,0:0|0:0,0:0:0:0:
441,367,201839,6,0,L|333:346,1,98.3999969970704,0|8,3:0|0:0,0:0:0:0:
271,369,202464,1,0,3:0:0:0:
287,298,202672,1,0,0:0:0:0:
88,173,203089,6,0,L|100:241,1,49.1999984985352,8|0,0:0|0:0,0:0:0:0:
74,291,203506,2,0,P|131:287|167:249,1,98.3999969970704,0|8,3:0|0:0,0:0:0:0:
189,195,204131,1,0,3:0:0:0:
189,195,204339,2,0,L|161:85,1,98.3999969970704,0|8,0:0|0:0,0:0:0:0:
195,34,204964,1,0,0:0:0:0:
103,141,205172,2,0,P|42:107|6:105,2,98.3999969970704,0|8|0,3:0|0:0|0:0,0:0:0:0:
164,99,206214,5,2,0:3:0:0:
189,161,206422,1,8,0:0:0:0:
254,196,206631,2,0,P|305:191|351:144,1,98.3999969970704,0|0,0:0|0:0,0:0:0:0:
352,92,207256,6,0,L|342:35,1,49.1999984985352,8|0,0:0|0:0,0:0:0:0:
412,32,207672,2,0,L|420:80,1,49.1999984985352,2|0,0:3|3:0,0:0:0:0:
293,59,208089,2,0,L|307:5,1,49.1999984985352,8|0,0:0|0:0,0:0:0:0:
488,52,208506,6,0,P|494:100|451:144,1,98.3999969970704,0|8,3:0|0:0,0:0:0:0:
458,142,209131,1,2,3:3:0:0:
371,319,209547,2,0,L|364:267,1,49.1999984985352,0|8,3:0|0:0,0:0:0:0:
461,229,209964,6,0,B|409:224|419:197|370:195,1,98.3999969970704,2|0,3:3|3:0,0:0:0:0:
315,158,210589,1,8,0:0:0:0:
296,177,210797,1,0,3:0:0:0:
300,204,211006,1,2,0:0:0:0:
211,364,211422,6,0,P|216:334|203:309,1,49.1999984985352,4|0,0:3|0:0,0:0:0:0:
138,343,211839,2,0,P|102:308|113:246,1,82,4|0,3:2|0:0,0:0:0:0:
108,267,212151,1,2,0:3:0:0:
108,267,212256,1,8,0:0:0:0:
0,227,212464,2,0,B|54:234|64:184|122:190,1,131.2,2|0,3:2|3:0,0:0:0:0:
132,198,213089,2,0,P|124:159|136:115,1,65.6,8|2,1:2|0:0,0:0:0:0:
256,18,213506,6,0,P|268:57|259:96,1,82,0|0,3:0|0:0,0:0:0:0:
256,108,213818,1,2,0:3:0:0:
256,108,213922,1,8,3:2:0:0:
305,167,214131,2,0,L|426:150,1,98.4,2|0,0:0|0:0,0:0:0:0:
408,160,214547,1,2,0:3:0:0:
474,95,214756,1,8,1:2:0:0:
389,68,214964,2,0,L|377:-7,1,65.6,2|4,0:0|3:2,0:0:0:0:
378,3,215589,6,0,P|343:34|343:104,1,98.4,8|0,3:2|0:0,0:0:0:0:
340,92,216006,2,0,L|414:103,1,65.6,2|0,3:2|0:0,0:0:0:0:
512,195,216422,1,8,3:2:0:0:
445,204,216631,1,2,0:0:0:0:
381,214,216839,2,0,L|303:226,1,65.6,0|2,3:0|0:3,0:0:0:0:
304,219,217151,2,0,L|296:172,1,32.8,2|8,0:0|3:2,0:0:0:0:
396,134,217464,1,0,0:0:0:0:
457,245,217672,2,0,P|419:287|328:277,1,131.2,0|8,3:0|1:2,0:0:0:0:
217,310,218297,5,2,0:0:0:0:
161,358,218506,2,0,L|81:372,1,65.6,4|0,3:2|0:0,0:0:0:0:
10,266,218922,1,8,3:2:0:0:
71,299,219131,2,0,P|112:293|150:218,1,131.2,0|0,0:0|0:0,0:0:0:0:
105,105,219756,1,8,3:2:0:0:
65,161,219964,2,0,L|79:226,1,65.6,2|2,0:3|3:2,0:0:0:0:
177,122,220485,5,2,0:3:0:0:
184,118,220589,2,0,P|191:86|164:31,1,65.6,8|0,3:2|0:0,0:0:0:0:
111,18,221006,2,0,L|-3:37,1,98.4,0|0,3:2|0:0,0:0:0:0:
8,32,221422,2,0,L|85:44,1,65.6,8|2,3:2|0:0,0:0:0:0:
191,204,221839,6,0,B|266:195|235:153|312:145,1,131.2,4|8,3:2|1:2,0:0:0:0:
405,158,222464,1,8,0:3:0:0:
309,221,222672,1,2,3:0:0:0:
410,182,222881,5,2,3:0:0:0:
242,107,223089,1,8,1:2:0:0:
391,0,223297,2,0,L|408:78,1,65.6,4|0,3:2|0:0,0:0:0:0:
261,28,223714,5,0,3:0:0:0:
309,221,223922,1,8,1:2:0:0:
502,173,224131,1,0,3:0:0:0:
243,253,224339,5,8,0:3:0:0:
486,298,224547,1,8,0:3:0:0:
404,64,224756,1,8,1:2:0:0:
491,306,224964,1,0,1:3:0:0:
491,306,225589,6,0,P|455:341|401:333,1,86.0999973724366,4|0,0:3|0:0,0:0:0:0:
410,337,226006,6,0,P|379:287|286:288,1,123.000004692078,4|0,3:2|0:0,0:0:0:0:
219,290,226318,1,0,0:0:0:0:
211,295,226422,2,0,B|206:312|206:312|229:320|243:297,1,61.5000023460389,10|0,3:2|0:0,0:0:0:0:
344,203,226631,6,0,P|349:167|320:119,1,53.2999975601197,0|0,1:0|0:0,0:0:0:0:
282,113,226839,2,0,L|289:29,1,82,0|8,3:0|0:0,0:0:0:0:
294,25,227151,1,8,0:0:0:0:
300,19,227256,1,8,1:2:0:0:
433,100,227464,6,0,B|395:93|400:76|365:72,1,73.7999977478028,2|0,3:2|0:0,0:0:0:0:
265,183,227672,6,0,P|229:221|177:225,1,106.599995120239,4|4,3:2|0:3,0:0:0:0:
156,99,227985,1,8,0:3:0:0:
166,102,228089,2,0,P|197:151|182:191,1,61.5000023460389,8|0,1:2|0:0,0:0:0:0:
89,289,228297,6,0,P|56:212|123:165,1,180.400005505371,4|0,1:0|3:0,0:0:0:0:
265,183,228610,6,0,P|256:245|176:221,1,164,2|0,3:3|0:0,0:0:0:0:
166,102,228922,5,8,1:2:0:0:
184,37,229026,1,4,1:2:0:0:
124,4,229131,2,0,L|53:22,1,69.700001329422,2|0,0:0|0:0,0:0:0:0:
0,229,229339,6,0,P|65:242|126:296,1,131.2,4|8,3:2|0:0,0:0:0:0:
120,287,229651,1,2,0:3:0:0:
124,293,229756,1,10,0:0:0:0:
84,359,229964,1,0,1:0:0:0:
268,325,230172,5,2,3:0:0:0:
242,158,230381,1,2,0:0:0:0:
261,348,230589,1,8,1:2:0:0:
512,229,230797,6,0,P|447:242|386:296,1,131.2,4|2,3:1|0:3,0:0:0:0:
392,287,231109,1,8,0:0:0:0:
388,293,231214,1,8,0:0:0:0:
428,359,231422,1,8,1:2:0:0:
210,283,231631,5,2,0:3:0:0:
224,269,231735,1,2,0:0:0:0:
243,266,231839,1,2,0:1:0:0:
307,296,232047,1,8,0:3:0:0:
428,359,232256,2,0,L|508:343,1,82,4|0,0:3|3:0,0:0:0:0:
503,133,232672,5,4,3:2:0:0:
437,203,232881,1,0,0:0:0:0:
350,161,233089,1,8,1:2:0:0:
362,65,233297,1,0,3:0:0:0:
457,48,233505,1,4,3:0:0:0:
426,117,233714,5,2,0:3:0:0:
251,177,233922,1,10,1:2:0:0:
105,82,234131,2,0,L|91:-5,1,73.7999977478028,4|0,1:2|3:0,0:0:0:0:
28,80,234547,6,0,P|36:121|81:152,1,57.3999982482911,2|2,0:0|0:3,0:0:0:0:
185,218,234756,1,8,1:2:0:0:
311,54,234964,1,4,1:0:0:0:
294,40,235068,1,2,0:3:0:0:
275,43,235172,1,2,0:0:0:0:
24,221,235381,6,0,P|62:238|113:219,1,57.3999982482911,8|8,0:3|0:0,0:0:0:0:
168,135,235589,2,0,L|190:-1,1,123,8|0,3:2|0:0,0:0:0:0:
182,6,236006,6,0,B|113:11|142:44|71:57,1,123,4|0,3:2|0:0,0:0:0:0:
9,24,236422,5,8,1:2:0:0:
118,160,236631,1,8,0:3:0:0:
182,6,236839,5,0,0:0:0:0:
13,222,237047,1,4,0:3:0:0:
285,260,237256,1,8,1:2:0:0:
508,116,237464,6,0,B|439:111|468:78|397:65,1,123,4|0,1:2|0:0,0:0:0:0:
343,16,237881,2,0,P|324:55|345:110,1,61.5000023460389,4|0,3:1|0:0,0:0:0:0:
493,192,238089,5,8,1:2:0:0:
493,192,238193,2,0,P|415:209|347:284,1,147.599995495606,2|2,0:2|0:3,0:0:0:0:
323,318,238506,2,0,P|295:294|285:260,1,73.7999977478028,4|0,3:2|0:0,0:0:0:0:
389,133,238714,5,0,1:0:0:0:
386,140,238783,1,8,0:0:0:0:
379,146,238853,1,8,0:0:0:0:
372,148,238922,6,0,L|299:163,1,73.7999977478028,8|0,1:2|0:0,0:0:0:0:
154,284,239131,6,0,B|113:278|128:265|86:259,1,73.7999977478028,8|0,0:3|0:0,0:0:0:0:
170,210,239339,6,0,P|246:216|212:314,1,196.799993994141,4|8,3:1|1:2,0:0:0:0:
20,366,239964,1,0,0:0:0:0:
68,315,240068,2,0,L|44:193,1,90.2000027526856,2|0,0:0|0:0,0:0:0:0:
35,221,240381,6,0,P|41:187|71:148,1,57.3999982482911,0|0,3:0|0:0,0:0:0:0:
151,84,240590,1,8,1:2:0:0:
280,113,240798,2,0,P|306:147|315:219,1,90.2000027526856,2|0,0:0|3:0,0:0:0:0:
236,379,241215,5,0,3:0:0:0:
180,304,241423,1,8,1:2:0:0:
215,225,241631,1,2,0:3:0:0:
215,225,241735,1,2,0:0:0:0:
215,225,241840,1,0,3:0:0:0:
287,290,242048,5,2,0:0:0:0:
287,290,242256,1,8,1:2:0:0:
469,111,242464,2,0,L|480:0,1,90.2000027526856,2|4,0:0|3:2,0:0:0:0:
485,15,243089,6,0,P|429:74|361:36,1,135.300004129028,8|0,1:2|0:0,0:0:0:0:
332,13,243506,1,0,3:0:0:0:
52,143,243714,1,2,0:0:0:0:
69,98,243818,1,2,0:3:0:0:
119,82,243922,1,8,1:2:0:0:
249,123,244131,5,2,0:0:0:0:
250,259,244339,1,0,3:0:0:0:
120,302,244547,1,0,0:0:0:0:
39,192,244755,1,8,1:2:0:0:
119,82,244964,1,2,0:0:0:0:
150,184,245172,6,0,P|188:193|237:173,1,57.3999982482911,0|0,3:0|0:0,0:0:0:0:
250,259,245381,2,0,P|286:241|300:213,1,45.1000013763428,2|0,3:2|0:0,0:0:0:0:
364,249,245589,2,0,P|379:229|385:203,1,32.8,8|0,1:2|0:0,0:0:0:0:
314,131,245797,1,2,0:0:0:0:
503,360,246006,5,4,3:2:0:0:
486,290,246214,1,0,0:0:0:0:
417,307,246423,1,8,1:2:0:0:
433,375,246631,1,0,0:0:0:0:
429,208,246839,5,0,3:0:0:0:
293,317,247047,1,2,0:0:0:0:
235,341,247151,1,2,0:3:0:0:
189,340,247256,1,8,1:2:0:0:
131,289,247464,1,0,3:0:0:0:
112,364,247672,6,0,L|90:206,1,135.300004129028,4|0,3:2|0:0,0:0:0:0:
76,223,248089,2,0,B|64:172|95:183|87:134,1,90.2000027526856,8|2,1:2|0:0,0:0:0:0:
8,50,248506,5,2,0:0:0:0:
161,195,248714,1,0,3:0:0:0:
186,176,248818,1,2,0:3:0:0:
194,147,248922,1,8,1:2:0:0:
16,259,249131,2,0,P|46:292|94:289,1,53.2999975601197,2|0,0:0|0:0,0:0:0:0:
212,356,249339,6,0,B|228:328|228:328|204:285|137:290|113:336,1,159.899992680359,4|4,3:1|0:3,0:0:0:0:
61,367,249756,1,8,1:2:0:0:
248,208,249964,1,0,0:0:0:0:
3,226,250172,1,4,3:3:0:0:
212,356,250381,1,8,0:3:0:0:
119,128,250589,1,8,1:2:0:0:
331,276,250797,6,0,P|416:274|459:191,1,159.899992680359,4|0,3:2|0:0,0:0:0:0:
499,164,251214,2,0,L|480:86,1,53.2999975601197,0|0,3:1|0:0,0:0:0:0:
354,5,251422,2,4,L|341:56,1,53.2999975601197,12|2,1:0|0:0,0:0:0:0:
373,194,251631,1,12,3:0:0:0:
469,42,251839,5,0,3:0:0:0:
422,96,251943,1,8,0:3:0:0:
361,124,252047,1,4,0:3:0:0:
311,131,252151,1,4,0:3:0:0:
279,126,252256,2,0,B|236:116|255:104|213:92,1,73.7999977478028,8|2,1:2|0:0,0:0:0:0:
12,232,252672,6,0,P|88:245|99:147,1,180.400005505371,4|8,3:2|1:2,0:0:0:0:
107,31,253297,1,0,0:0:0:0:
1,98,253506,5,2,3:2:0:0:
143,174,253714,1,0,0:0:0:0:
138,13,253922,1,8,0:0:0:0:
48,170,254131,6,0,P|56:212|82:240,1,45.1000013763428,0|0,1:0|0:0,0:0:0:0:
107,268,254339,2,0,L|187:251,1,82,2|0,3:3|0:0,0:0:0:0:
275,314,254651,1,0,0:0:0:0:
287,319,254756,2,0,L|376:301,1,82,8|0,1:2|0:0,0:0:0:0:
163,181,255172,2,0,L|252:163,1,82,2|8,3:3|0:0,0:0:0:0:
483,333,255589,5,10,1:2:0:0:
455,367,255693,1,2,0:0:0:0:
412,372,255797,1,2,0:3:0:0:
378,344,255901,1,2,0:3:0:0:
374,300,256006,2,0,B|380:241|417:263|441:216|424:178,1,135.300004129028,0|0,3:1|0:0,0:0:0:0:
316,156,256422,6,0,P|329:182|352:199,1,57.3999982482911,8|0,1:2|0:0,0:0:0:0:
490,150,256631,1,2,0:0:0:0:
287,264,256839,6,0,L|172:279,1,106.599995120239,0|4,3:0|0:3,0:0:0:0:
126,325,257151,1,8,0:3:0:0:
73,375,257256,2,0,P|53:336|88:281,1,61.5000023460389,10|0,3:1|0:0,0:0:0:0:
134,153,257464,6,0,P|128:78|44:122,1,184.500007038117,0|0,1:2|0:0,0:0:0:0:
75,197,257881,6,0,P|109:223|164:217,1,61.5000023460389,0|0,3:0|0:0,0:0:0:0:
351,70,258089,2,0,P|325:18|267:23,1,123.000004692078,0|8,1:2|0:0,0:0:0:0:
217,69,258401,1,2,0:3:0:0:
213,75,258506,2,0,L|231:159,2,49.1999984985352,0|0|2,3:0|3:0|0:0,0:0:0:0:
420,110,258922,6,0,P|369:146|321:132,1,61.5000023460389,8|0,1:2|0:0,0:0:0:0:
242,230,259131,1,4,0:3:0:0:
18,107,259339,6,0,B|88:113|59:150|130:159,1,123,4|0,3:2|0:0,0:0:0:0:
129,81,259756,1,8,1:2:0:0:
161,31,259860,1,8,0:0:0:0:
207,4,259964,1,8,0:1:0:0:
251,1,260068,1,8,0:0:0:0:
276,7,260172,1,0,3:0:0:0:
292,16,260277,1,0,3:0:0:0:
305,30,260381,1,2,0:3:0:0:
312,38,260485,1,2,0:3:0:0:
320,47,260589,2,0,L|369:54,1,32.8,8|0,1:2|0:0,0:0:0:0:
508,94,260797,6,0,P|472:132|363:94,1,147.599995495606,0|0,3:0|0:0,0:0:0:0:
436,57,261214,1,0,3:0:0:0:
307,224,261422,5,8,1:2:0:0:
294,217,261526,1,2,0:0:0:0:
280,214,261630,1,2,0:3:0:0:
263,216,261734,1,2,0:3:0:0:
249,221,261839,5,8,0:0:0:0:
255,192,261943,1,0,1:0:0:0:
276,172,262047,1,0,3:0:0:0:
303,160,262151,1,0,0:0:0:0:
337,164,262256,5,8,1:2:0:0:
322,122,262360,1,2,0:0:0:0:
283,100,262464,1,2,0:3:0:0:
239,105,262568,1,2,0:0:0:0:
322,72,262672,6,0,L|331:9,1,49.2,4|0,3:2|0:0,0:0:0:0:
333,31,263089,6,0,P|390:48|436:24,1,90.2000027526856,8|2,1:2|0:3,0:0:0:0:
471,0,263401,1,2,0:0:0:0:
471,0,263506,1,0,3:0:0:0:
508,193,263714,6,0,P|482:175|424:178,1,61.5000023460389,0|0,3:0|0:0,0:0:0:0:
238,239,263922,1,8,1:2:0:0:
389,122,264131,6,0,B|313:127|344:160|264:173,1,135.300004129028,4|0,3:1|0:0,0:0:0:0:
165,245,264547,2,0,P|181:287|232:316,1,61.5000023460389,4|0,3:2|0:0,0:0:0:0:
312,364,264756,2,0,P|274:339|216:345,1,61.5000023460389,8|0,1:2|0:0,0:0:0:0:
132,336,264964,6,0,P|219:337|258:258,1,184.500007038117,4|0,1:0|0:0,0:0:0:0:
266,243,265381,1,4,0:3:0:0:
239,217,265485,1,4,3:0:0:0:
276,158,265589,1,8,1:2:0:0:
36,18,265797,5,2,0:0:0:0:
11,46,265901,1,2,0:0:0:0:
53,101,266006,2,0,B|128:95|97:62|177:49,1,135.300004129028,4|0,3:2|0:0,0:0:0:0:
234,0,266422,2,0,L|322:20,1,73.7999977478028,8|8,1:2|0:1,0:0:0:0:
310,22,266735,1,8,0:0:0:0:
313,30,266839,1,0,3:0:0:0:
474,64,267047,5,6,3:0:0:0:
463,62,267151,1,2,0:0:0:0:
454,60,267256,2,0,L|467:-11,1,49.1999984985352,8|0,0:0|0:0,0:0:0:0:
471,141,267533,5,2,3:2:0:0:
395,103,267672,2,0,L|377:45,1,49.1999984985352,8|0,3:3|0:0,0:0:0:0:
479,150,267950,5,2,3:2:0:0:
388,194,268089,2,0,L|339:148,1,49.1999984985352,8|0,0:0|0:0,0:0:0:0:
486,159,268367,5,2,3:2:0:0:
416,275,268506,2,0,L|354:264,1,49.1999984985352,4|0,0:3|0:0,0:0:0:0:
492,167,268783,5,2,3:2:0:0:
477,336,268922,2,0,L|409:361,1,49.1999984985352,8|0,1:2|0:0,0:0:0:0:
498,176,269200,5,2,3:2:0:0:
477,336,269339,2,0,P|396:367|302:297,1,184.500007038117,2|0,3:2|0:0,0:0:0:0:
246,315,269756,2,0,P|266:267|329:258,1,90.2000027526856,8|2,1:2|0:3,0:0:0:0:
388,286,270068,5,8,0:0:0:0:
393,304,270172,1,2,3:3:0:0:
366,333,270276,1,2,0:0:0:0:
315,322,270381,1,0,1:0:0:0:
299,253,270485,1,8,0:1:0:0:
355,197,270589,2,0,P|379:157|377:121,1,69.700001329422,8|0,3:2|0:0,0:0:0:0:
501,41,270797,6,0,L|365:63,1,135.300004129028,4|4,1:2|0:3,0:0:0:0:
356,71,271214,2,0,B|322:64|330:54|299:50,1,61.5000023460389,8|0,0:3|0:0,0:0:0:0:
210,29,271422,5,4,1:1:0:0:
171,85,271526,2,0,P|120:128|28:112,1,123.000004692078,2|0,0:0|0:0,0:0:0:0:
0,143,271839,6,0,P|2:99|55:69,1,73.7999977478028,0|4,3:0|1:0,0:0:0:0:
217,149,272047,6,0,L|232:243,1,73.7999977478028,2|4,0:0|3:2,0:0:0:0:
176,328,272256,5,0,0:0:0:0:
115,285,272360,2,0,B|166:291|166:291|197:319|197:319|251:324,1,147.599995495606,4|0,0:1|0:0,0:0:0:0:
296,383,272672,1,4,0:0:0:0:
300,273,272881,5,0,0:0:0:0:
344,329,273089,1,0,0:0:0:0:
417,338,273297,2,0,P|477:312|505:276,1,98.3999969970704,2|0,0:3|0:0,0:0:0:0:
466,179,273922,6,0,P|453:225|419:260,1,98.3999969970704,2|0,0:0|0:0,0:0:0:0:
381,189,274547,6,0,P|394:134|371:78,1,98.3999969970704,2|0,0:3|0:0,0:0:0:0:
269,73,275172,6,0,P|306:105|314:153,1,98.3999969970704
241,145,275797,6,0,P|193:124|136:137,2,98.3999969970704,2|0|0,0:3|0:0|0:0,0:0:0:0:
186,202,277339,5,4,0:0:0:0:
256,192,277464,12,4,279756,0:0:0:0:
