osu file format v14

[General]
AudioFilename: audio.mp3
AudioLeadIn: 0
PreviewTime: 55558
Countdown: 0
SampleSet: Soft
StackLeniency: 0.7
Mode: 3
LetterboxInBreaks: 0
SpecialStyle: 0
WidescreenStoryboard: 1

[Editor]
Bookmarks: 1027,14360,27693,41027,56027,69360,82693
DistanceSpacing: 0.8
BeatDivisor: 4
GridSize: 4
TimelineZoom: 1.6

[Metadata]
Title:Chroma (Game Ver.)
TitleUnicode:クローマ (Game Ver.)
Artist:riya (eufonius) / Ceui
ArtistUnicode:riya (eufonius) / Ceui
Creator:Muse Dash
Version:Intermediate
Source:リディー&スールのアトリエ ~不思議な絵画の錬金術士~
Tags:莉迪&蘇瑞的鍊金工房 ~不可思議繪畫的鍊金術士~ Atelier Lydie & Suelle The Alchemists and the Mysterious Paintings Fushigi na Kaiga no Renkinjutsushi a19 VOCAL ALBUM gust KOEI TECMO キャンバス Canvas ペインティング Japanese pop jpop j-pop video game JRPG female opening KECH-8063
BeatmapID:3693251
BeatmapSetID:1799804

[Difficulty]
HPDrainRate:7
CircleSize:7
OverallDifficulty:7
ApproachRate:5
SliderMultiplier:1.4
SliderTickRate:1

[Events]
//Background and Video events
0,0,"A19_book_dab_gallery_chapter1_016.jpg",0,0
Video,-290,"opening.flv"
//Break Periods
//Storyboard Layer 0 (Background)
//Storyboard Layer 1 (Fail)
//Storyboard Layer 2 (Pass)
//Storyboard Layer 3 (Foreground)
//Storyboard Layer 4 (Overlay)
//Storyboard Sound Samples

[TimingPoints]
1027,416.666666666667,4,2,1,15,1,0
56027,416.666666666667,4,2,1,25,1,1
82693,-100,4,2,1,15,0,0

[HitObjects]
182,192,540,5,0,0:0:0:0:
329,192,749,1,0,0:0:0:0:
36,192,1027,1,2,0:0:0:0:
109,192,1027,128,4,1443:0:0:0:0:
256,192,1443,1,0,0:0:0:0:
402,192,1652,128,0,2068:0:0:0:0:
109,192,1860,1,0,0:0:0:0:
256,192,2068,128,0,2485:0:0:0:0:
475,192,2068,1,0,0:0:0:0:
36,192,2485,128,0,3318:0:0:0:0:
182,192,2693,1,2,0:0:0:0:
329,192,3318,1,0,0:0:0:0:
256,192,3527,128,0,3943:0:0:0:0:
402,192,3735,1,0,0:0:0:0:
109,192,3943,1,0,0:0:0:0:
329,192,4152,1,0,0:0:0:0:
182,192,4360,1,2,0:0:0:0:
475,192,4360,128,0,4985:0:0:0:0:
36,192,4777,1,0,0:0:0:0:
182,192,4985,128,0,5402:0:0:0:0:
329,192,4985,1,0,0:0:0:0:
109,192,5402,1,0,0:0:0:0:
256,192,5610,1,0,0:0:0:0:
402,192,5818,128,0,6235:0:0:0:0:
36,192,6027,1,2,0:0:0:0:
182,192,6235,1,0,0:0:0:0:
329,192,6443,128,0,6860:0:0:0:0:
475,192,6652,1,0,0:0:0:0:
109,192,6860,1,0,0:0:0:0:
256,192,7068,1,0,0:0:0:0:
402,192,7277,1,0,0:0:0:0:
256,192,7485,1,0,0:0:0:0:
36,192,7693,128,2,8110:0:0:0:0:
109,192,7693,1,0,0:0:0:0:
475,192,8110,1,0,0:0:0:0:
329,192,8318,128,0,8735:0:0:0:0:
182,192,8527,1,0,0:0:0:0:
402,192,8735,1,0,0:0:0:0:
109,192,8943,1,0,0:0:0:0:
256,192,9152,1,0,0:0:0:0:
36,192,9360,1,2,0:0:0:0:
402,192,9360,128,0,9777:0:0:0:0:
109,192,9777,128,0,10193:0:0:0:0:
256,192,9985,1,2,0:0:0:0:
182,192,10193,128,0,10610:0:0:0:0:
329,192,10402,1,2,0:0:0:0:
256,192,10610,128,0,11027:0:0:0:0:
475,192,10610,1,0,0:0:0:0:
36,192,11027,128,2,11860:0:0:0:0:
182,192,11027,1,0,0:0:0:0:
256,192,11652,1,2,0:0:0:0:
475,192,11860,128,0,13318:0:0:0:0:
109,192,12068,1,2,0:0:0:0:
402,192,12277,1,0,0:0:0:0:
256,192,12485,1,0,0:0:0:0:
36,192,12693,1,2,0:0:0:0:
329,192,13318,1,2,0:0:0:0:
109,192,13527,128,0,13943:0:0:0:0:
256,192,13735,1,2,0:0:0:0:
329,192,13943,128,8,14360:0:0:0:0:
256,192,14152,1,0,0:0:0:0:
36,192,14360,1,2,0:0:0:0:
475,192,14360,128,4,14777:0:0:0:0:
256,192,14777,1,2,0:0:0:0:
182,192,14985,128,2,15402:0:0:0:0:
329,192,14985,1,0,0:0:0:0:
109,192,15402,1,2,0:0:0:0:
329,192,15610,128,2,16027:0:0:0:0:
475,192,15818,1,0,0:0:0:0:
36,192,16027,128,2,16443:0:0:0:0:
256,192,16027,1,0,0:0:0:0:
402,192,16443,1,2,0:0:0:0:
182,192,16652,128,2,17068:0:0:0:0:
36,192,16860,1,2,0:0:0:0:
329,192,17068,1,2,0:0:0:0:
256,192,17277,128,0,17693:0:0:0:0:
109,192,17485,1,0,0:0:0:0:
402,192,17693,128,2,18110:0:0:0:0:
475,192,17693,1,0,0:0:0:0:
182,192,18110,1,2,0:0:0:0:
256,192,18318,128,2,18735:0:0:0:0:
402,192,18527,1,2,0:0:0:0:
36,192,18735,1,2,0:0:0:0:
329,192,18943,1,2,0:0:0:0:
109,192,19152,128,0,20193:0:0:0:0:
256,192,19360,1,2,0:0:0:0:
182,192,19777,1,2,0:0:0:0:
402,192,19985,1,2,0:0:0:0:
256,192,20193,1,2,0:0:0:0:
475,192,20402,1,2,0:0:0:0:
329,192,20610,1,2,0:0:0:0:
182,192,20818,1,0,0:0:0:0:
36,192,21027,128,2,21443:0:0:0:0:
475,192,21027,1,0,0:0:0:0:
109,192,21443,1,2,0:0:0:0:
256,192,21652,1,2,0:0:0:0:
402,192,21652,128,0,22068:0:0:0:0:
36,192,22068,1,2,0:0:0:0:
182,192,22277,1,2,0:0:0:0:
329,192,22485,1,0,0:0:0:0:
109,192,22693,128,2,23110:0:0:0:0:
475,192,22693,1,0,0:0:0:0:
256,192,23110,128,2,23527:0:0:0:0:
36,192,23318,1,2,0:0:0:0:
402,192,23527,128,2,23943:0:0:0:0:
475,192,23527,1,0,0:0:0:0:
182,192,23943,1,2,0:0:0:0:
256,192,23943,128,0,24360:0:0:0:0:
36,192,24360,128,2,24777:0:0:0:0:
109,192,24360,1,0,0:0:0:0:
329,192,24777,1,2,0:0:0:0:
182,192,24985,1,2,0:0:0:0:
475,192,25193,128,2,25610:0:0:0:0:
329,192,25402,1,2,0:0:0:0:
256,192,25610,1,2,0:0:0:0:
36,192,25818,1,4,0:0:0:0:
182,192,25818,128,2,26235:0:0:0:0:
256,192,26235,1,2,0:0:0:0:
329,192,26443,128,6,26860:0:0:0:0:
475,192,26443,1,8,0:0:0:0:
109,192,26652,1,2,0:0:0:0:
256,192,26860,1,2,0:0:0:0:
402,192,27068,1,0,0:0:0:0:
36,192,27277,1,2,0:0:0:0:
182,192,27277,1,8,0:0:0:0:
256,192,27485,1,0,0:0:0:0:
329,192,27693,1,2,0:0:0:0:
475,192,27693,1,4,0:0:0:0:
109,192,27902,1,0,0:0:0:0:
402,192,28110,1,0,0:0:0:0:
36,192,28318,128,8,28735:0:0:0:0:
182,192,28318,1,0,0:0:0:0:
256,192,28735,1,2,0:0:0:0:
109,192,28943,1,8,0:0:0:0:
182,192,28943,1,0,0:0:0:0:
402,192,29152,1,2,0:0:0:0:
475,192,29152,128,0,29777:0:0:0:0:
329,192,29568,1,2,0:0:0:0:
256,192,29777,1,0,0:0:0:0:
36,192,29985,1,8,0:0:0:0:
182,192,29985,128,0,30402:0:0:0:0:
475,192,30402,1,2,0:0:0:0:
36,192,30610,1,8,0:0:0:0:
329,192,30610,1,0,0:0:0:0:
182,192,30818,1,0,0:0:0:0:
109,192,31027,128,2,31443:0:0:0:0:
402,192,31027,1,4,0:0:0:0:
475,192,31443,1,0,0:0:0:0:
329,192,31652,128,8,32068:0:0:0:0:
182,192,31860,1,0,0:0:0:0:
402,192,32068,1,0,0:0:0:0:
36,192,32277,1,8,0:0:0:0:
109,192,32277,1,0,0:0:0:0:
256,192,32485,128,2,32902:0:0:0:0:
475,192,32485,1,4,0:0:0:0:
109,192,32902,1,2,0:0:0:0:
402,192,33110,1,8,0:0:0:0:
475,192,33110,1,0,0:0:0:0:
36,192,33318,1,2,0:0:0:0:
256,192,33318,128,4,33735:0:0:0:0:
329,192,33735,1,2,0:0:0:0:
475,192,33735,1,4,0:0:0:0:
36,192,33943,1,8,0:0:0:0:
182,192,33943,1,0,0:0:0:0:
256,192,34152,1,0,0:0:0:0:
329,192,34360,1,2,0:0:0:0:
402,192,34360,128,4,34777:0:0:0:0:
36,192,34777,1,8,0:0:0:0:
475,192,34777,1,0,0:0:0:0:
182,192,34985,1,0,0:0:0:0:
402,192,35193,1,0,0:0:0:0:
109,192,35402,1,2,0:0:0:0:
329,192,35610,1,8,0:0:0:0:
475,192,35610,1,0,0:0:0:0:
256,192,35818,128,0,36443:0:0:0:0:
182,192,36027,1,2,0:0:0:0:
402,192,36443,1,8,0:0:0:0:
475,192,36443,1,0,0:0:0:0:
36,192,36652,128,2,37068:0:0:0:0:
109,192,36652,1,0,0:0:0:0:
475,192,37068,1,2,0:0:0:0:
182,192,37277,128,8,37693:0:0:0:0:
36,192,37485,1,0,0:0:0:0:
256,192,37693,1,2,0:0:0:0:
329,192,37693,128,0,38110:0:0:0:0:
402,192,38110,1,8,0:0:0:0:
475,192,38110,1,0,0:0:0:0:
256,192,38318,1,2,0:0:0:0:
109,192,38527,1,0,0:0:0:0:
402,192,38735,1,2,0:0:0:0:
36,192,38943,1,8,0:0:0:0:
182,192,38943,1,0,0:0:0:0:
329,192,39152,1,2,0:0:0:0:
475,192,39152,1,4,0:0:0:0:
182,192,39360,128,0,39777:0:0:0:0:
256,192,39568,1,2,0:0:0:0:
329,192,39777,1,8,0:0:0:0:
402,192,39777,1,0,0:0:0:0:
36,192,39985,1,2,0:0:0:0:
109,192,39985,1,0,0:0:0:0:
475,192,40193,128,2,40610:0:0:0:0:
182,192,40402,1,8,0:0:0:0:
109,192,40610,1,4,0:0:0:0:
402,192,40610,1,8,0:0:0:0:
256,192,40818,1,0,0:0:0:0:
182,192,41027,1,2,0:0:0:0:
475,192,41027,1,4,0:0:0:0:
36,192,41235,1,0,0:0:0:0:
182,192,41443,1,0,0:0:0:0:
329,192,41652,1,0,0:0:0:0:
475,192,41860,1,0,0:0:0:0:
109,192,42277,1,0,0:0:0:0:
402,192,42485,1,0,0:0:0:0:
36,192,42693,1,2,0:0:0:0:
256,192,42693,1,0,0:0:0:0:
256,192,43110,1,0,0:0:0:0:
475,192,43527,1,0,0:0:0:0:
329,192,43735,1,2,0:0:0:0:
182,192,43943,1,0,0:0:0:0:
36,192,44152,1,0,0:0:0:0:
256,192,44360,1,2,0:0:0:0:
402,192,44360,128,0,44777:0:0:0:0:
109,192,44777,1,0,0:0:0:0:
475,192,44985,1,0,0:0:0:0:
329,192,45193,128,0,45610:0:0:0:0:
36,192,45610,1,0,0:0:0:0:
256,192,45818,1,0,0:0:0:0:
109,192,46027,128,2,46443:0:0:0:0:
475,192,46027,1,0,0:0:0:0:
402,192,46443,1,2,0:0:0:0:
36,192,46652,1,2,0:0:0:0:
256,192,46860,128,2,47277:0:0:0:0:
182,192,47068,1,0,0:0:0:0:
475,192,47277,128,8,47693:0:0:0:0:
329,192,47485,1,0,0:0:0:0:
36,192,47693,128,2,48110:0:0:0:0:
182,192,47693,1,4,0:0:0:0:
256,192,48110,1,2,0:0:0:0:
475,192,48110,1,0,0:0:0:0:
109,192,48318,1,0,0:0:0:0:
329,192,48527,128,2,48943:0:0:0:0:
182,192,48943,128,2,49360:0:0:0:0:
36,192,49152,1,0,0:0:0:0:
256,192,49360,1,2,0:0:0:0:
475,192,49360,128,0,49777:0:0:0:0:
329,192,49777,128,2,50193:0:0:0:0:
109,192,49985,1,0,0:0:0:0:
182,192,50193,128,2,50610:0:0:0:0:
402,192,50402,1,0,0:0:0:0:
36,192,50610,128,2,51027:0:0:0:0:
256,192,50818,1,0,0:0:0:0:
402,192,51027,128,2,51443:0:0:0:0:
475,192,51027,1,0,0:0:0:0:
36,192,51443,1,2,0:0:0:0:
182,192,51443,128,0,51860:0:0:0:0:
256,192,51860,128,2,52277:0:0:0:0:
402,192,51860,1,0,0:0:0:0:
329,192,52277,128,2,52693:0:0:0:0:
182,192,52485,1,0,0:0:0:0:
109,192,52693,128,2,53110:0:0:0:0:
256,192,52902,1,0,0:0:0:0:
402,192,53110,128,2,53527:0:0:0:0:
256,192,53318,1,0,0:0:0:0:
36,192,53527,1,2,0:0:0:0:
329,192,53735,1,0,0:0:0:0:
182,192,53943,128,2,54360:0:0:0:0:
475,192,54152,1,0,0:0:0:0:
36,192,54360,1,2,0:0:0:0:
109,192,54360,1,4,0:0:0:0:
256,192,54568,1,0,0:0:0:0:
402,192,54777,1,2,0:0:0:0:
475,192,54777,1,0,0:0:0:0:
182,192,54985,1,2,0:0:0:0:
329,192,54985,128,4,55402:0:0:0:0:
36,192,55402,1,4,0:0:0:0:
475,192,55402,1,0,0:0:0:0:
256,192,55610,128,2,56027:0:0:0:0:
329,192,55818,1,2,0:0:0:0:
36,192,56027,1,4,0:0:0:0:
109,192,56027,1,2,0:0:0:0:
402,192,56235,128,0,56652:0:0:0:0:
256,192,56443,1,10,0:0:0:0:
182,192,56652,128,0,57068:0:0:0:0:
329,192,56860,1,2,0:0:0:0:
36,192,57068,1,0,0:0:0:0:
402,192,57277,1,2,0:0:0:0:
475,192,57277,1,8,0:0:0:0:
256,192,57485,128,0,57902:0:0:0:0:
109,192,57693,1,2,0:0:0:0:
402,192,57902,1,0,0:0:0:0:
36,192,58110,1,2,0:0:0:0:
109,192,58110,1,8,0:0:0:0:
329,192,58318,128,0,58735:0:0:0:0:
475,192,58527,1,2,0:0:0:0:
182,192,58735,1,2,0:0:0:0:
402,192,58943,1,2,0:0:0:0:
475,192,58943,1,8,0:0:0:0:
109,192,59152,128,0,59568:0:0:0:0:
329,192,59360,1,2,0:0:0:0:
36,192,59568,1,0,0:0:0:0:
182,192,59777,128,2,60193:0:0:0:0:
475,192,59777,1,8,0:0:0:0:
256,192,59985,1,0,0:0:0:0:
329,192,60193,128,2,60610:0:0:0:0:
109,192,60402,1,0,0:0:0:0:
402,192,60610,1,2,0:0:0:0:
475,192,60610,1,8,0:0:0:0:
36,192,60818,128,0,61235:0:0:0:0:
256,192,61027,1,2,0:0:0:0:
182,192,61235,1,0,0:0:0:0:
109,192,61443,1,2,0:0:0:0:
329,192,61443,1,8,0:0:0:0:
475,192,61652,128,0,62068:0:0:0:0:
256,192,61860,1,2,0:0:0:0:
402,192,62068,1,2,0:0:0:0:
36,192,62277,1,2,0:0:0:0:
109,192,62277,1,8,0:0:0:0:
256,192,62485,1,0,0:0:0:0:
402,192,62693,1,2,0:0:0:0:
475,192,62693,1,4,0:0:0:0:
36,192,62902,1,0,0:0:0:0:
329,192,63110,1,2,0:0:0:0:
475,192,63110,1,8,0:0:0:0:
256,192,63318,128,0,63735:0:0:0:0:
109,192,63527,1,2,0:0:0:0:
402,192,63735,1,0,0:0:0:0:
36,192,63943,1,2,0:0:0:0:
182,192,63943,1,8,0:0:0:0:
475,192,64152,128,0,64568:0:0:0:0:
256,192,64360,1,2,0:0:0:0:
182,192,64568,1,2,0:0:0:0:
109,192,64777,1,2,0:0:0:0:
402,192,64777,1,0,0:0:0:0:
329,192,64985,1,0,0:0:0:0:
256,192,65193,128,2,65610:0:0:0:0:
182,192,65402,1,0,0:0:0:0:
36,192,65610,1,2,0:0:0:0:
109,192,65610,1,8,0:0:0:0:
329,192,65818,1,0,0:0:0:0:
182,192,66027,128,2,66443:0:0:0:0:
475,192,66027,1,0,0:0:0:0:
402,192,66443,1,2,0:0:0:0:
475,192,66443,1,8,0:0:0:0:
36,192,66652,128,2,67068:0:0:0:0:
182,192,66860,1,2,0:0:0:0:
256,192,67068,1,8,0:0:0:0:
475,192,67068,128,0,67485:0:0:0:0:
329,192,67277,1,2,0:0:0:0:
109,192,67485,1,4,0:0:0:0:
256,192,67485,128,8,67902:0:0:0:0:
402,192,67902,1,2,0:0:0:0:
36,192,68110,1,10,0:0:0:0:
182,192,68110,1,4,0:0:0:0:
256,192,68318,1,2,0:0:0:0:
329,192,68527,1,10,0:0:0:0:
475,192,68527,1,4,0:0:0:0:
256,192,68735,1,2,0:0:0:0:
36,192,68943,1,2,0:0:0:0:
109,192,68943,1,8,0:0:0:0:
256,192,69152,1,2,0:0:0:0:
402,192,69360,1,4,0:0:0:0:
475,192,69360,1,2,0:0:0:0:
109,192,69568,128,0,69985:0:0:0:0:
256,192,69777,1,10,0:0:0:0:
329,192,69985,128,0,70402:0:0:0:0:
182,192,70193,1,2,0:0:0:0:
475,192,70402,1,0,0:0:0:0:
36,192,70610,1,2,0:0:0:0:
109,192,70610,1,8,0:0:0:0:
256,192,70818,128,0,71235:0:0:0:0:
402,192,71027,1,2,0:0:0:0:
109,192,71235,1,0,0:0:0:0:
402,192,71443,1,2,0:0:0:0:
475,192,71443,1,8,0:0:0:0:
182,192,71652,128,0,72068:0:0:0:0:
36,192,71860,1,2,0:0:0:0:
329,192,72068,1,2,0:0:0:0:
36,192,72277,1,2,0:0:0:0:
109,192,72277,1,8,0:0:0:0:
402,192,72485,128,0,72902:0:0:0:0:
182,192,72693,1,2,0:0:0:0:
475,192,72902,1,0,0:0:0:0:
36,192,73110,1,2,0:0:0:0:
329,192,73110,128,8,73527:0:0:0:0:
256,192,73318,1,0,0:0:0:0:
182,192,73527,128,2,73943:0:0:0:0:
402,192,73735,1,0,0:0:0:0:
36,192,73943,1,2,0:0:0:0:
109,192,73943,1,8,0:0:0:0:
475,192,74152,128,0,74568:0:0:0:0:
256,192,74360,1,2,0:0:0:0:
329,192,74568,1,0,0:0:0:0:
182,192,74777,1,2,0:0:0:0:
402,192,74777,1,8,0:0:0:0:
36,192,74985,128,0,75402:0:0:0:0:
256,192,75193,1,2,0:0:0:0:
109,192,75402,1,2,0:0:0:0:
402,192,75610,1,2,0:0:0:0:
475,192,75610,1,8,0:0:0:0:
256,192,75818,1,0,0:0:0:0:
36,192,76027,1,2,0:0:0:0:
109,192,76027,1,4,0:0:0:0:
475,192,76235,1,0,0:0:0:0:
36,192,76443,1,2,0:0:0:0:
182,192,76443,1,8,0:0:0:0:
256,192,76652,128,0,77068:0:0:0:0:
402,192,76860,1,2,0:0:0:0:
109,192,77068,1,0,0:0:0:0:
329,192,77277,1,2,0:0:0:0:
475,192,77277,1,8,0:0:0:0:
36,192,77485,128,0,77902:0:0:0:0:
256,192,77693,1,2,0:0:0:0:
329,192,77902,1,2,0:0:0:0:
109,192,78110,1,2,0:0:0:0:
402,192,78110,128,8,78527:0:0:0:0:
256,192,78318,1,0,0:0:0:0:
182,192,78527,128,2,78943:0:0:0:0:
329,192,78735,1,0,0:0:0:0:
36,192,78943,1,2,0:0:0:0:
475,192,78943,1,8,0:0:0:0:
256,192,79152,1,0,0:0:0:0:
109,192,79360,1,2,0:0:0:0:
329,192,79360,128,0,79777:0:0:0:0:
36,192,79777,1,2,0:0:0:0:
402,192,79777,1,8,0:0:0:0:
256,192,79985,1,0,0:0:0:0:
475,192,80193,1,2,0:0:0:0:
36,192,80402,128,8,80818:0:0:0:0:
182,192,80402,1,0,0:0:0:0:
256,192,80610,1,2,0:0:0:0:
329,192,80818,1,12,0:0:0:0:
475,192,80818,128,2,81235:0:0:0:0:
109,192,81235,1,0,0:0:0:0:
256,192,81443,128,10,81860:0:0:0:0:
402,192,81443,1,4,0:0:0:0:
329,192,81652,1,2,0:0:0:0:
36,192,81860,1,10,0:0:0:0:
109,192,81860,1,4,0:0:0:0:
182,192,82068,1,2,0:0:0:0:
402,192,82277,1,2,0:0:0:0:
475,192,82277,1,8,0:0:0:0:
256,192,82485,1,2,0:0:0:0:
36,192,82693,1,2,0:0:0:0:
329,192,82693,1,4,0:0:0:0:
182,192,82902,1,0,0:0:0:0:
329,192,83110,1,0,0:0:0:0:
475,192,83318,128,0,83735:0:0:0:0:
36,192,83735,1,0,0:0:0:0:
109,192,84152,1,0,0:0:0:0:
329,192,84152,128,0,84568:0:0:0:0:
256,192,84568,1,0,0:0:0:0:
182,192,84985,128,0,85402:0:0:0:0:
402,192,84985,1,0,0:0:0:0:
475,192,85402,1,0,0:0:0:0:
36,192,85818,1,0,0:0:0:0:
109,192,85818,128,0,86443:0:0:0:0:
256,192,86443,128,0,87068:0:0:0:0:
329,192,87068,1,0,0:0:0:0:
109,192,87277,1,0,0:0:0:0:
402,192,87485,1,0,0:0:0:0:
