osu file format v14

[General]
AudioFilename: audio.mp3
AudioLeadIn: 0
PreviewTime: 3020
Countdown: 0
SampleSet: None
StackLeniency: 0.7
Mode: 3
LetterboxInBreaks: 0
SpecialStyle: 0
WidescreenStoryboard: 1

[Editor]
DistanceSpacing: 1
BeatDivisor: 6
GridSize: 32
TimelineZoom: 1.8

[Metadata]
Title:Bi
TitleUnicode:び
Artist:rissyuu feat. choko
ArtistUnicode:立秋 feat.ちょこ
Creator:Curiossity
Version:NOVICE
Source:SOUND VOLTEX VIVID WAVE
Tags:bee
BeatmapID:2663951
BeatmapSetID:964270

[Difficulty]
HPDrainRate:7
CircleSize:4
OverallDifficulty:7
ApproachRate:5
SliderMultiplier:1.4
SliderTickRate:1

[Events]
//Background and Video events
0,0,"bee.jpg",0,0
//Break Periods
//Storyboard Layer 0 (Background)
//Storyboard Layer 1 (Fail)
//Storyboard Layer 2 (Pass)
//Storyboard Layer 3 (Foreground)
//Storyboard Layer 4 (Overlay)
//Storyboard Sound Samples

[TimingPoints]
535,355.029585798817,4,1,0,50,1,0
5860,355.029585798817,4,1,0,50,1,0
8522,355.029585798817,4,1,0,50,1,0
11007,355.029585798817,4,1,0,50,1,0
33551,355.029585798817,4,1,0,50,1,0
34793,355.029585798817,4,1,0,50,1,0
36035,355.029585798817,4,1,0,50,1,0
38520,355.029585798817,4,1,0,50,1,0
39940,-100,4,1,0,50,0,1
50945,355.029585798817,4,1,0,50,1,0
67631,355.029585798817,4,1,0,50,1,0
68873,355.029585798817,4,1,0,50,1,0
69938,355.029585798817,4,1,0,50,1,0
70825,355.029585798817,4,1,0,50,1,0
71535,355.029585798817,4,1,0,50,1,0
72600,355.029585798817,4,1,0,50,1,0
75085,355.029585798817,4,1,0,50,1,0
76505,-100,4,1,0,50,0,1
87777,-100,4,1,0,50,0,0
99138,-100,4,1,0,50,0,1
110587,-100,4,1,0,50,0,0

[HitObjects]
64,192,535,128,0,1955:0:0:0:0:
448,192,1955,1,0,0:0:0:0:
448,192,2221,1,0,0:0:0:0:
448,192,2487,1,0,0:0:0:0:
448,192,2753,1,0,0:0:0:0:
448,192,3020,128,0,3375:0:0:0:0:
64,192,3375,1,0,0:0:0:0:
192,192,3552,1,0,0:0:0:0:
320,192,3730,1,0,0:0:0:0:
448,192,3907,1,0,0:0:0:0:
64,192,4085,128,0,4262:0:0:0:0:
320,192,4351,128,0,4706:0:0:0:0:
64,192,4795,1,0,0:0:0:0:
192,192,4972,1,0,0:0:0:0:
320,192,5150,1,0,0:0:0:0:
448,192,5327,1,0,0:0:0:0:
64,192,5505,128,0,5771:0:0:0:0:
192,192,5771,1,0,0:0:0:0:
448,192,5860,1,0,0:0:0:0:
320,192,6037,1,0,0:0:0:0:
192,192,6215,1,0,0:0:0:0:
64,192,6392,1,0,0:0:0:0:
448,192,6570,128,0,6747:0:0:0:0:
192,192,6836,128,0,7191:0:0:0:0:
448,192,7280,1,0,0:0:0:0:
320,192,7457,1,0,0:0:0:0:
192,192,7635,1,0,0:0:0:0:
64,192,7812,1,0,0:0:0:0:
448,192,7990,128,0,8167:0:0:0:0:
320,192,8256,128,0,8522:0:0:0:0:
64,192,8522,1,0,0:0:0:0:
192,192,8699,1,0,0:0:0:0:
320,192,8877,1,0,0:0:0:0:
448,192,9054,1,0,0:0:0:0:
64,192,9232,128,0,9409:0:0:0:0:
192,192,9498,128,0,9853:0:0:0:0:
448,192,9942,1,0,0:0:0:0:
320,192,10119,1,0,0:0:0:0:
192,192,10297,1,0,0:0:0:0:
64,192,10474,1,0,0:0:0:0:
448,192,10652,128,0,10918:0:0:0:0:
320,192,10918,1,0,0:0:0:0:
64,192,11007,1,0,0:0:0:0:
192,192,11184,1,0,0:0:0:0:
320,192,11362,1,0,0:0:0:0:
448,192,11539,1,0,0:0:0:0:
64,192,11717,128,0,11894:0:0:0:0:
192,192,11983,128,0,12338:0:0:0:0:
64,192,12427,1,0,0:0:0:0:
192,192,12604,1,0,0:0:0:0:
320,192,12782,1,0,0:0:0:0:
448,192,12959,1,0,0:0:0:0:
64,192,13137,128,0,13314:0:0:0:0:
192,192,13403,128,0,13847:0:0:0:0:
448,192,13847,128,0,14024:0:0:0:0:
192,192,14202,128,0,14379:0:0:0:0:
448,192,14557,128,0,14734:0:0:0:0:
192,192,14912,128,0,15089:0:0:0:0:
448,192,15267,128,0,15444:0:0:0:0:
192,192,15622,128,0,15799:0:0:0:0:
64,192,15977,128,0,16154:0:0:0:0:
320,192,16332,128,0,16509:0:0:0:0:
448,192,16687,128,0,16864:0:0:0:0:
192,192,17042,128,0,17220:0:0:0:0:
448,192,17397,128,0,17575:0:0:0:0:
192,192,17752,1,0,0:0:0:0:
320,192,17752,1,0,0:0:0:0:
64,192,18107,128,0,18285:0:0:0:0:
448,192,18107,1,0,0:0:0:0:
320,192,18462,128,0,18640:0:0:0:0:
64,192,18817,128,0,18995:0:0:0:0:
448,192,18817,1,0,0:0:0:0:
192,192,19172,128,0,19350:0:0:0:0:
64,192,19527,128,0,19705:0:0:0:0:
448,192,19527,1,0,0:0:0:0:
320,192,19882,128,0,20060:0:0:0:0:
192,192,20237,128,0,20415:0:0:0:0:
64,192,20237,1,0,0:0:0:0:
448,192,20592,128,0,20770:0:0:0:0:
64,192,20947,128,0,21125:0:0:0:0:
448,192,20947,1,0,0:0:0:0:
320,192,21302,128,0,21480:0:0:0:0:
192,192,21657,1,0,0:0:0:0:
320,192,21657,1,0,0:0:0:0:
192,192,22012,128,0,22367:0:0:0:0:
448,192,22367,128,0,23078:0:0:0:0:
64,192,22367,1,0,0:0:0:0:
192,192,23078,128,0,23788:0:0:0:0:
320,192,23788,128,0,24498:0:0:0:0:
448,192,23788,1,0,0:0:0:0:
192,192,24320,1,0,0:0:0:0:
64,192,24498,128,0,25208:0:0:0:0:
448,192,25208,128,0,25918:0:0:0:0:
192,192,25208,1,0,0:0:0:0:
320,192,25474,1,0,0:0:0:0:
192,192,25740,1,0,0:0:0:0:
64,192,25918,1,0,0:0:0:0:
192,192,26184,1,0,0:0:0:0:
320,192,26450,1,0,0:0:0:0:
448,192,26628,128,0,26983:0:0:0:0:
64,192,26628,1,0,0:0:0:0:
320,192,26983,128,0,27338:0:0:0:0:
192,192,27338,128,0,27693:0:0:0:0:
448,192,27338,1,0,0:0:0:0:
64,192,27693,128,0,28048:0:0:0:0:
448,192,28048,128,0,28403:0:0:0:0:
192,192,28048,1,0,0:0:0:0:
320,192,28403,128,0,28758:0:0:0:0:
192,192,28758,128,0,29113:0:0:0:0:
448,192,28758,1,0,0:0:0:0:
64,192,29113,128,0,29291:0:0:0:0:
320,192,29291,128,0,29468:0:0:0:0:
64,192,29468,128,0,29823:0:0:0:0:
448,192,29468,1,0,0:0:0:0:
192,192,29823,128,0,30178:0:0:0:0:
320,192,30178,128,0,30533:0:0:0:0:
64,192,30178,1,0,0:0:0:0:
448,192,30533,128,0,30888:0:0:0:0:
64,192,30888,128,0,31243:0:0:0:0:
320,192,30888,1,0,0:0:0:0:
192,192,31243,128,0,31598:0:0:0:0:
320,192,31598,128,0,31953:0:0:0:0:
64,192,31598,1,0,0:0:0:0:
448,192,31953,128,0,32131:0:0:0:0:
192,192,32131,128,0,32308:0:0:0:0:
64,192,32308,128,0,32663:0:0:0:0:
320,192,32308,1,0,0:0:0:0:
192,192,32663,128,0,33018:0:0:0:0:
320,192,33018,128,0,33373:0:0:0:0:
448,192,33373,128,0,33551:0:0:0:0:
192,192,33551,128,0,33906:0:0:0:0:
64,192,33551,1,0,0:0:0:0:
320,192,33906,128,0,34261:0:0:0:0:
448,192,34261,128,0,34616:0:0:0:0:
64,192,34616,128,0,34793:0:0:0:0:
448,192,34793,128,0,35148:0:0:0:0:
192,192,34793,1,0,0:0:0:0:
320,192,35148,128,0,35503:0:0:0:0:
192,192,35503,128,0,35858:0:0:0:0:
64,192,35858,128,0,36035:0:0:0:0:
320,192,36035,128,0,36390:0:0:0:0:
448,192,36035,1,0,0:0:0:0:
192,192,36390,128,0,36745:0:0:0:0:
448,192,36745,128,0,36922:0:0:0:0:
64,192,36745,1,0,0:0:0:0:
448,192,37100,128,0,37277:0:0:0:0:
64,192,37100,1,0,0:0:0:0:
448,192,37455,128,0,38342:0:0:0:0:
64,192,37455,1,0,0:0:0:0:
64,192,38520,1,0,0:0:0:0:
192,192,38786,1,0,0:0:0:0:
320,192,39052,1,0,0:0:0:0:
448,192,39318,1,0,0:0:0:0:
64,192,39585,1,0,0:0:0:0:
192,192,39762,1,0,0:0:0:0:
320,192,39940,1,0,0:0:0:0:
448,192,39940,1,0,0:0:0:0:
320,192,40206,1,0,0:0:0:0:
64,192,40472,1,0,0:0:0:0:
192,192,40472,1,0,0:0:0:0:
64,192,40738,1,0,0:0:0:0:
448,192,41005,1,0,0:0:0:0:
320,192,41005,1,0,0:0:0:0:
448,192,41271,1,0,0:0:0:0:
192,192,41537,1,0,0:0:0:0:
64,192,41537,1,0,0:0:0:0:
192,192,41804,1,0,0:0:0:0:
448,192,42070,1,0,0:0:0:0:
320,192,42070,1,0,0:0:0:0:
320,192,42336,1,0,0:0:0:0:
64,192,42336,1,0,0:0:0:0:
192,192,42602,1,0,0:0:0:0:
448,192,42602,1,0,0:0:0:0:
64,192,42780,1,0,0:0:0:0:
192,192,42780,1,0,0:0:0:0:
64,192,43046,1,0,0:0:0:0:
320,192,43312,1,0,0:0:0:0:
448,192,43312,1,0,0:0:0:0:
320,192,43579,1,0,0:0:0:0:
192,192,43845,1,0,0:0:0:0:
448,192,43845,1,0,0:0:0:0:
192,192,44111,1,0,0:0:0:0:
448,192,44377,1,0,0:0:0:0:
64,192,44377,1,0,0:0:0:0:
448,192,44644,1,0,0:0:0:0:
64,192,44910,1,0,0:0:0:0:
192,192,44910,1,0,0:0:0:0:
192,192,45176,1,0,0:0:0:0:
448,192,45176,1,0,0:0:0:0:
320,192,45443,1,0,0:0:0:0:
64,192,45443,1,0,0:0:0:0:
448,192,45620,1,0,0:0:0:0:
320,192,45620,1,0,0:0:0:0:
448,192,45886,1,0,0:0:0:0:
192,192,46153,1,0,0:0:0:0:
64,192,46153,1,0,0:0:0:0:
192,192,46419,1,0,0:0:0:0:
320,192,46685,1,0,0:0:0:0:
64,192,46685,1,0,0:0:0:0:
320,192,46951,1,0,0:0:0:0:
64,192,47218,1,0,0:0:0:0:
448,192,47218,1,0,0:0:0:0:
64,192,47484,1,0,0:0:0:0:
448,192,47750,1,0,0:0:0:0:
320,192,47750,1,0,0:0:0:0:
320,192,48017,1,0,0:0:0:0:
64,192,48017,1,0,0:0:0:0:
192,192,48283,1,0,0:0:0:0:
448,192,48283,1,0,0:0:0:0:
64,192,48460,1,0,0:0:0:0:
192,192,48460,1,0,0:0:0:0:
320,192,48727,1,0,0:0:0:0:
192,192,48993,1,0,0:0:0:0:
448,192,49259,1,0,0:0:0:0:
192,192,49525,1,0,0:0:0:0:
320,192,49792,1,0,0:0:0:0:
64,192,50058,1,0,0:0:0:0:
320,192,50235,1,0,0:0:0:0:
192,192,50413,1,0,0:0:0:0:
448,192,50591,1,0,0:0:0:0:
64,192,50768,128,0,50945:0:0:0:0:
320,192,50945,1,0,0:0:0:0:
448,192,50945,128,0,53075:0:0:0:0:
320,192,51211,1,0,0:0:0:0:
64,192,51477,1,0,0:0:0:0:
192,192,51477,1,0,0:0:0:0:
64,192,51743,1,0,0:0:0:0:
192,192,52010,1,0,0:0:0:0:
320,192,52010,1,0,0:0:0:0:
192,192,52276,1,0,0:0:0:0:
320,192,52542,1,0,0:0:0:0:
64,192,52542,1,0,0:0:0:0:
320,192,52808,1,0,0:0:0:0:
192,192,53075,1,0,0:0:0:0:
64,192,53075,128,0,53341:0:0:0:0:
192,192,53341,128,0,53607:0:0:0:0:
320,192,53607,128,0,53785:0:0:0:0:
64,192,53785,128,0,54317:0:0:0:0:
448,192,53785,1,0,0:0:0:0:
448,192,54051,1,0,0:0:0:0:
192,192,54317,128,0,55915:0:0:0:0:
320,192,54317,1,0,0:0:0:0:
320,192,54584,1,0,0:0:0:0:
448,192,54850,1,0,0:0:0:0:
64,192,54850,1,0,0:0:0:0:
64,192,55116,1,0,0:0:0:0:
320,192,55382,1,0,0:0:0:0:
448,192,55382,1,0,0:0:0:0:
320,192,55649,1,0,0:0:0:0:
448,192,55915,128,0,56181:0:0:0:0:
64,192,55915,1,0,0:0:0:0:
320,192,56181,128,0,56447:0:0:0:0:
192,192,56447,128,0,56625:0:0:0:0:
64,192,56625,1,0,0:0:0:0:
64,192,56891,1,0,0:0:0:0:
320,192,57158,1,0,0:0:0:0:
64,192,57424,128,0,57601:0:0:0:0:
320,192,57424,1,0,0:0:0:0:
448,192,57690,128,0,57868:0:0:0:0:
64,192,57868,128,0,58045:0:0:0:0:
320,192,58045,1,0,0:0:0:0:
448,192,58045,128,0,58844:0:0:0:0:
320,192,58311,1,0,0:0:0:0:
192,192,58578,1,0,0:0:0:0:
64,192,58578,1,0,0:0:0:0:
64,192,58755,128,0,59021:0:0:0:0:
192,192,59021,128,0,59288:0:0:0:0:
320,192,59288,128,0,59465:0:0:0:0:
64,192,59465,1,0,0:0:0:0:
448,192,59465,1,0,0:0:0:0:
320,192,59731,1,0,0:0:0:0:
192,192,59998,1,0,0:0:0:0:
448,192,60264,1,0,0:0:0:0:
192,192,60530,1,0,0:0:0:0:
320,192,60708,1,0,0:0:0:0:
64,192,60885,1,0,0:0:0:0:
192,192,61004,1,0,0:0:0:0:
320,192,61122,1,0,0:0:0:0:
448,192,61240,1,0,0:0:0:0:
320,192,61359,1,0,0:0:0:0:
192,192,61477,1,0,0:0:0:0:
64,192,61595,128,0,61950:0:0:0:0:
448,192,61950,1,0,0:0:0:0:
192,192,62305,1,0,0:0:0:0:
64,192,62305,1,0,0:0:0:0:
64,192,62483,1,0,0:0:0:0:
448,192,62749,128,0,63016:0:0:0:0:
320,192,63016,128,0,63193:0:0:0:0:
192,192,63282,1,0,0:0:0:0:
64,192,63459,128,0,63726:0:0:0:0:
448,192,63726,1,0,0:0:0:0:
448,192,63903,1,0,0:0:0:0:
64,192,64169,128,0,64436:0:0:0:0:
192,192,64436,128,0,64613:0:0:0:0:
320,192,64702,1,0,0:0:0:0:
448,192,64879,128,0,65146:0:0:0:0:
64,192,65146,1,0,0:0:0:0:
192,192,65146,1,0,0:0:0:0:
64,192,65323,1,0,0:0:0:0:
448,192,65589,128,0,65856:0:0:0:0:
320,192,65856,128,0,66033:0:0:0:0:
192,192,66122,1,0,0:0:0:0:
64,192,66300,128,0,66566:0:0:0:0:
320,192,66566,1,0,0:0:0:0:
448,192,66566,1,0,0:0:0:0:
448,192,66743,1,0,0:0:0:0:
64,192,66921,1,0,0:0:0:0:
64,192,67098,1,0,0:0:0:0:
320,192,67276,1,0,0:0:0:0:
320,192,67453,1,0,0:0:0:0:
64,192,67631,1,0,0:0:0:0:
192,192,67631,1,0,0:0:0:0:
64,192,67897,1,0,0:0:0:0:
192,192,68163,1,0,0:0:0:0:
192,192,68429,1,0,0:0:0:0:
64,192,68696,1,0,0:0:0:0:
320,192,68873,1,0,0:0:0:0:
448,192,68873,1,0,0:0:0:0:
448,192,69139,1,0,0:0:0:0:
320,192,69405,1,0,0:0:0:0:
320,192,69671,1,0,0:0:0:0:
64,192,69938,1,0,0:0:0:0:
192,192,69938,1,0,0:0:0:0:
64,192,70204,1,0,0:0:0:0:
64,192,70470,1,0,0:0:0:0:
192,192,70648,1,0,0:0:0:0:
320,192,70825,1,0,0:0:0:0:
448,192,70825,1,0,0:0:0:0:
448,192,71091,1,0,0:0:0:0:
320,192,71357,1,0,0:0:0:0:
192,192,71535,1,0,0:0:0:0:
64,192,71535,1,0,0:0:0:0:
64,192,71801,1,0,0:0:0:0:
320,192,71890,1,0,0:0:0:0:
448,192,71890,1,0,0:0:0:0:
192,192,72067,1,0,0:0:0:0:
320,192,72245,128,0,72600:0:0:0:0:
64,192,72600,1,0,0:0:0:0:
192,192,72718,1,0,0:0:0:0:
320,192,72836,1,0,0:0:0:0:
448,192,72955,1,0,0:0:0:0:
320,192,73073,1,0,0:0:0:0:
192,192,73191,1,0,0:0:0:0:
64,192,73310,1,0,0:0:0:0:
448,192,73428,1,0,0:0:0:0:
320,192,73546,1,0,0:0:0:0:
192,192,73665,1,0,0:0:0:0:
320,192,73783,1,0,0:0:0:0:
448,192,73901,1,0,0:0:0:0:
64,192,74020,128,0,75085:0:0:0:0:
320,192,75085,1,0,0:0:0:0:
320,192,75351,1,0,0:0:0:0:
320,192,75617,1,0,0:0:0:0:
320,192,75883,1,0,0:0:0:0:
192,192,76150,128,0,76505:0:0:0:0:
448,192,76505,1,0,0:0:0:0:
64,192,76505,128,0,78635:0:0:0:0:
448,192,76771,1,0,0:0:0:0:
192,192,77037,1,0,0:0:0:0:
320,192,77037,1,0,0:0:0:0:
192,192,77303,1,0,0:0:0:0:
320,192,77570,1,0,0:0:0:0:
448,192,77570,1,0,0:0:0:0:
320,192,77836,1,0,0:0:0:0:
192,192,78102,1,0,0:0:0:0:
448,192,78102,1,0,0:0:0:0:
192,192,78369,1,0,0:0:0:0:
448,192,78635,1,0,0:0:0:0:
320,192,78635,1,0,0:0:0:0:
64,192,78901,1,0,0:0:0:0:
192,192,78901,1,0,0:0:0:0:
448,192,79167,1,0,0:0:0:0:
320,192,79167,1,0,0:0:0:0:
448,192,79345,128,0,81475:0:0:0:0:
64,192,79345,1,0,0:0:0:0:
64,192,79611,1,0,0:0:0:0:
192,192,79877,1,0,0:0:0:0:
320,192,79877,1,0,0:0:0:0:
192,192,80144,1,0,0:0:0:0:
320,192,80410,1,0,0:0:0:0:
64,192,80410,1,0,0:0:0:0:
192,192,80676,1,0,0:0:0:0:
320,192,80942,1,0,0:0:0:0:
64,192,80942,1,0,0:0:0:0:
64,192,81209,1,0,0:0:0:0:
192,192,81475,1,0,0:0:0:0:
320,192,81475,1,0,0:0:0:0:
64,192,81741,1,0,0:0:0:0:
448,192,81741,1,0,0:0:0:0:
320,192,82008,1,0,0:0:0:0:
192,192,82008,1,0,0:0:0:0:
64,192,82185,128,0,84315:0:0:0:0:
448,192,82185,1,0,0:0:0:0:
448,192,82451,1,0,0:0:0:0:
320,192,82718,1,0,0:0:0:0:
192,192,82718,1,0,0:0:0:0:
192,192,82984,1,0,0:0:0:0:
320,192,83250,1,0,0:0:0:0:
448,192,83250,1,0,0:0:0:0:
448,192,83516,1,0,0:0:0:0:
320,192,83783,1,0,0:0:0:0:
192,192,83783,1,0,0:0:0:0:
320,192,84049,1,0,0:0:0:0:
192,192,84315,1,0,0:0:0:0:
448,192,84315,1,0,0:0:0:0:
64,192,84582,1,0,0:0:0:0:
320,192,84582,1,0,0:0:0:0:
448,192,84848,1,0,0:0:0:0:
192,192,84848,1,0,0:0:0:0:
448,192,85025,128,0,86445:0:0:0:0:
64,192,85025,1,0,0:0:0:0:
192,192,85203,1,0,0:0:0:0:
320,192,85380,1,0,0:0:0:0:
64,192,85558,1,0,0:0:0:0:
192,192,85735,1,0,0:0:0:0:
320,192,85913,1,0,0:0:0:0:
64,192,86090,1,0,0:0:0:0:
192,192,86268,1,0,0:0:0:0:
320,192,86445,1,0,0:0:0:0:
64,192,86623,5,0,0:0:0:0:
320,192,86800,1,0,0:0:0:0:
192,192,86978,1,0,0:0:0:0:
448,192,87156,1,0,0:0:0:0:
320,192,87511,128,0,87777:0:0:0:0:
192,192,87777,5,0,0:0:0:0:
64,192,87777,128,0,89996:0:0:0:0:
448,192,88043,1,0,0:0:0:0:
320,192,88132,1,0,0:0:0:0:
448,192,88398,1,0,0:0:0:0:
192,192,88398,1,0,0:0:0:0:
448,192,88664,1,0,0:0:0:0:
192,192,88931,1,0,0:0:0:0:
320,192,88931,1,0,0:0:0:0:
192,192,89197,1,0,0:0:0:0:
448,192,89463,1,0,0:0:0:0:
320,192,89463,1,0,0:0:0:0:
448,192,89729,1,0,0:0:0:0:
448,192,89996,128,0,90262:0:0:0:0:
192,192,89996,1,0,0:0:0:0:
320,192,90262,128,0,90528:0:0:0:0:
192,192,90528,128,0,90706:0:0:0:0:
448,192,90706,128,0,91238:0:0:0:0:
64,192,90706,1,0,0:0:0:0:
64,192,90972,1,0,0:0:0:0:
320,192,91238,128,0,92836:0:0:0:0:
192,192,91238,1,0,0:0:0:0:
192,192,91505,1,0,0:0:0:0:
448,192,91771,1,0,0:0:0:0:
64,192,91771,1,0,0:0:0:0:
448,192,92037,1,0,0:0:0:0:
64,192,92303,1,0,0:0:0:0:
192,192,92303,1,0,0:0:0:0:
192,192,92570,1,0,0:0:0:0:
64,192,92836,128,0,93102:0:0:0:0:
448,192,92836,1,0,0:0:0:0:
192,192,93102,128,0,93369:0:0:0:0:
320,192,93369,128,0,93546:0:0:0:0:
64,192,93546,128,0,94966:0:0:0:0:
448,192,93546,1,0,0:0:0:0:
448,192,93812,1,0,0:0:0:0:
192,192,94079,1,0,0:0:0:0:
320,192,94079,1,0,0:0:0:0:
192,192,94345,1,0,0:0:0:0:
320,192,94611,1,0,0:0:0:0:
448,192,94611,1,0,0:0:0:0:
320,192,94877,1,0,0:0:0:0:
448,192,94966,128,0,95499:0:0:0:0:
192,192,94966,1,0,0:0:0:0:
192,192,95232,1,0,0:0:0:0:
320,192,95499,128,0,95765:0:0:0:0:
64,192,95499,1,0,0:0:0:0:
192,192,95765,128,0,96031:0:0:0:0:
64,192,96031,128,0,96209:0:0:0:0:
448,192,96031,1,0,0:0:0:0:
320,192,96209,128,0,96386:0:0:0:0:
192,192,96386,1,0,0:0:0:0:
64,192,96386,1,0,0:0:0:0:
320,192,96653,1,0,0:0:0:0:
64,192,96919,1,0,0:0:0:0:
320,192,97185,1,0,0:0:0:0:
192,192,97451,1,0,0:0:0:0:
448,192,97629,1,0,0:0:0:0:
64,192,97806,128,0,98516:0:0:0:0:
448,192,98161,128,0,98516:0:0:0:0:
192,192,98516,1,0,0:0:0:0:
192,192,98694,1,0,0:0:0:0:
448,192,98871,128,0,99138:0:0:0:0:
192,192,99138,1,0,0:0:0:0:
64,192,99138,128,0,101357:0:0:0:0:
320,192,99404,128,0,99582:0:0:0:0:
448,192,99759,1,0,0:0:0:0:
192,192,99759,1,0,0:0:0:0:
448,192,100025,1,0,0:0:0:0:
192,192,100292,1,0,0:0:0:0:
320,192,100292,1,0,0:0:0:0:
192,192,100558,1,0,0:0:0:0:
320,192,100824,1,0,0:0:0:0:
448,192,100824,1,0,0:0:0:0:
320,192,101090,1,0,0:0:0:0:
448,192,101357,128,0,101623:0:0:0:0:
192,192,101357,1,0,0:0:0:0:
320,192,101623,128,0,101889:0:0:0:0:
192,192,101889,128,0,102067:0:0:0:0:
64,192,102067,1,0,0:0:0:0:
448,192,102067,128,0,102599:0:0:0:0:
64,192,102333,1,0,0:0:0:0:
320,192,102599,128,0,104197:0:0:0:0:
192,192,102599,1,0,0:0:0:0:
192,192,102866,1,0,0:0:0:0:
64,192,103132,1,0,0:0:0:0:
448,192,103132,1,0,0:0:0:0:
64,192,103398,1,0,0:0:0:0:
448,192,103664,1,0,0:0:0:0:
192,192,103664,1,0,0:0:0:0:
192,192,103931,1,0,0:0:0:0:
64,192,104197,128,0,104463:0:0:0:0:
448,192,104197,1,0,0:0:0:0:
192,192,104463,128,0,104729:0:0:0:0:
320,192,104729,128,0,104907:0:0:0:0:
64,192,104907,1,0,0:0:0:0:
448,192,104907,1,0,0:0:0:0:
192,192,105173,1,0,0:0:0:0:
320,192,105440,1,0,0:0:0:0:
448,192,105706,128,0,105972:0:0:0:0:
64,192,105972,128,0,106150:0:0:0:0:
448,192,106150,128,0,106327:0:0:0:0:
192,192,106327,1,0,0:0:0:0:
64,192,106327,128,0,106860:0:0:0:0:
448,192,106593,1,0,0:0:0:0:
192,192,106860,128,0,107037:0:0:0:0:
320,192,106860,1,0,0:0:0:0:
448,192,107037,128,0,107303:0:0:0:0:
64,192,107037,1,0,0:0:0:0:
320,192,107303,128,0,107570:0:0:0:0:
192,192,107570,128,0,107747:0:0:0:0:
64,192,107747,1,0,0:0:0:0:
448,192,107747,1,0,0:0:0:0:
320,192,108013,1,0,0:0:0:0:
192,192,108280,1,0,0:0:0:0:
320,192,108546,1,0,0:0:0:0:
64,192,108812,1,0,0:0:0:0:
448,192,108990,1,0,0:0:0:0:
64,192,109167,1,0,0:0:0:0:
192,192,109286,1,0,0:0:0:0:
320,192,109404,5,0,0:0:0:0:
448,192,109522,1,0,0:0:0:0:
320,192,109641,1,0,0:0:0:0:
192,192,109759,1,0,0:0:0:0:
64,192,109877,128,0,110232:0:0:0:0:
320,192,110232,1,0,0:0:0:0:
448,192,110587,128,0,111830:0:0:0:0:
64,192,111298,128,0,111830:0:0:0:0:
320,192,111830,1,0,0:0:0:0:
320,192,112096,1,0,0:0:0:0:
320,192,112363,1,0,0:0:0:0:
320,192,112629,1,0,0:0:0:0:
320,192,112895,1,0,0:0:0:0:
192,192,113073,128,0,113428:0:0:0:0:
64,192,113694,1,0,0:0:0:0:
448,192,113694,1,0,0:0:0:0:
