osu file format v14

[General]
AudioFilename: audio.mp3
AudioLeadIn: 0
PreviewTime: 13786
Countdown: 0
SampleSet: None
StackLeniency: 0.7
Mode: 0
LetterboxInBreaks: 0
EpilepsyWarning: 1
WidescreenStoryboard: 1

[Editor]
Bookmarks: 114515
DistanceSpacing: 1.7
BeatDivisor: 4
GridSize: 32
TimelineZoom: 1

[Metadata]
Title:KirigiriKirigiri JingJing
TitleUnicode:ギリギリギリギリジンジン ギリギリギリジンジンジン
Artist:riotoqll
ArtistUnicode:riotoqll
Creator:t3nt
Version:Kirigiri
Source:
Tags:danganronpa kirigiri
BeatmapID:2189230
BeatmapSetID:1047330

[Difficulty]
HPDrainRate:5
CircleSize:6
OverallDifficulty:6
ApproachRate:9
SliderMultiplier:1.4
SliderTickRate:1

[Events]
//Background and Video events
0,0,"kirigigigigi.png",0,0
Video,0,"KirigiriKirigiri JingJing♪.mp4"
//Break Periods
//Storyboard Layer 0 (Background)
//Storyboard Layer 1 (Fail)
//Storyboard Layer 2 (Pass)
//Storyboard Layer 3 (Foreground)
//Storyboard Layer 4 (Overlay)
//Storyboard Sound Samples

[TimingPoints]
13786.8940397351,397.350993377483,4,3,0,100,1,0
101998,-133.333333333333,4,3,0,100,0,0

[Colours]
Combo1 : 0,128,128
Combo2 : 0,0,255
Combo3 : 255,128,192
Combo4 : 192,192,192

[HitObjects]
78,152,13786,5,0,0:0:0:0:
96,187,13886,1,0,0:0:0:0:
127,211,13985,1,0,0:0:0:0:
164,223,14084,1,0,0:0:0:0:
207,216,14184,1,0,0:0:0:0:
240,184,14283,1,0,0:0:0:0:
277,151,14382,1,0,0:0:0:0:
296,132,14482,2,0,P|330:111|381:126,1,70
363,351,14978,5,0,0:0:0:0:
341,312,15078,1,0,0:0:0:0:
344,266,15177,1,0,0:0:0:0:
366,214,15276,1,0,0:0:0:0:
376,160,15376,1,0,0:0:0:0:
349,117,15475,1,0,0:0:0:0:
343,98,15574,2,0,L|281:91,1,35
265,146,15773,2,0,L|187:146,1,70
153,155,16071,5,0,0:0:0:0:
117,249,16270,5,0,0:0:0:0:
127,230,16369,1,0,0:0:0:0:
140,220,16469,1,0,0:0:0:0:
160,219,16568,1,0,0:0:0:0:
174,226,16667,1,0,0:0:0:0:
201,244,16767,6,0,L|209:163,1,70
230,153,17065,5,0,0:0:0:0:
271,145,17164,1,0,0:0:0:0:
309,157,17263,1,0,0:0:0:0:
334,184,17363,1,0,0:0:0:0:
331,224,17462,1,0,0:0:0:0:
290,257,17561,1,0,0:0:0:0:
258,302,17661,1,0,0:0:0:0:
264,350,17760,2,0,P|317:363|348:346,1,70
361,329,18058,5,0,0:0:0:0:
357,291,18157,1,0,0:0:0:0:
369,255,18257,1,0,0:0:0:0:
400,224,18356,1,0,0:0:0:0:
430,187,18455,1,0,0:0:0:0:
449,157,18555,2,0,L|380:144,1,70
282,189,18853,5,0,0:0:0:0:
265,212,18952,1,0,0:0:0:0:
248,245,19051,2,0,L|188:237,1,35
178,190,19250,1,0,0:0:0:0:
208,89,19349,6,0,L|282:78,1,70
291,132,19647,5,0,0:0:0:0:
305,156,19747,1,0,0:0:0:0:
322,178,19846,6,0,L|401:175,1,70
450,213,20144,5,0,0:0:0:0:
432,239,20243,1,0,0:0:0:0:
410,273,20343,2,0,L|356:273,1,35
270,237,20541,2,0,L|333:236,1,35
373,207,20740,5,0,0:0:0:0:
351,169,20839,1,0,0:0:0:0:
346,132,20939,1,0,0:0:0:0:
355,101,21038,1,0,0:0:0:0:
362,78,21137,2,0,L|416:61,1,35
445,98,21336,5,0,0:0:0:0:
418,147,21435,1,0,0:0:0:0:
375,183,21535,1,0,0:0:0:0:
333,215,21634,1,0,0:0:0:0:
322,262,21733,1,0,0:0:0:0:
342,301,21833,1,0,0:0:0:0:
381,331,21932,1,0,0:0:0:0:
436,328,22031,1,0,0:0:0:0:
461,294,22131,1,0,0:0:0:0:
468,264,22230,6,0,L|468:200,1,35
398,159,22429,5,0,0:0:0:0:
383,169,22528,1,0,0:0:0:0:
370,173,22627,1,0,0:0:0:0:
343,175,22727,2,0,L|299:169,1,35
236,94,22925,1,0,0:0:0:0:
209,113,23025,1,0,0:0:0:0:
191,137,23124,1,0,0:0:0:0:
179,179,23223,1,0,0:0:0:0:
231,269,23323,5,0,0:0:0:0:
241,236,23422,1,0,0:0:0:0:
224,207,23521,1,0,0:0:0:0:
189,188,23621,1,0,0:0:0:0:
159,170,23720,6,0,L|156:98,1,70
244,77,24316,5,0,0:0:0:0:
286,73,24416,1,0,0:0:0:0:
322,84,24515,1,0,0:0:0:0:
342,110,24614,1,0,0:0:0:0:
337,135,24714,1,0,0:0:0:0:
322,158,24780,2,0,L|310:187,2,23.3333333333333
254,169,25012,5,0,0:0:0:0:
236,200,25111,1,0,0:0:0:0:
230,221,25210,1,0,0:0:0:0:
223,244,25310,1,0,0:0:0:0:
220,263,25409,1,0,0:0:0:0:
217,282,25508,1,0,0:0:0:0:
216,306,25608,1,0,0:0:0:0:
223,333,25707,1,0,0:0:0:0:
236,327,25773,1,0,0:0:0:0:
250,325,25839,1,0,0:0:0:0:
270,325,25906,1,0,0:0:0:0:
296,327,26005,1,0,0:0:0:0:
317,318,26104,1,0,0:0:0:0:
343,298,26171,5,0,0:0:0:0:
356,284,26237,2,0,P|353:217|366:187,1,93.3333333333333
485,192,26767,1,0,0:0:0:0:
363,189,27031,6,0,P|362:86|347:78,1,93.3333333333333
363,86,27594,5,0,0:0:0:0:
372,87,27694,1,0,0:0:0:0:
381,88,27793,1,0,0:0:0:0:
388,88,27892,1,0,0:0:0:0:
403,93,27992,2,0,L|425:30,1,35
463,55,28290,5,0,0:0:0:0:
475,77,28389,1,0,0:0:0:0:
457,94,28488,1,0,0:0:0:0:
416,102,28588,2,4,P|367:147|363:179,1,70
352,278,29184,5,0,0:0:0:0:
340,243,29283,1,0,0:0:0:0:
334,204,29382,1,0,0:0:0:0:
338,172,29482,1,0,0:0:0:0:
355,149,29581,2,4,B|410:84|414:82|430:121,1,105
434,187,30078,1,0,0:0:0:0:
384,262,30872,5,0,0:0:0:0:
392,217,30972,1,0,0:0:0:0:
388,179,31071,1,0,0:0:0:0:
373,145,31170,1,0,0:0:0:0:
349,110,31270,2,0,L|264:80,1,70
202,108,31568,5,4,0:0:0:0:
97,184,32462,6,0,L|168:176,1,70
237,176,32859,5,0,0:0:0:0:
255,130,32959,1,0,0:0:0:0:
248,98,33058,1,0,0:0:0:0:
219,65,33157,1,0,0:0:0:0:
186,40,33257,1,4,0:0:0:0:
121,74,33455,1,4,0:0:0:0:
116,179,34051,6,0,L|117:259,1,70
118,281,34349,1,0,0:0:0:0:
136,314,34449,1,0,0:0:0:0:
171,337,34548,1,0,0:0:0:0:
209,349,34647,1,0,0:0:0:0:
252,344,34747,1,4,0:0:0:0:
371,276,35045,6,4,L|375:171,1,105
346,151,35541,5,0,0:0:0:0:
311,142,35641,1,0,0:0:0:0:
266,146,35740,1,0,0:0:0:0:
227,152,35839,1,0,0:0:0:0:
191,169,35939,1,0,0:0:0:0:
164,179,36038,2,4,L|126:228,1,35
141,243,36237,5,0,0:0:0:0:
149,273,36336,1,0,0:0:0:0:
166,302,36435,1,0,0:0:0:0:
193,328,36535,1,0,0:0:0:0:
217,344,36634,1,0,0:0:0:0:
259,340,36733,2,0,L|286:255,1,70
356,267,37131,5,0,0:0:0:0:
333,235,37230,1,0,0:0:0:0:
330,199,37329,1,0,0:0:0:0:
341,173,37429,1,0,0:0:0:0:
380,155,37528,2,4,L|414:107,1,35
456,135,37826,1,0,0:0:0:0:
144,102,37925,5,0,0:0:0:0:
244,175,38124,1,0,0:0:0:0:
138,133,38323,5,0,0:0:0:0:
238,206,38521,1,0,0:0:0:0:
226,249,38720,5,0,0:0:0:0:
260,245,38820,1,0,0:0:0:0:
285,249,38919,1,0,0:0:0:0:
371,191,39118,1,0,0:0:0:0:
306,139,39316,5,0,0:0:0:0:
282,125,39416,1,0,0:0:0:0:
254,116,39515,1,0,0:0:0:0:
221,118,39614,1,4,0:0:0:0:
190,199,40210,5,0,0:0:0:0:
173,224,40310,1,0,0:0:0:0:
164,248,40409,1,0,0:0:0:0:
165,290,40508,1,4,0:0:0:0:
176,321,40608,2,0,L|241:335,1,35
266,333,40806,6,0,L|295:244,1,70
294,229,41104,1,2,0:0:0:0:
299,192,41204,1,2,0:0:0:0:
296,151,41303,1,2,0:0:0:0:
270,108,41402,1,2,0:0:0:0:
258,88,41502,6,0,L|316:59,1,35
412,101,41800,2,0,L|370:109,1,35
303,150,42098,5,0,0:0:0:0:
313,179,42197,1,0,0:0:0:0:
323,197,42296,1,0,0:0:0:0:
337,210,42396,1,0,0:0:0:0:
354,222,42495,1,0,0:0:0:0:
369,237,42793,1,0,0:0:0:0:
390,291,43190,6,0,L|398:234,1,35
480,251,43389,6,0,L|484:197,1,35
372,185,43588,5,0,0:0:0:0:
354,164,43687,1,0,0:0:0:0:
324,151,43787,1,0,0:0:0:0:
289,149,43886,1,0,0:0:0:0:
264,142,43985,6,4,L|194:140,1,70
149,130,44581,5,4,0:0:0:0:
108,114,44680,1,0,0:0:0:0:
123,78,44780,1,0,0:0:0:0:
156,68,44879,1,0,0:0:0:0:
188,82,44978,1,0,0:0:0:0:
215,110,45078,1,0,0:0:0:0:
218,143,45177,1,0,0:0:0:0:
204,175,45276,1,0,0:0:0:0:
201,197,45376,2,4,L|180:264,1,70
168,318,45674,5,0,0:0:0:0:
200,337,45773,1,0,0:0:0:0:
247,337,45872,1,0,0:0:0:0:
291,313,45972,1,4,0:0:0:0:
317,276,46071,5,0,0:0:0:0:
353,242,46170,1,4,0:0:0:0:
387,207,46270,1,0,0:0:0:0:
408,160,46369,1,0,0:0:0:0:
406,117,46469,1,4,0:0:0:0:
401,74,46568,2,0,L|365:74,1,35
320,82,46767,5,4,0:0:0:0:
288,84,46866,1,0,0:0:0:0:
250,92,46965,1,0,0:0:0:0:
219,103,47065,1,4,0:0:0:0:
199,241,47164,5,4,0:0:0:0:
189,209,47263,1,0,0:0:0:0:
198,179,47363,1,4,0:0:0:0:
227,162,47462,1,0,0:0:0:0:
267,155,47561,6,0,L|360:159,1,70
366,156,47859,1,4,0:0:0:0:
381,132,47959,1,4,0:0:0:0:
380,114,48058,1,4,0:0:0:0:
364,100,48157,1,4,0:0:0:0:
340,96,48257,1,4,0:0:0:0:
315,103,48356,1,4,0:0:0:0:
300,122,48455,1,4,0:0:0:0:
286,154,48555,6,0,L|202:197,1,70
207,151,48853,5,0,0:0:0:0:
220,126,48952,1,0,0:0:0:0:
226,92,49051,1,0,0:0:0:0:
209,69,49151,1,0,0:0:0:0:
163,39,49250,5,0,0:0:0:0:
87,55,49349,1,0,0:0:0:0:
37,114,49449,1,0,0:0:0:0:
49,188,49548,1,0,0:0:0:0:
98,238,49647,1,0,0:0:0:0:
156,277,49747,2,0,L|289:285,1,105
288,241,50144,1,0,0:0:0:0:
326,220,50343,5,0,0:0:0:0:
338,187,50442,1,0,0:0:0:0:
336,166,50541,1,0,0:0:0:0:
320,142,50641,1,0,0:0:0:0:
301,130,50740,1,0,0:0:0:0:
283,124,50839,1,0,0:0:0:0:
266,122,50939,1,0,0:0:0:0:
241,122,51038,6,0,P|246:62|262:57,1,70
256,266,51733,5,0,0:0:0:0:
266,231,51833,1,0,0:0:0:0:
276,213,51932,1,0,0:0:0:0:
291,206,52031,1,0,0:0:0:0:
330,207,52131,1,0,0:0:0:0:
359,234,52230,1,0,0:0:0:0:
391,266,52329,6,0,P|439:214|446:176,1,105
397,151,52826,5,0,0:0:0:0:
348,118,52925,1,0,0:0:0:0:
301,109,53025,1,0,0:0:0:0:
258,119,53124,1,0,0:0:0:0:
226,147,53223,1,0,0:0:0:0:
202,179,53323,2,0,L|178:251,1,70
159,285,53621,1,0,0:0:0:0:
195,278,53720,1,0,0:0:0:0:
235,280,53820,1,0,0:0:0:0:
277,298,53919,1,0,0:0:0:0:
298,309,54018,2,0,P|373:258|375:248,1,105
339,203,54416,1,0,0:0:0:0:
325,159,54515,1,0,0:0:0:0:
376,133,54614,5,0,0:0:0:0:
387,94,54714,1,0,0:0:0:0:
369,65,54813,1,0,0:0:0:0:
342,54,54912,1,0,0:0:0:0:
302,55,55012,2,0,L|212:80,1,70
162,112,55310,1,0,0:0:0:0:
168,163,55409,1,0,0:0:0:0:
181,187,55508,1,0,0:0:0:0:
207,212,55608,1,0,0:0:0:0:
237,243,55707,2,0,L|319:275,1,70
365,270,56005,5,0,0:0:0:0:
381,223,56104,1,0,0:0:0:0:
381,176,56204,1,0,0:0:0:0:
371,137,56303,1,0,0:0:0:0:
317,128,56402,5,0,0:0:0:0:
255,97,56502,1,0,0:0:0:0:
189,89,56601,1,0,0:0:0:0:
131,96,56700,6,0,P|63:160|84:233,1,175
153,267,58488,5,0,0:0:0:0:
214,122,58687,1,0,0:0:0:0:
261,272,58886,1,0,0:0:0:0:
126,180,59084,1,0,0:0:0:0:
304,189,59283,2,0,L|414:237,1,70
109,98,59680,1,0,0:0:0:0:
302,277,59879,1,0,0:0:0:0:
258,73,60078,1,0,0:0:0:0:
134,257,60276,1,0,0:0:0:0:
366,171,60475,1,0,0:0:0:0:
96,167,60674,1,0,0:0:0:0:
330,261,60872,6,0,L|344:357,1,70
127,130,61270,1,0,0:0:0:0:
205,297,61469,1,0,0:0:0:0:
255,142,61667,2,0,P|321:111|379:136,1,140
89,80,62263,5,0,0:0:0:0:
183,283,62462,1,0,0:0:0:0:
291,78,62661,1,0,0:0:0:0:
131,180,62859,1,0,0:0:0:0:
101,190,62958,1,0,0:0:0:0:
71,202,63058,1,0,0:0:0:0:
294,182,63257,6,0,P|379:162|441:179,1,140
336,312,63853,5,0,0:0:0:0:
501,237,64051,1,0,0:0:0:0:
309,224,64250,1,0,0:0:0:0:
435,312,64449,1,0,0:0:0:0:
456,342,64548,1,0,0:0:0:0:
471,370,64647,1,0,0:0:0:0:
421,196,64747,2,0,P|404:153|303:98,1,140
214,127,65343,5,0,0:0:0:0:
281,288,65541,1,0,0:0:0:0:
371,118,65740,1,0,0:0:0:0:
183,203,65939,1,0,0:0:0:0:
390,211,66137,1,0,0:0:0:0:
198,274,66336,5,0,0:0:0:0:
168,291,66435,1,0,0:0:0:0:
142,308,66535,1,0,0:0:0:0:
372,282,66734,5,0,0:0:0:0:
399,309,66833,1,0,0:0:0:0:
426,334,66933,1,0,0:0:0:0:
261,214,67131,5,0,0:0:0:0:
252,174,67230,1,0,0:0:0:0:
261,139,67329,1,0,0:0:0:0:
281,122,67429,1,0,0:0:0:0:
312,122,67528,2,0,L|356:121,1,35
364,140,67727,1,0,0:0:0:0:
386,165,67826,1,0,0:0:0:0:
381,183,67925,1,0,0:0:0:0:
364,202,68025,1,0,0:0:0:0:
353,219,68124,1,0,0:0:0:0:
346,239,68223,1,0,0:0:0:0:
341,266,68323,2,0,L|255:314,1,70
227,305,68621,5,0,0:0:0:0:
222,271,68720,1,0,0:0:0:0:
219,237,68820,1,0,0:0:0:0:
302,224,68919,5,0,0:0:0:0:
294,188,69018,1,0,0:0:0:0:
286,158,69118,1,0,0:0:0:0:
366,140,69217,5,0,0:0:0:0:
349,97,69316,1,0,0:0:0:0:
325,66,69416,1,0,0:0:0:0:
293,46,69515,1,0,0:0:0:0:
255,55,69614,2,0,L|176:94,1,70
109,250,70111,5,0,0:0:0:0:
113,229,70210,1,0,0:0:0:0:
151,220,70310,1,0,0:0:0:0:
149,202,70409,1,0,0:0:0:0:
148,182,70508,1,0,0:0:0:0:
152,166,70608,1,0,0:0:0:0:
164,150,70707,1,0,0:0:0:0:
209,143,70806,1,0,0:0:0:0:
211,113,70906,1,0,0:0:0:0:
221,90,71005,1,0,0:0:0:0:
243,73,71104,1,0,0:0:0:0:
278,69,71204,6,0,P|356:63|373:98,1,70
460,333,71601,5,0,0:0:0:0:
275,157,71800,1,6,0:0:0:0:
391,172,72197,5,0,0:0:0:0:
193,322,72396,1,0,0:0:0:0:
217,78,72594,1,0,0:0:0:0:
346,307,72793,1,0,0:0:0:0:
128,180,72992,1,0,0:0:0:0:
321,182,73190,2,0,B|408:141|440:172|486:206|512:147,1,210
151,37,73985,5,0,0:0:0:0:
238,253,74184,1,0,0:0:0:0:
304,34,74382,1,0,0:0:0:0:
182,150,74581,2,0,L|32:151,1,140
140,51,75177,1,0,0:0:0:0:
132,265,75376,1,0,0:0:0:0:
225,158,75574,1,0,0:0:0:0:
67,151,75773,2,0,P|48:79|67:49,1,70
87,81,76071,5,0,0:0:0:0:
110,68,76170,1,0,0:0:0:0:
134,65,76270,1,0,0:0:0:0:
156,71,76369,1,0,0:0:0:0:
176,81,76469,1,0,0:0:0:0:
194,119,76568,1,0,0:0:0:0:
214,147,76667,1,0,0:0:0:0:
232,154,76767,1,0,0:0:0:0:
264,154,76866,1,0,0:0:0:0:
280,140,76965,1,0,0:0:0:0:
300,118,77065,5,0,0:0:0:0:
313,91,77164,1,0,0:0:0:0:
331,75,77263,1,0,0:0:0:0:
369,70,77363,1,0,0:0:0:0:
117,68,77561,5,0,0:0:0:0:
267,284,77760,1,0,0:0:0:0:
326,164,77959,2,0,B|401:160|415:186|518:191,1,140
135,73,78555,5,0,0:0:0:0:
251,283,78753,1,0,0:0:0:0:
310,77,78952,1,0,0:0:0:0:
55,220,79151,1,0,0:0:0:0:
313,201,79349,2,0,P|405:146|430:92,1,140
92,89,79846,5,0,0:0:0:0:
107,115,79945,1,0,0:0:0:0:
134,145,80045,1,0,0:0:0:0:
163,158,80144,1,0,0:0:0:0:
204,154,80243,1,0,0:0:0:0:
218,138,80343,1,0,0:0:0:0:
233,114,80442,1,0,0:0:0:0:
245,106,80541,1,0,0:0:0:0:
268,96,80641,6,0,L|322:96,1,35
434,187,80839,6,0,L|380:183,1,35
206,277,81038,1,0,0:0:0:0:
151,234,81336,5,0,0:0:0:0:
169,208,81435,1,0,0:0:0:0:
177,185,81535,1,0,0:0:0:0:
167,170,81634,1,0,0:0:0:0:
163,145,81733,2,0,L|227:113,1,70
267,142,82031,5,0,0:0:0:0:
294,173,82131,1,0,0:0:0:0:
318,201,82230,1,0,0:0:0:0:
345,236,82329,2,0,L|399:202,1,35
466,216,82528,5,0,0:0:0:0:
449,196,82627,1,0,0:0:0:0:
427,176,82727,1,0,0:0:0:0:
415,153,82826,2,0,L|385:172,1,35
347,187,83025,5,0,0:0:0:0:
306,153,83124,1,0,0:0:0:0:
290,113,83223,1,0,0:0:0:0:
260,82,83323,1,0,0:0:0:0:
217,63,83422,1,0,0:0:0:0:
152,280,83521,1,0,0:0:0:0:
242,114,83720,5,0,0:0:0:0:
312,267,83919,1,0,0:0:0:0:
149,179,84118,1,0,0:0:0:0:
316,212,84316,2,0,L|441:211,1,70
212,100,84714,1,0,0:0:0:0:
238,306,84912,1,0,0:0:0:0:
380,58,85111,1,0,0:0:0:0:
382,98,85210,5,0,0:0:0:0:
394,140,85310,1,0,0:0:0:0:
416,177,85409,2,0,L|350:198,1,70
304,248,85806,2,0,P|289:194|295:170,1,70
284,49,86303,1,0,0:0:0:0:
217,182,86502,1,0,0:0:0:0:
359,129,86700,1,0,0:0:0:0:
202,119,86899,2,0,P|205:38|210:30,1,70
316,217,87296,1,0,0:0:0:0:
363,49,87495,1,0,0:0:0:0:
215,212,87694,1,0,0:0:0:0:
172,144,87992,5,0,0:0:0:0:
208,124,88091,1,0,0:0:0:0:
258,124,88190,1,0,0:0:0:0:
298,136,88290,1,0,0:0:0:0:
342,155,88389,1,4,0:0:0:0:
383,167,88488,1,4,0:0:0:0:
421,165,88588,1,4,0:0:0:0:
459,146,88687,1,4,0:0:0:0:
481,119,88786,1,0,0:0:0:0:
484,80,88886,1,0,0:0:0:0:
463,49,88985,1,0,0:0:0:0:
426,22,89084,2,0,L|367:27,1,35
281,105,89580,5,0,0:0:0:0:
283,144,89680,1,0,0:0:0:0:
338,127,89779,1,0,0:0:0:0:
397,125,89878,1,0,0:0:0:0:
451,126,89978,1,0,0:0:0:0:
453,187,90078,1,0,0:0:0:0:
404,154,90177,1,0,0:0:0:0:
345,156,90276,1,0,0:0:0:0:
287,192,90376,1,0,0:0:0:0:
264,222,90475,6,0,L|141:271,1,105
152,166,90972,5,0,0:0:0:0:
157,120,91071,1,0,0:0:0:0:
149,85,91170,1,0,0:0:0:0:
130,61,91270,1,0,0:0:0:0:
105,36,91369,1,0,0:0:0:0:
58,32,91469,1,0,0:0:0:0:
26,52,91568,1,0,0:0:0:0:
18,88,91667,1,0,0:0:0:0:
30,153,91767,2,0,L|112:163,1,70
170,160,92164,5,0,0:0:0:0:
203,134,92263,1,0,0:0:0:0:
248,122,92363,1,0,0:0:0:0:
293,126,92462,1,0,0:0:0:0:
331,166,92561,2,0,P|396:115|398:110,1,70
391,99,92859,5,0,0:0:0:0:
388,72,92959,1,0,0:0:0:0:
416,54,93058,1,0,0:0:0:0:
462,62,93157,1,0,0:0:0:0:
491,81,93257,1,0,0:0:0:0:
486,114,93356,1,0,0:0:0:0:
456,135,93455,1,0,0:0:0:0:
421,166,93555,1,0,0:0:0:0:
401,207,93654,1,0,0:0:0:0:
396,273,93853,6,0,L|401:229,1,35
336,229,94051,5,0,0:0:0:0:
311,192,94151,1,0,0:0:0:0:
280,157,94250,1,0,0:0:0:0:
243,133,94349,1,0,0:0:0:0:
206,113,94449,1,0,0:0:0:0:
159,104,94548,1,0,0:0:0:0:
106,106,94647,1,0,0:0:0:0:
71,113,94747,2,0,L|50:196,1,70
101,208,95045,1,0,0:0:0:0:
236,259,95839,5,0,0:0:0:0:
258,219,95939,1,0,0:0:0:0:
252,179,96038,1,0,0:0:0:0:
206,144,96137,1,0,0:0:0:0:
160,122,96237,1,0,0:0:0:0:
110,109,96336,1,0,0:0:0:0:
57,108,96435,1,0,0:0:0:0:
11,116,96535,2,0,L|11:219,1,70
104,258,97131,5,0,0:0:0:0:
131,217,97230,1,0,0:0:0:0:
130,178,97329,1,0,0:0:0:0:
115,144,97429,1,0,0:0:0:0:
97,97,97528,1,0,0:0:0:0:
107,55,97627,1,0,0:0:0:0:
138,42,97727,2,0,L|207:58,1,70
202,128,98124,1,0,0:0:0:0:
152,303,98919,6,0,L|169:222,1,70
250,241,99217,2,0,L|234:162,1,70
163,159,99515,1,0,0:0:0:0:
181,128,99614,1,0,0:0:0:0:
206,109,99714,1,0,0:0:0:0:
241,103,99813,1,0,0:0:0:0:
281,108,99912,1,0,0:0:0:0:
313,177,100012,5,0,0:0:0:0:
344,146,100111,1,0,0:0:0:0:
346,101,100210,1,0,0:0:0:0:
322,71,100310,1,0,0:0:0:0:
283,61,100409,1,0,0:0:0:0:
250,58,100508,1,0,0:0:0:0:
222,66,100608,1,0,0:0:0:0:
194,83,100707,2,0,L|181:123,1,35
138,144,100906,1,0,0:0:0:0:
151,187,101005,1,0,0:0:0:0:
180,218,101104,1,0,0:0:0:0:
209,237,101204,1,0,0:0:0:0:
237,243,101303,2,0,L|276:243,1,35
167,63,101998,6,2,P|113:125|135:242,1,210.000008010865
175,293,102992,5,0,0:0:0:0:
243,255,103190,1,0,0:0:0:0:
286,200,103389,1,0,0:0:0:0:
286,200,103588,2,2,P|365:137|379:138,1,105.000004005432
169,179,104482,2,0,L|168:120,2,52.5000020027161
347,334,105376,5,0,0:0:0:0:
356,320,105476,1,0,0:0:0:0:
359,305,105575,1,0,0:0:0:0:
233,294,105774,5,0,0:0:0:0:
223,279,105873,1,0,0:0:0:0:
219,265,105972,1,0,0:0:0:0:
335,255,106171,5,0,0:0:0:0:
201,220,106370,2,0,L|341:216,1,131.25000500679
344,175,107065,1,0,0:0:0:0:
359,136,107263,2,0,P|390:79|419:82,1,78.7500030040742
444,124,107959,5,0,0:0:0:0:
421,165,108058,1,0,0:0:0:0:
398,206,108157,1,0,0:0:0:0:
376,239,108257,1,0,0:0:0:0:
368,275,108356,1,0,0:0:0:0:
368,312,108455,1,0,0:0:0:0:
256,253,108654,5,0,0:0:0:0:
257,289,108753,1,0,0:0:0:0:
262,329,108952,2,0,L|342:328,1,78.7500030040742
413,331,109449,5,0,0:0:0:0:
414,277,109548,1,0,0:0:0:0:
410,227,109647,1,0,0:0:0:0:
373,182,109747,1,0,0:0:0:0:
318,155,109846,1,0,0:0:0:0:
279,141,109945,2,0,L|241:83,1,52.5000020027161
167,62,110243,1,0,0:0:0:0:
79,50,110343,1,0,0:0:0:0:
20,101,110442,1,0,0:0:0:0:
77,200,110541,5,0,0:0:0:0:
175,201,110740,1,0,0:0:0:0:
76,252,110939,5,0,0:0:0:0:
174,253,111138,1,0,0:0:0:0:
55,40,111336,5,0,0:0:0:0:
505,76,111535,1,0,0:0:0:0:
57,114,111734,5,0,0:0:0:0:
512,149,111933,1,0,0:0:0:0:
76,252,112131,6,0,L|74:188,1,52.5000020027161
406,149,112528,6,0,L|405:225,1,52.5000020027161
76,231,112925,5,0,0:0:0:0:
362,223,113124,1,0,0:0:0:0:
72,285,113323,5,0,0:0:0:0:
361,275,113522,1,0,0:0:0:0:
374,170,113720,6,4,L|329:97,1,78.7500030040742
303,64,114118,1,6,0:0:0:0:
318,24,114217,1,6,0:0:0:0:
229,37,114316,1,6,0:0:0:0:
195,45,114416,1,6,0:0:0:0:
200,384,114714,5,0,0:0:0:0:
171,41,114912,1,0,0:0:0:0:
404,353,115111,1,0,0:0:0:0:
62,134,115310,1,0,0:0:0:0:
483,165,115508,2,0,L|529:247,1,52.5000020027161
70,282,115906,2,0,L|45:182,1,52.5000020027161
449,41,116303,6,0,L|531:32,1,52.5000020027161
152,358,116700,2,0,L|72:364,1,52.5000020027161
57,211,117098,5,0,0:0:0:0:
478,384,117296,1,0,0:0:0:0:
262,89,117495,1,0,0:0:0:0:
103,351,117694,1,0,0:0:0:0:
454,222,117892,1,0,0:0:0:0:
198,313,118091,2,0,L|165:233,1,52.5000020027161
491,223,118488,2,0,L|522:302,1,52.5000020027161
332,0,118886,5,0,0:0:0:0:
115,371,119084,1,0,0:0:0:0:
482,355,119283,1,0,0:0:0:0:
72,157,119482,1,0,0:0:0:0:
341,195,119680,5,0,0:0:0:0:
357,153,119780,1,0,0:0:0:0:
349,126,119879,1,0,0:0:0:0:
325,108,119978,1,0,0:0:0:0:
302,98,120078,1,0,0:0:0:0:
266,88,120177,1,0,0:0:0:0:
221,99,120276,1,0,0:0:0:0:
59,181,120475,5,0,0:0:0:0:
259,122,120674,1,0,0:0:0:0:
495,167,120872,1,0,0:0:0:0:
88,375,121071,1,0,0:0:0:0:
512,240,121270,1,0,0:0:0:0:
63,66,121469,1,0,0:0:0:0:
433,384,121667,1,0,0:0:0:0:
415,2,121866,1,0,0:0:0:0:
43,137,122065,5,0,0:0:0:0:
512,172,122263,1,0,0:0:0:0:
512,7,122462,5,0,0:0:0:0:
118,354,122661,1,0,0:0:0:0:
477,304,122859,5,0,0:0:0:0:
99,286,123058,2,0,L|63:335,1,52.5000020027161
512,90,123455,5,0,0:0:0:0:
503,11,123654,5,0,0:0:0:0:
41,45,123853,5,0,0:0:0:0:
506,217,124051,1,0,0:0:0:0:
101,132,124250,5,0,0:0:0:0:
455,231,124449,2,0,L|467:318,1,52.5000020027161
325,153,124846,5,0,0:0:0:0:
0,264,125045,1,0,0:0:0:0:
352,308,125243,5,0,0:0:0:0:
69,36,125442,1,0,0:0:0:0:
512,384,125641,5,0,0:0:0:0:
81,187,125839,1,0,0:0:0:0:
456,71,126038,5,0,0:0:0:0:
79,329,126237,1,0,0:0:0:0:
241,17,126435,5,0,0:0:0:0:
494,250,126634,1,0,0:0:0:0:
220,239,126733,5,2,0:0:0:0:
232,207,126833,1,0,0:0:0:0:
236,170,126932,1,2,0:0:0:0:
227,136,127031,1,0,0:0:0:0:
215,107,127131,2,2,P|375:39|326:310,1,577.500022029878
312,283,129416,6,0,L|298:211,3,52.5000020027161
311,212,130310,2,0,P|333:130|298:87,1,131.25000500679
70,77,131104,5,0,0:0:0:0:
87,123,131204,1,0,0:0:0:0:
128,159,131303,1,0,0:0:0:0:
176,172,131402,1,0,0:0:0:0:
212,171,131502,1,0,0:0:0:0:
