osu file format v14

[General]
AudioFilename: audio.mp3
AudioLeadIn: 0
PreviewTime: 134386
Countdown: 0
SampleSet: Soft
StackLeniency: 0.7
Mode: 0
LetterboxInBreaks: 0
WidescreenStoryboard: 1

[Editor]
Bookmarks: 27046,60796,83873,117594,134504,168254,202407,221157,254907
DistanceSpacing: 1.5
BeatDivisor: 4
GridSize: 4
TimelineZoom: 2.5

[Metadata]
Title:Viator
TitleUnicode:ウィアートル
Artist:rionos
ArtistUnicode:rionos
Creator:Hey lululu
Version:Flower of Promise
Source:さよならの朝に約束の花をかざろう
Tags:riya Sayonara no Asa ni Yakusoku no Hana wo Kazarou Let's Decorate the Promised Flowers in the Farewell Morning japanese anime movie Garden bossandy lu^3
BeatmapID:1770021
BeatmapSetID:846302

[Difficulty]
HPDrainRate:4.5
CircleSize:4.5
OverallDifficulty:6
ApproachRate:8
SliderMultiplier:1.4
SliderTickRate:1

[Events]
//Background and Video events
0,0,"BG.jpg",0,0
//Break Periods
//Storyboard Layer 0 (Background)
//Storyboard Layer 1 (Fail)
//Storyboard Layer 2 (Pass)
//Storyboard Layer 3 (Foreground)
//Storyboard Layer 4 (Overlay)
//Storyboard Sound Samples

[TimingPoints]
380,967.741935483871,4,2,1,25,1,0
1347,937.5,4,2,1,25,1,0
2284,952.380952380952,4,2,1,25,1,0
9450,952.380952380952,4,2,1,25,1,0
13118,-100,4,2,1,5,0,0
13237,-100,4,2,1,25,0,0
14211,909.090909090909,4,2,1,25,1,0
14665,967.741935483871,4,2,1,25,1,0
17084,882.352941176471,4,2,1,25,1,0
17525,952.380952380952,4,2,1,25,1,0
22286,983.606557377049,4,2,1,25,1,0
23267,937.5,4,2,1,25,1,0
24204,949.742777997626,4,2,1,20,1,0
27079,937.5,4,2,1,25,1,0
60829,921.658986175115,6,2,1,25,1,0
60829,-100,6,2,1,30,0,0
61750,869.565217391304,6,2,1,30,1,0
62186,923.076923076923,6,2,1,30,1,0
64494,991.735537190083,6,2,1,30,1,0
64989,882.352941176471,6,2,1,30,1,0
65431,937.5,6,2,1,30,1,0
65900,916.030534351145,6,2,1,30,1,0
66359,923.076923076923,6,2,1,30,1,0
71435,944.88188976378,6,2,1,30,1,0
71907,909.090909090909,6,2,1,30,1,0
72816,921.658986175115,6,2,1,30,1,0
73277,966.183574879227,6,2,1,30,1,0
73760,872.093023255814,6,2,1,30,1,0
74195,886.262924667651,6,2,1,30,1,0
74638,909.090909090909,6,2,1,30,1,0
75547,952.380952380952,6,2,1,30,1,0
76025,937.5,6,2,1,30,1,0
76493,952.380952380952,6,2,1,30,1,0
76969,923.076923076923,6,2,1,30,1,0
77432,923.076923076923,6,2,1,30,1,0
78355,944.88188976378,6,2,1,30,1,0
78826,923.076923076923,6,2,1,30,1,0
83441,863.309352517986,6,2,1,30,1,0
83872,941.176470588235,4,2,1,30,1,0
83872,-76.9230769230769,4,2,1,30,0,0
84696,-76.9230769230769,4,2,1,5,0,0
84814,-66.6666666666667,4,2,1,30,0,0
85637,-66.6666666666667,4,2,1,5,0,0
85755,-58.8235294117647,4,2,1,30,0,0
86578,-58.8235294117647,4,2,1,5,0,0
86696,-52.6315789473684,4,2,1,30,0,0
87519,-52.6315789473684,4,2,1,5,0,0
87637,937.5,4,2,1,30,1,0
87637,-50,4,2,1,30,0,0
89512,983.606557377049,4,2,1,30,1,0
89512,-125,4,2,1,30,0,0
90495,891.530460624071,4,2,1,30,1,0
91387,937.5,4,2,1,30,1,0
91387,-100,4,2,1,30,0,0
98887,-76.9230769230769,4,2,1,30,0,0
99707,-76.9230769230769,4,2,1,5,0,0
99824,-66.6666666666667,4,2,1,30,0,0
100644,-66.6666666666667,4,2,1,5,0,0
100762,-58.8235294117647,4,2,1,30,0,0
101582,-58.8235294117647,4,2,1,5,0,0
101699,-52.6315789473684,4,2,1,30,0,0
102519,-52.6315789473684,4,2,1,5,0,0
102637,-50,4,2,1,30,0,0
104512,-83.3333333333333,4,2,1,30,0,0
110170,937.5,4,2,1,30,1,0
110170,-100,4,2,1,30,0,0
112513,888.888888888889,4,2,1,30,1,0
112958,937.5,4,2,1,30,1,0
114590,1071.42857142857,4,2,1,30,1,0
114857,909.090909090909,4,2,1,30,1,0
114857,-125,4,2,1,30,0,0
115766,964.630225080386,4,2,1,30,1,0
116732,937.5,4,2,1,30,1,0
116732,-200,4,2,1,30,0,0
117435,-200,4,2,1,5,0,0
117594,1016.94915254237,4,2,1,20,1,0
118546,952.380952380952,4,2,1,20,1,0
121403,923.076923076923,4,2,1,20,1,0
124656,923.076923076923,4,2,1,20,1,0
126502,875.912408759124,4,2,1,20,1,0
126941,1016.94915254237,4,2,1,20,1,0
127957,937.5,4,2,1,20,1,0
128894,930.232558139535,4,2,1,20,1,0
129359,-100,4,2,1,20,0,0
130754,952.380952380952,4,2,1,20,1,0
134087,845.070422535211,4,2,1,20,1,0
134512,937.5,4,2,1,30,1,0
164512,-166.666666666667,4,2,1,30,0,0
168027,-166.666666666667,4,2,1,5,0,0
168262,923.076923076923,6,2,1,30,1,0
168262,-50,6,2,1,30,0,0
195954,-66.6666666666667,6,2,1,20,0,0
196762,-66.6666666666667,6,2,1,5,0,0
196877,-66.6666666666667,6,2,1,30,0,0
198608,-66.6666666666667,6,2,1,5,0,0
198723,-66.6666666666667,6,2,1,20,0,0
199531,-66.6666666666667,6,2,1,5,0,0
199646,921.871398939848,6,2,1,30,1,0
199646,-66.6666666666667,6,2,1,30,0,0
202289,-66.6666666666667,6,2,1,5,0,0
202411,937.5,4,2,1,30,1,0
202411,-66.6666666666667,4,2,1,20,0,0
209927,937.5,4,2,1,20,1,0
211333,-66.6666666666667,4,2,1,20,0,0
213657,-66.6666666666667,4,2,1,25,0,0
218813,-133.333333333333,4,2,1,30,0,0
221161,-76.9230769230769,4,2,1,30,0,0
221981,-76.9230769230769,4,2,1,5,0,0
222098,-66.6666666666667,4,2,1,30,0,0
222918,-66.6666666666667,4,2,1,5,0,0
223036,-58.8235294117647,4,2,1,30,0,0
223856,-58.8235294117647,4,2,1,5,0,0
223973,-52.6315789473684,4,2,1,30,0,0
224793,-52.6315789473684,4,2,1,5,0,0
224911,-50,4,2,1,30,0,0
226786,-125,4,2,1,30,0,0
228661,-100,4,2,1,30,0,0
236161,-76.9230769230769,4,2,1,30,0,0
236981,-76.9230769230769,4,2,1,5,0,0
237098,-66.6666666666667,4,2,1,30,0,0
237918,-66.6666666666667,4,2,1,5,0,0
238036,-58.8235294117647,4,2,1,30,0,0
238856,-58.8235294117647,4,2,1,5,0,0
238973,-52.6315789473684,4,2,1,30,0,0
239793,-52.6315789473684,4,2,1,5,0,0
239911,-50,4,2,1,30,0,0
241786,-83.3333333333333,4,2,1,30,0,0
247411,-100,4,2,1,30,0,0
251866,937.5,4,2,1,30,1,0
252100,937.5,4,2,1,30,1,0
252100,-125,4,2,1,30,0,0
253973,-200,4,2,1,30,0,0
254793,-200,4,2,1,5,0,0
254911,-100,4,2,1,40,0,0
254912,937.5,4,2,1,40,1,0
260069,952.380952380952,4,2,1,40,1,0
262425,948.616600790514,4,2,1,30,1,0
263373,937.5,4,2,1,30,1,0
266171,967.741935483871,4,2,1,30,1,0
268106,895.522388059701,4,2,1,30,1,0
268553,-100,4,2,1,20,0,0
269001,983.606557377049,4,2,1,30,1,0
269001,-200,4,2,1,20,0,0
269984,1034.48275862069,4,2,1,30,1,0
269984,-200,4,2,1,20,0,0
271018,1111.11111111111,4,2,1,30,1,0
271018,-200,4,2,1,20,0,0
271573,1428.57142857143,4,2,1,30,1,0
273001,1153.84615384615,4,2,1,30,1,0
273001,-200,4,2,1,20,0,0
274154,1363.63636363636,4,2,1,30,1,0
274154,-200,4,2,1,20,0,0
274835,1318.68131868132,4,2,1,10,1,0
276153,1318.68131868132,4,2,1,20,1,0

[Colours]
Combo1 : 255,194,134
Combo2 : 163,152,153
Combo3 : 192,192,192

[HitObjects]
82,104,380,6,0,L|-8:117,2,70,0|0|2,0:0|0:0|0:0,0:0:0:0:
82,104,2284,1,2,0:0:0:0:
99,203,4189,2,0,L|14:196,1,70,0|2,0:0|0:0,0:0:0:0:
148,286,5141,2,0,L|217:280,1,70,0|2,0:0|0:0,0:0:0:0:
307,215,6094,2,0,B|389:196|354:252|456:227,1,140,0|2,0:0|0:0,0:0:0:0:
433,25,9450,6,0,P|455:36|482:67,1,35
404,98,9926,2,0,B|322:109|353:54|250:66,1,140,2|2,0:0|0:0,0:0:0:0:
152,123,12783,1,0,0:0:0:0:
152,123,13259,2,0,L|160:172,1,35
168,257,13735,2,0,P|132:270|94:262,1,70,2|0,0:0|0:0,0:0:0:0:
157,157,14665,2,0,P|219:166|266:225,1,140,2|0,0:0|0:0,0:0:0:0:
287,335,16116,5,2,0:0:0:0:
314,330,16600,1,0,0:0:0:0:
341,323,17084,1,2,0:0:0:0:
430,201,17525,1,2,0:0:0:0:
300,137,18001,1,0,0:0:0:0:
433,33,18477,2,0,L|512:22,1,70,2|0,0:0|0:0,0:0:0:0:
507,230,19429,6,0,P|460:276|364:257,1,140,2|0,0:0|0:0,0:0:0:0:
300,137,21334,1,2,0:0:0:0:
185,184,21810,2,0,L|146:179,2,35,2|0|2,0:0|0:0|0:0,0:0:0:0:
354,341,23267,1,0,0:0:0:0:
349,358,24204,1,2,0:0:0:0:
424,60,27079,5,2,0:0:0:0:
372,152,27547,1,0,0:0:0:0:
280,100,28016,2,0,P|248:112|208:112,1,70,2|0,0:0|0:0,0:0:0:0:
120,64,28954,5,2,0:0:0:0:
244,232,29891,1,2,0:0:0:0:
172,308,30360,2,0,L|124:300,1,35,0|0,0:0|0:0,0:0:0:0:
232,384,30829,2,0,L|323:368,1,70,2|0,0:0|0:0,0:0:0:0:
404,348,31766,6,0,B|420:314|404:281|404:281|387:247|404:214,1,140,2|0,0:0|0:0,0:0:0:0:
476,136,33172,1,0,0:0:0:0:
476,136,33407,1,0,0:0:0:0:
476,136,33641,1,2,0:0:0:0:
404,213,34110,1,2,0:0:0:0:
312,112,34579,6,0,P|276:112|244:128,1,70,2|0,0:0|0:0,0:0:0:0:
160,184,35516,2,0,P|124:184|92:168,1,70,2|0,0:0|0:0,0:0:0:0:
24,92,36454,1,0,0:0:0:0:
212,4,37391,1,2,0:0:0:0:
312,32,37860,2,0,L|376:20,1,35,0|0,0:0|0:0,0:0:0:0:
312,112,38329,6,0,L|384:96,1,70,2|0,0:0|0:0,0:0:0:0:
468,156,39266,2,0,P|484:208|424:296,1,140,2|2,0:0|0:0,0:0:0:0:
372,208,40672,1,2,0:0:0:0:
340,308,41141,1,2,0:0:0:0:
260,240,41610,1,2,0:0:0:0:
228,340,42079,6,0,P|192:344|160:332,1,70,2|0,0:0|0:0,0:0:0:0:
56,352,43016,2,0,L|80:240,1,105,2|0,0:0|0:0,0:0:0:0:
32,220,43954,2,0,P|24:184|32:144,1,70,2|0,0:0|0:0,0:0:0:0:
111,88,44891,2,0,P|119:54|114:19,1,70,2|0,0:0|0:0,0:0:0:0:
192,155,45829,6,0,P|184:189|189:224,1,70,2|0,0:0|0:0,0:0:0:0:
244,312,46766,2,0,P|294:323|346:316,1,105
388,288,47704,1,2,0:0:0:0:
472,352,48172,1,2,0:0:0:0:
488,248,48641,1,2,0:0:0:0:
504,144,49110,1,2,0:0:0:0:
408,188,49579,6,0,P|372:188|340:172,1,70,2|0,0:0|0:0,0:0:0:0:
276,92,50516,1,2,0:0:0:0:
232,188,50985,1,0,0:0:0:0:
156,115,51454,2,0,P|93:137|129:178,1,140,2|0,0:0|0:0,0:0:0:0:
232,188,52860,2,0,L|272:200,1,35,0|0,0:0|0:0,0:0:0:0:
316,216,53329,5,2,0:0:0:0:
276,312,53797,1,0,0:0:0:0:
180,352,54266,1,2,0:0:0:0:
84,304,54735,1,0,0:0:0:0:
84,304,56610,1,0,0:0:0:0:
44,208,57079,6,0,P|88:184|148:188,1,105,2|2,0:0|0:0,0:0:0:0:
164,228,58016,6,0,B|256:316|348:228|348:228|332:160|332:160|348:92|348:92|332:56|332:56|342:23,1,420,2|2,0:0|0:0,0:0:0:0:
494,41,61289,6,0,P|459:47|424:58,1,70,0|2,0:0|0:0,0:0:0:0:
334,154,62186,2,0,P|266:137|196:127,1,140,2|2,0:0|0:0,0:0:0:0:
83,47,63571,1,2,0:0:0:0:
108,112,64032,2,0,P|97:78|82:46,1,70,0|2,0:0|0:0,0:0:0:0:
84,202,64989,1,2,0:0:0:0:
16,218,65431,2,0,P|49:208|112:199,1,70,0|2,0:0|0:0,0:0:0:0:
211,318,66358,5,2,0:0:0:0:
107,299,66820,1,0,0:0:0:0:
180,225,67282,1,2,0:0:0:0:
224,335,67743,5,2,0:0:0:0:
120,316,68205,1,0,0:0:0:0:
193,242,68666,1,2,0:0:0:0:
134,312,69128,5,0,0:0:0:0:
214,326,69589,1,2,0:0:0:0:
190,254,70051,1,2,0:0:0:0:
138,322,70512,5,2,0:0:0:0:
218,336,70974,1,0,0:0:0:0:
194,264,71435,1,2,0:0:0:0:
303,332,71907,6,0,P|337:326|371:318,2,70,2|0|2,0:0|0:0|0:0,0:0:0:0:
512,361,73276,1,2,0:0:0:0:
449,299,73760,2,0,P|455:268|475:222,1,70,0|2,0:0|0:0,0:0:0:0:
390,110,74638,5,2,0:0:0:0:
512,187,75092,2,0,P|477:179|443:173,1,70,0|2,0:0|0:0,0:0:0:0:
328,169,76023,5,2,0:0:0:0:
403,41,76493,2,0,P|396:88|385:124,1,70,0|2,0:0|0:0,0:0:0:0:
270,113,77432,6,0,P|252:83|210:70,2,70,2|0|2,0:0|0:0|0:0,0:0:0:0:
100,165,78827,1,2,0:0:0:0:
201,231,79287,2,0,P|197:196|190:161,1,70,0|2,0:0|0:0,0:0:0:0:
286,269,80210,5,2,0:0:0:0:
220,332,80672,1,0,0:0:0:0:
137,296,81133,1,2,0:0:0:0:
143,310,81595,5,2,0:0:0:0:
226,346,82056,1,2,0:0:0:0:
292,283,82518,1,0,0:0:0:0:
201,231,82979,2,0,P|192:197|187:162,1,70,2|2,0:0|0:0,0:0:0:0:
101,120,83872,6,0,B|73:100|47:99|25:107|7:121|7:121|40:132|66:168,1,159.249992710114,2|0,0:0|0:0,0:0:0:0:
117,234,84814,6,0,B|92:251|79:290|79:290|64:269|55:243|55:214|77:182,1,183.750007009506,2|0,0:0|0:0,0:0:0:0:
145,231,85755,6,0,B|180:256|212:256|241:247|264:229|264:229|221:215|189:170,1,208.250003972054,2|0,0:0|0:0,0:0:0:0:
140,100,86696,6,0,B|176:76|191:28|191:28|211:54|222:86|221:122|193:161,1,232.749993784905,2|0,0:0|0:0,0:0:0:0:
146,347,87637,6,0,B|169:302|157:195|88:244|71:160|113:122|145:123|190:170|132:203,1,280,2|2,0:0|0:0,0:0:0:0:
146,347,89043,1,0,0:0:0:0:
137,199,89512,6,0,L|248:180,1,112,2|0,0:0|0:0,0:0:0:0:
322,103,91387,2,0,P|352:160|342:234,1,140,2|2,0:0|0:0,0:0:0:0:
247,180,92793,1,2,0:0:0:0:
316,260,93262,2,0,L|394:244,1,70,2|0,0:0|0:0,0:0:0:0:
485,225,94199,1,2,0:0:0:0:
485,225,95137,6,0,L|473:372,1,140,2|2,0:0|0:0,0:0:0:0:
352,335,96543,1,0,0:0:0:0:
352,335,96777,1,0,0:0:0:0:
352,335,97012,2,0,P|321:342|290:371,2,70,2|0|2,0:0|0:0|0:0,0:0:0:0:
473,364,98418,1,2,0:0:0:0:
347,69,98887,6,0,B|316:54|287:55|287:55|308:81|307:118|307:118|335:104|353:104,1,159.249992710114,2|0,0:0|0:0,0:0:0:0:
443,68,99824,6,0,B|476:51|508:52|508:52|485:81|486:121|486:121|456:106|436:106,1,183.750007009506,2|0,0:0|0:0,0:0:0:0:
334,106,100762,6,0,B|291:97|256:108|256:108|291:133|303:178|303:178|331:152|353:145,1,208.250003972054,2|0,0:0|0:0,0:0:0:0:
441,142,101699,6,0,B|486:132|525:145|525:145|487:172|474:220|474:220|443:192|419:185,1,232.749993784905,2|0,0:0|0:0,0:0:0:0:
382,281,102637,6,0,B|359:236|371:129|440:178|457:94|415:56|383:57|338:104|396:137,1,280,2|2,0:0|0:0,0:0:0:0:
382,281,104043,1,0,0:0:0:0:
390,133,104512,2,0,L|289:151,1,83.9999974365235,2|0,0:0|0:0,0:0:0:0:
196,124,105449,1,2,0:0:0:0:
196,124,106387,6,0,P|103:138|72:208,1,167.999994873047,2|0,0:0|0:0,0:0:0:0:
72,197,108262,1,2,0:0:0:0:
280,261,110170,5,2,0:0:0:0:
280,261,111107,2,0,L|354:269,1,70,0|2,0:0|0:0,0:0:0:0:
473,292,112045,2,0,P|489:329|482:375,1,70,0|2,0:0|0:0,0:0:0:0:
363,271,112958,2,0,P|348:230|353:187,1,70,0|2,0:0|0:0,0:0:0:0:
429,222,113895,6,0,P|464:218|494:189,1,70,2|0,0:0|0:0,0:0:0:0:
415,129,114590,1,0,0:0:0:0:
415,129,114857,2,0,B|344:115|375:156|290:136,1,112,2|2,0:0|0:0,0:0:0:0:
303,121,116732,6,0,L|311:185,1,52.5
320,244,117594,6,0,P|280:244|244:224,1,70,2|0,0:0|0:0,0:0:0:0:
176,204,118546,1,2,0:0:0:0:
112,258,119022,1,0,0:0:0:0:
256,52,120450,6,0,B|289:35|323:52|323:52|356:68|390:52,1,140,2|2,0:0|0:0,0:0:0:0:
256,264,122787,2,0,L|224:292,1,35
308,212,123249,1,2,0:0:0:0:
328,96,124656,6,0,L|428:68,1,70,2|2,0:0|0:0,0:0:0:0:
468,116,125579,1,2,0:0:0:0:
408,176,126040,2,0,P|400:210|404:260,1,70,0|2,0:0|0:0,0:0:0:0:
476,352,126941,6,0,P|407:365|337:359,1,140,2|2,0:0|0:0,0:0:0:0:
256,212,128894,1,2,0:0:0:0:
256,296,129359,2,0,L|236:328,1,35
174,359,129824,6,0,P|104:365|36:352,1,140,2|2,0:0|0:0,0:0:0:0:
116,204,131706,1,2,0:0:0:0:
396,204,134512,6,0,L|409:285,1,70,2|2,0:0|0:0,0:0:0:0:
422,363,135449,1,2,0:0:0:0:
422,363,136387,1,0,0:0:0:0:
355,328,136621,1,0,0:0:0:0:
367,256,136855,1,2,0:0:0:0:
438,245,137090,1,0,0:0:0:0:
471,310,137324,1,2,0:0:0:0:
471,310,137793,1,2,0:0:0:0:
301,272,138262,6,0,P|261:273|213:298,1,70,2|2,0:0|0:0,0:0:0:0:
144,332,138965,1,0,0:0:0:0:
144,332,139199,2,0,P|185:289|188:199,1,140,2|2,0:0|0:0,0:0:0:0:
195,212,140605,2,0,L|132:223,1,35,2|0,0:0|0:0,0:0:0:0:
64,102,141074,1,2,0:0:0:0:
162,123,141308,1,2,0:0:0:0:
257,147,141543,1,2,0:0:0:0:
257,147,142012,6,0,B|269:64|226:87|238:6,2,140,2|2|2,0:0|0:0|0:0,0:0:0:0:
257,147,144355,1,0,0:0:0:0:
364,123,144590,1,0,0:0:0:0:
471,97,144824,1,2,0:0:0:0:
471,97,145293,1,2,0:0:0:0:
376,42,145762,6,0,P|336:27|316:0,1,70,2|0,0:0|0:0,0:0:0:0:
449,9,146699,2,0,P|404:69|381:156,1,140,2|2,0:0|0:0,0:0:0:0:
505,114,148105,1,0,0:0:0:0:
486,265,148574,1,2,0:0:0:0:
486,265,149512,6,0,L|344:290,1,140,2|2,0:0|0:0,0:0:0:0:
348,289,151387,1,2,0:0:0:0:
428,263,151855,1,0,0:0:0:0:
402,184,152324,1,2,0:0:0:0:
323,210,152793,1,2,0:0:0:0:
185,316,153262,6,0,P|213:356|298:346,1,140,2|0,0:0|0:0,0:0:0:0:
208,232,155137,2,0,L|115:247,2,70,2|0|2,0:0|0:0|0:0,0:0:0:0:
303,216,156543,1,2,0:0:0:0:
303,216,157012,6,0,P|292:173|294:139,1,70,0|2,0:0|0:0,0:0:0:0:
208,84,157949,2,0,P|219:41|217:7,1,70,0|2,0:0|0:0,0:0:0:0:
74,116,158887,2,0,P|113:157|205:169,1,140,2|2,0:0|0:0,0:0:0:0:
292,147,160293,1,0,0:0:0:0:
328,285,160762,6,0,P|302:263|242:245,1,70,2|0,0:0|0:0,0:0:0:0:
185,373,161699,2,0,P|217:359|243:336,1,70,2|0,0:0|0:0,0:0:0:0:
192,171,162637,1,2,0:0:0:0:
192,171,164512,6,0,L|280:154,1,83.9999974365235,2|2,0:0|0:0,0:0:0:0:
274,155,166387,1,2,0:0:0:0:
260,17,167324,2,0,P|297:22|341:12,1,62.9999980773926,2|0,0:0|0:0,0:0:0:0:
380,54,168262,6,0,L|395:130,1,70,0|0,0:0|0:0,0:0:0:0:
495,149,168723,2,0,L|480:225,1,70,2|0,0:0|0:0,0:0:0:0:
381,271,169185,5,6,0:0:0:0:
381,271,169646,2,0,L|290:288,1,70,2|0,0:0|0:0,0:0:0:0:
207,304,170108,5,2,0:0:0:0:
207,304,170569,2,0,P|213:265|201:214,1,70,2|0,0:0|0:0,0:0:0:0:
117,157,171031,5,2,0:0:0:0:
117,157,171492,2,0,L|189:135,1,70,2|0,0:0|0:0,0:0:0:0:
295,103,171954,5,2,0:0:0:0:
295,103,172415,2,0,P|283:143|281:193,1,70,2|0,0:0|0:0,0:0:0:0:
355,249,172877,5,2,0:0:0:0:
355,249,173338,1,0,0:0:0:0:
418,132,173569,1,0,0:0:0:0:
258,116,173800,6,0,P|224:117|172:100,1,70,2|0,0:0|0:0,0:0:0:0:
99,157,174262,2,0,P|74:133|49:84,1,70,2|0,0:0|0:0,0:0:0:0:
166,4,174723,5,2,0:0:0:0:
152,108,174954,1,0,0:0:0:0:
201,200,175185,1,2,0:0:0:0:
189,304,175415,1,0,0:0:0:0:
95,351,175646,6,0,P|47:347|0:262,1,140,2|0,0:0|0:0,0:0:0:0:
108,217,176338,1,0,0:0:0:0:
189,304,176569,2,0,B|268:290|233:335|339:314,1,140,2|0,0:0|0:0,0:0:0:0:
402,213,177262,1,0,0:0:0:0:
320,161,177492,6,0,P|306:195|304:241,1,70,2|0,0:0|0:0,0:0:0:0:
364,315,177954,2,0,L|450:301,1,70,2|0,0:0|0:0,0:0:0:0:
507,209,178415,5,2,0:0:0:0:
402,213,178646,1,0,0:0:0:0:
364,315,178877,1,2,0:0:0:0:
259,319,179108,1,0,0:0:0:0:
194,182,179338,5,2,0:0:0:0:
194,182,179569,1,0,0:0:0:0:
293,150,179800,2,0,L|285:225,1,70,2|2,0:0|0:0,0:0:0:0:
179,94,180262,5,2,0:0:0:0:
179,94,180492,1,0,0:0:0:0:
80,62,180723,2,0,L|88:137,1,70,2|2,0:0|0:0,0:0:0:0:
234,27,181185,6,0,P|201:10|165:8,1,70,6|0,0:0|0:0,0:0:0:0:
34,188,181646,2,0,P|67:205|103:207,1,70,2|2,0:0|0:0,0:0:0:0:
169,140,182108,5,2,0:0:0:0:
185,243,182338,1,2,0:0:0:0:
272,123,182569,1,2,0:0:0:0:
288,226,182800,1,2,0:0:0:0:
372,152,183031,6,0,L|461:165,1,70,2|0,0:0|0:0,0:0:0:0:
359,25,183492,2,0,L|289:35,1,70,2|2,0:0|0:0,0:0:0:0:
185,37,183954,5,2,0:0:0:0:
169,140,184185,1,0,0:0:0:0:
82,20,184415,1,2,0:0:0:0:
66,123,184646,1,2,0:0:0:0:
244,108,184877,6,0,P|256:138|262:200,1,70,2|0,0:0|0:0,0:0:0:0:
249,300,185338,2,0,L|318:290,1,70,2|0,0:0|0:0,0:0:0:0:
453,272,185800,6,0,P|473:300|478:342,1,70,2|0,0:0|0:0,0:0:0:0:
409,384,186262,1,2,0:0:0:0:
335,288,186492,6,0,L|245:277,1,70,2|0,0:0|0:0,0:0:0:0:
170,337,186954,1,2,0:0:0:0:
102,250,187185,6,0,P|98:214|116:165,1,70,2|0,0:0|0:0,0:0:0:0:
204,140,187646,1,2,0:0:0:0:
109,18,188108,1,2,0:0:0:0:
109,18,188569,5,0,0:0:0:0:
109,18,188800,1,0,0:0:0:0:
109,18,189031,2,0,L|232:7,1,70,4|0,0:0|0:0,0:0:0:0:
303,5,189492,1,0,0:0:0:0:
247,123,189723,1,2,0:0:0:0:
372,135,189954,2,0,P|397:170|393:223,1,70,0|0,0:0|0:0,0:0:0:0:
439,315,190415,5,2,0:0:0:0:
335,298,190646,1,0,0:0:0:0:
303,197,190877,1,2,0:0:0:0:
199,214,191108,1,2,0:0:0:0:
110,158,191338,6,0,P|97:112|106:64,1,70,2|0,0:0|0:0,0:0:0:0:
199,214,191800,2,0,P|212:260|203:308,1,70,2|2,0:0|0:0,0:0:0:0:
115,363,192262,5,2,0:0:0:0:
13,339,192492,1,0,0:0:0:0:
5,234,192723,2,0,P|36:236|79:253,1,70,2|2,0:0|0:0,0:0:0:0:
163,302,193185,5,2,0:0:0:0:
163,302,193646,2,0,L|148:220,1,70,2|2,0:0|0:0,0:0:0:0:
126,113,194108,1,6,0:0:0:0:
126,113,194569,2,0,P|106:146|100:190,1,70,0|0,0:0|0:0,0:0:0:0:
116,285,195031,5,2,0:0:0:0:
217,167,195262,1,0,0:0:0:0:
308,301,195492,1,2,0:0:0:0:
188,245,195723,1,0,0:0:0:0:
307,179,195954,6,0,B|357:173|382:214|382:214|387:271|449:281,1,183.750007009506,2|0,0:0|0:0,0:0:0:0:
480,274,196877,2,0,B|540:239|525:155|450:140|450:140|407:106|402:31|424:2|461:2|500:34|484:78|447:75,1,393.750015020371,2|0,0:0|0:0,0:0:0:0:
347,106,198723,2,0,B|256:35|263:124|169:38,1,183.750007009506,2|0,0:0|0:0,0:0:0:0:
80,156,199646,2,0,B|32:145|-6:145|-64:214|13:326|43:239|123:307|123:307|154:214|230:263|232:156|203:108|118:92|91:166,1,603.750023031236,2|0,0:0|0:0,0:0:0:0:
196,320,202411,6,0,B|212:296|244:288|272:248|280:184,1,157.500006008148,2|0,0:0|0:0,0:0:0:0:
209,55,203348,2,0,B|221:80|212:112|233:156|284:195,1,157.500006008148,2|0,0:0|0:0,0:0:0:0:
431,198,204286,2,0,B|402:196|379:172|330:168|271:193,1,157.500006008148,2|0,0:0|0:0,0:0:0:0:
200,292,205223,6,0,P|132:298|169:236,1,157.500006008148,2|0,0:0|0:0,0:0:0:0:
182,382,206161,2,0,P|82:346|62:238,1,210.000008010865,2|2,0:0|0:0,0:0:0:0:
148,116,207567,1,0,0:0:0:0:
312,120,208036,6,0,B|344:128|368:120|368:120|420:92,1,105.000004005432,2|2,0:0|0:0,0:0:0:0:
224,112,208973,2,0,B|180:101|148:112|148:112|77:149,1,157.500006008148,2|0,0:0|0:0,0:0:0:0:
39,227,209927,5,2,0:0:0:0:
101,287,210395,1,2,0:0:0:0:
179,245,210864,1,0,0:0:0:0:
165,158,211333,2,0,L|152:92,1,52.5000020027161,2|0,0:0|0:0,0:0:0:0:
78,146,211802,5,2,0:0:0:0:
18,84,212270,1,0,0:0:0:0:
60,6,212739,1,2,0:0:0:0:
147,20,213208,2,0,L|220:32,1,52.5000020027161
159,107,213677,6,0,L|92:96,2,52.5000020027161,2|0|2,0:0|0:0|0:0,0:0:0:0:
353,277,214614,2,0,L|416:284,1,52.5000020027161,2|0,0:0|0:0,0:0:0:0:
460,340,215083,2,0,B|484:324|500:272|480:228|436:208|436:208|412:184|416:144,1,210.000008010865,2|0,0:0|0:0,0:0:0:0:
456,96,216255,1,0,0:0:0:0:
408,32,216489,6,0,L|332:40,1,52.5000020027161
320,108,216958,2,0,L|244:100,1,52.5000020027161,0|2,0:0|0:0,0:0:0:0:
140,132,217427,2,0,L|216:140,1,52.5000020027161
228,208,217895,2,0,L|304:200,1,52.5000020027161,2|0,0:0|0:0,0:0:0:0:
311,244,218364,2,0,L|266:182,1,52.5000020027161,2|0,0:0|0:0,0:0:0:0:
218,345,218833,6,0,L|280:201,1,157.500006008148,2|2,0:0|0:0,0:0:0:0:
102,284,221177,6,0,B|69:278|46:288|30:305|19:325|19:325|54:320|92:341,1,159.249992710114,2|0,0:0|0:0,0:0:0:0:
217,365,222114,6,0,B|255:372|281:361|302:342|315:320|315:320|274:324|231:297,1,183.750007009506,2|0,0:0|0:0,0:0:0:0:
102,284,223052,6,0,B|67:259|35:259|6:268|-17:286|-17:286|26:300|58:345,1,208.250003972054,2|0,0:0|0:0,0:0:0:0:
217,365,223989,6,0,B|261:381|296:373|325:354|344:328|344:328|294:326|246:286,1,232.749993784905,2|0,0:0|0:0,0:0:0:0:
146,347,224927,6,0,B|169:302|157:195|88:244|71:160|113:122|145:123|190:170|132:203,1,280,2|2,0:0|0:0,0:0:0:0:
147,190,226333,1,2,0:0:0:0:
147,190,226802,6,0,B|167:185|181:195|181:195|206:188|206:188|229:198|280:207,1,112,2|0,0:0|0:0,0:0:0:0:
338,245,228677,2,0,P|364:194|324:109,1,140,2|2,0:0|0:0,0:0:0:0:
246,76,230083,1,2,0:0:0:0:
340,17,230552,2,0,L|484:37,1,140,2|2,0:0|0:0,0:0:0:0:
506,189,231958,2,0,P|493:168|487:136,1,35,2|0,0:0|0:0,0:0:0:0:
410,111,232427,6,0,P|383:170|307:234,1,140,2|2,0:0|0:0,0:0:0:0:
184,98,233833,2,0,L|175:164,1,35
80,217,234302,2,0,P|48:203|8:205,1,70,0|2,0:0|0:0,0:0:0:0:
125,350,235239,2,0,P|156:336|197:338,1,70,0|2,0:0|0:0,0:0:0:0:
309,267,236177,6,0,B|274:268|249:282|249:282|280:295|296:329|296:329|314:303|330:295,1,159.249992710114,2|0,0:0|0:0,0:0:0:0:
446,281,237114,6,0,B|482:286|507:306|507:306|472:316|449:349|449:349|434:319|418:307,1,183.750007009506,2|0,0:0|0:0,0:0:0:0:
284,280,238052,6,0,B|247:304|230:336|230:336|272:329|312:352|312:352|314:314|325:294,1,208.250003972054,2|0,0:0|0:0,0:0:0:0:
468,279,238989,6,0,B|508:300|530:335|530:335|483:331|443:359|443:359|446:319|434:286,1,232.749993784905,2|0,0:0|0:0,0:0:0:0:
361,272,239927,6,0,B|338:227|350:120|419:169|436:85|394:47|362:48|317:95|375:128,1,280,2|2,0:0|0:0,0:0:0:0:
359,115,241333,1,2,0:0:0:0:
359,115,241802,2,0,B|333:124|316:112|316:112|293:119|276:140|276:140,1,83.9999974365235,2|0,0:0|0:0,0:0:0:0:
220,195,242739,1,2,0:0:0:0:
220,195,243677,6,0,P|205:152|131:84,1,125.999996154785,2|0,0:0|0:0,0:0:0:0:
234,33,244614,1,0,0:0:0:0:
26,175,245552,1,2,0:0:0:0:
26,175,247427,6,0,L|110:188,1,70,2|0,0:0|0:0,0:0:0:0:
153,282,248364,2,0,L|237:269,1,70,0|2,0:0|0:0,0:0:0:0:
312,201,249302,2,0,B|311:287|352:255|349:354,1,140,2|0,0:0|0:0,0:0:0:0:
348,333,250708,1,0,0:0:0:0:
484,359,251177,6,0,P|506:308|494:271,1,70,2|0,0:0|0:0,0:0:0:0:
459,226,251866,1,0,0:0:0:0:
459,226,252100,2,0,L|468:115,1,112,0|2,0:0|0:0,0:0:0:0:
367,22,253975,2,0,L|373:74,1,52.5
394,190,254912,6,0,P|347:169|290:175,1,105,2|0,0:0|0:0,0:0:0:0:
210,190,255850,2,0,P|219:138|251:98,1,105,2|0,0:0|0:0,0:0:0:0:
137,221,256787,2,0,P|167:263|214:285,1,105,2|0,0:0|0:0,0:0:0:0:
293,278,257725,5,2,0:0:0:0:
154,370,258194,1,2,0:0:0:0:
35,269,258662,6,0,P|40:225|33:192,2,70,2|2|0,0:0|0:0|0:0,0:0:0:0:
22,278,260069,1,2,0:0:0:0:
225,354,260545,1,2,0:0:0:0:
194,129,261021,1,0,0:0:0:0:
143,254,261497,1,2,0:0:0:0:
350,94,262425,6,0,P|326:64|309:22,1,70,2|0,0:0|0:0,0:0:0:0:
428,156,263373,2,0,P|464:124|487:52,1,105,2|0,0:0|0:0,0:0:0:0:
320,196,264310,2,0,P|251:180|213:139,1,105,2|0,0:0|0:0,0:0:0:0:
370,128,265248,5,2,0:0:0:0:
421,350,265716,1,0,0:0:0:0:
511,192,266171,2,0,B|444:180|481:224|395:209,1,105,2|0,0:0|0:0,0:0:0:0:
320,196,267138,5,2,0:0:0:0:
256,192,267259,12,0,268553,0:0:0:0:
133,154,269001,6,0,L|127:112,1,35,2|0,0:0|0:0,0:0:0:0:
61,57,269984,2,0,L|65:18,1,35,2|0,0:0|0:0,0:0:0:0:
157,13,271018,6,0,P|174:21|190:42,1,35,2|0,0:0|0:0,0:0:0:0:
239,100,273001,6,0,P|260:105|288:98,1,35,2|0,0:0|0:0,0:0:0:0:
346,57,274154,6,0,L|382:53,1,35,2|0,0:0|0:0,0:0:0:0:
380,53,276153,5,2,0:0:0:0:
