osu file format v14

[General]
AudioFilename: audio.mp3
AudioLeadIn: 0
PreviewTime: 28121
Countdown: 0
SampleSet: Soft
StackLeniency: 0.7
Mode: 0
LetterboxInBreaks: 0
WidescreenStoryboard: 0

[Editor]
Bookmarks: 236748
DistanceSpacing: 1
BeatDivisor: 4
GridSize: 32
TimelineZoom: 7.200001

[Metadata]
Title:Pocket o Fukuramasete
TitleUnicode:ポケットをふくらませて
Artist:rionos
ArtistUnicode:rionos
Creator:rosario wknd
Version:Stuffing my Pockets
Source:Summer Pockets
Tags:サマーポケッツ video game visual novel vn galgame japanese key visualarts grand true ending pop j-pop jpop グランドエンディング jun maeda 麻枝 准 bermei.inazawa
BeatmapID:2663672
BeatmapSetID:1282452

[Difficulty]
HPDrainRate:5
CircleSize:4
OverallDifficulty:5.5
ApproachRate:8
SliderMultiplier:1.5
SliderTickRate:1

[Events]
//Background and Video events
0,0,"umi.jpg",0,0
//Break Periods
2,203879,222706
//Storyboard Layer 0 (Background)
//Storyboard Layer 1 (Fail)
//Storyboard Layer 2 (Pass)
//Storyboard Layer 3 (Foreground)
//Storyboard Layer 4 (Overlay)
//Storyboard Sound Samples

[TimingPoints]
280,722.89156626506,4,2,2,15,1,0
660,722.89156626506,4,2,2,15,1,0
1040,722.89156626506,4,2,2,15,1,0
1040,-166.666666666667,4,2,2,15,0,0
3563,722.89156626506,4,2,2,15,1,0
3930,722.89156626506,4,2,2,15,1,0
3930,-166.666666666667,4,2,2,15,0,0
4984,722.89156626506,4,2,2,15,1,0
5345,-166.666666666667,4,2,2,15,0,0
6804,722.89156626506,4,2,2,15,1,0
7539,722.89156626506,4,2,2,15,1,0
7890,722.89156626506,4,2,2,15,1,0
9370,722.89156626506,4,2,2,15,1,0
9732,722.89156626506,4,2,2,15,1,0
9732,-166.666666666667,4,2,2,15,0,0
10087,722.89156626506,4,2,2,15,1,0
10436,722.89156626506,4,2,2,15,1,0
11520,722.89156626506,4,2,2,15,1,0
12616,722.89156626506,4,2,2,15,1,0
12616,-142.857142857143,4,2,2,15,0,0
13690,722.89156626506,4,2,2,15,1,0
14051,-142.857142857143,4,2,2,15,0,0
15104,722.89156626506,4,2,2,15,1,0
15104,-142.857142857143,4,2,2,15,0,0
16538,722.89156626506,4,2,2,15,1,0
16893,722.89156626506,4,2,2,15,1,0
16893,-142.857142857143,4,2,2,15,0,0
17616,722.89156626506,4,2,2,15,1,0
17616,-142.857142857143,4,2,2,15,0,0
18359,710.059171597633,4,2,2,15,1,0
18706,722.89156626506,4,2,2,15,1,0
19078,722.89156626506,4,2,2,15,1,0
19433,722.89156626506,4,2,2,15,1,0
19798,722.89156626506,4,2,2,15,1,0
20532,722.89156626506,4,2,2,15,1,0
20899,722.89156626506,4,2,2,15,1,0
21302,750,4,2,2,15,1,0
21669,722.89156626506,4,2,2,15,1,0
22095,722.89156626506,4,2,2,15,1,0
22550,722.89156626506,4,2,2,15,1,0
23109,722.89156626506,4,2,2,15,1,0
23109,-125,4,2,2,15,0,0
27627,-125,4,2,2,5,0,0
28217,571.428571428571,4,2,2,11,1,0
29676,594.059405940594,4,2,2,11,1,0
29676,-111.111111111111,4,2,2,11,0,0
31788,594.059405940594,4,2,2,11,1,0
32064,594.059405940594,4,2,2,15,1,0
32064,-111.111111111111,4,2,2,15,0,0
32973,571.428571428571,4,2,2,15,1,0
32973,-111.111111111111,4,2,2,15,0,0
34429,594.059405940594,4,2,2,15,1,0
34429,-111.111111111111,4,2,2,15,0,0
36508,-111.111111111111,4,2,2,15,0,0
37250,-111.111111111111,4,2,2,5,0,0
37399,-111.111111111111,4,2,2,15,0,0
37844,-111.111111111111,4,2,2,5,0,0
37993,-111.111111111111,4,2,2,15,0,0
38883,-100,4,2,2,20,0,0
41260,566.037735849057,4,2,2,25,1,0
41839,576.923076923077,4,2,2,25,1,0
42734,582.52427184466,4,2,2,25,1,0
43652,594.059405940594,4,2,2,20,1,0
46896,594.059405940594,4,2,2,20,1,0
48693,594.059405940594,4,2,2,25,1,0
48693,-90.9090909090909,4,2,2,25,0,0
50794,594.059405940594,4,2,2,25,1,0
50794,-90.9090909090909,4,2,2,25,0,0
51091,594.059405940594,4,2,2,25,1,0
52271,582.52427184466,4,2,2,25,1,0
52271,-90.9090909090909,4,2,2,25,0,0
53456,594.059405940594,4,2,2,25,1,0
53456,-90.9090909090909,4,2,2,25,0,0
54340,582.52427184466,4,2,2,25,1,0
54340,-90.9090909090909,4,2,2,25,0,0
57006,582.52427184466,4,2,2,25,1,0
57006,-90.9090909090909,4,2,2,25,0,0
57442,-90.9090909090909,4,2,2,5,0,0
57588,-90.9090909090909,4,2,2,25,0,0
58025,-90.9090909090909,4,2,2,5,0,0
58171,576.923076923077,4,2,2,25,1,0
59180,-90.9090909090909,4,2,2,5,0,0
59324,-100,4,2,2,25,0,0
59642,576.923076923077,4,2,2,25,1,0
60363,-90.9090909090909,4,2,2,5,0,0
60548,594.059405940594,4,2,2,25,1,0
62181,-90.9090909090909,4,2,2,5,0,0
62330,-100,4,2,2,25,0,0
62939,571.428571428571,4,2,1,30,1,0
67081,-100,4,2,1,5,0,0
67224,-100,4,2,1,30,0,0
75503,568.720379146919,4,2,1,30,1,0
75503,-100,4,2,1,30,0,0
77920,-100,4,2,1,5,0,0
78062,-100,4,2,1,30,0,0
80330,571.428571428571,4,2,1,30,1,0
81182,566.037735849057,4,2,1,30,1,0
81182,-100,4,2,1,30,0,0
85285,-100,4,2,1,5,0,0
85427,-100,4,2,1,30,0,0
88115,-100,4,2,1,5,0,0
88257,-100,4,2,1,30,0,0
90250,566.037735849057,4,2,1,30,1,0
90250,-100,4,2,1,30,0,0
91365,566.037735849057,4,2,1,30,1,0
91365,-100,4,2,1,30,0,0
93613,571.428571428571,4,2,1,30,1,0
96041,-100,4,2,1,5,0,0
96184,-100,4,2,1,30,0,0
97470,-100,4,2,1,5,0,0
97613,-100,4,2,1,30,0,0
98041,-100,4,2,1,5,0,0
98184,-100,4,2,1,30,0,0
98613,-100,4,2,1,5,0,0
98755,-100,4,2,1,30,0,0
99017,571.428571428571,4,2,1,50,1,0
99017,-76.9230769230769,4,2,1,50,0,0
99300,561.797752808989,4,2,1,50,1,0
99440,-76.9230769230769,4,2,1,5,0,0
99581,-76.9230769230769,4,2,1,50,0,0
101687,-76.9230769230769,4,2,1,5,0,0
101828,-76.9230769230769,4,2,1,50,0,0
107747,561.797752808989,4,2,1,50,1,0
107747,-100,4,2,1,50,0,0
108168,-76.9230769230769,4,2,1,5,0,0
108308,-76.9230769230769,4,2,1,50,0,0
111693,559.701492537313,4,2,1,50,1,0
111693,-76.9230769230769,4,2,1,50,0,0
115904,560.747663551402,4,2,1,50,1,0
115904,-100,4,2,1,40,0,0
116184,-90.9090909090909,4,2,1,40,0,0
117313,558.139534883721,4,2,3,40,1,0
117313,-100,4,2,3,30,0,0
121778,566.037735849057,4,2,3,30,1,0
125174,560.747663551402,4,2,3,30,1,0
129680,560.747663551402,4,2,3,30,1,0
129680,-100,4,2,3,30,0,0
131922,566.037735849057,4,2,3,40,1,0
135318,-100,4,2,3,35,0,0
136450,555.555555555556,4,2,3,35,1,0
140921,560.747663551402,4,2,3,35,1,0
143173,566.037735849057,4,2,3,35,1,0
143173,-100,4,2,3,35,0,0
143597,-100,4,2,3,5,0,0
143759,566.037735849057,4,2,3,35,1,0
144183,-100,4,2,3,5,0,0
144282,560.747663551402,4,2,3,40,1,0
148067,-100,4,2,3,5,0,0
148207,-100,4,2,3,40,0,0
148779,552.486187845304,4,2,1,40,1,0
148779,-83.3333333333333,4,2,1,45,0,0
149745,-83.3333333333333,4,2,1,5,0,0
149883,-83.3333333333333,4,2,1,45,0,0
151127,-83.3333333333333,4,2,1,5,0,0
151265,-83.3333333333333,4,2,1,45,0,0
151679,-83.3333333333333,4,2,1,5,0,0
151817,-83.3333333333333,4,2,1,45,0,0
152784,-83.3333333333333,4,2,1,5,0,0
152922,-83.3333333333333,4,2,1,45,0,0
154165,-83.3333333333333,4,2,1,5,0,0
154303,-83.3333333333333,4,2,1,45,0,0
155546,-83.3333333333333,4,2,1,5,0,0
155685,-83.3333333333333,4,2,1,45,0,0
156099,-83.3333333333333,4,2,1,5,0,0
156237,-83.3333333333333,4,2,1,45,0,0
157204,-83.3333333333333,4,2,1,5,0,0
157342,-83.3333333333333,4,2,1,45,0,0
157480,-83.3333333333333,4,2,1,5,0,0
157618,-83.3333333333333,4,2,1,45,0,0
161763,552.486187845304,4,2,1,45,1,0
161763,-83.3333333333333,4,2,1,45,0,0
162453,-83.3333333333333,4,2,1,5,0,0
162591,-83.3333333333333,4,2,1,45,0,0
163282,-83.3333333333333,4,2,1,5,0,0
163420,-83.3333333333333,4,2,1,45,0,0
165216,-83.3333333333333,4,2,1,5,0,0
165354,-83.3333333333333,4,2,1,45,0,0
165768,-83.3333333333333,4,2,1,5,0,0
165899,550.45871559633,4,2,1,45,1,0
166449,550.45871559633,4,2,1,45,1,0
166449,-83.3333333333333,4,2,1,45,0,0
167412,-83.3333333333333,4,2,1,5,0,0
167550,-83.3333333333333,4,2,1,45,0,0
168788,-83.3333333333333,4,2,1,5,0,0
168926,-83.3333333333333,4,2,1,45,0,0
169339,-83.3333333333333,4,2,1,5,0,0
169476,-83.3333333333333,4,2,1,45,0,0
170440,-83.3333333333333,4,2,1,5,0,0
170577,-83.3333333333333,4,2,1,45,0,0
173192,-83.3333333333333,4,2,1,5,0,0
173330,-83.3333333333333,4,2,1,45,0,0
173743,-83.3333333333333,4,2,1,5,0,0
173880,-83.3333333333333,4,2,1,45,0,0
174293,-83.3333333333333,4,2,1,5,0,0
174431,-83.3333333333333,4,2,1,45,0,0
177871,-83.3333333333333,4,2,1,5,0,0
178009,-83.3333333333333,4,2,1,45,0,0
180899,-83.3333333333333,4,2,1,5,0,0
181036,-83.3333333333333,4,2,1,45,0,0
183513,-76.9230769230769,4,2,1,45,0,0
183788,550.45871559633,4,2,1,45,1,0
183788,-71.4285714285714,4,2,1,60,0,0
184063,550.45871559633,4,2,1,45,1,0
184200,-71.4285714285714,4,2,1,5,0,0
184338,-71.4285714285714,4,2,1,60,0,0
186402,-71.4285714285714,4,2,1,5,0,0
186540,-71.4285714285714,4,2,1,60,0,0
192320,-90.9090909090909,4,2,1,60,0,0
192732,-90.9090909090909,4,2,1,5,0,0
192870,-71.4285714285714,4,2,1,60,0,0
199751,-83.3333333333333,4,2,1,40,0,0
201677,-83.3333333333333,4,2,1,20,0,0
203879,558.139534883721,4,2,2,15,1,0
223456,555.555555555556,4,2,2,30,1,0
223747,555.555555555556,4,2,2,35,1,0
224017,555.555555555556,4,2,2,35,1,0
225961,-111.111111111111,4,2,2,35,0,0
227893,555.555555555556,4,2,2,35,1,0
227893,-111.111111111111,4,2,2,35,0,0
228443,555.555555555556,4,2,2,35,1,0
230380,550.45871559633,4,2,2,35,1,0
230380,-111.111111111111,4,2,2,35,0,0
232857,555.555555555556,4,2,2,35,1,0
234794,550.45871559633,4,2,2,35,1,0
234794,-111.111111111111,4,2,2,35,0,0
237284,555.555555555556,4,2,2,35,1,0
237284,-111.111111111111,4,2,2,35,0,0
239528,555.555555555556,4,2,2,35,1,0
239528,-111.111111111111,4,2,2,35,0,0
243967,554.52865064695,4,2,1,35,1,0
243967,-71.4285714285714,4,2,1,45,0,0
244105,-71.4285714285714,4,2,1,5,0,0
244244,-71.4285714285714,4,2,1,45,0,0
244382,-71.4285714285714,4,2,1,5,0,0
244521,-71.4285714285714,4,2,1,45,0,0
246323,-71.4285714285714,4,2,1,5,0,0
246462,-71.4285714285714,4,2,1,45,0,0
247710,-71.4285714285714,4,2,1,5,0,0
247848,-71.4285714285714,4,2,1,45,0,0
247987,-71.4285714285714,4,2,1,5,0,0
248125,-71.4285714285714,4,2,1,45,0,0
248541,-71.4285714285714,4,2,1,5,0,0
248680,-71.4285714285714,4,2,1,45,0,0
248819,-71.4285714285714,4,2,1,5,0,0
248957,-71.4285714285714,4,2,1,45,0,0
250759,-71.4285714285714,4,2,1,5,0,0
250898,-71.4285714285714,4,2,1,45,0,0
252700,-71.4285714285714,4,2,1,5,0,0
252831,551.977920883165,4,2,1,45,1,0
252831,-71.4285714285714,4,2,1,45,0,0
252968,-71.4285714285714,4,2,1,5,0,0
253106,-71.4285714285714,4,2,1,45,0,0
253244,-71.4285714285714,4,2,1,5,0,0
253382,-71.4285714285714,4,2,1,45,0,0
255176,-71.4285714285714,4,2,1,5,0,0
255314,-71.4285714285714,4,2,1,45,0,0
256556,-71.4285714285714,4,2,1,5,0,0
256694,-71.4285714285714,4,2,1,45,0,0
256832,-71.4285714285714,4,2,1,5,0,0
256970,-71.4285714285714,4,2,1,45,0,0
257108,-71.4285714285714,4,2,1,5,0,0
257246,555.555555555556,4,2,1,45,1,0
257246,-66.6666666666667,4,2,1,45,0,0
257662,-71.4285714285714,4,2,1,5,0,0
257801,-66.6666666666667,4,2,1,45,0,0
258773,-66.6666666666667,4,2,1,5,0,0
258912,-66.6666666666667,4,2,1,45,0,0
259051,-66.6666666666667,4,2,1,5,0,0
259190,-66.6666666666667,4,2,1,45,0,0
260301,550.45871559633,4,2,1,45,1,0
260301,-66.6666666666667,4,2,1,45,0,0
260438,-66.6666666666667,4,2,1,5,0,0
260576,-66.6666666666667,4,2,1,45,0,0
260851,-66.6666666666667,4,2,1,45,0,0
261116,551.977920883165,4,2,1,45,1,0
261116,-66.6666666666667,4,2,1,45,0,0
261253,-66.6666666666667,4,2,1,5,0,0
261406,555.555555555556,4,2,1,45,1,0
261406,-58.8235294117647,4,2,1,55,0,0
261653,545.454545454546,4,2,1,55,1,0
261789,-58.8235294117647,4,2,1,5,0,0
261925,-58.8235294117647,4,2,1,55,0,0
262062,-58.8235294117647,4,2,1,5,0,0
262198,-58.8235294117647,4,2,1,55,0,0
262495,545.454545454546,4,2,1,55,1,0
262495,-58.8235294117647,4,2,1,55,0,0
262904,-58.8235294117647,4,2,1,5,0,0
263040,-58.8235294117647,4,2,1,55,0,0
263176,-58.8235294117647,4,2,1,5,0,0
263313,-58.8235294117647,4,2,1,55,0,0
263995,-58.8235294117647,4,2,1,5,0,0
264121,545.454545454546,4,2,1,55,1,0
264121,-58.8235294117647,4,2,1,55,0,0
264530,-58.8235294117647,4,2,1,5,0,0
264666,-58.8235294117647,4,2,1,55,0,0
264939,545.454545454546,4,2,1,55,1,0
265211,-58.8235294117647,4,2,1,55,0,0
266166,-58.8235294117647,4,2,1,5,0,0
266302,-58.8235294117647,4,2,1,55,0,0
266439,-58.8235294117647,4,2,1,5,0,0
266575,-58.8235294117647,4,2,1,55,0,0
266984,-58.8235294117647,4,2,1,5,0,0
267120,-58.8235294117647,4,2,1,55,0,0
268348,-58.8235294117647,4,2,1,5,0,0
268484,-58.8235294117647,4,2,1,55,0,0
268893,-58.8235294117647,4,2,1,5,0,0
269040,545.454545454546,4,2,1,55,1,0
269040,-58.8235294117647,4,2,1,55,0,0
269449,-58.8235294117647,4,2,1,5,0,0
269585,-58.8235294117647,4,2,1,55,0,0
269722,-58.8235294117647,4,2,1,5,0,0
269858,-58.8235294117647,4,2,1,55,0,0
270403,548.947849954254,4,2,1,55,1,0
270403,-58.8235294117647,4,2,1,55,0,0
270540,-58.8235294117647,4,2,1,5,0,0
270677,-58.8235294117647,4,2,1,55,0,0
270814,-58.8235294117647,4,2,1,5,0,0
270951,-58.8235294117647,4,2,1,55,0,0
271089,-58.8235294117647,4,2,1,5,0,0
271226,-58.8235294117647,4,2,1,55,0,0
271363,-58.8235294117647,4,2,1,5,0,0
271500,-58.8235294117647,4,2,1,55,0,0
271638,-58.8235294117647,4,2,1,5,0,0
271775,-58.8235294117647,4,2,1,55,0,0
271912,-58.8235294117647,4,2,1,5,0,0
272049,-58.8235294117647,4,2,1,55,0,0
272187,-58.8235294117647,4,2,1,5,0,0
272324,-58.8235294117647,4,2,1,55,0,0
272461,-58.8235294117647,4,2,1,5,0,0
272598,-58.8235294117647,4,2,1,55,0,0
272736,-58.8235294117647,4,2,1,5,0,0
272873,-58.8235294117647,4,2,1,55,0,0
273010,-58.8235294117647,4,2,1,5,0,0
273147,-58.8235294117647,4,2,1,55,0,0
273284,-58.8235294117647,4,2,1,5,0,0
273422,-58.8235294117647,4,2,1,55,0,0
273559,-58.8235294117647,4,2,1,5,0,0
273696,-58.8235294117647,4,2,1,55,0,0
273833,-58.8235294117647,4,2,1,5,0,0
273971,-58.8235294117647,4,2,1,55,0,0
274108,-58.8235294117647,4,2,1,5,0,0
274245,-58.8235294117647,4,2,1,55,0,0
274382,-58.8235294117647,4,2,1,5,0,0
274521,545.454545454546,4,2,1,55,1,0
274815,545.454545454546,4,2,1,55,1,0
274815,-58.8235294117647,4,2,1,55,0,0
275224,-58.8235294117647,4,2,1,5,0,0
275360,-58.8235294117647,4,2,1,55,0,0
275496,-58.8235294117647,4,2,1,5,0,0
275633,-58.8235294117647,4,2,1,55,0,0
276315,-58.8235294117647,4,2,1,5,0,0
276451,-58.8235294117647,4,2,1,55,0,0
277405,-58.8235294117647,4,2,1,5,0,0
277542,-58.8235294117647,4,2,1,55,0,0
277951,-58.8235294117647,4,2,1,5,0,0
278087,-58.8235294117647,4,2,1,55,0,0
278373,545.454545454546,4,2,1,55,1,0
278645,-58.8235294117647,4,2,1,55,0,0
279191,547.945205479452,4,2,1,55,1,0
279191,-55.5555555555556,4,2,1,55,0,0
280423,-55.5555555555556,4,2,1,5,0,0
280560,-55.5555555555556,4,2,1,55,0,0
280697,-55.5555555555556,4,2,1,5,0,0
280834,-55.5555555555556,4,2,1,55,0,0
281519,-55.5555555555556,4,2,1,5,0,0
281656,-55.5555555555556,4,2,1,55,0,0
281793,-55.5555555555556,4,2,1,5,0,0
281930,-55.5555555555556,4,2,1,55,0,0
282615,-55.5555555555556,4,2,1,5,0,0
282752,-55.5555555555556,4,2,1,55,0,0
283711,-55.5555555555556,4,2,1,5,0,0
283848,-55.5555555555556,4,2,1,55,0,0
283985,-55.5555555555556,4,2,1,5,0,0
284122,-55.5555555555556,4,2,1,55,0,0
284807,-55.5555555555556,4,2,1,5,0,0
284944,-55.5555555555556,4,2,1,55,0,0
285081,-55.5555555555556,4,2,1,5,0,0
285218,-55.5555555555556,4,2,1,55,0,0
285355,-55.5555555555556,4,2,1,5,0,0
285492,-55.5555555555556,4,2,1,55,0,0
285766,-55.5555555555556,4,2,1,60,0,0
286451,-55.5555555555556,4,2,1,5,0,0
286588,-55.5555555555556,4,2,1,55,0,0
287958,-52.6315789473684,4,2,1,50,0,0
288800,-55.5555555555556,4,2,1,50,0,0
290149,-55.5555555555556,4,2,1,50,0,0
290560,-55.5555555555556,4,2,1,5,0,0
290697,-55.5555555555556,4,2,1,50,0,0
293300,-55.5555555555556,4,2,1,5,0,0
293437,-55.5555555555556,4,2,1,50,0,0
293848,-55.5555555555556,4,2,1,5,0,0
293985,-55.5555555555556,4,2,1,50,0,0
295492,-55.5555555555556,4,2,1,5,0,0
295629,-55.5555555555556,4,2,1,50,0,0
296725,-52.6315789473684,4,2,1,70,0,1
297136,-52.6315789473684,4,2,1,5,0,1
297273,-52.6315789473684,4,2,1,70,0,1
298232,-52.6315789473684,4,2,1,5,0,1
298369,-52.6315789473684,4,2,1,70,0,1
298506,-52.6315789473684,4,2,1,5,0,1
298643,-52.6315789473684,4,2,1,70,0,1
299327,-52.6315789473684,4,2,1,5,0,1
299464,-52.6315789473684,4,2,1,70,0,1
300423,-52.6315789473684,4,2,1,5,0,1
300560,-52.6315789473684,4,2,1,70,0,1
300697,-52.6315789473684,4,2,1,5,0,1
300834,-52.6315789473684,4,2,1,70,0,1
300971,-52.6315789473684,4,2,1,5,0,1
301108,-52.6315789473684,4,2,1,70,0,1
301519,-52.6315789473684,4,2,1,5,0,1
301656,-52.6315789473684,4,2,1,70,0,1
302615,-52.6315789473684,4,2,1,5,0,1
302752,-52.6315789473684,4,2,1,70,0,1
304259,-52.6315789473684,4,2,1,5,0,1
304396,-52.6315789473684,4,2,1,70,0,1
305492,-52.6315789473684,4,2,1,70,0,1
305629,-52.6315789473684,4,2,1,5,0,1
305766,-52.6315789473684,4,2,1,70,0,1
305903,-52.6315789473684,4,2,1,5,0,1
306040,-52.6315789473684,4,2,1,70,0,1
306177,-52.6315789473684,4,2,1,5,0,1
306314,-52.6315789473684,4,2,1,70,0,1
306725,-52.6315789473684,4,2,1,5,0,1
306862,-52.6315789473684,4,2,1,70,0,1
307821,-52.6315789473684,4,2,1,5,0,1
307958,-52.6315789473684,4,2,1,70,0,1
309738,-52.6315789473684,4,2,1,5,0,1
309875,-52.6315789473684,4,2,1,70,0,1
311382,-52.6315789473684,4,2,1,5,0,1
311519,-52.6315789473684,4,2,1,70,0,1
313026,-52.6315789473684,4,2,1,5,0,1
313163,-52.6315789473684,4,2,1,70,0,1
313574,-52.6315789473684,4,2,1,5,0,1
313711,-52.6315789473684,4,2,1,70,0,1
313848,-52.6315789473684,4,2,1,5,0,1
313985,-52.6315789473684,4,2,1,70,0,1
314122,-52.6315789473684,4,2,1,5,0,1
314259,-50,4,2,1,80,0,1
315218,-50,4,2,1,5,0,1
315355,-50,4,2,1,80,0,1
315766,-50,4,2,1,5,0,1
315903,-50,4,2,1,80,0,1
317410,-50,4,2,1,5,0,1
317547,-50,4,2,1,80,0,1
317958,-50,4,2,1,5,0,1
318095,-50,4,2,1,80,0,1
318506,-50,4,2,1,5,0,1
318643,-50,4,2,1,80,0,1
319054,-50,4,2,1,5,0,1
319191,-50,4,2,1,80,0,1
320149,-50,4,2,1,5,0,1
320286,-50,4,2,1,80,0,1
321245,-50,4,2,1,5,0,1
321382,-50,4,2,1,80,0,1
321793,-50,4,2,1,5,0,1
321930,-50,4,2,1,80,0,1
322341,-50,4,2,1,5,0,1
322478,-50,4,2,1,80,0,1
323026,-55.5555555555556,4,2,1,70,0,1
324259,-55.5555555555556,4,2,1,5,0,1
324396,-55.5555555555556,4,2,1,70,0,1
325355,-55.5555555555556,4,2,1,5,0,1
325492,-55.5555555555556,4,2,1,70,0,1
325629,-55.5555555555556,4,2,1,5,0,1
325766,-55.5555555555556,4,2,1,70,0,1
326451,-55.5555555555556,4,2,1,5,0,1
326588,-55.5555555555556,4,2,1,70,0,1
327273,-55.5555555555556,4,2,1,5,0,1
327410,-55.5555555555556,4,2,1,70,0,1
327821,-55.5555555555556,4,2,1,5,0,1
327958,-55.5555555555556,4,2,1,70,0,1
328095,-55.5555555555556,4,2,1,5,0,1
328232,-55.5555555555556,4,2,1,70,0,1
328917,-55.5555555555556,4,2,1,5,0,1
329054,-55.5555555555556,4,2,1,70,0,1
329464,-55.5555555555556,4,2,1,5,0,1
329601,-55.5555555555556,4,2,1,70,0,1
331793,545.454545454546,4,2,1,40,1,0
331793,-71.4285714285714,4,2,1,40,0,0
333565,-71.4285714285714,4,2,1,5,0,0
333702,-71.4285714285714,4,2,1,40,0,0
334111,-71.4285714285714,4,2,1,5,0,0
334247,-71.4285714285714,4,2,1,40,0,0
335747,-71.4285714285714,4,2,1,5,0,0
335883,-71.4285714285714,4,2,1,40,0,0
336293,-71.4285714285714,4,2,1,5,0,0
336429,-71.4285714285714,4,2,1,40,0,0
337111,-71.4285714285714,4,2,1,5,0,0
337247,-71.4285714285714,4,2,1,40,0,0
338202,-71.4285714285714,4,2,1,5,0,0
338338,-71.4285714285714,4,2,1,40,0,0
342293,-71.4285714285714,4,2,1,5,0,0
342429,-71.4285714285714,4,2,1,40,0,0
342838,-71.4285714285714,4,2,1,5,0,0
342974,-71.4285714285714,4,2,1,40,0,0
344474,-71.4285714285714,4,2,1,5,0,0
344611,-71.4285714285714,4,2,1,40,0,0
345020,-71.4285714285714,4,2,1,5,0,0
345156,-71.4285714285714,4,2,1,40,0,0
345293,-71.4285714285714,4,2,1,5,0,0
345429,-71.4285714285714,4,2,1,40,0,0
345838,-71.4285714285714,4,2,1,5,0,0
345974,-71.4285714285714,4,2,1,40,0,0
346929,-71.4285714285714,4,2,1,5,0,0
347065,-71.4285714285714,4,2,1,40,0,0
349247,540.540540540541,4,2,1,40,1,0
349247,-83.3333333333333,4,2,1,30,0,0
355782,722.89156626506,4,2,1,20,1,0
363010,-83.3333333333333,4,2,2,5,0,0
366404,857.142857142857,4,2,2,10,1,0
367270,789.473684210526,4,2,2,10,1,0
367270,-200,4,2,2,10,0,0
368437,789.473684210526,4,2,2,10,1,0
368853,779.220779220779,4,2,2,10,1,0
368853,-200,4,2,2,10,0,0
369998,789.473684210526,4,2,2,10,1,0
370407,789.473684210526,4,2,2,10,1,0
370407,-200,4,2,2,10,0,0
371997,722.89156626506,4,2,2,10,1,0
371997,-200,4,2,2,10,0,0
372764,789.473684210526,4,2,2,10,1,0
372764,-200,4,2,2,10,0,0
373568,789.473684210526,4,2,2,10,1,0
374351,789.473684210526,4,2,2,10,1,0
374734,789.473684210526,4,2,2,10,1,0
375107,789.473684210526,4,2,2,10,1,0
375919,789.473684210526,4,2,2,10,1,0
376717,789.473684210526,4,2,2,10,1,0
377915,789.473684210526,4,2,2,10,1,0
379507,789.473684210526,4,2,2,10,1,0
379883,789.473684210526,4,2,2,10,1,0
379883,-200,4,2,2,10,0,0
381470,789.473684210526,4,2,2,10,1,0
381470,-200,4,2,2,10,0,0
383045,810.810810810811,4,2,2,10,1,0
383045,-200,4,2,2,10,0,0
384247,789.473684210526,4,2,2,10,1,0
384641,-200,4,2,2,10,0,0
385435,810.810810810811,4,2,2,10,1,0
385435,-200,4,2,2,10,0,0
386249,789.473684210526,4,2,2,10,1,0
387444,789.473684210526,4,2,2,10,1,0
387850,789.473684210526,4,2,2,10,1,0
388678,789.473684210526,4,2,2,10,1,0
389545,789.473684210526,4,2,2,10,1,0
389962,789.473684210526,4,2,2,10,1,0
390413,789.473684210526,4,2,2,10,1,0
390892,789.473684210526,4,2,2,10,1,0
391551,789.473684210526,4,2,2,10,1,0
391551,-166.666666666667,4,2,2,10,0,0
401814,-166.666666666667,4,2,2,5,0,0

[Colours]
Combo1 : 242,79,230
Combo2 : 83,117,253
Combo3 : 193,255,255
SliderBorder : 210,210,210

[HitObjects]
64,74,280,5,2,0:0:0:0:
134,28,660,1,2,0:0:0:0:
134,28,1040,6,0,L|145:76,2,44.999998626709,10|2|2,0:0|0:0|0:0,0:0:0:0:
214,29,2124,1,2,0:0:0:0:
214,29,2485,6,0,L|225:77,2,44.999998626709,10|2|2,0:0|0:0|0:0,0:0:0:0:
294,24,3563,1,2,0:0:0:0:
294,24,3930,6,0,L|305:72,2,44.999998626709,10|2|2,0:0|0:0|0:0,0:0:0:0:
374,24,4984,1,2,0:0:0:0:
374,24,5345,6,0,L|385:72,1,44.999998626709,10|2,0:0|0:0,0:0:0:0:
425,132,6068,2,0,L|414:180,1,44.999998626709,2|2,0:0|0:0,0:0:0:0:
476,242,6804,5,10,0:0:0:0:
476,242,7165,1,2,0:0:0:0:
420,294,7539,1,2,0:0:0:0:
420,294,7890,1,2,0:0:0:0:
354,255,8251,1,10,0:0:0:0:
354,255,8612,1,2,0:0:0:0:
287,292,8974,5,2,0:0:0:0:
219,255,9370,1,2,0:0:0:0:
288,214,9732,5,10,0:0:0:0:
288,214,10087,1,2,0:0:0:0:
354,177,10436,1,2,0:0:0:0:
283,133,10797,5,10,0:0:0:0:
226,72,11158,1,10,0:0:0:0:
266,0,11520,1,10,0:0:0:0:
346,18,11881,1,10,0:0:0:0:
353,101,12242,1,10,0:0:0:0:
283,133,12616,6,0,L|296:194,2,52.4999983978272,10|2|2,0:0|0:0|0:0,0:0:0:0:
212,150,13690,1,2,0:0:0:0:
212,150,14051,6,0,L|225:211,2,52.4999983978272,10|2|2,0:0|0:0|0:0,0:0:0:0:
137,176,15104,1,2,0:0:0:0:
137,176,15465,6,0,L|150:237,2,52.4999983978272,10|2|2,0:0|0:0|0:0,0:0:0:0:
63,201,16538,1,2,0:0:0:0:
63,201,16893,6,0,L|76:262,1,52.4999983978272,10|2,0:0|0:0,0:0:0:0:
134,301,17616,2,0,L|118:366,1,52.4999983978272,2|2,0:0|0:0,0:0:0:0:
203,375,18359,5,10,0:0:0:0:
203,375,18706,1,2,0:0:0:0:
277,339,19078,1,2,0:0:0:0:
277,339,19433,1,2,0:0:0:0:
354,365,19798,1,10,0:0:0:0:
354,365,20159,1,2,0:0:0:0:
424,322,20532,5,2,0:0:0:0:
408,243,20899,1,2,0:0:0:0:
313,226,21302,5,10,0:0:0:0:
313,226,21669,5,2,0:0:0:0:
261,165,22095,5,2,0:0:0:0:
311,109,22550,5,2,0:0:0:0:
311,109,23109,6,0,B|236:91|184:124|82:320|-21:109|-79:-5|179:10|225:-7|177:8|199:178|115:228|240:289|284:250|315:223|321:222|326:223|351:180|409:201|441:249,1,750,10|0,0:0|0:0,0:0:0:0:
217,311,28217,5,2,0:0:0:0:
160,261,28502,1,2,0:0:0:0:
189,193,28788,1,2,0:0:0:0:
263,199,29074,1,2,0:0:0:0:
280,271,29359,1,2,0:0:0:0:
24,190,29676,6,0,B|84:194|122:131|122:131|70:233|57:326|185:354|258:284|217:210|181:187,1,480,2|2,0:0|0:0,0:0:0:0:
68,56,32064,2,0,B|106:66|124:94|124:94|153:80|190:80,1,134.999995880127,2|0,0:0|0:0,0:0:0:0:
248,27,32973,5,2,0:0:0:0:
364,86,33258,1,2,0:0:0:0:
441,62,33544,1,2,0:0:0:0:
501,115,33830,1,2,0:0:0:0:
417,194,34115,1,2,0:0:0:0:
474,311,34429,6,0,B|489:271|520:238|520:238|428:311|326:304|326:304|388:329|428:371,1,404.999987640381,2|0,0:0|0:0,0:0:0:0:
331,217,36507,1,2,0:0:0:0:
331,217,36804,6,0,L|229:244,1,101.249996910095,2|0,0:0|0:0,0:0:0:0:
186,293,37398,2,0,P|121:273|74:262,1,101.249996910095,2|0,0:0|0:0,0:0:0:0:
44,212,37992,2,0,P|44:174|71:151,2,67.4999979400635,2|2|2,0:0|0:0|0:0,0:0:0:0:
177,357,38884,6,0,B|247:347|247:347|256:353|256:353|336:341,1,150,2|0,0:0|0:0,0:0:0:0:
404,234,39775,1,2,0:0:0:0:
289,93,40072,2,0,P|220:140|246:203,1,150,2|0,0:0|0:0,0:0:0:0:
353,282,40963,1,2,0:0:0:0:
411,96,41260,6,0,P|389:31|381:5,1,75,2|0,0:0|0:0,0:0:0:0:
486,170,41839,2,0,P|472:211|444:333,1,150,2|0,0:0|0:0,0:0:0:0:
346,364,42734,2,0,P|297:345|286:322,2,75,2|2|2,0:0|0:0|0:0,0:0:0:0:
446,314,43652,1,2,0:0:0:0:
227,131,43949,5,2,0:0:0:0:
276,196,44246,1,2,0:0:0:0:
188,196,44543,1,2,0:0:0:0:
310,127,44840,1,2,0:0:0:0:
112,253,45137,6,0,L|35:231,1,75,2|2,0:0|0:0,0:0:0:0:
167,337,45731,2,0,L|240:317,1,75,2|2,0:0|0:0,0:0:0:0:
349,207,46325,5,2,0:0:0:0:
308,134,46622,1,2,0:0:0:0:
265,205,46896,1,2,0:0:0:0:
391,137,47193,1,2,0:0:0:0:
255,64,47490,6,0,P|226:123|231:143,1,75,2|2,0:0|0:0,0:0:0:0:
436,206,48084,2,0,P|468:148|464:128,1,75,2|2,0:0|0:0,0:0:0:0:
396,4,48693,6,0,B|344:52|344:52|410:165,1,165.000005035401,2|0,0:0|0:0,0:0:0:0:
315,241,49584,1,2,0:0:0:0:
220,120,49881,2,0,L|130:103,2,82.5000025177003,2|2|0,0:0|0:0|0:0,0:0:0:0:
89,23,50794,6,0,P|43:22|18:123,2,165.000005035401,2|2|0,0:0|0:0|0:0,0:0:0:0:
167,272,52271,2,0,B|128:278|128:278|90:247,1,82.5000025177003,2|2,0:0|0:0,0:0:0:0:
125,149,52853,2,0,B|164:143|164:143|202:174,1,82.5000025177003,2|2,0:0|0:0,0:0:0:0:
302,358,53456,6,0,B|290:282|290:282|298:269|298:269|285:182,1,165.000005035401,2|0,0:0|0:0,0:0:0:0:
394,99,54340,1,2,0:0:0:0:
471,302,54631,2,0,P|432:289|380:280,1,82.5000025177003,2|2,0:0|0:0,0:0:0:0:
426,177,55213,2,0,P|465:190|517:199,1,82.5000025177003,2|2,0:0|0:0,0:0:0:0:
319,335,55796,6,0,B|252:312|246:350|235:390|128:348,1,165.000005035401,2|0,0:0|0:0,0:0:0:0:
66,270,56670,1,2,0:0:0:0:
158,136,57006,2,0,P|215:108|272:166,1,123.75000377655,2|0,0:0|0:0,0:0:0:0:
316,198,57588,2,0,P|381:217|422:178,1,123.75000377655,2|0,0:0|0:0,0:0:0:0:
473,112,58171,5,2,0:0:0:0:
359,301,58459,1,2,0:0:0:0:
239,227,58747,2,0,P|190:238|109:260,1,112.5,2|0,0:0|0:0,0:0:0:0:
73,174,59324,5,2,0:0:0:0:
272,304,59642,1,2,0:0:0:0:
90,384,59930,2,0,P|47:343|75:282,1,112.5,2|0,0:0|0:0,0:0:0:0:
105,234,60548,6,0,L|83:153,2,75,2|2|2,0:0|0:0|0:0,0:0:0:0:
266,100,61439,1,2,0:0:0:0:
266,100,61736,2,0,L|140:71,1,112.5,2|0,0:0|0:0,0:0:0:0:
107,15,62330,5,2,0:0:0:0:
17,123,62626,1,2,0:0:0:0:
154,247,62939,6,0,P|159:210|138:180,2,75,2|2|2,0:0|0:0|0:0,0:0:0:0:
82,311,63796,1,2,0:0:0:0:
242,171,64081,1,2,0:0:0:0:
360,310,64367,2,0,L|271:283,1,75,2|2,0:0|0:0,0:0:0:0:
386,106,64939,6,0,B|362:132|340:146|340:146|365:185|395:243,2,150,2|2|2,0:0|0:0|0:0,0:0:0:0:
297,35,66367,1,0,0:0:0:0:
512,203,66653,2,0,P|492:252|434:269,1,112.5,2|0,0:0|0:0,0:0:0:0:
384,222,67224,1,2,0:0:0:0:
245,321,67510,6,0,L|345:298,1,75,2|2,0:0|0:0,0:0:0:0:
419,381,68081,1,2,0:0:0:0:
235,237,68367,2,0,B|145:214|145:214|141:244|115:269,1,150,2|2,0:0|0:0,0:0:0:0:
31,188,69224,1,2,0:0:0:0:
190,79,69510,1,2,0:0:0:0:
79,46,69796,1,2,0:0:0:0:
235,237,70081,6,0,P|268:198|265:160,1,75,2|0,0:0|0:0,0:0:0:0:
81,303,70653,2,0,P|165:299|175:380,2,150,2|2|2,0:0|0:0|0:0,0:0:0:0:
336,149,72081,6,0,B|228:224|222:298|279:323|308:338|377:298|335:225,1,300,2|0,0:0|0:0,0:0:0:0:
184,39,73796,2,0,L|208:132,1,75
147,252,74367,6,0,B|124:282|87:282|87:282|34:246|62:196,1,150,2|0,0:0|0:0,0:0:0:0:
202,111,75224,1,0,0:0:0:0:
53,17,75503,2,0,L|80:123,2,75,2|2|2,0:0|0:0|0:0,0:0:0:0:
295,198,76356,6,0,B|232:183|232:183|209:192|209:192|142:177,1,150,2|0,0:0|0:0,0:0:0:0:
35,268,77209,1,2,0:0:0:0:
262,359,77493,2,0,P|282:305|244:267,1,112.5,2|0,0:0|0:0,0:0:0:0:
179,306,78062,1,2,0:0:0:0:
347,225,78346,2,0,P|385:239|434:253,1,75,2|0,0:0|0:0,0:0:0:0:
407,27,78915,6,0,B|390:47|360:64|360:64|388:109|406:144,2,150,2|0|2,0:0|0:0|0:0,0:0:0:0:
287,114,80330,1,2,0:0:0:0:
415,219,80615,2,0,P|456:203|474:161,1,75,2|2,0:0|0:0,0:0:0:0:
329,296,81182,6,0,P|350:349|362:385,2,75,6|2|2,0:0|0:0|0:0,0:0:0:0:
415,219,82031,1,2,0:0:0:0:
243,371,82314,2,0,P|207:353|190:320,1,75,2|2,0:0|0:0,0:0:0:0:
276,231,82880,1,2,0:0:0:0:
179,119,83163,6,0,B|103:87|103:87|65:105|68:140,2,150,2|2|2,0:0|0:0|0:0,0:0:0:0:
275,40,84578,1,0,0:0:0:0:
418,198,84861,2,0,P|458:173|428:94,1,112.5,2|0,0:0|0:0,0:0:0:0:
397,57,85427,1,2,0:0:0:0:
234,192,85710,6,0,P|185:177|142:168,1,75,2|2,0:0|0:0,0:0:0:0:
315,269,86276,2,0,P|364:254|407:245,1,75,2|2,0:0|0:0,0:0:0:0:
454,327,86842,1,2,0:0:0:0:
323,168,87125,1,2,0:0:0:0:
446,148,87408,1,2,0:0:0:0:
292,347,87691,6,0,L|158:313,1,112.5,2|0,0:0|0:0,0:0:0:0:
133,269,88257,2,0,P|68:257|35:333,2,150,2|2|2,0:0|0:0|0:0,0:0:0:0:
235,93,89672,2,0,P|210:36|200:9,1,75,0|2,0:0|0:0,0:0:0:0:
86,187,90250,6,0,B|169:169|169:169|211:192|211:192|317:167,1,225,2|0,0:0|0:0,0:0:0:0:
432,73,91365,2,0,B|415:104|410:144|410:144|390:109|355:84,1,150
288,27,92214,1,0,0:0:0:0:
480,191,92497,6,0,P|487:264|395:285,1,150,2|0,0:0|0:0,0:0:0:0:
319,222,93346,1,0,0:0:0:0:
214,357,93613,2,0,P|260:347|319:330,2,75,2|2|2,0:0|0:0|0:0,0:0:0:0:
145,264,94470,6,0,B|67:249|12:216|12:216|52:244|67:308,1,225,2|2,0:0|0:0,0:0:0:0:
231,201,95613,2,0,P|182:159|201:100,1,112.5,2|0,0:0|0:0,0:0:0:0:
253,70,96184,1,2,0:0:0:0:
103,173,96470,2,0,P|59:160|6:148,1,75,2|0,0:0|0:0,0:0:0:0:
254,296,97041,6,0,L|388:261,1,112.5
440,202,97613,6,0,P|473:229|431:227,1,112.5,2|0,0:0|0:0,0:0:0:0:
361,190,98184,2,0,P|328:163|371:166,1,112.5,2|0,0:0|0:0,0:0:0:0:
442,129,98755,5,2,0:0:0:0:
198,259,99017,6,0,P|131:225|151:154,1,145,2|0,0:0|0:0,0:0:0:0:
197,104,99580,1,2,0:0:0:0:
12,14,99861,2,0,P|25:51|48:123,1,97.4999955368044,2|2,0:0|0:0,0:0:0:0:
106,256,100423,2,0,P|120:209|139:164,1,97.4999955368044,10|2,0:3|0:0,0:0:0:0:
0,229,100985,1,2,0:0:0:0:
135,347,101266,6,0,B|205:336|205:336|221:344|221:344|306:330,1,146.249993305207,2|0,0:0|0:0,0:0:0:0:
339,273,101828,1,2,0:0:0:0:
454,363,102108,2,0,P|492:318|470:263,1,97.4999955368044,2|2,0:0|0:0,0:0:0:0:
286,204,102670,2,0,P|296:250|338:272,1,97.4999955368044,10|2,0:3|0:0,0:0:0:0:
491,181,103232,2,0,P|445:167|405:192,1,97.4999955368044,2|2,0:0|0:0,0:0:0:0:
282,347,103794,6,0,P|234:334|157:319,2,97.4999955368044,2|2|2,3:0|0:0|0:0,0:0:0:0:
189,201,104637,1,2,3:0:0:0:
63,293,104917,2,0,P|87:349|100:396,2,97.4999955368044,10|2|2,0:3|0:0|0:3,0:0:0:0:
0,196,105760,1,2,0:0:0:0:
184,87,106041,6,0,P|181:134|141:159,1,97.4999955368044,2|2,3:0|0:0,0:0:0:0:
35,93,106603,2,0,P|38:46|79:22,1,97.4999955368044,2|2,0:0|0:0,0:0:0:0:
253,138,107165,1,10,0:3:0:0:
345,79,107446,1,2,3:0:0:0:
502,206,107747,6,0,P|460:217|469:298,1,112.5,2|0,0:0|0:0,0:0:0:0:
432,353,108308,6,0,B|387:321|335:348|335:348|295:391|234:356,1,194.999991073609,2|2,3:0|0:0,0:0:0:0:
195,248,109151,1,2,3:0:0:0:
359,122,109432,2,0,P|333:190|323:225,1,97.4999955368044,10|2,0:3|0:0,0:0:0:0:
406,282,109994,1,2,3:0:0:0:
251,149,110275,1,2,0:0:0:0:
463,31,110555,6,0,B|501:67|501:67|487:131,1,97.4999955368044,2|2,3:0|0:0,0:0:0:0:
376,166,111117,2,0,B|338:130|338:130|352:66,1,97.4999955368044,2|2,0:0|0:0,0:0:0:0:
472,271,111693,2,0,P|418:256|340:239,1,97.4999955368044,10|2,0:3|0:0,0:0:0:0:
294,300,112252,1,2,0:0:0:0:
465,192,112532,1,2,0:0:0:0:
298,39,112812,6,0,P|249:78|248:122,1,97.4999955368044,2|2,3:0|0:0,0:0:0:0:
114,172,113372,2,0,P|172:193|211:172,1,97.4999955368044,10|2,0:3|0:0,0:0:0:0:
325,259,113931,2,0,P|314:197|276:174,1,97.4999955368044,10|2,0:3|0:0,0:0:0:0:
167,105,114491,1,2,0:0:0:0:
298,39,114771,1,2,0:0:0:0:
170,247,115051,6,0,B|48:213|48:213|82:238|94:271,1,194.999991073609,2|0,3:0|0:0,0:0:0:0:
297,346,115904,1,2,0:0:0:0:
297,346,116184,6,0,P|286:301|275:258,2,82.5000025177003,2|2|2,0:0|0:0|0:0,0:0:0:0:
184,288,117025,1,2,0:0:0:0:
334,176,117313,6,0,P|350:120|267:67,1,150,2|2,3:0|0:0,0:0:0:0:
420,226,118150,2,0,P|433:181|448:138,1,75,2|8,3:0|0:3,0:0:0:0:
255,194,118708,2,0,P|266:229|277:265,1,75,2|0,0:0|0:0,0:0:0:0:
421,358,119266,6,0,B|374:350|338:336|338:336|289:359|289:359|245:342|202:339,1,225,2|0,0:0|0:0,0:0:0:0:
179,190,120382,1,2,0:0:0:0:
75,265,120661,1,10,0:3:0:0:
203,264,120940,1,2,0:0:0:0:
98,189,121219,1,2,0:0:0:0:
139,311,121499,1,2,3:0:0:0:
283,212,121778,6,0,P|369:232|374:301,1,150,2|0,3:0|0:0,0:0:0:0:
194,192,122627,2,0,P|164:114|151:88,1,75,2|8,0:0|0:3,0:0:0:0:
290,34,123193,2,0,P|275:68|263:104,1,75,2|0,0:0|0:0,0:0:0:0:
101,313,123759,6,0,B|139:320|186:344|186:344|254:280|254:280|204:295,1,225,2|0,0:0|0:0,0:0:0:0:
117,222,124891,1,0,0:0:0:0:
222,90,125174,2,0,P|249:111|213:169,2,75,10|2|2,0:3|0:0|0:0,0:0:0:0:
292,246,126015,6,0,B|317:201|317:201|443:246,1,150,2|0,0:0|0:0,0:0:0:0:
473,314,126856,1,2,0:0:0:0:
322,128,127136,2,0,P|358:51|433:57,1,150,2|2,0:0|0:0,0:0:0:0:
512,168,127977,1,2,0:0:0:0:
357,239,128258,6,0,P|325:231|274:220,1,75,2|0,0:0|0:0,0:0:0:0:
136,279,128818,2,0,P|113:336|173:324,1,150,2|0,0:0|0:0,0:0:0:0:
293,206,129680,2,0,P|278:173|245:156,1,75,10|2,0:3|0:0,0:0:0:0:
116,228,130240,2,0,P|152:231|183:211,1,75,2|2,0:0|0:0,0:0:0:0:
321,1,130801,6,0,B|350:146|350:146|321:106|270:87,1,225,2|0,3:0|0:0,0:0:0:0:
161,46,131922,1,10,0:3:0:0:
91,102,132205,1,2,0:0:0:0:
171,129,132488,1,2,0:0:0:0:
83,22,132771,1,2,3:0:0:0:
3,188,133054,6,0,B|88:149|112:195|144:233|220:198,1,225,2|0,3:0|0:0,0:0:0:0:
388,75,134186,2,0,P|364:139|349:144,1,75,10|2,0:3|0:0,0:0:0:0:
250,95,134752,2,0,P|273:30|288:25,1,75,2|2,0:0|0:0,0:0:0:0:
480,231,135318,6,0,P|400:223|383:294,1,150,2|0,3:0|0:0,0:0:0:0:
480,347,136167,1,0,0:0:0:0:
300,223,136450,2,0,L|199:245,1,75,10|2,0:3|0:0,0:0:0:0:
116,182,137005,1,2,0:0:0:0:
248,27,137283,6,0,B|285:34|296:63|296:63|269:97|252:153,2,150,2|2|0,3:0|0:0|3:0,0:0:0:0:
52,239,138672,1,10,0:3:0:0:
117,169,138950,1,2,0:0:0:0:
201,324,139227,1,2,0:0:0:0:
124,278,139505,1,2,0:0:0:0:
272,369,139783,6,0,P|354:354|445:339,1,150,2|0,3:0|0:0,0:0:0:0:
503,252,140616,1,0,0:0:0:0:
332,122,140921,2,0,B|345:105|347:87|347:87|365:95|401:101,1,75,10|2,0:3|0:0,0:0:0:0:
380,251,141481,2,0,B|363:253|345:261|345:261|343:243|330:226,1,75,2|2,0:0|0:0,0:0:0:0:
457,30,142042,6,0,B|476:58|509:78|509:78|489:107|460:165,1,150,2|0,3:0|0:0,0:0:0:0:
335,207,142883,1,2,0:0:0:0:
244,95,143173,2,0,L|101:122,1,112.5,10|0,0:3|0:0,0:0:0:0:
73,65,143759,2,0,P|21:66|-2:119,1,112.5,2|0,0:0|0:0,0:0:0:0:
53,173,144282,5,2,3:0:0:0:
0,276,144562,1,2,0:0:0:0:
162,384,144842,2,0,L|136:292,1,75,2|2,0:0|0:0,0:0:0:0:
292,108,145403,5,2,3:0:0:0:
143,184,145683,1,2,0:0:0:0:
305,278,145964,2,0,P|362:266|406:259,1,75,2|2,0:0|0:0,0:0:0:0:
511,374,146524,6,0,B|488:343|464:330|464:330|521:248,1,150,2|0,3:0|0:0,0:0:0:0:
340,174,147366,1,2,0:0:0:0:
420,24,147646,2,0,P|435:90|456:162,1,112.5,10|0,0:3|0:0,0:0:0:0:
509,179,148207,5,2,0:0:0:0:
344,61,148487,1,2,0:0:0:0:
213,134,148779,6,0,P|167:121|103:108,2,89.9999972534181,2|2|2,3:0|0:0|0:0,0:0:0:0:
105,346,149607,2,0,P|96:324|77:288,1,44.999998626709,2|0,0:0|0:0,0:0:0:0:
32,253,149883,2,0,P|28:197|78:162,2,89.9999972534181,10|2|2,0:3|0:0|0:0,0:0:0:0:
152,310,150712,6,0,B|213:298|213:298|229:304|229:304|298:289,1,134.999995880127,2|0,3:0|0:0,0:0:0:0:
347,249,151265,2,0,P|405:261|417:337,1,134.999995880127,2|0,0:0|0:0,0:0:0:0:
365,382,151817,1,2,3:0:0:0:
484,246,152093,1,8,0:3:0:0:
376,51,152370,2,0,L|413:196,1,134.999995880127,2|0,0:0|0:0,0:0:0:0:
347,249,152922,1,2,0:0:0:0:
499,97,153198,6,0,P|478:42|429:32,2,89.9999972534181,2|2|2,3:0|0:0|3:0,0:0:0:0:
310,153,154027,2,0,P|287:157|265:161,1,44.999998626709,2|0,0:0|0:0,0:0:0:0:
205,109,154303,2,0,P|147:119|127:165,2,89.9999972534181,10|2|2,0:3|0:0|0:0,0:0:0:0:
307,319,155132,6,0,B|279:308|248:284|248:284|201:292|153:286,1,134.999995880127,2|0,0:0|0:0,0:0:0:0:
120,338,155685,2,0,P|59:341|29:266,1,134.999995880127,2|0,0:0|0:0,0:0:0:0:
81,224,156237,1,2,3:0:0:0:
0,137,156513,1,8,0:3:0:0:
74,33,156790,2,0,P|132:45|228:67,1,134.999995880127,2|0,0:0|0:0,0:0:0:0:
270,107,157342,2,0,L|338:92,1,44.999998626709,2|0,0:0|0:0,0:0:0:0:
372,36,157618,6,0,B|453:48|449:87|442:130|537:137,2,179.999994506836,2|0|10,3:0|3:0|0:3,0:0:0:0:
241,168,158999,1,0,0:0:0:0:
366,318,159276,2,0,P|348:260|338:220,1,89.9999972534181,0|0,0:0|3:0,0:0:0:0:
149,322,159828,2,0,B|215:343|257:377|257:377|234:354|212:299,1,179.999994506836,2|0,3:0|0:0,0:0:0:0:
135,216,160657,1,0,3:0:0:0:
251,79,160933,2,0,P|299:116|288:163,2,89.9999972534181,10|2|2,3:0|0:0|0:0,0:0:0:0:
280,231,161763,6,0,B|324:230|365:215|365:215|402:238|402:238|457:215|505:216,1,224.999993133545,2|0,0:0|0:0,0:0:0:0:
506,142,162591,1,2,0:0:0:0:
438,357,162867,2,0,P|356:353|344:293,1,134.999995880127,2|0,3:0|0:0,0:0:0:0:
407,266,163420,1,2,0:0:0:0:
256,375,163696,2,0,P|211:359|164:349,1,89.9999972534181,2|0,0:0|0:0,0:0:0:0:
80,255,164249,2,0,P|41:271|51:336,1,89.9999972534181,2|0,3:0|0:0,0:0:0:0:
302,206,164801,6,0,P|277:154|205:155,1,134.999995880127,2|0,0:0|0:0,0:0:0:0:
133,173,165354,2,0,P|69:177|38:121,1,134.999995880127,10|0,0:3|0:0,0:0:0:0:
68,51,165899,1,2,0:0:0:0:
207,154,166174,1,2,0:0:0:0:
129,354,166449,6,0,P|106:267|98:242,2,89.9999972534181,2|2|2,3:0|0:0|0:0,0:0:0:0:
314,267,167275,2,0,P|342:274|392:291,1,44.999998626709,2|0,0:0|0:0,0:0:0:0:
417,332,167550,2,0,P|475:328|494:300,2,89.9999972534181,10|2|2,0:3|0:0|0:0,0:0:0:0:
403,64,168376,6,0,B|360:89|360:89|404:191,1,134.999995880127,2|0,3:0|0:0,0:0:0:0:
346,234,168926,2,0,P|274:244|247:176,1,134.999995880127,2|0,0:0|0:0,0:0:0:0:
286,130,169476,1,2,3:0:0:0:
450,239,169752,1,8,0:3:0:0:
310,353,170027,6,0,P|260:341|177:326,1,134.999995880127,2|0,0:0|0:0,0:0:0:0:
119,372,170577,1,2,0:0:0:0:
280,224,170853,2,0,L|239:117,2,89.9999972534181,2|2|2,3:0|0:0|3:0,0:0:0:0:
160,164,171678,1,2,0:0:0:0:
347,31,171954,2,0,L|306:138,2,89.9999972534181,10|2|2,0:3|0:0|0:0,0:0:0:0:
195,57,172779,2,0,B|176:86|131:81|131:81|118:43|85:9,1,134.999995880127,2|0,0:0|0:0,0:0:0:0:
35,65,173330,6,0,P|66:121|88:209,1,134.999995880127,2|0,0:0|0:0,0:0:0:0:
43,250,173880,2,0,P|20:305|81:363,1,134.999995880127,2|0,3:0|0:0,0:0:0:0:
134,378,174431,1,2,3:0:0:0:
232,270,174706,2,0,P|261:263|294:260,1,44.999998626709,8|8,0:3|0:3,0:0:0:0:
344,302,174981,1,2,0:0:0:0:
463,163,175256,6,0,P|474:233|414:195,2,179.999994506836,2|0|10,3:0|3:0|0:3,0:0:0:0:
383,38,176632,1,0,0:0:0:0:
248,158,176908,2,0,P|206:114|218:70,1,89.9999972534181,0|0,0:0|3:0,0:0:0:0:
359,244,177458,6,0,P|276:236|265:310,1,134.999995880127,2|0,3:0|0:0,0:0:0:0:
315,325,178009,1,0,0:0:0:0:
169,214,178284,1,0,3:0:0:0:
328,61,178559,2,0,L|297:166,2,89.9999972534181,10|2|2,0:3|0:0|0:0,0:0:0:0:
169,214,179385,6,0,B|239:181|253:228|283:269|361:214,1,179.999994506836,2|0,0:0|0:0,0:0:0:0:
439,132,180210,1,2,0:0:0:0:
274,15,180486,2,0,P|199:30|194:104,1,134.999995880127,2|0,3:0|0:0,0:0:0:0:
230,139,181036,1,2,0:0:0:0:
158,350,181311,2,0,P|146:303|127:235,1,89.9999972534181,2|0,0:0|0:0,0:0:0:0:
81,215,181724,1,0,0:0:0:0:
81,215,181862,6,0,P|74:162|133:137,2,89.9999972534181,0|0|0,3:0|0:0|0:0,0:0:0:0:
224,280,182687,1,2,0:0:0:0:
90,356,182963,1,10,0:3:0:0:
187,181,183238,1,2,0:0:0:0:
330,291,183513,2,0,P|365:284|418:274,1,48.7499977684022,2|0,0:0|0:0,0:0:0:0:
428,229,183788,6,0,P|489:255|476:334,1,157.499995193482,2|0,0:0|0:0,0:0:0:0:
418,380,184338,1,2,0:0:0:0:
238,252,184613,2,0,P|252:195|271:109,1,104.999996795654,2|2,0:0|0:0,0:0:0:0:
360,18,185164,2,0,P|371:69|385:119,1,104.999996795654,10|2,0:3|0:0,0:0:0:0:
482,179,185714,1,2,0:0:0:0:
271,48,185989,6,0,B|208:60|208:60|187:80|187:80|103:97,1,157.499995193482,2|0,3:0|0:0,0:0:0:0:
63,40,186540,1,2,0:0:0:0:
230,192,186815,2,0,P|192:241|143:241,1,104.999996795654,2|2,0:0|3:0,0:0:0:0:
19,137,187365,2,0,P|80:144|104:187,1,104.999996795654,10|2,0:3|0:0,0:0:0:0:
158,308,187916,1,2,0:0:0:0:
10,252,188191,1,2,0:0:0:0:
239,136,188466,6,0,L|136:115,2,104.999996795654,2|2|2,3:0|0:0|3:0,0:0:0:0:
176,39,189292,1,2,0:0:0:0:
292,215,189567,2,0,L|394:194,2,104.999996795654,10|2|2,0:3|0:0|0:3,0:0:0:0:
221,292,190393,1,2,0:0:0:0:
287,377,190668,6,0,B|311:348|329:342|329:342|318:315|318:269,1,104.999996795654,2|2,3:0|0:0,0:0:0:0:
158,228,191219,2,0,B|134:257|116:263|116:263|127:290|127:336,1,104.999996795654,2|2,0:0|3:0,0:0:0:0:
348,80,191769,1,10,0:3:0:0:
206,25,192044,1,2,3:0:0:0:
355,313,192320,6,0,P|390:291|369:210,1,123.75000377655,10|0,0:3|0:0,0:0:0:0:
317,184,192870,6,0,B|284:189|253:205|253:205|196:182|196:182|170:198|118:204,1,209.999993591309,6|0,3:0|3:0,0:0:0:0:
23,139,193696,1,2,0:0:0:0:
135,30,193971,2,0,P|186:65|179:121,1,104.999996795654,10|2,0:3|0:0,0:0:0:0:
175,265,194521,1,2,0:0:0:0:
290,124,194797,1,2,3:0:0:0:
108,168,195072,6,0,L|-1:145,1,104.999996795654,2|2,3:0|0:0,0:0:0:0:
248,233,195622,2,0,L|350:211,1,104.999996795654,2|2,0:0|3:0,0:0:0:0:
138,367,196173,2,0,P|101:322|134:261,1,104.999996795654,10|2,0:3|0:0,0:0:0:0:
208,171,196723,1,2,0:0:0:0:
324,283,196999,1,2,0:0:0:0:
496,178,197274,6,0,P|463:138|398:140,1,104.999996795654,2|2,3:0|0:0,0:0:0:0:
324,283,197824,2,0,P|374:274|404:233,1,104.999996795654,2|2,0:0|3:0,0:0:0:0:
322,90,198375,2,0,P|303:137|325:184,1,104.999996795654,10|2,0:3|0:0,0:0:0:0:
419,46,198925,1,2,0:0:0:0:
212,145,199200,1,2,0:0:0:0:
361,325,199476,5,2,3:0:0:0:
361,325,199751,2,0,P|317:314|254:304,2,89.9999972534181,2|2|2,0:0|0:0|0:0,0:0:0:0:
182,347,200576,2,0,B|149:376|149:376|83:351,1,89.9999972534181,10|2,0:3|0:0,0:0:0:0:
81,227,201127,2,0,B|114:198|114:198|180:223,1,89.9999972534181,2|2,0:0|0:0,0:0:0:0:
129,286,201677,5,2,0:0:0:0:
440,210,223456,5,2,0:0:0:0:
440,210,223747,1,2,0:0:0:0:
340,41,224017,5,0,0:0:0:0:
408,86,224294,1,0,0:0:0:0:
257,156,224572,5,0,0:0:0:0:
261,74,224849,1,0,0:0:0:0:
409,172,225128,5,0,0:0:0:0:
335,209,225405,1,0,0:0:0:0:
338,127,225683,1,0,0:0:0:0:
386,277,225961,2,0,B|314:317|283:278|244:231|152:265|152:265|210:255|241:283,1,337.499989700318,2|2,0:0|0:0,0:0:0:0:
335,209,227893,2,2,P|330:192|326:176,2,33.7499989700318
80,46,228443,5,0,0:0:0:0:
148,91,228720,1,0,0:0:0:0:
291,92,228998,5,0,0:0:0:0:
223,137,229276,1,0,0:0:0:0:
76,166,229554,5,0,0:0:0:0:
144,211,229831,1,0,0:0:0:0:
70,248,230109,1,0,0:0:0:0:
212,169,230380,2,0,B|261:142|290:62|290:62|268:142|305:225,1,269.999991760254,2|2,0:0|0:0,0:0:0:0:
390,359,231756,2,0,P|348:356|326:328,1,67.4999979400635,2|2,0:0|0:0,0:0:0:0:
369,155,232306,6,0,L|383:200,1,33.7499989700318,2|0,0:0|0:0,0:0:0:0:
443,238,232581,2,0,L|429:283,1,33.7499989700318,2|0,0:0|0:0,0:0:0:0:
249,265,232857,5,0,0:0:0:0:
208,194,233134,1,0,0:0:0:0:
369,155,233412,5,0,0:0:0:0:
297,196,233690,1,0,0:0:0:0:
256,40,233968,5,0,0:0:0:0:
296,111,234245,1,0,0:0:0:0:
339,43,234523,1,0,0:0:0:0:
219,111,234794,6,0,B|175:111|142:91|142:91|107:106|107:106|73:88|18:81,1,202.499993820191,2|2,0:0|0:0,0:0:0:0:
128,13,235894,1,2,0:0:0:0:
286,149,236170,2,0,P|331:146|361:117,1,67.4999979400635,2|2,0:0|0:0,0:0:0:0:
317,34,236720,2,0,P|272:37|242:66,1,67.4999979400635,2|2,0:0|0:0,0:0:0:0:
379,300,237284,6,0,B|414:176|414:176|392:215|348:247,1,202.499993820191,2|0,0:0|0:0,0:0:0:0:
109,319,238395,6,0,B|183:291|203:328|227:367|300:337,1,202.499993820191,2|0,0:0|0:0,0:0:0:0:
233,151,239528,6,0,B|306:67|228:-21|105:11|82:178|263:131|256:216|252:277,1,404.999987640381,2|0,0:0|0:0,0:0:0:0:
21,357,241472,2,0,P|43:349|75:343,1,33.7499989700318,2|2,0:0|0:0,0:0:0:0:
117,310,241750,2,0,P|163:327|205:343,1,67.4999979400635,2|2,0:0|0:0,0:0:0:0:
87,232,242305,2,0,P|55:243|23:255,1,67.4999979400635,2|2,0:0|0:0,0:0:0:0:
164,118,242861,2,0,B|186:142|207:158|207:158|183:191|159:246,1,134.999995880127,2|2,0:0|0:0,0:0:0:0:
54,106,243694,1,2,0:0:0:0:
54,106,243967,6,0,P|86:96|119:90,1,52.4999983978272,2|0,3:0|0:0,0:0:0:0:
163,33,244244,2,0,P|194:45|227:53,1,52.4999983978272,2|0,0:0|0:0,0:0:0:0:
278,100,244521,1,2,0:0:0:0:
439,24,244798,1,2,0:0:0:0:
439,24,244937,1,2,0:0:0:0:
439,24,245076,6,0,P|481:77|444:123,2,104.999996795654,10|2|2,0:3|0:0|0:0,0:0:0:0:
354,270,245907,2,0,B|369:238|359:213|359:213|466:189,1,157.499995193482,2|0,3:0|0:0,0:0:0:0:
512,246,246462,1,2,0:0:0:0:
351,134,246739,2,0,L|215:168,1,104.999996795654,2|2,0:0|0:0,0:0:0:0:
146,367,247294,2,0,P|96:318|178:280,1,157.499995193482,10|0,0:3|0:0,0:0:0:0:
220,284,247848,2,0,P|281:267|294:265,1,52.4999983978272,2|0,0:0|0:0,0:0:0:0:
335,322,248125,1,2,0:0:0:0:
163,194,248403,6,0,P|149:139|144:122,1,52.4999983978272,2|0,3:0|0:0,0:0:0:0:
95,96,248680,2,0,L|120:33,1,52.4999983978272,2|0,0:0|0:0,0:0:0:0:
179,8,248957,1,2,3:0:0:0:
17,167,249235,1,2,0:0:0:0:
17,167,249373,1,2,0:0:0:0:
17,167,249512,2,0,P|28:209|55:305,2,104.999996795654,10|2|2,0:3|0:0|0:0,0:0:0:0:
232,356,250344,6,0,P|204:290|128:304,1,157.499995193482,2|0,0:0|0:0,0:0:0:0:
68,349,250898,1,2,0:0:0:0:
304,280,251175,2,0,L|413:302,1,104.999996795654,2|2,0:0|3:0,0:0:0:0:
304,372,251730,1,10,0:3:0:0:
489,237,252007,1,2,3:0:0:0:
356,96,252284,1,10,0:3:0:0:
356,96,252423,1,10,0:3:0:0:
356,96,252562,2,0,L|377:182,1,52.4999983978272,2|0,0:0|0:0,0:0:0:0:
308,198,252831,6,0,P|278:186|240:173,1,52.4999983978272,2|0,3:0|0:0,0:0:0:0:
193,136,253106,2,0,L|120:159,1,52.4999983978272,2|0,0:0|0:0,0:0:0:0:
77,109,253382,2,0,P|79:50|129:31,1,104.999996795654,2|2,3:0|0:0,0:0:0:0:
236,246,253934,2,0,L|265:360,2,104.999996795654,10|2|2,0:3|0:0|0:0,0:0:0:0:
28,251,254762,6,0,B|61:255|104:273|104:273|125:240|160:220,1,157.499995193482,2|0,3:0|0:0,0:0:0:0:
213,160,255314,1,2,0:0:0:0:
377,281,255590,1,2,0:0:0:0:
473,209,255866,1,2,0:0:0:0:
348,53,256142,2,0,B|323:76|303:92|303:92|328:135|358:199,1,157.499995193482,10|0,0:3|0:0,0:0:0:0:
291,226,256694,2,0,P|257:215|218:209,1,52.4999983978272,2|0,0:0|0:0,0:0:0:0:
185,151,256970,2,0,P|182:115|173:76,1,52.4999983978272,2|0,0:0|0:0,0:0:0:0:
91,269,257246,6,0,P|84:203|137:244,1,168.750006437302,2|0,3:0|0:0,0:0:0:0:
196,305,257801,1,2,0:0:0:0:
18,128,258079,1,2,0:0:0:0:
175,5,258357,6,0,B|227:3|248:51|248:51|248:106|328:120,1,168.750006437302,10|0,0:3|0:0,0:0:0:0:
327,177,258912,2,0,P|318:203|314:231,1,56.2500021457673,2|0,0:0|0:0,0:0:0:0:
253,281,259190,1,2,0:0:0:0:
472,369,259468,6,0,B|469:282|436:240|380:237|336:306|401:348,1,225.000008583069,2|0,3:0|0:0,0:0:0:0:
116,282,260301,2,0,P|143:289|171:297,1,56.2500021457673
241,349,260576,1,8,0:3:0:0:
315,231,260851,5,0,0:0:0:0:
82,5,261116,6,2,P|92:34|107:88,1,56.2500021457673,0|0,0:0|0:0,0:0:0:0:
155,112,261406,6,0,P|216:115|204:240,1,176,2|0,0:0|0:0,0:0:0:0:
168,256,261925,2,0,P|117:228|93:222,1,63.7500012159348,2|0,0:0|0:0,0:0:0:0:
66,156,262197,1,2,0:0:0:0:
208,342,262495,6,0,B|258:306|304:337|304:337|341:396|420:362,1,191.250003647804,2|0,0:0|0:0,0:0:0:0:
439,323,263040,2,0,B|445:285|445:285|415:261,1,63.7500012159348,2|0,0:0|0:0,0:0:0:0:
364,215,263313,1,2,0:0:0:0:
435,75,263585,6,0,B|487:35|487:35|417:169,1,191.250003647804,2|0,3:0|0:0,0:0:0:0:
487,207,264121,1,2,0:0:0:0:
348,63,264393,2,0,L|267:83,1,63.7500012159348,2|0,0:0|0:0,0:0:0:0:
217,28,264666,5,2,0:0:0:0:
371,144,264939,1,10,0:3:0:0:
254,266,265211,2,0,P|250:190|295:170,1,127.50000243187,2|2,0:0|0:0,0:0:0:0:
373,375,265757,6,0,B|326:370|300:349|300:349|264:364|264:364|233:344|173:338,1,191.250003647804,2|0,0:0|0:0,0:0:0:0:
129,302,266302,2,0,P|61:330|38:338,1,63.7500012159348,2|0,0:0|0:0,0:0:0:0:
10,379,266575,1,2,3:0:0:0:
196,203,266848,6,0,P|186:148|150:120,1,63.7500012159348,2|0,0:0|0:0,0:0:0:0:
94,53,267120,2,0,B|134:55|157:72|157:72|173:43|222:11,2,127.50000243187,10|2|2,0:3|0:0|0:0,0:0:0:0:
61,348,267939,6,0,B|52:302|14:252|14:252|29:203|71:198,1,191.250003647804,2|0,3:0|0:0,0:0:0:0:
143,229,268484,1,2,0:0:0:0:
265,121,268757,2,0,L|345:141,1,63.7500012159348,2|0,0:0|0:0,0:0:0:0:
403,122,269040,6,0,P|451:65|379:80,1,191.250003647804,2|0,3:0|0:0,0:0:0:0:
384,196,269585,2,0,P|406:231|417:272,1,63.7500012159348,2|0,3:0|0:0,0:0:0:0:
455,319,269858,1,10,0:3:0:0:
455,319,269994,1,10,0:3:0:0:
455,319,270130,2,0,P|436:351|423:390,1,63.7500012159348,2|0,0:0|0:0,0:0:0:0:
326,316,270403,6,0,P|268:286|253:257,1,63.7500012159348,2|0,3:0|0:0,0:0:0:0:
220,344,270677,2,0,P|194:284|202:252,1,63.7500012159348,2|0,0:0|0:0,0:0:0:0:
366,107,270951,2,0,P|333:164|303:177,1,63.7500012159348,2|0,3:0|0:0,0:0:0:0:
390,215,271226,2,0,P|328:237|297:229,1,63.7500012159348,2|0,0:0|0:0,0:0:0:0:
103,62,271500,6,0,L|182:45,1,63.7500012159348,10|0,0:3|0:0,0:0:0:0:
302,18,271775,2,0,L|240:32,1,63.7500012159348,2|0,0:0|0:0,0:0:0:0:
9,118,272049,2,0,L|88:135,1,63.7500012159348,2|0,0:0|0:0,0:0:0:0:
209,160,272324,2,0,L|146:146,1,63.7500012159348,2|0,0:0|0:0,0:0:0:0:
43,292,272598,6,0,P|70:308|120:295,1,63.7500012159348,2|0,3:0|0:0,0:0:0:0:
117,229,272873,2,0,P|90:213|40:226,1,63.7500012159348,2|0,0:0|0:0,0:0:0:0:
257,322,273147,2,0,P|288:323|315:307,1,63.7500012159348,2|0,0:0|0:0,0:0:0:0:
300,230,273422,2,0,P|268:228|241:244,1,63.7500012159348,2|0,0:0|0:0,0:0:0:0:
411,236,273696,6,0,L|359:163,1,63.7500012159348,10|0,0:3|0:0,0:0:0:0:
243,139,273971,2,0,L|331:130,1,63.7500012159348,2|0,0:0|0:0,0:0:0:0:
404,45,274245,2,0,L|366:125,1,63.7500012159348,2|0,0:0|0:0,0:0:0:0:
300,230,274521,1,2,0:0:0:0:
300,230,274657,1,2,0:0:0:0:
300,230,274815,6,0,B|168:199|168:199|191:223|190:256,1,191.250003647804,2|0,3:0|0:0,0:0:0:0:
232,311,275360,2,0,P|231:344|201:371,1,63.7500012159348
137,365,275633,1,2,3:0:0:0:
390,156,275905,6,0,P|394:62|305:26,1,191.250003647804,10|0,0:3|0:0,0:0:0:0:
250,71,276451,2,0,B|224:55|198:34|198:34|166:44|108:51,1,127.50000243187
86,126,276860,1,2,0:0:0:0:
86,126,276996,6,0,B|61:197|114:244|114:244|128:199|205:176,1,191.250003647804,2|0,3:0|0:0,0:0:0:0:
211,146,277542,1,0,0:0:0:0:
41,276,277815,2,0,P|51:306|60:336,1,63.7500012159348,2|0,0:0|0:0,0:0:0:0:
0,384,278087,1,10,0:3:0:0:
186,257,278373,1,2,0:0:0:0:
332,299,278645,2,0,P|355:230|306:184,1,127.50000243187,2|2,0:0|0:0,0:0:0:0:
262,140,279054,1,2,0:0:0:0:
262,140,279191,2,0,B|200:153|200:153|195:158|195:158|98:178,2,134.999995880127,2|2|2,3:0|0:0|0:0,0:0:0:0:
198,317,280012,6,0,B|142:336|122:381|122:381|141:328|109:263,1,202.499993820191,2|0,0:0|0:0,0:0:0:0:
119,210,280560,2,0,B|98:183|98:183|44:197,1,67.4999979400635,2|0,0:0|0:0,0:0:0:0:
7,235,280834,1,2,0:0:0:0:
245,136,281108,6,0,B|285:137|321:119|321:119|359:146|359:146|404:125|462:122,1,202.499993820191,2|0,3:0|0:0,0:0:0:0:
497,81,281656,2,0,P|497:41|470:17,1,67.4999979400635,2|0,0:0|0:0,0:0:0:0:
401,4,281930,1,2,0:0:0:0:
182,207,282204,6,0,B|159:177|124:153|124:153|165:108|200:45,1,202.499993820191,2|0,3:0|0:0,0:0:0:0:
125,7,282752,1,2,0:0:0:0:
313,137,283026,1,2,0:0:0:0:
200,356,283300,6,0,P|215:287|333:306,1,202.499993820191,2|0,0:0|0:0,0:0:0:0:
391,331,283848,2,0,P|466:314|486:313,1,67.4999979400635,2|0,0:0|0:0,0:0:0:0:
506,256,284122,1,2,3:0:0:0:
348,76,284396,2,0,B|292:29|292:29|352:175,1,202.499993820191,2|0,0:0|0:0,0:0:0:0:
289,204,284944,2,0,B|258:182|258:182|213:199,1,67.4999979400635,2|0,0:0|0:0,0:0:0:0:
180,250,285218,2,0,B|149:271|149:271|104:254,1,67.4999979400635,2|0,0:0|0:0,0:0:0:0:
57,220,285492,1,2,0:0:0:0:
252,317,285766,5,2,3:0:0:0:
97,364,286040,1,2,0:0:0:0:
159,99,286314,2,0,L|183:183,1,67.4999979400635,2|0,0:0|0:0,0:0:0:0:
246,206,286588,1,2,0:0:0:0:
65,86,286862,5,10,0:3:0:0:
240,14,287136,1,2,0:0:0:0:
152,301,287410,1,10,0:3:0:0:
140,269,287547,1,10,0:3:0:0:
128,237,287684,1,2,3:0:0:0:
118,204,287821,1,2,0:0:0:0:
110,175,287958,6,0,B|77:151|7:168|7:168|116:118|153:170|190:241|326:166,1,427.499988584519,2|2,3:0|0:0,0:0:0:0:
496,255,289054,2,0,P|402:226|494:288,1,269.999991760254,10|0,0:3|0:0,0:0:0:0:
268,324,289875,2,0,P|233:319|196:311,1,67.4999979400635,2|2,3:0|0:0,0:0:0:0:
128,334,290149,6,0,B|98:346|71:371|71:371|135:219,1,202.499993820191,2|0,3:0|0:0,0:0:0:0:
179,192,290697,2,0,P|161:112|72:118,1,134.999995880127,0|2,0:0|3:0,0:0:0:0:
351,31,291245,2,0,B|295:63|236:63|236:63|265:99|266:156|266:156|270:124|284:89,1,269.999991760254,10|0,0:3|0:0,0:0:0:0:
462,278,292067,1,2,0:0:0:0:
462,278,292204,1,2,0:0:0:0:
462,278,292341,2,0,B|379:275|310:342|310:342|373:268|362:198,1,269.999991760254,2|0,3:0|0:0,0:0:0:0:
335,54,293163,2,0,P|348:86|367:144,1,67.4999979400635,2|0,3:0|0:0,0:0:0:0:
308,174,293437,6,0,P|223:189|195:85,1,202.499993820191,10|0,0:3|0:0,0:0:0:0:
206,14,293985,2,0,P|214:70|160:54,1,134.999995880127,2|0,0:0|0:0,0:0:0:0:
0,125,294396,1,2,0:0:0:0:
0,125,294533,6,0,B|33:164|23:253|23:253|55:178|134:147,1,269.999991760254,2|0,3:0|0:0,0:0:0:0:
367,303,295355,2,0,L|270:281,1,67.4999979400635
249,232,295629,2,0,P|169:209|143:271,1,134.999995880127,8|2,0:3|0:0,0:0:0:0:
112,310,296040,1,2,0:0:0:0:
112,310,296177,1,2,0:0:0:0:
223,128,296451,1,2,0:0:0:0:
131,40,296725,6,0,B|110:66|61:103|61:103|97:145|132:229,1,213.749994292259,6|0,3:0|0:0,0:0:0:0:
174,261,297273,2,0,P|158:319|76:327,1,142.49999619484
199,184,297684,1,0,0:0:0:0:
199,184,297821,6,0,B|287:171|287:171|318:189|318:189|458:164,1,213.749994292259,10|0,0:3|0:0,0:0:0:0:
470,124,298369,2,0,B|476:84|476:84|442:51,1,71.2499980974198
392,14,298643,1,0,3:0:0:0:
153,84,298917,6,0,B|231:42|254:93|274:146|376:88,1,213.749994292259,2|0,3:0|0:0,0:0:0:0:
416,138,299464,2,0,B|454:179|454:179|394:266,1,142.49999619484,0|0,0:0|3:0,0:0:0:0:
178,352,299875,1,0,0:0:0:0:
178,352,300012,2,0,P|196:253|285:294,1,213.749994292259,8|0,0:3|0:0,0:0:0:0:
338,333,300560,2,0,P|366:321|422:308,1,71.2499980974198,2|0,0:0|0:0,0:0:0:0:
445,245,300834,2,0,P|473:257|529:270,1,71.2499980974198,2|0,0:0|0:0,0:0:0:0:
251,42,301108,6,0,B|209:162|209:162|251:214|318:157,1,213.749994292259,2|0,3:0|0:0,0:0:0:0:
348,127,301656,1,0,3:0:0:0:
172,4,301930,1,0,0:0:0:0:
3,185,302204,6,0,B|18:139|10:76|10:76|44:125|89:141,1,213.749994292259,10|0,0:3|0:0,0:0:0:0:
142,196,302752,2,0,B|130:264|130:264|122:273|122:273|104:380,1,142.49999619484
31,310,303163,1,0,0:0:0:0:
31,310,303300,6,0,P|114:247|180:377,1,284.999992389679,2|0,3:0|0:0,0:0:0:0:
192,103,304122,2,0,P|201:63|266:49,1,71.2499980974198,0|0,3:0|0:0,0:0:0:0:
472,136,304396,2,0,B|436:134|389:111|389:111|356:130|356:130|328:113|270:109,1,213.749994292259,10|0,0:3|0:0,0:0:0:0:
218,183,304944,1,10,0:3:0:0:
226,217,305081,1,10,0:3:0:0:
235,251,305218,1,2,3:0:0:0:
246,284,305355,1,2,0:0:0:0:
256,317,305492,6,0,B|287:337|287:337|340:316,1,71.2499980974198,2|0,3:0|0:0,0:0:0:0:
392,194,305766,2,0,B|359:210|359:210|354:244,1,71.2499980974198,2|0,0:0|0:0,0:0:0:0:
431,368,306040,2,0,B|432:331|432:331|405:309,1,71.2499980974198,2|0,0:0|0:0,0:0:0:0:
235,251,306314,2,0,B|182:215|134:252|134:252|96:320|23:281,1,213.749994292259,2|0,0:0|0:0,0:0:0:0:
2,233,306862,1,0,0:0:0:0:
217,129,307136,1,0,0:0:0:0:
113,41,307410,6,0,B|62:-2|62:-2|108:155,1,213.749994292259,2|0,3:0|0:0,0:0:0:0:
172,188,307958,2,0,P|229:125|287:150,1,142.49999619484,2|2,0:0|0:0,0:0:0:0:
110,359,308506,2,0,B|4:304|32:208|32:208|110:210|126:285,1,284.999992389679,2|0,0:0|0:0,0:0:0:0:
203,335,309191,1,0,0:0:0:0:
203,335,309328,2,0,B|290:293|307:338|328:397|428:345,1,213.749994292259,2|0,0:0|0:0,0:0:0:0:
361,167,309876,6,0,B|341:147|317:119|317:119|358:279|358:279|336:252|285:206,1,284.999992389679,2|0,3:0|0:0,0:0:0:0:
226,151,310698,1,0,3:0:0:0:
431,10,310972,2,0,B|487:17|496:81|496:81|431:104|436:200,1,213.749994292259,10|0,0:3|0:0,0:0:0:0:
396,236,311520,2,0,P|463:276|416:349,1,142.49999619484
223,354,311930,1,0,0:0:0:0:
223,354,312067,6,0,B|197:326|147:324|147:324|247:304|236:386|351:349,1,284.999992389679,0|0,3:0|0:0,0:0:0:0:
138,47,312889,2,0,P|110:124|102:140,1,71.2499980974198,2|0,0:0|0:0,0:0:0:0:
148,181,313163,6,0,P|252:208|278:118,1,213.749994292259,10|0,0:3|0:0,0:0:0:0:
246,59,313711,2,0,P|250:18|293:0,1,71.2499980974198,2|0,0:0|0:0,0:0:0:0:
383,50,313985,2,0,P|379:91|336:109,1,71.2499980974198,2|0,0:0|0:0,0:0:0:0:
59,150,314259,6,0,B|-3:117|3:71|44:-12|214:46|125:304,1,300,6|0,3:0|3:0,0:0:0:0:
13,328,315081,2,0,P|59:315|116:303,1,75
151,263,315355,6,0,B|248:272|246:318|245:386|399:361,1,225,10|0,0:3|0:0,0:0:0:0:
414,323,315902,1,0,0:0:0:0:
334,108,316176,1,2,3:0:0:0:
334,108,316313,1,2,0:0:0:0:
334,108,316451,6,0,B|270:104|228:45|228:45|282:135|228:222,1,300,2|0,3:0|0:0,0:0:0:0:
194,373,317273,2,0,P|222:347|233:289,1,75,0|0,3:0|0:0,0:0:0:0:
73,293,317547,2,0,P|166:295|89:245,1,225,8|0,0:3|0:0,0:0:0:0:
30,231,318094,1,2,0:0:0:0:
245,285,318369,2,0,P|290:303|346:319,1,75,2|0,0:0|0:0,0:0:0:0:
512,204,318643,6,0,B|462:202|420:222|420:222|384:203|384:203|340:222|251:230,1,225,6|0,3:0|0:0,0:0:0:0:
245,285,319190,2,0,P|270:358|334:342,1,150,0|0,3:0|0:0,0:0:0:0:
429,138,319601,1,0,0:0:0:0:
429,138,319738,6,0,B|423:56|336:40|336:40|358:91|319:134,1,225,10|0,0:3|0:0,0:0:0:0:
292,181,320286,2,0,B|243:190|217:204|217:204|196:174|134:127,1,150
76,125,320697,1,0,0:0:0:0:
76,125,320834,6,0,B|7:83|7:83|51:148|88:214,1,225,2|0,3:0|0:0,0:0:0:0:
98,283,321383,2,0,B|95:362|95:362|131:287|168:227,1,225,2|0,0:0|0:0,0:0:0:0:
233,188,321930,2,0,B|308:161|308:161|234:154|156:141,1,225,10|0,0:3|0:0,0:0:0:0:
146,69,322478,1,10,0:3:0:0:
146,69,322615,1,10,0:3:0:0:
146,69,322752,2,0,P|162:30|224:38,1,75,2|0,0:0|0:0,0:0:0:0:
336,94,323026,6,0,P|411:95|443:32,2,134.999995880127,2|2|2,3:0|0:0|3:0,0:0:0:0:
317,360,323848,2,0,B|300:285|300:285|323:239|323:239|291:112,1,202.499993820191,2|0,0:0|0:0,0:0:0:0:
240,128,324396,1,0,0:0:0:0:
400,248,324670,1,0,0:0:0:0:
224,368,324944,6,0,P|138:356|119:250,1,202.499993820191,2|0,3:0|0:0,0:0:0:0:
174,204,325492,2,0,P|205:221|255:238,1,67.4999979400635,2|0,0:0|0:0,0:0:0:0:
301,185,325766,1,2,0:0:0:0:
91,20,326040,2,0,B|60:53|30:75|30:75|86:194,1,202.499993820191,2|0,3:0|0:0,0:0:0:0:
34,251,326587,1,0,0:0:0:0:
167,60,326862,2,0,B|299:22|299:22|261:45|225:82,1,202.499993820191,2|0,0:0|0:0,0:0:0:0:
215,133,327410,6,0,P|240:214|341:183,1,202.499993820191,2|0,3:0|0:0,0:0:0:0:
393,142,327958,2,0,P|458:165|482:172,1,67.4999979400635
500,230,328231,1,0,3:0:0:0:
319,290,328506,2,0,B|270:291|238:342|238:342|250:289|199:236,1,202.499993820191,10|0,0:3|0:0,0:0:0:0:
234,177,329053,2,0,B|283:176|315:125|315:125|303:178|354:231,1,202.499993820191
131,359,329601,6,0,B|70:281|70:281|145:201|145:201|117:262,1,269.999991760254,2|0,3:0|0:0,0:0:0:0:
37,187,330423,1,0,0:0:0:0:
192,12,330697,2,0,P|244:69|188:132,1,134.999995880127,8|0,0:3|0:0,0:0:0:0:
119,81,331245,1,2,0:0:0:0:
326,143,331519,1,2,0:0:0:0:
501,35,331793,6,0,L|390:59,1,104.999996795654,4|0,3:0|0:0,0:0:0:0:
272,211,332338,2,0,B|289:244|289:278|289:278|327:139,1,209.999993591309,2|8,0:0|0:3,0:0:0:0:
261,51,333156,1,0,0:0:0:0:
145,177,333429,2,0,P|159:212|176:264,1,52.4999983978272,2|0,0:0|0:0,0:0:0:0:
117,286,333702,6,0,B|21:255|21:255|31:289|5:327,1,157.499995193482,2|0,3:0|0:0,0:0:0:0:
64,381,334247,1,2,0:0:0:0:
272,281,334520,2,0,P|322:332|231:322,1,209.999993591309,2|8,0:0|0:3,0:0:0:0:
396,237,335338,1,0,0:0:0:0:
244,90,335611,2,0,L|275:185,1,52.4999983978272,2|0,0:0|0:0,0:0:0:0:
215,212,335883,6,0,B|178:213|141:229|141:229|116:198|57:157,1,157.499995193482,2|0,0:0|0:0,0:0:0:0:
10,202,336429,1,2,0:0:0:0:
244,90,336702,2,0,L|403:122,1,157.499995193482,2|0,3:0|0:0,0:0:0:0:
461,76,337247,2,0,P|465:14|409:6,1,104.999996795654,8|0,0:3|0:0,0:0:0:0:
294,178,337793,2,0,B|252:176|245:222|245:222|305:259|307:321,1,157.499995193482,2|0,0:0|0:0,0:0:0:0:
247,343,338338,6,0,B|127:369|127:369|77:323|132:273,1,209.999993591309,2|0,3:0|0:0,0:0:0:0:
200,195,339156,1,0,3:0:0:0:
139,69,339429,2,0,P|88:111|99:157,1,104.999996795654,8|0,0:3|0:0,0:0:0:0:
283,229,339974,1,10,0:3:0:0:
309,225,340111,1,10,0:3:0:0:
335,222,340247,1,2,3:0:0:0:
360,217,340383,1,2,3:0:0:0:
386,214,340520,6,0,P|434:264|423:307,1,104.999996795654,2|0,3:0|0:0,0:0:0:0:
250,331,341065,2,0,B|171:323|123:286|123:286|165:322|177:375,1,209.999993591309,2|8,3:0|0:3,0:0:0:0:
314,243,341883,1,0,0:0:0:0:
197,57,342156,2,0,P|207:94|219:132,1,52.4999983978272,2|0,0:0|0:0,0:0:0:0:
162,166,342429,2,0,P|66:160|77:95,1,157.499995193482,2|0,3:0|0:0,0:0:0:0:
96,49,342974,1,2,0:0:0:0:
300,119,343247,6,0,B|343:113|381:98|381:98|416:125|416:125|452:107|506:98,1,209.999993591309,2|8,0:0|0:3,0:0:0:0:
409,8,344065,1,0,0:0:0:0:
271,206,344338,2,0,P|290:259|295:282,1,52.4999983978272,2|0,0:0|0:0,0:0:0:0:
358,271,344611,6,0,P|420:252|443:331,1,157.499995193482,2|0,0:0|0:0,0:0:0:0:
393,376,345156,2,0,B|371:358|371:358|342:360,1,52.4999983978272,2|0,0:0|0:0,0:0:0:0:
197,327,345429,2,0,B|179:316|145:317|145:317|263:280,1,157.499995193482,2|0,0:0|0:0,0:0:0:0:
290,226,345974,2,0,B|306:176|306:176|246:127,1,104.999996795654,8|0,0:3|0:0,0:0:0:0:
174,0,346520,2,0,B|150:27|125:43|125:43|158:89|180:147,1,157.499995193482,2|0,0:0|0:0,0:0:0:0:
44,211,347065,6,0,B|-22:222|-47:114|60:90|106:94|86:236|168:217|226:177,1,314.999990386963,2|0,3:0|0:0,0:0:0:0:
388,113,348156,2,0,P|384:159|330:186,1,104.999996795654,8|0,0:3|0:0,0:0:0:0:
241,115,348702,2,0,P|244:68|298:41,1,104.999996795654
418,237,349247,2,0,L|515:260,2,89.9999972534181,0|0|0,3:0|0:0|0:0,0:0:0:0:
315,295,350057,1,0,0:0:0:0:
315,295,350328,2,0,L|216:315,2,89.9999972534181,8|0|0,0:3|0:0|0:0,0:0:0:0:
415,365,351138,1,0,3:0:0:0:
228,232,351409,6,0,P|200:200|206:150,1,89.9999972534181,0|0,3:0|0:0,0:0:0:0:
345,103,351949,2,0,P|331:143|284:163,1,89.9999972534181,0|0,0:0|3:0,0:0:0:0:
169,74,352490,2,0,P|210:65|251:95,1,89.9999972534181,8|0,0:3|0:0,0:0:0:0:
33,242,353030,1,0,0:0:0:0:
83,126,353301,1,0,0:0:0:0:
144,275,353571,6,0,P|134:311|119:372,2,89.9999972534181,0|0|0,3:0|0:0|3:0,0:0:0:0:
235,219,354382,1,0,0:0:0:0:
235,219,354652,2,0,P|223:177|210:122,2,89.9999972534181,8|0|0,0:3|0:0|0:0,0:0:0:0:
318,294,355463,1,0,0:0:0:0:
318,294,355782,5,2,0:0:0:0:
256,192,355962,12,0,363010,0:0:0:0:
319,292,366404,5,2,0:0:0:0:
250,251,366832,1,2,0:0:0:0:
250,251,367270,6,0,L|240:207,2,37.5,10|2|2,0:0|0:0|0:0,0:0:0:0:
186,290,368437,1,2,0:0:0:0:
186,290,368853,6,0,L|176:246,2,37.5,10|2|2,0:0|0:0|0:0,0:0:0:0:
118,332,369998,1,2,0:0:0:0:
118,332,370407,6,0,L|108:288,2,37.5,10|2|2,0:0|0:0|0:0,0:0:0:0:
53,370,371591,1,2,0:0:0:0:
53,370,371997,6,0,L|43:326,1,37.5,10|2,0:0|0:0,0:0:0:0:
5,268,372764,2,0,L|14:224,1,37.5,2|2,0:0|0:0,0:0:0:0:
57,171,373568,5,10,0:0:0:0:
57,171,373962,1,2,0:0:0:0:
16,107,374351,1,2,0:0:0:0:
16,107,374734,1,2,0:0:0:0:
63,53,375107,1,10,0:0:0:0:
63,53,375501,1,2,0:0:0:0:
134,77,375919,5,2,0:0:0:0:
201,43,376313,1,2,0:0:0:0:
269,81,376717,5,10,0:0:0:0:
269,81,377111,1,2,0:0:0:0:
203,118,377506,1,2,0:0:0:0:
268,168,377915,5,10,0:0:0:0:
214,230,378309,1,10,0:0:0:0:
256,300,378704,1,10,0:0:0:0:
335,281,379099,1,10,0:0:0:0:
347,199,379507,1,10,0:0:0:0:
268,168,379883,6,0,L|277:124,2,37.5,10|2|2,0:0|0:0|0:0,0:0:0:0:
345,161,381066,1,2,0:0:0:0:
345,161,381470,6,0,L|354:120,2,37.5,10|2|2,0:0|0:0|0:0,0:0:0:0:
420,158,382654,1,2,0:0:0:0:
420,158,383045,6,0,L|429:114,2,37.5,10|2|2,0:0|0:0|0:0,0:0:0:0:
497,154,384247,1,2,0:0:0:0:
497,154,384641,6,0,L|506:110,1,37.5,10|2,0:0|0:0,0:0:0:0:
458,58,385435,2,0,L|448:14,1,37.5,2|2,0:0|0:0,0:0:0:0:
379,10,386249,5,10,0:0:0:0:
379,10,386643,1,2,0:0:0:0:
317,53,387038,1,2,0:0:0:0:
317,53,387444,1,2,0:0:0:0:
250,25,387850,1,10,0:0:0:0:
250,25,388244,1,2,0:0:0:0:
187,66,388678,5,2,0:0:0:0:
114,45,389072,1,2,0:0:0:0:
64,104,389545,5,10,0:0:0:0:
64,104,389962,1,2,0:0:0:0:
120,173,390413,1,10,0:0:0:0:
75,240,390892,1,2,0:0:0:0:
75,240,391551,6,0,B|278:184|315:-58|-81:24|117:76|90:195|32:214|143:268|184:259|302:144|470:219|400:272|374:251|534:528|98:515|181:331|200:337|215:261|260:113|251:66|334:59|407:53|413:87|439:168|354:178,1,1169.99996429443,10|0,0:0|0:0,0:0:0:0:
