osu file format v14

[General]
AudioFilename: audio.mp3
AudioLeadIn: 0
PreviewTime: 333
Countdown: 0
SampleSet: Soft
StackLeniency: 0.7
Mode: 0
LetterboxInBreaks: 0
WidescreenStoryboard: 1

[Editor]
Bookmarks: 22746,44815
DistanceSpacing: 1
BeatDivisor: 8
GridSize: 32
TimelineZoom: 1

[Metadata]
Title:Fairytale
TitleUnicode:Fairytale
Artist:rionos
ArtistUnicode:rionos
Creator:guineaQ
Version:Standard
Source:
Tags:
BeatmapID:1745339
BeatmapSetID:833139

[Difficulty]
HPDrainRate:3
CircleSize:3
OverallDifficulty:4
ApproachRate:6
SliderMultiplier:1.99999990463257
SliderTickRate:1

[Events]
//Background and Video events
0,0,"49566422_p0.png",0,0
//Break Periods
//Storyboard Layer 0 (Background)
Sprite,Background,Centre,"sb/pop.png",205,130 S,2,22741,23046,0.2,0.9 S,1,23046,23646,0.9,1 F,2,23046,23646,1,0 P,0,22741,24035,A C,0,22741,,226,45,124
Sprite,Background,Centre,"sb/pop.png",169,240 S,2,25500,25805,0.2,0.9 S,1,25805,26405,0.9,1 F,2,25805,26405,1,0 P,0,25500,26794,A C,0,25500,,26,116,242
Sprite,Background,Centre,"sb/pop.png",418,162 S,2,28259,28564,0.2,0.9 S,1,28564,29164,0.9,1 F,2,28564,29164,1,0 P,0,28259,29553,A C,0,28259,,164,32,240
Sprite,Background,Centre,"sb/pop.png",292,395 S,2,31017,31322,0.2,0.9 S,1,31322,31922,0.9,1 F,2,31322,31922,1,0 P,0,31017,32311,A C,0,31017,,37,185,239
Sprite,Background,Centre,"sb/pop.png",316,97 S,2,33776,34081,0.2,0.9 S,1,34081,34681,0.9,1 F,2,34081,34681,1,0 P,0,33776,35070,A C,0,33776,,23,209,116
Sprite,Background,Centre,"sb/pop.png",346,254 S,2,36535,36840,0.2,0.9 S,1,36840,37440,0.9,1 F,2,36840,37440,1,0 P,0,36535,37829,A C,0,36535,,226,45,124
Sprite,Background,Centre,"sb/pop.png",219,370 S,2,39293,39598,0.2,0.9 S,1,39598,40198,0.9,1 F,2,39598,40198,1,0 P,0,39293,40587,A C,0,39293,,26,116,242
Sprite,Background,Centre,"sb/pop.png",572,127 S,2,42052,42357,0.2,0.9 S,1,42357,42957,0.9,1 F,2,42357,42957,1,0 P,0,42052,43346,A C,0,42052,,164,32,240
Sprite,Background,Centre,"sb/pop.png",210,298 S,2,44810,45115,0.2,0.9 S,1,45115,45715,0.9,1 F,2,45115,45715,1,0 P,0,44810,45415,A C,0,44810,,37,185,239
//Storyboard Layer 1 (Fail)
//Storyboard Layer 2 (Pass)
//Storyboard Layer 3 (Foreground)
//Storyboard Sound Samples

[TimingPoints]
678,689.655172413793,4,2,1,30,1,0

[Colours]
Combo1 : 26,116,242
Combo2 : 164,32,240
Combo3 : 37,185,239
Combo4 : 23,209,116
Combo5 : 226,45,124

[HitObjects]
159,214,678,6,0,P|161:158|283:80,1,199.999990463257,6|8,0:0|0:0,0:0:0:0:
407,134,1884,1,8,0:0:0:0:
269,190,2402,2,0,L|167:190,1,99.9999952316285,2|0,0:0|0:0,0:0:0:0:
98,260,3091,2,0,L|98:320,1,49.9999976158142,8|8,0:0|0:0,0:0:0:0:
98,360,3436,6,0,P|14:318|6:219,1,199.999990463257,0|8,0:0|0:0,0:0:0:0:
111,115,4643,2,0,L|224:115,1,99.9999952316285,8|0,0:0|0:0,0:0:0:0:
246,150,5160,1,0,0:0:0:0:
346,150,5505,1,2,0:0:0:0:
346,250,5850,2,0,L|406:250,1,49.9999976158142,2|2,0:0|0:0,0:0:0:0:
446,250,6195,6,0,P|449:172|339:157,1,199.999990463257,2|8,0:0|0:0,0:0:0:0:
302,294,7402,2,0,P|209:266|189:164,1,199.999990463257,8|0,0:0|0:0,0:0:0:0:
207,129,8264,1,0,0:0:0:0:
282,198,8609,2,0,P|303:160|308:134,1,49.9999976158143,2|8,0:0|0:0,0:0:0:0:
309,104,8953,6,0,B|350:74|350:74|376:79|395:92|395:92|434:60|434:60|461:63|481:80,1,199.999990463257,2|8,0:0|0:0,0:0:0:0:
407,210,10160,1,8,0:0:0:0:
256,210,10677,2,0,L|194:210,1,49.9999976158143,0|2,0:0|0:0,0:0:0:0:
161,233,11022,2,0,P|176:178|151:129,1,99.9999952316285,0|8,0:0|0:0,0:0:0:0:
73,188,11712,6,0,P|89:304|165:332,1,199.999990463257,2|8,0:0|0:0,0:0:0:0:
256,222,12919,1,8,0:0:0:0:
356,332,13436,2,0,P|438:283|439:188,1,199.999990463257,2|0,0:0|0:0,0:0:0:0:
402,94,14471,6,0,P|449:87|502:110,2,99.9999952316285,0|0|8,0:0|0:0|0:0,0:0:0:0:
351,233,15677,1,8,0:0:0:0:
220,158,16195,2,0,L|162:159,1,49.9999976158143,2|2,0:0|0:0,0:0:0:0:
126,133,16540,2,0,L|126:233,1,99.9999952316285,2|2,0:0|0:0,0:0:0:0:
211,285,17229,6,0,P|117:331|37:278,1,199.999990463257,2|8,0:0|0:0,0:0:0:0:
127,163,18436,2,0,B|172:153|182:163|190:172|237:160,1,99.9999952316285,8|0,0:0|0:0,0:0:0:0:
274,148,18953,1,0,0:0:0:0:
374,148,19298,1,0,0:0:0:0:
374,248,19643,1,2,0:0:0:0:
273,248,19988,6,0,B|250:261|239:286|239:286|190:292|190:292|185:318|168:336|168:336|110:342,1,199.999990463257,2|8,0:0|0:0,0:0:0:0:
34,287,21022,2,0,L|28:220,1,49.9999976158143,0|8,0:0|0:0,0:0:0:0:
165,172,21712,2,0,P|202:202|260:207,2,99.9999952316285,8|8|8,0:0|0:0|0:0,0:0:0:0:
141,74,22746,6,0,P|215:29|233:123,1,199.999990463257,6|8,0:0|0:0,0:0:0:0:
140,222,23953,1,8,0:0:0:0:
38,111,24471,2,0,P|39:50|54:9,2,99.9999952316285,2|0|0,0:0|0:0|0:0,0:0:0:0:
105,184,25505,6,0,B|184:218|206:189|228:161|306:192,1,199.999990463257,0|8,0:0|0:0,0:0:0:0:
400,300,26712,1,8,0:0:0:0:
268,372,27229,2,0,P|249:312|258:257,1,99.9999952316285,2|0,0:0|0:0,0:0:0:0:
298,189,27919,1,0,0:0:0:0:
354,106,28264,6,0,P|395:164|345:279,1,199.999990463257,2|8,0:0|0:0,0:0:0:0:
211,250,29471,2,0,P|200:147|294:189,1,249.999988079071,8|0,0:0|0:0,0:0:0:0:
303,289,30677,2,0,P|287:322|264:339,1,49.9999976158143,2|0,0:0|0:0,0:0:0:0:
228,339,31022,6,0,B|180:353|180:353|163:334|138:324|138:324|93:339|93:339|70:322|36:318,1,199.999990463257,2|8,0:0|0:0,0:0:0:0:
157,218,32229,2,0,P|172:182|169:114,1,99.9999952316285,8|0,0:0|0:0,0:0:0:0:
157,73,32746,2,0,B|107:86|107:86|58:73,2,99.9999952316285,0|0|0,0:0|0:0|0:0,0:0:0:0:
252,41,33781,6,0,P|298:36|384:156,1,199.999990463257,2|8,0:0|0:0,0:0:0:0:
329,283,34988,1,8,0:0:0:0:
284,138,35505,1,2,0:0:0:0:
243,229,35850,2,0,P|203:239|157:239,2,74.9999964237214,0|0|0,0:0|0:0|0:0,0:0:0:0:
282,198,36540,6,0,B|292:128|268:101|246:72|270:0,1,199.999990463257,0|8,0:0|0:0,0:0:0:0:
410,52,37746,1,8,0:0:0:0:
299,154,38264,2,0,L|240:154,1,49.9999976158143,2|2,0:0|0:0,0:0:0:0:
202,135,38609,2,0,P|217:194|208:249,1,99.9999952316285,2|0,0:0|0:0,0:0:0:0:
155,314,39298,6,0,P|77:272|131:194,1,199.999990463257,2|8,0:0|0:0,0:0:0:0:
260,257,40505,2,0,B|355:222|355:222|418:240,1,149.999992847443,8|0,0:0|0:0,0:0:0:0:
497,266,41367,1,0,0:0:0:0:
477,167,41712,2,0,L|494:109,1,49.9999976158143,2|0,0:0|0:0,0:0:0:0:
508,71,42057,6,0,B|498:47|475:30|475:30|426:39|426:39|412:19|389:9|389:9|326:24,1,199.999990463257,2|8,0:0|0:0,0:0:0:0:
197,60,43264,2,0,L|144:75,1,49.9999976158143,8|0,0:0|0:0,0:0:0:0:
94,157,43781,2,0,P|40:147|-15:170,2,99.9999952316285,8|8|8,0:0|0:0|0:0,0:0:0:0:
146,242,44815,5,4,0:0:0:0:
