osu file format v14

[General]
AudioFilename: audio.mp3
AudioLeadIn: 0
PreviewTime: 333
Countdown: 0
SampleSet: Soft
StackLeniency: 0.7
Mode: 0
LetterboxInBreaks: 0
WidescreenStoryboard: 1

[Editor]
Bookmarks: 22746,44815
DistanceSpacing: 1.4
BeatDivisor: 8
GridSize: 32
TimelineZoom: 1

[Metadata]
Title:Fairytale
TitleUnicode:Fairytale
Artist:rionos
ArtistUnicode:rionos
Creator:guineaQ
Version:Hyper
Source:
Tags:
BeatmapID:1745177
BeatmapSetID:833139

[Difficulty]
HPDrainRate:5
CircleSize:4
OverallDifficulty:6
ApproachRate:8
SliderMultiplier:2.79999990463257
SliderTickRate:1

[Events]
//Background and Video events
0,0,"49566422_p0.png",0,0
//Break Periods
//Storyboard Layer 0 (Background)
Sprite,Background,Centre,"sb/pop.png",173,340 S,2,22741,23046,0.2,0.9 S,1,23046,23646,0.9,1 F,2,23046,23646,1,0 P,0,22741,23690,A C,0,22741,,23,209,116
Sprite,Background,Centre,"sb/pop.png",395,263 S,2,25500,25805,0.2,0.9 S,1,25805,26405,0.9,1 F,2,25805,26405,1,0 P,0,25500,26449,A C,0,25500,,26,116,242
Sprite,Background,Centre,"sb/pop.png",346,170 S,2,28259,28564,0.2,0.9 S,1,28564,29164,0.9,1 F,2,28564,29164,1,0 P,0,28259,29208,A C,0,28259,,37,185,239
Sprite,Background,Centre,"sb/pop.png",269,138 S,2,31017,31322,0.2,0.9 S,1,31322,31922,0.9,1 F,2,31322,31922,1,0 P,0,31017,31622,A C,0,31017,,226,45,124
Sprite,Background,Centre,"sb/pop.png",245,182 S,2,33776,34081,0.2,0.9 S,1,34081,34681,0.9,1 F,2,34081,34681,1,0 P,0,33776,34725,A C,0,33776,,164,32,240
Sprite,Background,Centre,"sb/pop.png",360,133 S,2,36535,36840,0.2,0.9 S,1,36840,37440,0.9,1 F,2,36840,37440,1,0 P,0,36535,37484,A C,0,36535,,23,209,116
Sprite,Background,Centre,"sb/pop.png",252,290 S,2,39293,39598,0.2,0.9 S,1,39598,40198,0.9,1 F,2,39598,40198,1,0 P,0,39293,40242,A C,0,39293,,26,116,242
Sprite,Background,Centre,"sb/pop.png",310,206 S,2,42052,42357,0.2,0.9 S,1,42357,42957,0.9,1 F,2,42357,42957,1,0 P,0,42052,42657,A C,0,42052,,37,185,239
Sprite,Background,Centre,"sb/pop.png",137,355 S,2,44810,45115,0.2,0.9 S,1,45115,45715,0.9,1 F,2,45115,45715,1,0 P,0,44810,45415,A C,0,44810,,226,45,124
//Storyboard Layer 1 (Fail)
//Storyboard Layer 2 (Pass)
//Storyboard Layer 3 (Foreground)
//Storyboard Sound Samples

[TimingPoints]
678,689.655172413793,4,2,1,30,1,0

[Colours]
Combo1 : 26,116,242
Combo2 : 164,32,240
Combo3 : 37,185,239
Combo4 : 23,209,116
Combo5 : 226,45,124

[HitObjects]
262,246,333,6,0,P|257:201|269:146,1,69.9999976158142,0|0,0:0|0:0,0:0:0:0:
315,95,678,6,0,P|233:133|170:123,1,139.999995231628,6|0,0:0|0:0,0:0:0:0:
104,72,1195,1,0,0:0:0:0:
128,213,1367,1,8,0:0:0:0:
128,213,1540,2,0,L|128:286,1,69.9999976158142,0|2,0:0|0:0,0:0:0:0:
43,159,1884,6,0,L|43:75,1,69.9999976158142,8|0,0:0|0:0,0:0:0:0:
128,39,2229,1,0,0:0:0:0:
180,122,2402,2,0,P|225:116|269:116,1,69.9999976158142,2|0,0:0|0:0,0:0:0:0:
322,180,2746,2,0,P|328:225|328:269,1,69.9999976158142,0|0,0:0|0:0,0:0:0:0:
259,359,3091,1,8,0:0:0:0:
251,231,3264,1,8,0:0:0:0:
382,310,3436,6,0,P|435:290|494:217,1,139.999995231628,0|0,0:0|0:0,0:0:0:0:
461,134,3953,1,0,0:0:0:0:
423,13,4126,1,8,0:0:0:0:
423,13,4298,2,0,L|335:24,1,69.9999976158142,0|2,0:0|0:0,0:0:0:0:
264,97,4643,6,0,L|352:108,1,69.9999976158142,8|0,0:0|0:0,0:0:0:0:
283,190,4988,2,0,P|297:231|299:268,1,69.9999976158142,0|0,0:0|0:0,0:0:0:0:
201,247,5333,1,2,0:0:0:0:
182,151,5505,2,0,P|217:106|250:89,1,69.9999976158142,2|0,0:0|0:0,0:0:0:0:
283,190,5850,1,2,0:0:0:0:
283,190,6022,1,2,0:0:0:0:
129,212,6195,6,0,P|95:173|93:67,2,139.999995231629,2|0|8,0:0|0:0|0:0,0:0:0:0:
251,268,7057,2,0,P|262:227|259:183,1,69.9999976158143,0|0,0:0|0:0,0:0:0:0:
194,53,7402,6,0,P|184:87|184:122,1,69.9999976158143,8|0,0:0|0:0,0:0:0:0:
280,104,7746,2,0,P|322:97|360:96,2,69.9999976158143,0|0|0,0:0|0:0|0:0,0:0:0:0:
212,175,8264,1,0,0:0:0:0:
365,296,8609,1,2,0:0:0:0:
365,296,8781,1,8,0:0:0:0:
433,225,8953,5,2,0:0:0:0:
433,225,9126,1,2,0:0:0:0:
359,160,9298,1,2,0:0:0:0:
359,160,9471,1,2,0:0:0:0:
291,231,9643,2,0,P|223:250|154:224,1,139.999995231629,8|0,0:0|0:0,0:0:0:0:
228,135,10160,6,0,P|211:102|211:49,2,69.9999976158143,8|0|0,0:0|0:0|0:0,0:0:0:0:
311,186,10677,1,0,0:0:0:0:
344,57,10850,1,2,0:0:0:0:
267,104,11022,1,0,0:0:0:0:
391,136,11195,2,0,L|471:126,1,69.9999976158143,8|8,0:0|0:0,0:0:0:0:
344,57,11540,1,0,0:0:0:0:
311,186,11712,6,0,P|313:249|360:345,1,139.999995231629,2|0,0:0|0:0,0:0:0:0:
394,237,12229,1,0,0:0:0:0:
239,276,12402,1,8,0:0:0:0:
239,276,12574,2,0,L|162:267,1,69.9999976158143,0|0,0:0|0:0,0:0:0:0:
51,196,12919,6,0,L|128:187,1,69.9999976158143,8|0,0:0|0:0,0:0:0:0:
200,131,13264,1,0,0:0:0:0:
156,43,13436,2,0,P|107:98|104:119,1,69.9999976158143,2|0,0:0|0:0,0:0:0:0:
198,210,13781,2,0,P|206:257|207:291,2,69.9999976158143,0|0|0,0:0|0:0|0:0,0:0:0:0:
138,131,14298,1,0,0:0:0:0:
64,249,14471,6,0,P|63:319|137:344,2,139.999995231629,0|0|8,0:0|0:0|0:0,0:0:0:0:
158,223,15333,2,0,L|237:234,1,69.9999976158143,0|0,0:0|0:0,0:0:0:0:
353,164,15677,6,0,L|274:175,1,69.9999976158143,8|0,0:0|0:0,0:0:0:0:
194,132,16022,1,0,0:0:0:0:
299,45,16195,1,2,0:0:0:0:
299,45,16367,1,2,0:0:0:0:
424,116,16540,2,0,L|435:193,1,69.9999976158143,2|2,0:0|0:0,0:0:0:0:
367,256,16884,2,0,L|356:333,1,69.9999976158143,2|0,0:0|0:0,0:0:0:0:
433,185,17229,6,0,P|374:158|300:186,1,139.999995231629,2|0,0:0|0:0,0:0:0:0:
234,248,17746,1,0,0:0:0:0:
116,150,17919,2,0,P|112:109|122:68,2,69.9999976158143,8|0|0,0:0|0:0|0:0,0:0:0:0:
234,248,18436,6,0,P|239:282|235:317,1,69.9999976158143,8|0,0:0|0:0,0:0:0:0:
142,284,18781,2,0,P|114:312|75:325,2,69.9999976158143,0|0|0,0:0|0:0|0:0,0:0:0:0:
161,187,19298,1,0,0:0:0:0:
334,278,19643,2,0,L|413:266,1,69.9999976158143,2|0,0:0|0:0,0:0:0:0:
272,197,19988,5,2,0:0:0:0:
272,197,20160,1,2,0:0:0:0:
234,288,20333,1,2,0:0:0:0:
234,288,20505,1,2,0:0:0:0:
362,196,20677,2,0,P|335:133|256:105,1,139.999995231629,8|0,0:0|0:0,0:0:0:0:
317,274,21195,2,0,P|351:287|402:278,1,69.9999976158143,8|0,0:0|0:0,0:0:0:0:
272,197,21712,6,0,L|220:206,3,34.9999988079071,8|8|8|8,0:0|0:0|0:0|0:0,0:0:0:0:
197,174,22057,2,0,L|124:185,1,69.9999976158143,8|8,0:0|0:0,0:0:0:0:
42,233,22402,2,0,L|31:160,1,69.9999976158143,8|8,0:0|0:0,0:0:0:0:
109,284,22746,6,0,L|260:260,1,139.999995231629,6|0,0:0|0:0,0:0:0:0:
331,207,23264,1,0,0:0:0:0:
197,174,23436,1,8,0:0:0:0:
282,124,23609,2,0,P|299:81|301:48,1,69.9999976158143,0|0,0:0|0:0,0:0:0:0:
197,174,23953,6,0,P|154:157|121:155,2,69.9999976158143,8|0|8,0:0|0:0|0:0,0:0:0:0:
262,290,24471,2,0,L|264:369,1,69.9999976158143,2|0,0:0|0:0,0:0:0:0:
141,304,24815,2,0,L|142:234,2,69.9999976158143,0|0|0,0:0|0:0|0:0,0:0:0:0:
331,207,25505,6,0,P|382:198|489:214,1,139.999995231629,0|0,0:0|0:0,0:0:0:0:
400,278,26022,1,0,0:0:0:0:
249,221,26195,1,8,0:0:0:0:
249,221,26367,2,0,L|268:143,1,69.9999976158143,0|0,0:0|0:0,0:0:0:0:
207,24,26712,6,0,L|190:92,2,69.9999976158143,8|0|0,0:0|0:0|0:0,0:0:0:0:
305,24,27229,1,2,0:0:0:0:
305,24,27402,1,2,0:0:0:0:
374,93,27574,2,0,P|413:99|457:126,1,69.9999976158143,0|0,0:0|0:0,0:0:0:0:
414,207,27919,2,0,P|375:201|331:174,1,69.9999976158143,0|0,0:0|0:0,0:0:0:0:
282,114,28264,6,0,P|251:175|274:254,1,139.999995231629,2|0,0:0|0:0,0:0:0:0:
320,324,28781,1,0,0:0:0:0:
347,187,28953,1,8,0:0:0:0:
282,114,29126,2,0,L|201:120,1,69.9999976158143,0|0,0:0|0:0,0:0:0:0:
90,183,29471,6,0,L|171:189,1,69.9999976158143,8|0,0:0|0:0,0:0:0:0:
235,250,29815,2,0,P|244:294|242:329,1,69.9999976158143,0|0,0:0|0:0,0:0:0:0:
151,284,30160,2,0,P|138:327|122:357,1,69.9999976158143,0|0,0:0|0:0,0:0:0:0:
90,183,30677,2,0,P|103:140|119:110,1,69.9999976158143,2|0,0:0|0:0,0:0:0:0:
205,82,31022,5,2,0:0:0:0:
205,82,31195,1,2,0:0:0:0:
293,40,31367,1,2,0:0:0:0:
293,40,31540,1,2,0:0:0:0:
251,166,31712,2,0,P|181:174|121:125,1,139.999995231629,8|0,0:0|0:0,0:0:0:0:
277,95,32229,6,0,P|306:113|329:166,1,69.9999976158143,8|0,0:0|0:0,0:0:0:0:
205,82,32574,2,0,P|234:34|266:23,2,69.9999976158143,0|0|2,0:0|0:0|0:0,0:0:0:0:
251,166,33091,2,0,L|251:251,1,69.9999976158143,0|8,0:0|0:0,0:0:0:0:
203,321,33436,1,0,0:0:0:0:
181,126,33781,6,0,P|254:115|343:133,1,139.999995231629,2|0,0:0|0:0,0:0:0:0:
399,180,34298,1,0,0:0:0:0:
292,286,34471,2,0,P|296:251|311:219,1,69.9999976158143,8|0,0:0|0:0,0:0:0:0:
399,180,34815,1,0,0:0:0:0:
456,260,34988,6,0,P|425:276|391:278,1,69.9999976158143,8|0,0:0|0:0,0:0:0:0:
311,219,35333,1,0,0:0:0:0:
399,180,35505,2,0,L|411:104,1,69.9999976158143,2|0,0:0|0:0,0:0:0:0:
375,18,35850,2,0,L|497:38,2,104.999996423721,0|0|0,0:0|0:0|0:0,0:0:0:0:
296,77,36540,6,0,B|255:102|224:81|195:55|137:95,1,139.999995231629,0|0,0:0|0:0,0:0:0:0:
73,128,37057,1,0,0:0:0:0:
194,181,37229,2,0,P|204:228|198:261,1,69.9999976158143,8|0,0:0|0:0,0:0:0:0:
107,228,37574,1,0,0:0:0:0:
152,113,37746,6,0,P|190:101|232:108,2,69.9999976158143,8|0|0,0:0|0:0|0:0,0:0:0:0:
107,228,38264,1,2,0:0:0:0:
194,181,38436,1,2,0:0:0:0:
77,152,38609,2,0,L|-2:152,1,69.9999976158143,2|0,0:0|0:0,0:0:0:0:
107,228,38953,2,0,P|80:256|64:289,1,69.9999976158143,0|0,0:0|0:0,0:0:0:0:
188,234,39298,6,0,P|176:287|188:373,1,139.999995231629,2|0,0:0|0:0,0:0:0:0:
259,304,39815,1,0,0:0:0:0:
243,177,39988,2,0,P|204:159|168:160,2,69.9999976158143,8|0|0,0:0|0:0|0:0,0:0:0:0:
259,304,40505,6,0,P|298:322|334:321,1,69.9999976158143,8|0,0:0|0:0,0:0:0:0:
418,294,40850,2,0,L|495:294,2,69.9999976158143,0|0|0,0:0|0:0|0:0,0:0:0:0:
312,236,41367,1,0,0:0:0:0:
394,84,41712,1,2,0:0:0:0:
246,150,42057,5,2,0:0:0:0:
246,150,42229,1,2,0:0:0:0:
295,65,42402,1,2,0:0:0:0:
295,65,42574,1,2,0:0:0:0:
404,191,42746,2,0,P|413:248|357:328,1,139.999995231629,8|0,0:0|0:0,0:0:0:0:
312,236,43264,6,0,P|277:237|245:253,2,69.9999976158143,8|0|0,0:0|0:0|0:0,0:0:0:0:
301,336,43781,2,0,P|234:352|160:300,1,139.999995231629,8|8,0:0|0:0,0:0:0:0:
140,227,44298,2,0,P|138:192|122:160,2,69.9999976158143,0|8|0,0:0|0:0|0:0,0:0:0:0:
73,299,44815,5,4,0:0:0:0:
